  0
SECTION
  2
HEADER
  9
$ACADVER
  1
AC1015
  9
$ACADMAINTVER
 70
    20
  9
$DWGCODEPAGE
  3
ANSI_1252
  9
$INSBASE
 10
0.0
 20
0.0
 30
0.0
  9
$EXTMIN
 10
0.3352058319999974
 20
0.3983463414634101
 30
-0.0000000000000586
  9
$EXTMAX
 10
10.800005832
 20
8.323146341463413
 30
0.0
  9
$LIMMIN
 10
0.0
 20
0.0
  9
$LIMMAX
 10
11.176
 20
8.635999999999999
  9
$ORTHOMODE
 70
     0
  9
$REGENMODE
 70
     1
  9
$FILLMODE
 70
     1
  9
$QTEXTMODE
 70
     0
  9
$MIRRTEXT
 70
     1
  9
$LTSCALE
 40
0.04
  9
$ATTMODE
 70
     1
  9
$TEXTSIZE
 40
0.1552222222222222
  9
$TRACEWID
 40
1.0
  9
$TEXTSTYLE
  7
Standard
  9
$CLAYER
  8
0
  9
$CELTYPE
  6
ByLayer
  9
$CECOLOR
 62
   256
  9
$CELTSCALE
 40
1.0
  9
$DISPSILH
 70
     0
  9
$DIMSCALE
 40
1.0
  9
$DIMASZ
 40
0.08
  9
$DIMEXO
 40
0.06
  9
$DIMDLI
 40
3.75
  9
$DIMRND
 40
0.0
  9
$DIMDLE
 40
0.0
  9
$DIMEXE
 40
0.08
  9
$DIMTP
 40
0.0
  9
$DIMTM
 40
0.0
  9
$DIMTXT
 40
0.1411111111111111
  9
$DIMCEN
 40
2.5
  9
$DIMTSZ
 40
0.0
  9
$DIMTOL
 70
     0
  9
$DIMLIM
 70
     0
  9
$DIMTIH
 70
     1
  9
$DIMTOH
 70
     1
  9
$DIMSE1
 70
     0
  9
$DIMSE2
 70
     0
  9
$DIMTAD
 70
     0
  9
$DIMZIN
 70
     0
  9
$DIMBLK
  1

  9
$DIMASO
 70
     1
  9
$DIMSHO
 70
     1
  9
$DIMPOST
  1

  9
$DIMAPOST
  1

  9
$DIMALT
 70
     0
  9
$DIMALTD
 70
     3
  9
$DIMALTF
 40
0.0393700787401575
  9
$DIMLFAC
 40
1.0
  9
$DIMTOFL
 70
     1
  9
$DIMTVP
 40
0.0
  9
$DIMTIX
 70
     0
  9
$DIMSOXD
 70
     0
  9
$DIMSAH
 70
     0
  9
$DIMBLK1
  1

  9
$DIMBLK2
  1

  9
$DIMSTYLE
  2
ISO-25
  9
$DIMCLRD
 70
     0
  9
$DIMCLRE
 70
     0
  9
$DIMCLRT
 70
     0
  9
$DIMTFAC
 40
1.0
  9
$DIMGAP
 40
0.04
  9
$DIMJUST
 70
     0
  9
$DIMSD1
 70
     0
  9
$DIMSD2
 70
     0
  9
$DIMTOLJ
 70
     0
  9
$DIMTZIN
 70
     0
  9
$DIMALTZ
 70
     0
  9
$DIMALTTZ
 70
     0
  9
$DIMUPT
 70
     0
  9
$DIMDEC
 70
     1
  9
$DIMTDEC
 70
     1
  9
$DIMALTU
 70
     2
  9
$DIMALTTD
 70
     3
  9
$DIMTXSTY
  7
Standard
  9
$DIMAUNIT
 70
     0
  9
$DIMADEC
 70
     1
  9
$DIMALTRND
 40
0.0
  9
$DIMAZIN
 70
     0
  9
$DIMDSEP
 70
    44
  9
$DIMATFIT
 70
     3
  9
$DIMFRAC
 70
     0
  9
$DIMLDRBLK
  1

  9
$DIMLUNIT
 70
     2
  9
$DIMLWD
 70
    -2
  9
$DIMLWE
 70
    -2
  9
$DIMTMOVE
 70
     0
  9
$LUNITS
 70
     2
  9
$LUPREC
 70
     1
  9
$SKETCHINC
 40
1.0
  9
$FILLETRAD
 40
10.0
  9
$AUNITS
 70
     0
  9
$AUPREC
 70
     1
  9
$MENU
  1
.
  9
$ELEVATION
 40
0.0
  9
$PELEVATION
 40
0.0
  9
$THICKNESS
 40
0.0
  9
$LIMCHECK
 70
     0
  9
$CHAMFERA
 40
10.0
  9
$CHAMFERB
 40
10.0
  9
$CHAMFERC
 40
20.0
  9
$CHAMFERD
 40
0.0
  9
$SKPOLY
 70
     0
  9
$TDCREATE
 40
2456272.496810348
  9
$TDUCREATE
 40
2456272.830143680
  9
$TDUPDATE
 40
2456272.501053009
  9
$TDUUPDATE
 40
2456272.834386343
  9
$TDINDWG
 40
0.0001610880
  9
$TDUSRTIMER
 40
0.0001610880
  9
$USRTIMER
 70
     1
  9
$ANGBASE
 50
0.0
  9
$ANGDIR
 70
     0
  9
$PDMODE
 70
     0
  9
$PDSIZE
 40
-1.0
  9
$PLINEWID
 40
0.0
  9
$SPLFRAME
 70
     0
  9
$SPLINETYPE
 70
     6
  9
$SPLINESEGS
 70
     8
  9
$HANDSEED
  5
31B
  9
$SURFTAB1
 70
     6
  9
$SURFTAB2
 70
     6
  9
$SURFTYPE
 70
     6
  9
$SURFU
 70
     6
  9
$SURFV
 70
     6
  9
$UCSBASE
  2

  9
$UCSNAME
  2

  9
$UCSORG
 10
0.0
 20
0.0
 30
0.0
  9
$UCSXDIR
 10
1.0
 20
0.0
 30
0.0
  9
$UCSYDIR
 10
0.0
 20
1.0
 30
0.0
  9
$UCSORTHOREF
  2

  9
$UCSORTHOVIEW
 70
     0
  9
$UCSORGTOP
 10
0.0
 20
0.0
 30
0.0
  9
$UCSORGBOTTOM
 10
0.0
 20
0.0
 30
0.0
  9
$UCSORGLEFT
 10
0.0
 20
0.0
 30
0.0
  9
$UCSORGRIGHT
 10
0.0
 20
0.0
 30
0.0
  9
$UCSORGFRONT
 10
0.0
 20
0.0
 30
0.0
  9
$UCSORGBACK
 10
0.0
 20
0.0
 30
0.0
  9
$PUCSBASE
  2

  9
$PUCSNAME
  2

  9
$PUCSORG
 10
0.0
 20
0.0
 30
0.0
  9
$PUCSXDIR
 10
1.0
 20
0.0
 30
0.0
  9
$PUCSYDIR
 10
0.0
 20
1.0
 30
0.0
  9
$PUCSORTHOREF
  2

  9
$PUCSORTHOVIEW
 70
     0
  9
$PUCSORGTOP
 10
0.0
 20
0.0
 30
0.0
  9
$PUCSORGBOTTOM
 10
0.0
 20
0.0
 30
0.0
  9
$PUCSORGLEFT
 10
0.0
 20
0.0
 30
0.0
  9
$PUCSORGRIGHT
 10
0.0
 20
0.0
 30
0.0
  9
$PUCSORGFRONT
 10
0.0
 20
0.0
 30
0.0
  9
$PUCSORGBACK
 10
0.0
 20
0.0
 30
0.0
  9
$USERI1
 70
     0
  9
$USERI2
 70
     0
  9
$USERI3
 70
     0
  9
$USERI4
 70
     0
  9
$USERI5
 70
     0
  9
$USERR1
 40
0.0
  9
$USERR2
 40
0.0
  9
$USERR3
 40
0.0
  9
$USERR4
 40
0.0
  9
$USERR5
 40
0.0
  9
$WORLDVIEW
 70
     1
  9
$SHADEDGE
 70
     3
  9
$SHADEDIF
 70
    70
  9
$TILEMODE
 70
     1
  9
$MAXACTVP
 70
    64
  9
$PINSBASE
 10
0.0
 20
0.0
 30
0.0
  9
$PLIMCHECK
 70
     0
  9
$PEXTMIN
 10
1.000000000000000E+20
 20
1.000000000000000E+20
 30
1.000000000000000E+20
  9
$PEXTMAX
 10
-1.000000000000000E+20
 20
-1.000000000000000E+20
 30
-1.000000000000000E+20
  9
$PLIMMIN
 10
0.0
 20
0.0
  9
$PLIMMAX
 10
420.0
 20
297.0
  9
$UNITMODE
 70
     0
  9
$VISRETAIN
 70
     1
  9
$PLINEGEN
 70
     0
  9
$PSLTSCALE
 70
     1
  9
$TREEDEPTH
 70
  3020
  9
$CMLSTYLE
  2
Standard
  9
$CMLJUST
 70
     0
  9
$CMLSCALE
 40
20.0
  9
$PROXYGRAPHICS
 70
     1
  9
$MEASUREMENT
 70
     1
  9
$CELWEIGHT
370
    -1
  9
$ENDCAPS
280
     0
  9
$JOINSTYLE
280
     0
  9
$LWDISPLAY
290
     1
  9
$INSUNITS
 70
     4
  9
$HYPERLINKBASE
  1

  9
$STYLESHEET
  1

  9
$XEDIT
290
     1
  9
$CEPSNTYPE
380
     0
  9
$PSTYLEMODE
290
     1
  9
$FINGERPRINTGUID
  2
{AC1D3A2F-1911-4F1A-9FE7-DADA2F20F694}
  9
$VERSIONGUID
  2
{FAEB1C32-E019-11D5-929B-00C0DF256EC4}
  9
$EXTNAMES
290
     1
  9
$PSVPSCALE
 40
0.0
  9
$OLESTARTUP
290
     0
  0
ENDSEC
  0
SECTION
  2
CLASSES
  0
CLASS
  1
ACDBDICTIONARYWDFLT
  2
AcDbDictionaryWithDefault
  3
ObjectDBX Classes
 90
        0
280
     0
281
     0
  0
CLASS
  1
VISUALSTYLE
  2
AcDbVisualStyle
  3
ObjectDBX Classes
 90
     4095
280
     0
281
     0
  0
CLASS
  1
MATERIAL
  2
AcDbMaterial
  3
ObjectDBX Classes
 90
     1153
280
     0
281
     0
  0
CLASS
  1
SCALE
  2
AcDbScale
  3
ObjectDBX Classes
 90
     1153
280
     0
281
     0
  0
CLASS
  1
DICTIONARYVAR
  2
AcDbDictionaryVar
  3
ObjectDBX Classes
 90
        0
280
     0
281
     0
  0
CLASS
  1
TABLESTYLE
  2
AcDbTableStyle
  3
ObjectDBX Classes
 90
     4095
280
     0
281
     0
  0
CLASS
  1
MLEADERSTYLE
  2
AcDbMLeaderStyle
  3
ACDB_MLEADERSTYLE_CLASS
 90
     4095
280
     0
281
     0
  0
CLASS
  1
CELLSTYLEMAP
  2
AcDbCellStyleMap
  3
ObjectDBX Classes
 90
     1152
280
     0
281
     0
  0
CLASS
  1
ACDBPLACEHOLDER
  2
AcDbPlaceHolder
  3
ObjectDBX Classes
 90
        0
280
     0
281
     0
  0
CLASS
  1
LAYOUT
  2
AcDbLayout
  3
ObjectDBX Classes
 90
        0
280
     0
281
     0
  0
ENDSEC
  0
SECTION
  2
TABLES
  0
TABLE
  2
VPORT
  5
8
330
0
100
AcDbSymbolTable
 70
     1
  0
VPORT
  5
29
330
8
100
AcDbSymbolTableRecord
100
AcDbViewportTableRecord
  2
*Active
 70
     0
 10
0.0
 20
0.0
 11
1.0
 21
1.0
 12
7.110005235602093
 22
4.317999999999999
 13
0.0
 23
0.0
 14
10.0
 24
10.0
 15
10.0
 25
10.0
 16
0.0
 26
0.0
 36
1.0
 17
0.0
 27
0.0
 37
0.0
 40
8.635999999999999
 41
1.646596858638743
 42
50.0
 43
0.0
 44
0.0
 50
0.0
 51
0.0
 71
     0
 72
  2000
 73
     1
 74
     3
 75
     0
 76
     0
 77
     0
 78
     0
281
     0
 65
     1
110
0.0
120
0.0
130
0.0
111
1.0
121
0.0
131
0.0
112
0.0
122
1.0
132
0.0
 79
     0
146
0.0
  0
ENDTAB
  0
TABLE
  2
LTYPE
  5
5
330
0
100
AcDbSymbolTable
 70
     6
  0
LTYPE
  5
14
330
5
100
AcDbSymbolTableRecord
100
AcDbLinetypeTableRecord
  2
ByBlock
 70
     0
  3

 72
    65
 73
     0
 40
0.0
  0
LTYPE
  5
15
330
5
100
AcDbSymbolTableRecord
100
AcDbLinetypeTableRecord
  2
ByLayer
 70
     0
  3

 72
    65
 73
     0
 40
0.0
  0
LTYPE
  5
16
330
5
100
AcDbSymbolTableRecord
100
AcDbLinetypeTableRecord
  2
Continuous
 70
     0
  3
Solid line
 72
    65
 73
     0
 40
0.0
  0
LTYPE
  5
3F
330
5
100
AcDbSymbolTableRecord
100
AcDbLinetypeTableRecord
  2
HIDDEN
 70
     0
  3
Hidden __ __ __ __ __ __ __ __ __ __ __ __ __ __
 72
    65
 73
     2
 40
1.905
 49
1.27
 74
     0
 49
-0.635
 74
     0
  0
LTYPE
  5
40
330
5
100
AcDbSymbolTableRecord
100
AcDbLinetypeTableRecord
  2
PHANTOM
 70
     0
  3
Phantom ______  __  __  ______  __  __  ______
 72
    65
 73
     6
 40
12.7
 49
6.349999999999999
 74
     0
 49
-1.27
 74
     0
 49
1.27
 74
     0
 49
-1.27
 74
     0
 49
1.27
 74
     0
 49
-1.27
 74
     0
  0
LTYPE
  5
41
330
5
100
AcDbSymbolTableRecord
100
AcDbLinetypeTableRecord
  2
CENTER
 70
     0
  3
Center ____ _ ____ _ ____ _ ____ _ ____ _ ____
 72
    65
 73
     4
 40
10.16
 49
6.349999999999999
 74
     0
 49
-1.27
 74
     0
 49
1.27
 74
     0
 49
-1.27
 74
     0
  0
LTYPE
  5
42
330
5
100
AcDbSymbolTableRecord
100
AcDbLinetypeTableRecord
  2
CENTERX2
 70
     0
  3
Center (2x) ________  __  ________  __  _____
 72
    65
 73
     4
 40
20.32
 49
12.7
 74
     0
 49
-2.54
 74
     0
 49
2.54
 74
     0
 49
-2.54
 74
     0
  0
LTYPE
  5
43
330
5
100
AcDbSymbolTableRecord
100
AcDbLinetypeTableRecord
  2
DOT2
 70
     0
  3
Dot (.5x) ........................................
 72
    65
 73
     2
 40
0.635
 49
0.0
 74
     0
 49
-0.635
 74
     0
  0
ENDTAB
  0
TABLE
  2
LAYER
  5
2
330
0
100
AcDbSymbolTable
 70
     2
  0
LAYER
  5
10
330
2
100
AcDbSymbolTableRecord
100
AcDbLayerTableRecord
  2
0
 70
     0
 62
     7
  6
Continuous
370
    -3
390
F
  0
LAYER
  5
44
330
2
100
AcDbSymbolTableRecord
100
AcDbLayerTableRecord
  2
FORMAT
 70
     0
 62
     7
  6
Continuous
370
    -3
390
F
  0
ENDTAB
  0
TABLE
  2
STYLE
  5
3
330
0
100
AcDbSymbolTable
 70
     6
  0
STYLE
  5
11
330
3
100
AcDbSymbolTableRecord
100
AcDbTextStyleTableRecord
  2
Standard
 70
     0
 40
0.0
 41
1.0
 50
0.0
 71
     0
 42
0.1552222222222222
  3
txt
  4

  0
STYLE
  5
65
330
3
100
AcDbSymbolTableRecord
100
AcDbTextStyleTableRecord
  2
SLDTEXTSTYLE0
 70
     0
 40
0.0
 41
0.75
 50
0.0
 71
     0
 42
0.2
  3
TXT
  4

  0
STYLE
  5
95
330
3
100
AcDbSymbolTableRecord
100
AcDbTextStyleTableRecord
  2
SLDTEXTSTYLE1
 70
     0
 40
0.0
 41
0.6875
 50
0.0
 71
     0
 42
0.2
  3
TXT
  4

  0
STYLE
  5
98
330
3
100
AcDbSymbolTableRecord
100
AcDbTextStyleTableRecord
  2
SLDTEXTSTYLE2
 70
     0
 40
0.0
 41
0.6944444444444445
 50
0.0
 71
     0
 42
0.2
  3
TXT
  4

  0
STYLE
  5
A7
330
3
100
AcDbSymbolTableRecord
100
AcDbTextStyleTableRecord
  2
SLDTEXTSTYLE3
 70
     0
 40
0.0
 41
0.605
 50
0.0
 71
     0
 42
0.2
  3
TXT
  4

  0
STYLE
  5
1D0
330
3
100
AcDbSymbolTableRecord
100
AcDbTextStyleTableRecord
  2
SLDTEXTSTYLE4
 70
     0
 40
0.0
 41
0.6923076923076924
 50
0.0
 71
     0
 42
0.2
  3
TXT
  4

  0
ENDTAB
  0
TABLE
  2
VIEW
  5
6
330
0
100
AcDbSymbolTable
 70
     0
  0
ENDTAB
  0
TABLE
  2
UCS
  5
7
330
0
100
AcDbSymbolTable
 70
     0
  0
ENDTAB
  0
TABLE
  2
APPID
  5
9
330
0
100
AcDbSymbolTable
 70
     2
  0
APPID
  5
12
330
9
100
AcDbSymbolTableRecord
100
AcDbRegAppTableRecord
  2
ACAD
 70
     0
  0
APPID
  5
31A
330
9
100
AcDbSymbolTableRecord
100
AcDbRegAppTableRecord
  2
ACAD_MLEADERVER
 70
     0
  0
ENDTAB
  0
TABLE
  2
DIMSTYLE
  5
A
330
0
100
AcDbSymbolTable
 70
    13
100
AcDbDimStyleTable
 71
     0
  0
DIMSTYLE
105
27
330
A
100
AcDbSymbolTableRecord
100
AcDbDimStyleTableRecord
  2
ISO-25
 70
     0
 41
2.5
 42
0.625
 43
3.75
 44
1.25
 73
     0
 74
     0
 77
     1
 78
     8
140
2.5
141
2.5
143
0.03937007874016
147
0.625
171
     3
172
     1
271
     2
272
     2
274
     3
278
    44
283
     0
284
     8
340
11
  0
DIMSTYLE
105
154
102
{ACAD_REACTORS
330
153
330
177
330
1AF
102
}
330
A
100
AcDbSymbolTableRecord
100
AcDbDimStyleTableRecord
  2
SLDDIMSTYLE0
 70
     0
 41
0.08
 44
0.0
 45
0.000000001
 78
    12
 79
     3
140
0.1058333333333333
144
0.7200000000000001
147
0.0264583333333333
173
     1
271
     1
272
     1
276
     2
284
    12
340
65
  0
DIMSTYLE
105
160
102
{ACAD_REACTORS
330
15F
330
182
330
18D
330
1A4
102
}
330
A
100
AcDbSymbolTableRecord
100
AcDbDimStyleTableRecord
  2
SLDDIMSTYLE1
 70
     0
 41
0.08
 44
0.0
 45
0.000000001
 78
    12
 79
     3
140
0.1058333333333333
144
0.7200000000000001
147
0.0264583333333333
173
     1
271
     2
272
     2
276
     2
284
    12
340
65
  0
DIMSTYLE
105
16C
102
{ACAD_REACTORS
330
16B
102
}
330
A
100
AcDbSymbolTableRecord
100
AcDbDimStyleTableRecord
  2
SLDDIMSTYLE2
 70
     0
 41
0.08
 44
0.0
 45
0.000000001
 78
    12
 79
     3
140
0.1058333333333333
144
0.7200000000000001
147
0.0264583333333333
173
     1
271
     2
272
     3
276
     2
284
    12
340
65
  0
DIMSTYLE
105
199
102
{ACAD_REACTORS
330
198
102
}
330
A
100
AcDbSymbolTableRecord
100
AcDbDimStyleTableRecord
  2
SLDDIMSTYLE3
 70
     0
 41
0.08
 44
0.0
 45
0.000000001
 78
     4
 79
     1
140
0.1058333333333333
144
0.7200000000000001
147
0.0264583333333333
173
     1
271
     2
272
     2
276
     2
284
    12
340
65
  0
DIMSTYLE
105
1BC
330
A
100
AcDbSymbolTableRecord
100
AcDbDimStyleTableRecord
  2
SLDDIMSTYLE4
 70
     0
 41
0.02
 44
0.0
 45
0.000000001
140
0.0
146
0.02
147
0.0
173
     1
271
     0
272
     0
276
     2
340
11
341
1BD
343
1BD
344
1BD
  0
DIMSTYLE
105
1C9
330
A
100
AcDbSymbolTableRecord
100
AcDbDimStyleTableRecord
  2
SLDDIMSTYLE5
 70
     0
 41
0.08
 44
0.0
 45
0.000000001
140
0.0
146
0.08
147
0.0
173
     1
271
     0
272
     0
276
     2
340
11
  0
DIMSTYLE
105
232
102
{ACAD_REACTORS
330
231
102
}
330
A
100
AcDbSymbolTableRecord
100
AcDbDimStyleTableRecord
  2
SLDDIMSTYLE6
 70
     0
 41
0.08
 44
0.0
 45
0.000000001
 78
    12
 79
     3
140
0.1058333333333333
144
0.36
147
0.0264583333333333
173
     1
271
     2
272
     2
276
     2
284
    12
340
65
  0
DIMSTYLE
105
23E
102
{ACAD_REACTORS
330
23D
330
255
102
}
330
A
100
AcDbSymbolTableRecord
100
AcDbDimStyleTableRecord
  2
SLDDIMSTYLE7
 70
     0
 41
0.08
 44
0.0
 45
0.000000001
 78
     4
 79
     1
140
0.1058333333333333
144
0.36
147
0.0264583333333333
173
     1
271
     2
272
     3
276
     2
284
    12
340
65
  0
DIMSTYLE
105
24B
102
{ACAD_REACTORS
330
24A
102
}
330
A
100
AcDbSymbolTableRecord
100
AcDbDimStyleTableRecord
  2
SLDDIMSTYLE8
 70
     0
 41
0.08
 44
0.0
 45
0.000000001
 78
     4
 79
     1
140
0.1058333333333333
144
0.36
147
0.0264583333333333
173
     1
271
     2
272
     2
276
     2
284
    12
340
65
  0
DIMSTYLE
105
261
102
{ACAD_REACTORS
330
260
102
}
330
A
100
AcDbSymbolTableRecord
100
AcDbDimStyleTableRecord
  2
SLDDIMSTYLE9
 70
     0
 41
0.08
 44
0.0
 45
0.000000001
 78
    12
 79
     3
140
0.1058333333333333
141
0.0
144
0.36
147
0.0264583333333333
173
     1
271
     2
272
     2
276
     2
284
    12
340
65
  0
DIMSTYLE
105
26B
102
{ACAD_REACTORS
330
26A
102
}
330
A
100
AcDbSymbolTableRecord
100
AcDbDimStyleTableRecord
  2
SLDDIMSTYLE10
 70
     0
 41
0.08
 44
0.0
 45
0.000000001
 78
    12
 79
     3
140
0.1058333333333333
144
0.36
147
0.0264583333333333
172
     1
173
     1
271
     3
272
     3
276
     2
284
    12
289
     0
340
65
  0
DIMSTYLE
105
279
102
{ACAD_REACTORS
330
278
102
}
330
A
100
AcDbSymbolTableRecord
100
AcDbDimStyleTableRecord
  2
SLDDIMSTYLE11
 70
     0
 41
0.08
 44
0.0
 45
0.000000001
 78
     4
 79
     1
140
0.1058333333333333
144
0.36
147
0.0264583333333333
172
     1
173
     1
271
     3
272
     3
276
     2
284
    12
289
     0
340
65
  0
ENDTAB
  0
TABLE
  2
BLOCK_RECORD
  5
1
330
0
100
AcDbSymbolTable
 70
    26
  0
BLOCK_RECORD
  5
1F
330
1
100
AcDbSymbolTableRecord
100
AcDbBlockTableRecord
  2
*Model_Space
340
22
  0
BLOCK_RECORD
  5
1B
330
1
100
AcDbSymbolTableRecord
100
AcDbBlockTableRecord
  2
*Paper_Space
340
1E
  0
BLOCK_RECORD
  5
23
330
1
100
AcDbSymbolTableRecord
100
AcDbBlockTableRecord
  2
*Paper_Space0
340
26
  0
BLOCK_RECORD
  5
45
330
1
100
AcDbSymbolTableRecord
100
AcDbBlockTableRecord
  2
Block1
340
0
  0
BLOCK_RECORD
  5
62
330
1
100
AcDbSymbolTableRecord
100
AcDbBlockTableRecord
  2
SW_NOTE_18
340
0
102
{BLKREFS
331
68
102
}
  0
BLOCK_RECORD
  5
69
330
1
100
AcDbSymbolTableRecord
100
AcDbBlockTableRecord
  2
SW_NOTE_19
340
0
102
{BLKREFS
331
8E
102
}
  0
BLOCK_RECORD
  5
8F
330
1
100
AcDbSymbolTableRecord
100
AcDbBlockTableRecord
  2
SW_NOTE_20
340
0
102
{BLKREFS
331
94
102
}
  0
BLOCK_RECORD
  5
9F
330
1
100
AcDbSymbolTableRecord
100
AcDbBlockTableRecord
  2
SW_NOTE_21
340
0
102
{BLKREFS
331
A4
102
}
  0
BLOCK_RECORD
  5
155
330
1
100
AcDbSymbolTableRecord
100
AcDbBlockTableRecord
  2
_D
340
0
  0
BLOCK_RECORD
  5
161
330
1
100
AcDbSymbolTableRecord
100
AcDbBlockTableRecord
  2
_D_1
340
0
  0
BLOCK_RECORD
  5
16D
330
1
100
AcDbSymbolTableRecord
100
AcDbBlockTableRecord
  2
_D_2
340
0
  0
BLOCK_RECORD
  5
178
330
1
100
AcDbSymbolTableRecord
100
AcDbBlockTableRecord
  2
_D_3
340
0
  0
BLOCK_RECORD
  5
183
330
1
100
AcDbSymbolTableRecord
100
AcDbBlockTableRecord
  2
_D_4
340
0
  0
BLOCK_RECORD
  5
18E
330
1
100
AcDbSymbolTableRecord
100
AcDbBlockTableRecord
  2
_D_5
340
0
  0
BLOCK_RECORD
  5
19A
330
1
100
AcDbSymbolTableRecord
100
AcDbBlockTableRecord
  2
_D_6
340
0
  0
BLOCK_RECORD
  5
1A5
330
1
100
AcDbSymbolTableRecord
100
AcDbBlockTableRecord
  2
_D_7
340
0
  0
BLOCK_RECORD
  5
1B0
330
1
100
AcDbSymbolTableRecord
100
AcDbBlockTableRecord
  2
_D_8
340
0
  0
BLOCK_RECORD
  5
1BD
330
1
100
AcDbSymbolTableRecord
100
AcDbBlockTableRecord
  2
_DOT
340
0
  0
BLOCK_RECORD
  5
1CB
330
1
100
AcDbSymbolTableRecord
100
AcDbBlockTableRecord
  2
SW_NOTE_22
340
0
102
{BLKREFS
331
1D2
102
}
  0
BLOCK_RECORD
  5
1D6
330
1
100
AcDbSymbolTableRecord
100
AcDbBlockTableRecord
  2
SW_NOTE_23
340
0
102
{BLKREFS
331
1DB
102
}
  0
BLOCK_RECORD
  5
233
330
1
100
AcDbSymbolTableRecord
100
AcDbBlockTableRecord
  2
_D_9
340
0
  0
BLOCK_RECORD
  5
23F
330
1
100
AcDbSymbolTableRecord
100
AcDbBlockTableRecord
  2
_D_10
340
0
  0
BLOCK_RECORD
  5
24C
330
1
100
AcDbSymbolTableRecord
100
AcDbBlockTableRecord
  2
_D_11
340
0
  0
BLOCK_RECORD
  5
256
330
1
100
AcDbSymbolTableRecord
100
AcDbBlockTableRecord
  2
_D_12
340
0
  0
BLOCK_RECORD
  5
262
330
1
100
AcDbSymbolTableRecord
100
AcDbBlockTableRecord
  2
_D_13
340
0
  0
BLOCK_RECORD
  5
26C
330
1
100
AcDbSymbolTableRecord
100
AcDbBlockTableRecord
  2
_D_14
340
0
  0
BLOCK_RECORD
  5
27A
330
1
100
AcDbSymbolTableRecord
100
AcDbBlockTableRecord
  2
_D_15
340
0
  0
BLOCK_RECORD
  5
286
330
1
100
AcDbSymbolTableRecord
100
AcDbBlockTableRecord
  2
SW_NOTE_24
340
0
102
{BLKREFS
331
28B
102
}
  0
ENDTAB
  0
ENDSEC
  0
SECTION
  2
BLOCKS
  0
BLOCK
  5
20
330
1F
100
AcDbEntity
  8
0
100
AcDbBlockBegin
  2
*Model_Space
 70
     0
 10
0.0
 20
0.0
 30
0.0
  3
*Model_Space
  1

  0
ENDBLK
  5
21
330
1F
100
AcDbEntity
  8
0
100
AcDbBlockEnd
  0
BLOCK
  5
1C
330
1B
100
AcDbEntity
 67
     1
  8
0
100
AcDbBlockBegin
  2
*Paper_Space
 70
     0
 10
0.0
 20
0.0
 30
0.0
  3
*Paper_Space
  1

  0
ENDBLK
  5
1D
330
1B
100
AcDbEntity
 67
     1
  8
0
100
AcDbBlockEnd
  0
BLOCK
  5
24
330
23
100
AcDbEntity
 67
     1
  8
0
100
AcDbBlockBegin
  2
*Paper_Space0
 70
     0
 10
0.0
 20
0.0
 30
0.0
  3
*Paper_Space0
  1

  0
ENDBLK
  5
25
330
23
100
AcDbEntity
 67
     1
  8
0
100
AcDbBlockEnd
  0
BLOCK
  5
46
330
45
100
AcDbEntity
  8
0
100
AcDbBlockBegin
  2
Block1
 70
     0
 10
0.0
 20
0.0
 30
0.0
  3
Block1
  1

  0
CIRCLE
  5
48
330
45
100
AcDbEntity
  8
0
  6
Continuous
 62
     7
370
     0
100
AcDbCircle
 10
5.561029411047725
 20
0.6014833690724196
 30
0.0
 40
0.1080578031924741
  0
CIRCLE
  5
49
330
45
100
AcDbEntity
  8
0
  6
Continuous
 62
     7
370
     0
100
AcDbCircle
 10
5.561029411047725
 20
0.6014833690724196
 30
0.0
 40
0.05258127870001
  0
LINE
  5
4A
330
45
100
AcDbEntity
  8
0
  6
Continuous
 62
     7
370
     0
100
AcDbLine
 10
5.703388254626932
 20
0.6014833690724196
 30
0.0
 11
5.283990699996356
 21
0.6014833690724196
 31
0.0
  0
LINE
  5
4B
330
45
100
AcDbEntity
  8
0
  6
Continuous
 62
     7
370
     0
100
AcDbLine
 10
5.737210638064881
 20
0.6014833690724196
 30
0.0
 11
5.794708689909395
 21
0.6014833690724196
 31
0.0
  0
LINE
  5
4C
330
45
100
AcDbEntity
  8
0
  6
Continuous
 62
     7
370
     0
100
AcDbLine
 10
5.864044575957192
 20
0.6022439237138268
 30
0.0
 11
6.276677653900178
 21
0.6022439237138268
 31
0.0
  0
LINE
  5
4D
330
45
100
AcDbEntity
  8
0
  6
Continuous
 62
     7
370
     0
100
AcDbLine
 10
5.920306846147851
 20
0.6540646477724282
 30
0.0
 11
5.920306846147851
 21
0.5489020903724108
 31
0.0
  0
LINE
  5
4E
330
45
100
AcDbEntity
  8
0
  6
Continuous
 62
     7
370
     0
100
AcDbLine
 10
5.920306846147851
 20
0.5489020903724108
 30
0.0
 11
6.210060572519281
 21
0.4934255658799456
 31
0.0
  0
LINE
  5
4F
330
45
100
AcDbEntity
  8
0
  6
Continuous
 62
     7
370
     0
100
AcDbLine
 10
6.210060572519281
 20
0.4934255658799456
 30
0.0
 11
6.210060572519281
 21
0.7095411722648936
 31
0.0
  0
LINE
  5
50
330
45
100
AcDbEntity
  8
0
  6
Continuous
 62
     7
370
     0
100
AcDbLine
 10
6.210060572519281
 20
0.7095411722648936
 30
0.0
 11
5.920306846147851
 21
0.6540646477724282
 31
0.0
  0
LINE
  5
51
330
45
100
AcDbEntity
  8
0
  6
Continuous
 62
     7
370
     0
100
AcDbLine
 10
5.561029411047725
 20
0.7095411722648936
 30
0.0
 11
5.561029411047725
 21
0.7569775519023323
 31
0.0
  0
LINE
  5
52
330
45
100
AcDbEntity
  8
0
  6
Continuous
 62
     7
370
     0
100
AcDbLine
 10
5.561029411047725
 20
0.4934255658799456
 30
0.0
 11
5.561029411047725
 21
0.4459891862425068
 31
0.0
  0
LINE
  5
53
330
45
100
AcDbEntity
  8
0
  6
Continuous
 62
     7
370
     0
100
AcDbLine
 10
5.561029411047725
 20
0.6280339264188828
 30
0.0
 11
5.561029411047725
 21
0.5749328117259563
 31
0.0
  0
ENDBLK
  5
47
330
45
100
AcDbEntity
  8
0
100
AcDbBlockEnd
  0
BLOCK
  5
63
330
62
100
AcDbEntity
  8
0
100
AcDbBlockBegin
  2
SW_NOTE_18
 70
     0
 10
0.0
 20
0.0
 30
0.0
  3
SW_NOTE_18
  1

  0
MTEXT
  5
66
330
62
100
AcDbEntity
  8
0
  6
Continuous
 62
     0
370
     0
100
AcDbMText
 10
0.9885494791666671
 20
0.190996870109546
 30
0.0
 40
0.1481666666666667
 41
0.0
 71
     2
 72
     1
  1
RECOMMENDED PCB
  7
SLDTEXTSTYLE0
 73
     1
 44
1.0
1001
ACAD
1000
MTEXTBEGIN
1070
    73
1070
     1
1070
    44
1040
1.0
1070
    74
1070
     0
1000
MTEXTEND
  0
MTEXT
  5
67
330
62
100
AcDbEntity
  8
0
  6
Continuous
 62
     0
370
     0
100
AcDbMText
 10
0.9850340062975881
 20
-0.0065586830585124
 30
0.0
 40
0.1481666666666667
 41
0.0
 71
     2
 72
     1
  1
LAYOUT
  7
SLDTEXTSTYLE0
 73
     1
 44
1.0
1001
ACAD
1000
MTEXTBEGIN
1070
    73
1070
     1
1070
    44
1040
1.0
1070
    74
1070
     0
1000
MTEXTEND
  0
ENDBLK
  5
64
330
62
100
AcDbEntity
  8
0
100
AcDbBlockEnd
  0
BLOCK
  5
6A
330
69
100
AcDbEntity
  8
0
100
AcDbBlockBegin
  2
SW_NOTE_19
 70
     0
 10
0.0
 20
0.0
 30
0.0
  3
SW_NOTE_19
  1

  0
MTEXT
  5
6C
330
69
100
AcDbEntity
  8
0
  6
Continuous
 62
     0
370
     0
100
AcDbMText
 10
0.0
 20
0.1364263357925327
 30
0.0
 40
0.1058333333333333
 41
0.0
 71
     1
 72
     1
  1
Notes: (Unless Otherwise Specified).
  7
SLDTEXTSTYLE0
 73
     1
 44
1.0
1001
ACAD
1000
MTEXTBEGIN
1070
    73
1070
     1
1070
    44
1040
1.0
1070
    74
1070
     0
1000
MTEXTEND
  0
MTEXT
  5
6D
330
69
100
AcDbEntity
  8
0
  6
Continuous
 62
     0
370
     0
100
AcDbMText
 10
0.3999999910593033
 20
-0.0046847736132233
 30
0.0
 40
0.1058333333333333
 41
0.0
 71
     1
 72
     1
  1
DIMENSIONS ARE PRESENTED ONLY AS A GUIDELINE. DESIGNERS  SHOULD USE THEIR OWN KNOWLEDGE
  7
SLDTEXTSTYLE0
 73
     1
 44
1.0
1001
ACAD
1000
MTEXTBEGIN
1070
    73
1070
     1
1070
    44
1040
1.0
1070
    74
1070
     0
1000
MTEXTEND
  0
MTEXT
  5
6E
330
69
100
AcDbEntity
  8
0
  6
Continuous
 62
     0
370
     0
100
AcDbMText
 10
0.0
 20
-0.0046847736132233
 30
0.0
 40
0.1058333333333333
 41
0.0
 71
     1
 72
     1
  1
1.
  7
SLDTEXTSTYLE0
 73
     1
 44
1.0
1001
ACAD
1000
MTEXTBEGIN
1070
    73
1070
     1
1070
    44
1040
1.0
1070
    74
1070
     0
1000
MTEXTEND
  0
MTEXT
  5
6F
330
69
100
AcDbEntity
  8
0
  6
Continuous
 62
     0
370
     0
100
AcDbMText
 10
0.3999999910593033
 20
-0.1457958830189793
 30
0.0
 40
0.1058333333333333
 41
0.0
 71
     1
 72
     1
  1
BASE WHEN DESIGNING THE PCB.
  7
SLDTEXTSTYLE0
 73
     1
 44
1.0
1001
ACAD
1000
MTEXTBEGIN
1070
    73
1070
     1
1070
    44
1040
1.0
1070
    74
1070
     0
1000
MTEXTEND
  0
MTEXT
  5
70
330
69
100
AcDbEntity
  8
0
  6
Continuous
 62
     0
370
     0
100
AcDbMText
 10
0.3999999910593033
 20
-0.2869069924247353
 30
0.0
 40
0.1058333333333333
 41
0.0
 71
     1
 72
     1
  1
SURROUND EACH SIDE OF I/O PERIMETER PADS WITH 0.060~0.075 mm (2.4~3.0mils) NSMD SOLDER MASK
  7
SLDTEXTSTYLE0
 73
     1
 44
1.0
1001
ACAD
1000
MTEXTBEGIN
1070
    73
1070
     1
1070
    44
1040
1.0
1070
    74
1070
     0
1000
MTEXTEND
  0
MTEXT
  5
71
330
69
100
AcDbEntity
  8
0
  6
Continuous
 62
     0
370
     0
100
AcDbMText
 10
0.0
 20
-0.2869069924247353
 30
0.0
 40
0.1058333333333333
 41
0.0
 71
     1
 72
     1
  1
2.
  7
SLDTEXTSTYLE0
 73
     1
 44
1.0
1001
ACAD
1000
MTEXTBEGIN
1070
    73
1070
     1
1070
    44
1040
1.0
1070
    74
1070
     0
1000
MTEXTEND
  0
MTEXT
  5
72
330
69
100
AcDbEntity
  8
0
  6
Continuous
 62
     0
370
     0
100
AcDbMText
 10
0.3999999910593033
 20
-0.4280181018304913
 30
0.0
 40
0.1058333333333333
 41
0.0
 71
     1
 72
     1
  1
OPENING.  OPTIONALLY OK TO USE RECTANGLE (NSMD) MASK OPENING AROUND I/O PADS.
  7
SLDTEXTSTYLE0
 73
     1
 44
1.0
1001
ACAD
1000
MTEXTBEGIN
1070
    73
1070
     1
1070
    44
1040
1.0
1070
    74
1070
     0
1000
MTEXTEND
  0
MTEXT
  5
73
330
69
100
AcDbEntity
  8
0
  6
Continuous
 62
     0
370
     0
100
AcDbMText
 10
0.3999999910593033
 20
-0.5691292112362473
 30
0.0
 40
0.1058333333333333
 41
0.0
 71
     1
 72
     1
  1
ROUNDED PCB LAND PADS REDUCE SOLDER BRIDGING.  PAD CHAMFER ANGLE MAY VARY.
  7
SLDTEXTSTYLE0
 73
     1
 44
1.0
1001
ACAD
1000
MTEXTBEGIN
1070
    73
1070
     1
1070
    44
1040
1.0
1070
    74
1070
     0
1000
MTEXTEND
  0
MTEXT
  5
74
330
69
100
AcDbEntity
  8
0
  6
Continuous
 62
     0
370
     0
100
AcDbMText
 10
0.0
 20
-0.5691292112362473
 30
0.0
 40
0.1058333333333333
 41
0.0
 71
     1
 72
     1
  1
3.
  7
SLDTEXTSTYLE0
 73
     1
 44
1.0
1001
ACAD
1000
MTEXTBEGIN
1070
    73
1070
     1
1070
    44
1040
1.0
1070
    74
1070
     0
1000
MTEXTEND
  0
MTEXT
  5
75
330
69
100
AcDbEntity
  8
0
  6
Continuous
 62
     0
370
     0
100
AcDbMText
 10
0.3999999910593033
 20
-0.710240320642003
 30
0.0
 40
0.1058333333333333
 41
0.0
 71
     1
 72
     1
  1
PCB LANDS SHOULD BE 0.2mm LONGER THAN THE PACKAGE I/O PADS.
  7
SLDTEXTSTYLE0
 73
     1
 44
1.0
1001
ACAD
1000
MTEXTBEGIN
1070
    73
1070
     1
1070
    44
1040
1.0
1070
    74
1070
     0
1000
MTEXTEND
  0
MTEXT
  5
76
330
69
100
AcDbEntity
  8
0
  6
Continuous
 62
     0
370
     0
100
AcDbMText
 10
0.0
 20
-0.710240320642003
 30
0.0
 40
0.1058333333333333
 41
0.0
 71
     1
 72
     1
  1
4.
  7
SLDTEXTSTYLE0
 73
     1
 44
1.0
1001
ACAD
1000
MTEXTBEGIN
1070
    73
1070
     1
1070
    44
1040
1.0
1070
    74
1070
     0
1000
MTEXTEND
  0
MTEXT
  5
77
330
69
100
AcDbEntity
  8
0
  6
Continuous
 62
     0
370
     0
100
AcDbMText
 10
0.3999999910593033
 20
-0.8513514300477588
 30
0.0
 40
0.1058333333333333
 41
0.0
 71
     1
 72
     1
  1
THE WIDTH OF PERIMETER PCB PADS SHOULD MATCH (1:1) THE WIDTH OF THE PACKAGE PADS.
  7
SLDTEXTSTYLE0
 73
     1
 44
1.0
1001
ACAD
1000
MTEXTBEGIN
1070
    73
1070
     1
1070
    44
1040
1.0
1070
    74
1070
     0
1000
MTEXTEND
  0
MTEXT
  5
78
330
69
100
AcDbEntity
  8
0
  6
Continuous
 62
     0
370
     0
100
AcDbMText
 10
0.0
 20
-0.8513514300477588
 30
0.0
 40
0.1058333333333333
 41
0.0
 71
     1
 72
     1
  1
5.
  7
SLDTEXTSTYLE0
 73
     1
 44
1.0
1001
ACAD
1000
MTEXTBEGIN
1070
    73
1070
     1
1070
    44
1040
1.0
1070
    74
1070
     0
1000
MTEXTEND
  0
MTEXT
  5
79
330
69
100
AcDbEntity
  8
0
  6
Continuous
 62
     0
370
     0
100
AcDbMText
 10
0.3999999910593033
 20
-0.9924625394535148
 30
0.0
 40
0.1058333333333333
 41
0.0
 71
     1
 72
     1
  1
REFER TO INDUSTRY REFERENCES SUCH AS IPC-SM-782 FOR PCB LAND PATTERN DESIGN.
  7
SLDTEXTSTYLE0
 73
     1
 44
1.0
1001
ACAD
1000
MTEXTBEGIN
1070
    73
1070
     1
1070
    44
1040
1.0
1070
    74
1070
     0
1000
MTEXTEND
  0
MTEXT
  5
7A
330
69
100
AcDbEntity
  8
0
  6
Continuous
 62
     0
370
     0
100
AcDbMText
 10
0.0
 20
-0.9924625394535148
 30
0.0
 40
0.1058333333333333
 41
0.0
 71
     1
 72
     1
  1
6.
  7
SLDTEXTSTYLE0
 73
     1
 44
1.0
1001
ACAD
1000
MTEXTBEGIN
1070
    73
1070
     1
1070
    44
1040
1.0
1070
    74
1070
     0
1000
MTEXTEND
  0
MTEXT
  5
7B
330
69
100
AcDbEntity
  8
0
  6
Continuous
 62
     0
370
     0
100
AcDbMText
 10
0.3999999910593033
 20
-1.13357364885927
 30
0.0
 40
0.1058333333333333
 41
0.0
 71
     1
 72
     1
  1
THERMAL GROUND PADS MAY BE CHANGED TO SUITE REQUIREMENTS OF THE DESIGNER.
  7
SLDTEXTSTYLE0
 73
     1
 44
1.0
1001
ACAD
1000
MTEXTBEGIN
1070
    73
1070
     1
1070
    44
1040
1.0
1070
    74
1070
     0
1000
MTEXTEND
  0
MTEXT
  5
7C
330
69
100
AcDbEntity
  8
0
  6
Continuous
 62
     0
370
     0
100
AcDbMText
 10
0.0
 20
-1.13357364885927
 30
0.0
 40
0.1058333333333333
 41
0.0
 71
     1
 72
     1
  1
7.
  7
SLDTEXTSTYLE0
 73
     1
 44
1.0
1001
ACAD
1000
MTEXTBEGIN
1070
    73
1070
     1
1070
    44
1040
1.0
1070
    74
1070
     0
1000
MTEXTEND
  0
MTEXT
  5
7D
330
69
100
AcDbEntity
  8
0
  6
Continuous
 62
     0
370
     0
100
AcDbMText
 10
0.7999999821186066
 20
-1.274684758265026
 30
0.0
 40
0.1058333333333333
 41
0.0
 71
     1
 72
     1
  1
MAKE COPPER THERMAL PAD AS LARGE AS POSSIBLE.
  7
SLDTEXTSTYLE0
 73
     1
 44
1.0
1001
ACAD
1000
MTEXTBEGIN
1070
    73
1070
     1
1070
    44
1040
1.0
1070
    74
1070
     0
1000
MTEXTEND
  0
MTEXT
  5
7E
330
69
100
AcDbEntity
  8
0
  6
Continuous
 62
     0
370
     0
100
AcDbMText
 10
0.4000000000000001
 20
-1.274684758265026
 30
0.0
 40
0.1058333333333333
 41
0.0
 71
     1
 72
     1
  1
A.
  7
SLDTEXTSTYLE0
 73
     1
 44
1.0
1001
ACAD
1000
MTEXTBEGIN
1070
    73
1070
     1
1070
    44
1040
1.0
1070
    74
1070
     0
1000
MTEXTEND
  0
MTEXT
  5
7F
330
69
100
AcDbEntity
  8
0
  6
Continuous
 62
     0
370
     0
100
AcDbMText
 10
0.7999999821186066
 20
-1.415795867670782
 30
0.0
 40
0.1058333333333333
 41
0.0
 71
     1
 72
     1
  1
DRILL MULTIPLE THERMAL VIAS 0.25~0.33mm DIAMETER USING 0.8~1.2mm PITCH GRID.
  7
SLDTEXTSTYLE0
 73
     1
 44
1.0
1001
ACAD
1000
MTEXTBEGIN
1070
    73
1070
     1
1070
    44
1040
1.0
1070
    74
1070
     0
1000
MTEXTEND
  0
MTEXT
  5
80
330
69
100
AcDbEntity
  8
0
  6
Continuous
 62
     0
370
     0
100
AcDbMText
 10
0.4000000000000001
 20
-1.415795867670782
 30
0.0
 40
0.1058333333333333
 41
0.0
 71
     1
 72
     1
  1
B.
  7
SLDTEXTSTYLE0
 73
     1
 44
1.0
1001
ACAD
1000
MTEXTBEGIN
1070
    73
1070
     1
1070
    44
1040
1.0
1070
    74
1070
     0
1000
MTEXTEND
  0
MTEXT
  5
81
330
69
100
AcDbEntity
  8
0
  6
Continuous
 62
     0
370
     0
100
AcDbMText
 10
0.7999999821186066
 20
-1.556906977076538
 30
0.0
 40
0.1058333333333333
 41
0.0
 71
     1
 72
     1
  1
PLATE THERMAL VIA BARRELS WITH 1-OUNCE COPPER (18µm).
  7
SLDTEXTSTYLE0
 73
     1
 44
1.0
1001
ACAD
1000
MTEXTBEGIN
1070
    73
1070
     1
1070
    44
1040
1.0
1070
    74
1070
     0
1000
MTEXTEND
  0
MTEXT
  5
82
330
69
100
AcDbEntity
  8
0
  6
Continuous
 62
     0
370
     0
100
AcDbMText
 10
0.4000000000000001
 20
-1.556906977076538
 30
0.0
 40
0.1058333333333333
 41
0.0
 71
     1
 72
     1
  1
C.
  7
SLDTEXTSTYLE0
 73
     1
 44
1.0
1001
ACAD
1000
MTEXTBEGIN
1070
    73
1070
     1
1070
    44
1040
1.0
1070
    74
1070
     0
1000
MTEXTEND
  0
MTEXT
  5
83
330
69
100
AcDbEntity
  8
0
  6
Continuous
 62
     0
370
     0
100
AcDbMText
 10
0.7999999821186066
 20
-1.698018086482294
 30
0.0
 40
0.1058333333333333
 41
0.0
 71
     1
 72
     1
  1
TENT (COVER) THERMAL VIAS WITH SOLDER MASK 0.1mm LARGER THAN THE VIA DIAMETER.
  7
SLDTEXTSTYLE0
 73
     1
 44
1.0
1001
ACAD
1000
MTEXTBEGIN
1070
    73
1070
     1
1070
    44
1040
1.0
1070
    74
1070
     0
1000
MTEXTEND
  0
MTEXT
  5
84
330
69
100
AcDbEntity
  8
0
  6
Continuous
 62
     0
370
     0
100
AcDbMText
 10
0.4000000000000001
 20
-1.698018086482294
 30
0.0
 40
0.1058333333333333
 41
0.0
 71
     1
 72
     1
  1
D.
  7
SLDTEXTSTYLE0
 73
     1
 44
1.0
1001
ACAD
1000
MTEXTBEGIN
1070
    73
1070
     1
1070
    44
1040
1.0
1070
    74
1070
     0
1000
MTEXTEND
  0
MTEXT
  5
85
330
69
100
AcDbEntity
  8
0
  6
Continuous
 62
     0
370
     0
100
AcDbMText
 10
0.3999999910593033
 20
-1.83912919588805
 30
0.0
 40
0.1058333333333333
 41
0.0
 71
     1
 72
     1
  1
STENCIL DESIGN MAY BE CHANGED TO SUITE REQUIREMENTS OF THE DESIGNER.
  7
SLDTEXTSTYLE0
 73
     1
 44
1.0
1001
ACAD
1000
MTEXTBEGIN
1070
    73
1070
     1
1070
    44
1040
1.0
1070
    74
1070
     0
1000
MTEXTEND
  0
MTEXT
  5
86
330
69
100
AcDbEntity
  8
0
  6
Continuous
 62
     0
370
     0
100
AcDbMText
 10
0.0
 20
-1.83912919588805
 30
0.0
 40
0.1058333333333333
 41
0.0
 71
     1
 72
     1
  1
8.
  7
SLDTEXTSTYLE0
 73
     1
 44
1.0
1001
ACAD
1000
MTEXTBEGIN
1070
    73
1070
     1
1070
    44
1040
1.0
1070
    74
1070
     0
1000
MTEXTEND
  0
MTEXT
  5
87
330
69
100
AcDbEntity
  8
0
  6
Continuous
 62
     0
370
     0
100
AcDbMText
 10
0.7999999821186066
 20
-1.980240305293806
 30
0.0
 40
0.1058333333333333
 41
0.0
 71
     1
 72
     1
  1
LASER CUT STENCIL 0.125mm (5mil) THICK.  APERTURE SIZE-TO-LAND RATIO OF 1:1.
  7
SLDTEXTSTYLE0
 73
     1
 44
1.0
1001
ACAD
1000
MTEXTBEGIN
1070
    73
1070
     1
1070
    44
1040
1.0
1070
    74
1070
     0
1000
MTEXTEND
  0
MTEXT
  5
88
330
69
100
AcDbEntity
  8
0
  6
Continuous
 62
     0
370
     0
100
AcDbMText
 10
0.4000000000000001
 20
-1.980240305293806
 30
0.0
 40
0.1058333333333333
 41
0.0
 71
     1
 72
     1
  1
A.
  7
SLDTEXTSTYLE0
 73
     1
 44
1.0
1001
ACAD
1000
MTEXTBEGIN
1070
    73
1070
     1
1070
    44
1040
1.0
1070
    74
1070
     0
1000
MTEXTEND
  0
MTEXT
  5
89
330
69
100
AcDbEntity
  8
0
  6
Continuous
 62
     0
370
     0
100
AcDbMText
 10
0.7999999821186066
 20
-2.121351414699562
 30
0.0
 40
0.1058333333333333
 41
0.0
 71
     1
 72
     1
  1
THE SOLDER PASTE OPENING IN THE THERMAL PAD AREA SHOULD BE A MATRIX ARRAY OF
  7
SLDTEXTSTYLE0
 73
     1
 44
1.0
1001
ACAD
1000
MTEXTBEGIN
1070
    73
1070
     1
1070
    44
1040
1.0
1070
    74
1070
     0
1000
MTEXTEND
  0
MTEXT
  5
8A
330
69
100
AcDbEntity
  8
0
  6
Continuous
 62
     0
370
     0
100
AcDbMText
 10
0.4000000000000001
 20
-2.121351414699562
 30
0.0
 40
0.1058333333333333
 41
0.0
 71
     1
 72
     1
  1
B.
  7
SLDTEXTSTYLE0
 73
     1
 44
1.0
1001
ACAD
1000
MTEXTBEGIN
1070
    73
1070
     1
1070
    44
1040
1.0
1070
    74
1070
     0
1000
MTEXTEND
  0
MTEXT
  5
8B
330
69
100
AcDbEntity
  8
0
  6
Continuous
 62
     0
370
     0
100
AcDbMText
 10
0.7999999821186066
 20
-2.262462524105318
 30
0.0
 40
0.1058333333333333
 41
0.0
 71
     1
 72
     1
  1
SMALLER APERATURES INSTEAD OF ONE LARGE APERATURE TO CONTROL PASTE AMOUNTS.
  7
SLDTEXTSTYLE0
 73
     1
 44
1.0
1001
ACAD
1000
MTEXTBEGIN
1070
    73
1070
     1
1070
    44
1040
1.0
1070
    74
1070
     0
1000
MTEXTEND
  0
MTEXT
  5
8C
330
69
100
AcDbEntity
  8
0
  6
Continuous
 62
     0
370
     0
100
AcDbMText
 10
0.7999999821186066
 20
-2.403573633511074
 30
0.0
 40
0.1058333333333333
 41
0.0
 71
     1
 72
     1
  1
APPLY 50% TO 80% SOLDER PASTE COVERAGE IN THE PAD AREA.
  7
SLDTEXTSTYLE0
 73
     1
 44
1.0
1001
ACAD
1000
MTEXTBEGIN
1070
    73
1070
     1
1070
    44
1040
1.0
1070
    74
1070
     0
1000
MTEXTEND
  0
MTEXT
  5
8D
330
69
100
AcDbEntity
  8
0
  6
Continuous
 62
     0
370
     0
100
AcDbMText
 10
0.4000000000000001
 20
-2.403573633511074
 30
0.0
 40
0.1058333333333333
 41
0.0
 71
     1
 72
     1
  1
C.
  7
SLDTEXTSTYLE0
 73
     1
 44
1.0
1001
ACAD
1000
MTEXTBEGIN
1070
    73
1070
     1
1070
    44
1040
1.0
1070
    74
1070
     0
1000
MTEXTEND
  0
ENDBLK
  5
6B
330
69
100
AcDbEntity
  8
0
100
AcDbBlockEnd
  0
BLOCK
  5
90
330
8F
100
AcDbEntity
  8
0
100
AcDbBlockBegin
  2
SW_NOTE_20
 70
     0
 10
0.0
 20
0.0
 30
0.0
  3
SW_NOTE_20
  1

  0
MTEXT
  5
92
330
8F
100
AcDbEntity
  8
0
  6
Continuous
 62
     0
370
     0
100
AcDbMText
 10
1.092729166666666
 20
0.190996870109546
 30
0.0
 40
0.1481666666666667
 41
0.0
 71
     2
 72
     1
  1
8-LEAD 3mm P=0.65mm
  7
SLDTEXTSTYLE0
 73
     1
 44
1.0
1001
ACAD
1000
MTEXTBEGIN
1070
    73
1070
     1
1070
    44
1040
1.0
1070
    74
1070
     0
1000
MTEXTEND
  0
MTEXT
  5
93
330
8F
100
AcDbEntity
  8
0
  6
Continuous
 62
     0
370
     0
100
AcDbMText
 10
1.092849311868349
 20
-0.0065586830585124
 30
0.0
 40
0.1481666666666667
 41
0.0
 71
     2
 72
     1
  1
DFN CAVITY PACKAGE
  7
SLDTEXTSTYLE0
 73
     1
 44
1.0
1001
ACAD
1000
MTEXTBEGIN
1070
    73
1070
     1
1070
    44
1040
1.0
1070
    74
1070
     0
1000
MTEXTEND
  0
ENDBLK
  5
91
330
8F
100
AcDbEntity
  8
0
100
AcDbBlockEnd
  0
BLOCK
  5
A0
330
9F
100
AcDbEntity
  8
0
100
AcDbBlockBegin
  2
SW_NOTE_21
 70
     0
 10
0.0
 20
0.0
 30
0.0
  3
SW_NOTE_21
  1

  0
MTEXT
  5
A2
330
9F
100
AcDbEntity
  8
0
  6
Continuous
 62
     0
370
     0
100
AcDbMText
 10
0.2857500000000002
 20
0.1637116029510395
 30
0.0
 40
0.127
 41
0.0
 71
     2
 72
     1
  1
560870
  7
SLDTEXTSTYLE0
 73
     1
 44
1.0
1001
ACAD
1000
MTEXTBEGIN
1070
    73
1070
     1
1070
    44
1040
1.0
1070
    74
1070
     0
1000
MTEXTEND
  0
MTEXT
  5
A3
330
9F
100
AcDbEntity
  8
0
  6
Continuous
 62
     0
370
     0
100
AcDbMText
 10
0.2864996525049213
 20
-0.0056217283358677
 30
0.0
 40
0.127
 41
0.0
 71
     2
 72
     1
  1
M-DFN8W.65
  7
SLDTEXTSTYLE0
 73
     1
 44
1.0
1001
ACAD
1000
MTEXTBEGIN
1070
    73
1070
     1
1070
    44
1040
1.0
1070
    74
1070
     0
1000
MTEXTEND
  0
ENDBLK
  5
A1
330
9F
100
AcDbEntity
  8
0
100
AcDbBlockEnd
  0
BLOCK
  5
156
330
155
100
AcDbEntity
  8
0
100
AcDbBlockBegin
  2
_D
 70
     0
 10
0.0
 20
0.0
 30
0.0
  3
_D
  1

  0
SOLID
  5
158
330
155
100
AcDbEntity
  8
0
  6
Continuous
 62
     7
370
     0
100
AcDbTrace
 10
0.4927023387788925
 20
4.536198601807135
 30
0.0
 11
0.5027023387788922
 21
4.616198601807135
 31
0.0
 12
0.4827023387788922
 22
4.616198601807135
 32
0.0
 13
0.4827023387788922
 23
4.616198601807135
 33
0.0
  0
SOLID
  5
159
330
155
100
AcDbEntity
  8
0
  6
Continuous
 62
     7
370
     0
100
AcDbTrace
 10
0.4927023387788817
 20
7.536198601807134
 30
0.0
 11
0.4827023387788819
 21
7.456198601807134
 31
0.0
 12
0.5027023387788818
 22
7.456198601807134
 32
0.0
 13
0.5027023387788818
 23
7.456198601807134
 33
0.0
  0
LINE
  5
15A
330
155
100
AcDbEntity
  8
0
  6
Continuous
 62
     7
370
     0
100
AcDbLine
 10
1.512702338778897
 20
4.536198601807138
 30
0.0
 11
0.4127023387788925
 21
4.536198601807134
 31
0.0
  0
LINE
  5
15B
330
155
100
AcDbEntity
  8
0
  6
Continuous
 62
     7
370
     0
100
AcDbLine
 10
1.512702338778887
 20
7.536198601807138
 30
0.0
 11
0.4127023387788817
 21
7.536198601807134
 31
0.0
  0
LINE
  5
15C
330
155
100
AcDbEntity
  8
0
  6
Continuous
 62
     7
370
     0
100
AcDbLine
 10
0.4927023387788925
 20
4.536198601807135
 30
0.0
 11
0.4927023387788874
 21
5.955995599930963
 31
0.0
  0
LINE
  5
15D
330
155
100
AcDbEntity
  8
0
  6
Continuous
 62
     7
370
     0
100
AcDbLine
 10
0.4927023387788817
 20
7.536198601807134
 30
0.0
 11
0.4927023387788868
 21
6.116401603683309
 31
0.0
  0
MTEXT
  5
15E
330
155
100
AcDbEntity
  8
0
  6
Continuous
 62
     7
370
     0
100
AcDbMText
 10
0.4552742712366732
 20
6.092421933395188
 30
-0.000000000000045
 40
0.1058333333333333
 41
0.0
 71
     1
 72
     1
  1
3
  7
SLDTEXTSTYLE0
 73
     1
 44
1.0
1001
ACAD
1000
MTEXTBEGIN
1070
    73
1070
     1
1070
    44
1040
1.0
1070
    74
1070
     0
1000
MTEXTEND
  0
ENDBLK
  5
157
330
155
100
AcDbEntity
  8
0
100
AcDbBlockEnd
  0
BLOCK
  5
162
330
161
100
AcDbEntity
  8
0
100
AcDbBlockBegin
  2
_D_1
 70
     0
 10
0.0
 20
0.0
 30
0.0
  3
_D_1
  1

  0
SOLID
  5
164
330
161
100
AcDbEntity
  8
0
  6
Continuous
 62
     7
370
     0
100
AcDbTrace
 10
0.8260356721122196
 20
7.011198601807135
 30
0.0
 11
0.81603567211222
 21
6.931198601807135
 31
0.0
 12
0.8360356721122201
 22
6.931198601807135
 32
0.0
 13
0.8360356721122201
 23
6.931198601807135
 33
0.0
  0
SOLID
  5
165
330
161
100
AcDbEntity
  8
0
  6
Continuous
 62
     7
370
     0
100
AcDbTrace
 10
0.8260356721122274
 20
5.061198601807134
 30
0.0
 11
0.8360356721122272
 21
5.141198601807134
 31
0.0
 12
0.8160356721122271
 22
5.141198601807134
 32
0.0
 13
0.8160356721122271
 23
5.141198601807134
 33
0.0
  0
LINE
  5
166
330
161
100
AcDbEntity
  8
0
  6
Continuous
 62
     7
370
     0
100
AcDbLine
 10
1.232702338778889
 20
7.011198601807137
 30
0.0
 11
0.7460356721122197
 21
7.011198601807135
 31
0.0
  0
LINE
  5
167
330
161
100
AcDbEntity
  8
0
  6
Continuous
 62
     7
370
     0
100
AcDbLine
 10
1.232702338778896
 20
5.061198601807137
 30
0.0
 11
0.7460356721122274
 21
5.061198601807134
 31
0.0
  0
LINE
  5
168
330
161
100
AcDbEntity
  8
0
  6
Continuous
 62
     7
370
     0
100
AcDbLine
 10
0.8260356721122196
 20
7.011198601807135
 30
0.0
 11
0.8260356721122231
 21
6.116401603683309
 31
0.0
  0
LINE
  5
169
330
161
100
AcDbEntity
  8
0
  6
Continuous
 62
     7
370
     0
100
AcDbLine
 10
0.8260356721122274
 20
5.061198601807134
 30
0.0
 11
0.8260356721122239
 21
5.955995599930964
 31
0.0
  0
MTEXT
  5
16A
330
161
100
AcDbEntity
  8
0
  6
Continuous
 62
     7
370
     0
100
AcDbMText
 10
0.6923640023186023
 20
6.09242193339519
 30
-0.000000000000045
 40
0.1058333333333333
 41
0.0
 71
     1
 72
     1
  1
1.95
  7
SLDTEXTSTYLE0
 73
     1
 44
1.0
1001
ACAD
1000
MTEXTBEGIN
1070
    73
1070
     1
1070
    44
1040
1.0
1070
    74
1070
     0
1000
MTEXTEND
  0
ENDBLK
  5
163
330
161
100
AcDbEntity
  8
0
100
AcDbBlockEnd
  0
BLOCK
  5
16E
330
16D
100
AcDbEntity
  8
0
100
AcDbBlockBegin
  2
_D_2
 70
     0
 10
0.0
 20
0.0
 30
0.0
  3
_D_2
  1

  0
SOLID
  5
170
330
16D
100
AcDbEntity
  8
0
  6
Continuous
 62
     7
370
     0
100
AcDbTrace
 10
1.098288553799321
 20
7.011198601807136
 30
0.0
 11
1.088288553799321
 21
6.931198601807136
 31
0.0
 12
1.108288553799321
 22
6.931198601807136
 32
0.0
 13
1.108288553799321
 23
6.931198601807136
 33
0.0
  0
SOLID
  5
171
330
16D
100
AcDbEntity
  8
0
  6
Continuous
 62
     7
370
     0
100
AcDbTrace
 10
1.098288553799323
 20
6.361198601807136
 30
0.0
 11
1.108288553799323
 21
6.441198601807136
 31
0.0
 12
1.088288553799323
 22
6.441198601807136
 32
0.0
 13
1.088288553799323
 23
6.441198601807136
 33
0.0
  0
LINE
  5
172
330
16D
100
AcDbEntity
  8
0
  6
Continuous
 62
     7
370
     0
100
AcDbLine
 10
1.232702338778889
 20
7.011198601807137
 30
0.0
 11
1.018288553799321
 21
7.011198601807136
 31
0.0
  0
LINE
  5
173
330
16D
100
AcDbEntity
  8
0
  6
Continuous
 62
     7
370
     0
100
AcDbLine
 10
1.232702338778891
 20
6.361198601807137
 30
0.0
 11
1.018288553799323
 21
6.361198601807136
 31
0.0
  0
LINE
  5
174
330
16D
100
AcDbEntity
  8
0
  6
Continuous
 62
     7
370
     0
100
AcDbLine
 10
1.098288553799321
 20
7.011198601807136
 30
0.0
 11
1.098288553799322
 21
6.766401603683309
 31
0.0
  0
LINE
  5
175
330
16D
100
AcDbEntity
  8
0
  6
Continuous
 62
     7
370
     0
100
AcDbLine
 10
1.098288553799323
 20
6.361198601807136
 30
0.0
 11
1.098288553799322
 21
6.605995599930965
 31
0.0
  0
MTEXT
  5
176
330
16D
100
AcDbEntity
  8
0
  6
Continuous
 62
     7
370
     0
100
AcDbMText
 10
0.9646168840057017
 20
6.74242193339519
 30
-0.0000000000000496
 40
0.1058333333333333
 41
0.0
 71
     1
 72
     1
  1
0.65
  7
SLDTEXTSTYLE0
 73
     1
 44
1.0
1001
ACAD
1000
MTEXTBEGIN
1070
    73
1070
     1
1070
    44
1040
1.0
1070
    74
1070
     0
1000
MTEXTEND
  0
ENDBLK
  5
16F
330
16D
100
AcDbEntity
  8
0
100
AcDbBlockEnd
  0
BLOCK
  5
179
330
178
100
AcDbEntity
  8
0
100
AcDbBlockBegin
  2
_D_3
 70
     0
 10
0.0
 20
0.0
 30
0.0
  3
_D_3
  1

  0
SOLID
  5
17B
330
178
100
AcDbEntity
  8
0
  6
Continuous
 62
     7
370
     0
100
AcDbTrace
 10
1.572702338778885
 20
7.974252645173618
 30
0.0
 11
1.652702338778885
 21
7.964252645173618
 31
0.0
 12
1.652702338778885
 22
7.984252645173618
 32
0.0
 13
1.652702338778885
 23
7.984252645173618
 33
0.0
  0
SOLID
  5
17C
330
178
100
AcDbEntity
  8
0
  6
Continuous
 62
     7
370
     0
100
AcDbTrace
 10
4.572702338778886
 20
7.974252645173629
 30
0.0
 11
4.492702338778886
 21
7.984252645173629
 31
0.0
 12
4.492702338778886
 22
7.96425264517363
 32
0.0
 13
4.492702338778886
 23
7.96425264517363
 33
0.0
  0
LINE
  5
17D
330
178
100
AcDbEntity
  8
0
  6
Continuous
 62
     7
370
     0
100
AcDbLine
 10
1.572702338778887
 20
7.596198601807139
 30
0.0
 11
1.572702338778885
 21
8.054252645173619
 31
0.0
  0
LINE
  5
17E
330
178
100
AcDbEntity
  8
0
  6
Continuous
 62
     7
370
     0
100
AcDbLine
 10
4.572702338778888
 20
7.596198601807149
 30
0.0
 11
4.572702338778885
 21
8.05425264517363
 31
0.0
  0
LINE
  5
17F
330
178
100
AcDbEntity
  8
0
  6
Continuous
 62
     7
370
     0
100
AcDbLine
 10
1.572702338778885
 20
7.974252645173618
 30
0.0
 11
2.971774271236671
 21
7.974252645173622
 31
0.0
  0
LINE
  5
180
330
178
100
AcDbEntity
  8
0
  6
Continuous
 62
     7
370
     0
100
AcDbLine
 10
4.572702338778886
 20
7.974252645173629
 30
0.0
 11
3.1736304063211
 21
7.974252645173623
 31
0.0
  0
MTEXT
  5
181
330
178
100
AcDbEntity
  8
0
  6
Continuous
 62
     7
370
     0
100
AcDbMText
 10
3.035274271236671
 20
8.030475976761676
 30
-0.0000000000000586
 40
0.1058333333333333
 41
0.0
 71
     1
 72
     1
  1
3
  7
SLDTEXTSTYLE0
 73
     1
 44
1.0
1001
ACAD
1000
MTEXTBEGIN
1070
    73
1070
     1
1070
    44
1040
1.0
1070
    74
1070
     0
1000
MTEXTEND
  0
ENDBLK
  5
17A
330
178
100
AcDbEntity
  8
0
100
AcDbBlockEnd
  0
BLOCK
  5
184
330
183
100
AcDbEntity
  8
0
100
AcDbBlockBegin
  2
_D_4
 70
     0
 10
0.0
 20
0.0
 30
0.0
  3
_D_4
  1

  0
SOLID
  5
186
330
183
100
AcDbEntity
  8
0
  6
Continuous
 62
     7
370
     0
100
AcDbTrace
 10
2.392702338778898
 20
4.09998554851543
 30
0.0
 11
2.472702338778898
 21
4.08998554851543
 31
0.0
 12
2.472702338778898
 22
4.10998554851543
 32
0.0
 13
2.472702338778898
 23
4.10998554851543
 33
0.0
  0
SOLID
  5
187
330
183
100
AcDbEntity
  8
0
  6
Continuous
 62
     7
370
     0
100
AcDbTrace
 10
3.752702338778898
 20
4.099985548515435
 30
0.0
 11
3.672702338778898
 21
4.109985548515434
 31
0.0
 12
3.672702338778898
 22
4.089985548515435
 32
0.0
 13
3.672702338778898
 23
4.089985548515435
 33
0.0
  0
LINE
  5
188
330
183
100
AcDbEntity
  8
0
  6
Continuous
 62
     7
370
     0
100
AcDbLine
 10
2.392702338778896
 20
4.876198601807141
 30
0.0
 11
2.392702338778899
 21
4.01998554851543
 31
0.0
  0
LINE
  5
189
330
183
100
AcDbEntity
  8
0
  6
Continuous
 62
     7
370
     0
100
AcDbLine
 10
3.752702338778895
 20
4.876198601807146
 30
0.0
 11
3.752702338778898
 21
4.019985548515434
 31
0.0
  0
LINE
  5
18A
330
183
100
AcDbEntity
  8
0
  6
Continuous
 62
     7
370
     0
100
AcDbLine
 10
2.392702338778898
 20
4.09998554851543
 30
0.0
 11
2.875530668985278
 21
4.099985548515432
 31
0.0
  0
LINE
  5
18B
330
183
100
AcDbEntity
  8
0
  6
Continuous
 62
     7
370
     0
100
AcDbLine
 10
3.752702338778898
 20
4.099985548515435
 30
0.0
 11
3.26987400857252
 21
4.099985548515433
 31
0.0
  0
MTEXT
  5
18C
330
183
100
AcDbEntity
  8
0
  6
Continuous
 62
     7
370
     0
100
AcDbMText
 10
2.939030668985278
 20
4.156208880103486
 30
-0.0000000000000315
 40
0.1058333333333333
 41
0.0
 71
     1
 72
     1
  1
1.36
  7
SLDTEXTSTYLE0
 73
     1
 44
1.0
1001
ACAD
1000
MTEXTBEGIN
1070
    73
1070
     1
1070
    44
1040
1.0
1070
    74
1070
     0
1000
MTEXTEND
  0
ENDBLK
  5
185
330
183
100
AcDbEntity
  8
0
100
AcDbBlockEnd
  0
BLOCK
  5
18F
330
18E
100
AcDbEntity
  8
0
100
AcDbBlockBegin
  2
_D_5
 70
     0
 10
0.0
 20
0.0
 30
0.0
  3
_D_5
  1

  0
SOLID
  5
191
330
18E
100
AcDbEntity
  8
0
  6
Continuous
 62
     7
370
     0
100
AcDbTrace
 10
2.467702338778898
 20
4.313432696252318
 30
0.0
 11
2.547702338778898
 21
4.303432696252318
 31
0.0
 12
2.547702338778898
 22
4.323432696252318
 32
0.0
 13
2.547702338778898
 23
4.323432696252318
 33
0.0
  0
SOLID
  5
192
330
18E
100
AcDbEntity
  8
0
  6
Continuous
 62
     7
370
     0
100
AcDbTrace
 10
3.677702338778898
 20
4.313432696252323
 30
0.0
 11
3.597702338778898
 21
4.323432696252322
 31
0.0
 12
3.597702338778898
 22
4.303432696252323
 32
0.0
 13
3.597702338778898
 23
4.303432696252323
 33
0.0
  0
LINE
  5
193
330
18E
100
AcDbEntity
  8
0
  6
Continuous
 62
     7
370
     0
100
AcDbLine
 10
2.467702338778896
 20
4.951198601807141
 30
0.0
 11
2.467702338778898
 21
4.233432696252318
 31
0.0
  0
LINE
  5
194
330
18E
100
AcDbEntity
  8
0
  6
Continuous
 62
     7
370
     0
100
AcDbLine
 10
3.677702338778896
 20
4.951198601807146
 30
0.0
 11
3.677702338778898
 21
4.233432696252322
 31
0.0
  0
LINE
  5
195
330
18E
100
AcDbEntity
  8
0
  6
Continuous
 62
     7
370
     0
100
AcDbLine
 10
2.467702338778898
 20
4.313432696252318
 30
0.0
 11
2.875530668985277
 21
4.31343269625232
 31
0.0
  0
LINE
  5
196
330
18E
100
AcDbEntity
  8
0
  6
Continuous
 62
     7
370
     0
100
AcDbLine
 10
3.677702338778898
 20
4.313432696252323
 30
0.0
 11
3.269874008572519
 21
4.313432696252322
 31
0.0
  0
MTEXT
  5
197
330
18E
100
AcDbEntity
  8
0
  6
Continuous
 62
     7
370
     0
100
AcDbMText
 10
2.939030668985278
 20
4.369656027840372
 30
-0.000000000000033
 40
0.1058333333333333
 41
0.0
 71
     1
 72
     1
  1
1.21
  7
SLDTEXTSTYLE0
 73
     1
 44
1.0
1001
ACAD
1000
MTEXTBEGIN
1070
    73
1070
     1
1070
    44
1040
1.0
1070
    74
1070
     0
1000
MTEXTEND
  0
ENDBLK
  5
190
330
18E
100
AcDbEntity
  8
0
100
AcDbBlockEnd
  0
BLOCK
  5
19B
330
19A
100
AcDbEntity
  8
0
100
AcDbBlockBegin
  2
_D_6
 70
     0
 10
0.0
 20
0.0
 30
0.0
  3
_D_6
  1

  0
SOLID
  5
19D
330
19A
100
AcDbEntity
  8
0
  6
Continuous
 62
     7
370
     0
100
AcDbTrace
 10
7.572702338778903
 20
4.936198601807156
 30
0.0
 11
7.582702338778902
 21
5.016198601807156
 31
0.0
 12
7.562702338778903
 22
5.016198601807156
 32
0.0
 13
7.562702338778903
 23
5.016198601807156
 33
0.0
  0
SOLID
  5
19E
330
19A
100
AcDbEntity
  8
0
  6
Continuous
 62
     7
370
     0
100
AcDbTrace
 10
7.572702338778897
 20
7.136198601807155
 30
0.0
 11
7.562702338778898
 21
7.056198601807155
 31
0.0
 12
7.582702338778897
 22
7.056198601807155
 32
0.0
 13
7.582702338778897
 23
7.056198601807155
 33
0.0
  0
LINE
  5
19F
330
19A
100
AcDbEntity
  8
0
  6
Continuous
 62
     7
370
     0
100
AcDbLine
 10
3.812702338778896
 20
4.936198601807147
 30
0.0
 11
7.652702338778903
 21
4.936198601807156
 31
0.0
  0
LINE
  5
1A0
330
19A
100
AcDbEntity
  8
0
  6
Continuous
 62
     7
370
     0
100
AcDbLine
 10
3.812702338778888
 20
7.136198601807146
 30
0.0
 11
7.652702338778897
 21
7.136198601807155
 31
0.0
  0
LINE
  5
1A1
330
19A
100
AcDbEntity
  8
0
  6
Continuous
 62
     7
370
     0
100
AcDbLine
 10
7.572702338778903
 20
4.936198601807156
 30
0.0
 11
7.5727023387789
 21
5.955995599930984
 31
0.0
  0
LINE
  5
1A2
330
19A
100
AcDbEntity
  8
0
  6
Continuous
 62
     7
370
     0
100
AcDbLine
 10
7.572702338778897
 20
7.136198601807155
 30
0.0
 11
7.5727023387789
 21
6.116401603683328
 31
0.0
  0
MTEXT
  5
1A3
330
19A
100
AcDbEntity
  8
0
  6
Continuous
 62
     7
370
     0
100
AcDbMText
 10
7.43903066898528
 20
6.092421933395209
 30
-0.000000000000045
 40
0.1058333333333333
 41
0.0
 71
     1
 72
     1
  1
2.20
  7
SLDTEXTSTYLE0
 73
     1
 44
1.0
1001
ACAD
1000
MTEXTBEGIN
1070
    73
1070
     1
1070
    44
1040
1.0
1070
    74
1070
     0
1000
MTEXTEND
  0
ENDBLK
  5
19C
330
19A
100
AcDbEntity
  8
0
100
AcDbBlockEnd
  0
BLOCK
  5
1A6
330
1A5
100
AcDbEntity
  8
0
100
AcDbBlockBegin
  2
_D_7
 70
     0
 10
0.0
 20
0.0
 30
0.0
  3
_D_7
  1

  0
SOLID
  5
1A8
330
1A5
100
AcDbEntity
  8
0
  6
Continuous
 62
     7
370
     0
100
AcDbTrace
 10
7.156577428809636
 20
5.011198601807159
 30
0.0
 11
7.166577428809635
 21
5.091198601807159
 31
0.0
 12
7.146577428809636
 22
5.091198601807159
 32
0.0
 13
7.146577428809636
 23
5.091198601807159
 33
0.0
  0
SOLID
  5
1A9
330
1A5
100
AcDbEntity
  8
0
  6
Continuous
 62
     7
370
     0
100
AcDbTrace
 10
7.156577428809627
 20
7.061198601807157
 30
0.0
 11
7.146577428809627
 21
6.981198601807157
 31
0.0
 12
7.166577428809627
 22
6.981198601807157
 32
0.0
 13
7.166577428809627
 23
6.981198601807157
 33
0.0
  0
LINE
  5
1AA
330
1A5
100
AcDbEntity
  8
0
  6
Continuous
 62
     7
370
     0
100
AcDbLine
 10
3.737702338778896
 20
5.011198601807146
 30
0.0
 11
7.236577428809636
 21
5.011198601807159
 31
0.0
  0
LINE
  5
1AB
330
1A5
100
AcDbEntity
  8
0
  6
Continuous
 62
     7
370
     0
100
AcDbLine
 10
3.737702338778889
 20
7.061198601807145
 30
0.0
 11
7.236577428809627
 21
7.061198601807157
 31
0.0
  0
LINE
  5
1AC
330
1A5
100
AcDbEntity
  8
0
  6
Continuous
 62
     7
370
     0
100
AcDbLine
 10
7.156577428809636
 20
5.011198601807159
 30
0.0
 11
7.156577428809632
 21
5.955995599930986
 31
0.0
  0
LINE
  5
1AD
330
1A5
100
AcDbEntity
  8
0
  6
Continuous
 62
     7
370
     0
100
AcDbLine
 10
7.156577428809627
 20
7.061198601807157
 30
0.0
 11
7.156577428809631
 21
6.116401603683331
 31
0.0
  0
MTEXT
  5
1AE
330
1A5
100
AcDbEntity
  8
0
  6
Continuous
 62
     7
370
     0
100
AcDbMText
 10
7.022905759016014
 20
6.092421933395212
 30
-0.000000000000045
 40
0.1058333333333333
 41
0.0
 71
     1
 72
     1
  1
2.05
  7
SLDTEXTSTYLE0
 73
     1
 44
1.0
1001
ACAD
1000
MTEXTBEGIN
1070
    73
1070
     1
1070
    44
1040
1.0
1070
    74
1070
     0
1000
MTEXTEND
  0
ENDBLK
  5
1A7
330
1A5
100
AcDbEntity
  8
0
100
AcDbBlockEnd
  0
BLOCK
  5
1B1
330
1B0
100
AcDbEntity
  8
0
100
AcDbBlockBegin
  2
_D_8
 70
     0
 10
0.0
 20
0.0
 30
0.0
  3
_D_8
  1

  0
SOLID
  5
1B3
330
1B0
100
AcDbEntity
  8
0
  6
Continuous
 62
     7
370
     0
100
AcDbTrace
 10
1.111621887132655
 20
4.911198601807137
 30
0.0
 11
1.121621887132655
 21
4.991198601807137
 31
0.0
 12
1.101621887132655
 22
4.991198601807137
 32
0.0
 13
1.101621887132655
 23
4.991198601807137
 33
0.0
  0
SOLID
  5
1B4
330
1B0
100
AcDbEntity
  8
0
  6
Continuous
 62
     7
370
     0
100
AcDbTrace
 10
1.111621887132654
 20
5.211198601807137
 30
0.0
 11
1.101621887132654
 21
5.131198601807137
 31
0.0
 12
1.121621887132654
 22
5.131198601807137
 32
0.0
 13
1.121621887132654
 23
5.131198601807137
 33
0.0
  0
LINE
  5
1B5
330
1B0
100
AcDbEntity
  8
0
  6
Continuous
 62
     7
370
     0
100
AcDbLine
 10
1.312702338778896
 20
4.911198601807138
 30
0.0
 11
1.031621887132655
 21
4.911198601807137
 31
0.0
  0
LINE
  5
1B6
330
1B0
100
AcDbEntity
  8
0
  6
Continuous
 62
     7
370
     0
100
AcDbLine
 10
1.312702338778895
 20
5.211198601807138
 30
0.0
 11
1.031621887132654
 21
5.211198601807137
 31
0.0
  0
LINE
  5
1B7
330
1B0
100
AcDbEntity
  8
0
  6
Continuous
 62
     7
370
     0
100
AcDbLine
 10
0.9916218871326554
 20
4.760624607284468
 30
0.0
 11
1.111621887132655
 21
4.760624607284468
 31
0.0
  0
LINE
  5
1B8
330
1B0
100
AcDbEntity
  8
0
  6
Continuous
 62
     7
370
     0
100
AcDbLine
 10
1.111621887132655
 20
4.760624607284468
 30
0.0
 11
1.111621887132655
 21
4.911198601807137
 31
0.0
  0
LINE
  5
1B9
330
1B0
100
AcDbEntity
  8
0
  6
Continuous
 62
     7
370
     0
100
AcDbLine
 10
1.111621887132655
 20
4.911198601807137
 30
0.0
 11
1.111621887132654
 21
5.211198601807137
 31
0.0
  0
MTEXT
  5
1BA
330
1B0
100
AcDbEntity
  8
0
  6
Continuous
 62
     7
370
     0
100
AcDbMText
 10
0.735634682629841
 20
4.81684793887252
 30
-0.0000000000000361
 40
0.1058333333333333
 41
0.0
 71
     1
 72
     1
  1
0.3
  7
SLDTEXTSTYLE0
 73
     1
 44
1.0
1001
ACAD
1000
MTEXTBEGIN
1070
    73
1070
     1
1070
    44
1040
1.0
1070
    74
1070
     0
1000
MTEXTEND
  0
ENDBLK
  5
1B2
330
1B0
100
AcDbEntity
  8
0
100
AcDbBlockEnd
  0
BLOCK
  5
1BE
330
1BD
100
AcDbEntity
  8
0
100
AcDbBlockBegin
  2
_DOT
 70
     0
 10
0.0
 20
0.0
 30
0.0
  3
_DOT
  1

  0
POLYLINE
  5
1C0
330
1BD
100
AcDbEntity
  8
0
  6
ByBlock
 62
     0
100
AcDb2dPolyline
 66
     1
 10
0.0
 20
0.0
 30
0.0
 70
     1
 40
0.5
 41
0.5
  0
VERTEX
  5
1C2
330
1C0
100
AcDbEntity
  8
0
  6
ByBlock
 62
     0
100
AcDbVertex
100
AcDb2dVertex
 10
-0.25
 20
0.0
 30
0.0
 42
1.0
  0
VERTEX
  5
1C3
330
1C0
100
AcDbEntity
  8
0
  6
ByBlock
 62
     0
100
AcDbVertex
100
AcDb2dVertex
 10
0.25
 20
0.0
 30
0.0
 42
1.0
  0
SEQEND
  5
1C4
330
1C0
100
AcDbEntity
  8
0
  6
ByBlock
 62
     0
  0
LINE
  5
1C1
330
1BD
100
AcDbEntity
  8
0
  6
ByBlock
 62
     0
370
    -2
100
AcDbLine
 10
-0.5
 20
0.0
 30
0.0
 11
-1.0
 21
0.0
 31
0.0
  0
ENDBLK
  5
1BF
330
1BD
100
AcDbEntity
  8
0
100
AcDbBlockEnd
  0
BLOCK
  5
1CC
330
1CB
100
AcDbEntity
  8
0
100
AcDbBlockBegin
  2
SW_NOTE_22
 70
     0
 10
0.0
 20
0.0
 30
0.0
  3
SW_NOTE_22
  1

  0
MTEXT
  5
1CE
330
1CB
100
AcDbEntity
  8
0
  6
Continuous
 62
     0
370
     0
100
AcDbMText
 10
0.0220497858061025
 20
0.0622321341840282
 30
0.0
 40
0.127
 41
0.0
 71
     1
 72
     1
  1
PCB THERMAL PAD
  7
SLDTEXTSTYLE0
 73
     1
 44
1.0
1001
ACAD
1000
MTEXTBEGIN
1070
    73
1070
     1
1070
    44
1040
1.0
1070
    74
1070
     0
1000
MTEXTEND
  0
MTEXT
  5
1CF
330
1CB
100
AcDbEntity
  8
0
  6
Continuous
 62
     0
370
     0
100
AcDbMText
 10
0.0220497858061025
 20
-0.1047678615244374
 30
0.0
 40
0.127
 41
0.0
 71
     1
 72
     1
  1
DESIGN OPTIONAL
  7
SLDTEXTSTYLE0
 73
     1
 44
1.0
1001
ACAD
1000
MTEXTBEGIN
1070
    73
1070
     1
1070
    44
1040
1.0
1070
    74
1070
     0
1000
MTEXTEND
  0
MTEXT
  5
1D1
330
1CB
100
AcDbEntity
  8
0
  6
Continuous
 62
     0
370
     0
100
AcDbMText
 10
0.0220497858061025
 20
-0.271767857232903
 30
0.0
 40
0.127
 41
0.0
 71
     1
 72
     1
  1
SEE NOTE 7, 8
  7
SLDTEXTSTYLE4
 73
     1
 44
1.0
1001
ACAD
1000
MTEXTBEGIN
1070
    73
1070
     1
1070
    44
1040
1.0
1070
    74
1070
     0
1000
MTEXTEND
  0
ENDBLK
  5
1CD
330
1CB
100
AcDbEntity
  8
0
100
AcDbBlockEnd
  0
BLOCK
  5
1D7
330
1D6
100
AcDbEntity
  8
0
100
AcDbBlockBegin
  2
SW_NOTE_23
 70
     0
 10
0.0
 20
0.0
 30
0.0
  3
SW_NOTE_23
  1

  0
MTEXT
  5
1D9
330
1D6
100
AcDbEntity
  8
0
  6
Continuous
 62
     0
370
     0
100
AcDbMText
 10
0.0205661034472438
 20
0.0766350751715272
 30
0.0
 40
0.127
 41
0.0
 71
     1
 72
     1
  1
COMPONENT
  7
SLDTEXTSTYLE0
 73
     1
 44
1.0
1001
ACAD
1000
MTEXTBEGIN
1070
    73
1070
     1
1070
    44
1040
1.0
1070
    74
1070
     0
1000
MTEXTEND
  0
MTEXT
  5
1DA
330
1D6
100
AcDbEntity
  8
0
  6
Continuous
 62
     0
370
     0
100
AcDbMText
 10
0.0205661034472438
 20
-0.0903649205369384
 30
0.0
 40
0.127
 41
0.0
 71
     1
 72
     1
  1
PAD
  7
SLDTEXTSTYLE0
 73
     1
 44
1.0
1001
ACAD
1000
MTEXTBEGIN
1070
    73
1070
     1
1070
    44
1040
1.0
1070
    74
1070
     0
1000
MTEXTEND
  0
ENDBLK
  5
1D8
330
1D6
100
AcDbEntity
  8
0
100
AcDbBlockEnd
  0
BLOCK
  5
234
330
233
100
AcDbEntity
  8
0
100
AcDbBlockBegin
  2
_D_9
 70
     0
 10
0.0
 20
0.0
 30
0.0
  3
_D_9
  1

  0
SOLID
  5
236
330
233
100
AcDbEntity
  8
0
  6
Continuous
 62
     7
370
     0
100
AcDbTrace
 10
8.178061598197825
 20
5.624456873992214
 30
0.0
 11
8.168061598197825
 21
5.544456873992213
 31
0.0
 12
8.188061598197824
 22
5.544456873992213
 32
0.0
 13
8.188061598197824
 23
5.544456873992213
 33
0.0
  0
SOLID
  5
237
330
233
100
AcDbEntity
  8
0
  6
Continuous
 62
     7
370
     0
100
AcDbTrace
 10
8.17806159819783
 20
4.324456873992213
 30
0.0
 11
8.18806159819783
 21
4.404456873992213
 31
0.0
 12
8.16806159819783
 22
4.404456873992213
 32
0.0
 13
8.16806159819783
 23
4.404456873992213
 33
0.0
  0
LINE
  5
238
330
233
100
AcDbEntity
  8
0
  6
Continuous
 62
     7
370
     0
100
AcDbLine
 10
8.748386701726422
 20
5.624456873992215
 30
0.0
 11
8.098061598197825
 21
5.624456873992214
 31
0.0
  0
LINE
  5
239
330
233
100
AcDbEntity
  8
0
  6
Continuous
 62
     7
370
     0
100
AcDbLine
 10
8.748386701726428
 20
4.324456873992216
 30
0.0
 11
8.09806159819783
 21
4.324456873992213
 31
0.0
  0
LINE
  5
23A
330
233
100
AcDbEntity
  8
0
  6
Continuous
 62
     7
370
     0
100
AcDbLine
 10
8.178061598197825
 20
5.624456873992214
 30
0.0
 11
8.178061598197828
 21
5.054659875868385
 31
0.0
  0
LINE
  5
23B
330
233
100
AcDbEntity
  8
0
  6
Continuous
 62
     7
370
     0
100
AcDbLine
 10
8.17806159819783
 20
4.324456873992213
 30
0.0
 11
8.178061598197828
 21
4.89425387211604
 31
0.0
  0
MTEXT
  5
23C
330
233
100
AcDbEntity
  8
0
  6
Continuous
 62
     7
370
     0
100
AcDbMText
 10
8.044389928404207
 20
5.030680205580264
 30
-0.0000000000000376
 40
0.1058333333333333
 41
0.0
 71
     1
 72
     1
  1
0.65
  7
SLDTEXTSTYLE0
 73
     1
 44
1.0
1001
ACAD
1000
MTEXTBEGIN
1070
    73
1070
     1
1070
    44
1040
1.0
1070
    74
1070
     0
1000
MTEXTEND
  0
ENDBLK
  5
235
330
233
100
AcDbEntity
  8
0
100
AcDbBlockEnd
  0
BLOCK
  5
240
330
23F
100
AcDbEntity
  8
0
100
AcDbBlockBegin
  2
_D_10
 70
     0
 10
0.0
 20
0.0
 30
0.0
  3
_D_10
  1

  0
SOLID
  5
242
330
23F
100
AcDbEntity
  8
0
  6
Continuous
 62
     7
370
     0
100
AcDbTrace
 10
10.18838670172642
 20
5.32445687399222
 30
0.0
 11
10.19838670172642
 21
5.40445687399222
 31
0.0
 12
10.17838670172642
 22
5.40445687399222
 32
0.0
 13
10.17838670172642
 23
5.40445687399222
 33
0.0
  0
SOLID
  5
243
330
23F
100
AcDbEntity
  8
0
  6
Continuous
 62
     7
370
     0
100
AcDbTrace
 10
10.18838670172642
 20
5.92445687399222
 30
0.0
 11
10.17838670172642
 21
5.84445687399222
 31
0.0
 12
10.19838670172642
 22
5.84445687399222
 32
0.0
 13
10.19838670172642
 23
5.84445687399222
 33
0.0
  0
LINE
  5
244
330
23F
100
AcDbEntity
  8
0
  6
Continuous
 62
     7
370
     0
100
AcDbLine
 10
9.848386701726422
 20
5.324456873992219
 30
0.0
 11
10.02996673567773
 21
5.324456873992219
 31
0.0
  0
LINE
  5
245
330
23F
100
AcDbEntity
  8
0
  6
Continuous
 62
     7
370
     0
100
AcDbLine
 10
10.06996673567774
 20
5.324456873992219
 30
0.0
 11
10.26838670172642
 21
5.32445687399222
 31
0.0
  0
LINE
  5
246
330
23F
100
AcDbEntity
  8
0
  6
Continuous
 62
     7
370
     0
100
AcDbLine
 10
9.848386701726422
 20
5.924456873992218
 30
0.0
 11
10.26838670172642
 21
5.92445687399222
 31
0.0
  0
LINE
  5
247
330
23F
100
AcDbEntity
  8
0
  6
Continuous
 62
     7
370
     0
100
AcDbLine
 10
10.18838670172642
 20
5.32445687399222
 30
0.0
 11
10.18838670172642
 21
5.544253872116047
 31
0.0
  0
LINE
  5
248
330
23F
100
AcDbEntity
  8
0
  6
Continuous
 62
     7
370
     0
100
AcDbLine
 10
10.18838670172642
 20
5.92445687399222
 30
0.0
 11
10.18838670172642
 21
5.704659875868393
 31
0.0
  0
MTEXT
  5
249
330
23F
100
AcDbEntity
  8
0
  6
Continuous
 62
     7
370
     0
100
AcDbMText
 10
10.0547150319328
 20
5.680680205580273
 30
-0.0000000000000422
 40
0.1058333333333333
 41
0.0
 71
     1
 72
     1
  1
0.30
  7
SLDTEXTSTYLE0
 73
     1
 44
1.0
1001
ACAD
1000
MTEXTBEGIN
1070
    73
1070
     1
1070
    44
1040
1.0
1070
    74
1070
     0
1000
MTEXTEND
  0
ENDBLK
  5
241
330
23F
100
AcDbEntity
  8
0
100
AcDbBlockEnd
  0
BLOCK
  5
24D
330
24C
100
AcDbEntity
  8
0
100
AcDbBlockBegin
  2
_D_11
 70
     0
 10
0.0
 20
0.0
 30
0.0
  3
_D_11
  1

  0
SOLID
  5
24F
330
24C
100
AcDbEntity
  8
0
  6
Continuous
 62
     7
370
     0
100
AcDbTrace
 10
9.78838670172642
 20
6.19007167063165
 30
0.0
 11
9.70838670172642
 21
6.20007167063165
 31
0.0
 12
9.70838670172642
 22
6.18007167063165
 32
0.0
 13
9.70838670172642
 23
6.18007167063165
 33
0.0
  0
SOLID
  5
250
330
24C
100
AcDbEntity
  8
0
  6
Continuous
 62
     7
370
     0
100
AcDbTrace
 10
9.388386701726421
 20
6.190071670631649
 30
0.0
 11
9.468386701726421
 21
6.180071670631649
 31
0.0
 12
9.468386701726421
 22
6.200071670631649
 32
0.0
 13
9.468386701726421
 23
6.200071670631649
 33
0.0
  0
LINE
  5
251
330
24C
100
AcDbEntity
  8
0
  6
Continuous
 62
     7
370
     0
100
AcDbLine
 10
9.788386701726421
 20
5.984456873992218
 30
0.0
 11
9.78838670172642
 21
6.27007167063165
 31
0.0
  0
LINE
  5
252
330
24C
100
AcDbEntity
  8
0
  6
Continuous
 62
     7
370
     0
100
AcDbLine
 10
9.78838670172642
 20
6.19007167063165
 30
0.0
 11
10.08390718646014
 21
6.190071670631651
 31
0.0
  0
LINE
  5
253
330
24C
100
AcDbEntity
  8
0
  6
Continuous
 62
     7
370
     0
100
AcDbLine
 10
9.388386701726421
 20
6.190071670631649
 30
0.0
 11
9.78838670172642
 21
6.19007167063165
 31
0.0
  0
MTEXT
  5
254
330
24C
100
AcDbEntity
  8
0
  6
Continuous
 62
     7
370
     0
100
AcDbMText
 10
10.14740718646014
 20
6.246295002219706
 30
-0.0000000000000461
 40
0.1058333333333333
 41
0.0
 71
     1
 72
     1
  1
0.20
  7
SLDTEXTSTYLE0
 73
     1
 44
1.0
1001
ACAD
1000
MTEXTBEGIN
1070
    73
1070
     1
1070
    44
1040
1.0
1070
    74
1070
     0
1000
MTEXTEND
  0
ENDBLK
  5
24E
330
24C
100
AcDbEntity
  8
0
100
AcDbBlockEnd
  0
BLOCK
  5
257
330
256
100
AcDbEntity
  8
0
100
AcDbBlockBegin
  2
_D_12
 70
     0
 10
0.0
 20
0.0
 30
0.0
  3
_D_12
  1

  0
SOLID
  5
259
330
256
100
AcDbEntity
  8
0
  6
Continuous
 62
     7
370
     0
100
AcDbTrace
 10
9.78838670172642
 20
6.627190961451852
 30
0.0
 11
9.70838670172642
 21
6.637190961451851
 31
0.0
 12
9.70838670172642
 22
6.617190961451852
 32
0.0
 13
9.70838670172642
 23
6.617190961451852
 33
0.0
  0
SOLID
  5
25A
330
256
100
AcDbEntity
  8
0
  6
Continuous
 62
     7
370
     0
100
AcDbTrace
 10
8.588386701726419
 20
6.627190961451847
 30
0.0
 11
8.668386701726419
 21
6.617190961451847
 31
0.0
 12
8.668386701726419
 22
6.637190961451847
 32
0.0
 13
8.668386701726419
 23
6.637190961451847
 33
0.0
  0
LINE
  5
25B
330
256
100
AcDbEntity
  8
0
  6
Continuous
 62
     7
370
     0
100
AcDbLine
 10
9.788386701726421
 20
5.984456873992218
 30
0.0
 11
9.78838670172642
 21
6.707190961451852
 31
0.0
  0
LINE
  5
25C
330
256
100
AcDbEntity
  8
0
  6
Continuous
 62
     7
370
     0
100
AcDbLine
 10
8.588386701726422
 20
5.684456873992216
 30
0.0
 11
8.588386701726419
 21
6.707190961451847
 31
0.0
  0
LINE
  5
25D
330
256
100
AcDbEntity
  8
0
  6
Continuous
 62
     7
370
     0
100
AcDbLine
 10
9.78838670172642
 20
6.627190961451852
 30
0.0
 11
9.385558371520039
 21
6.627190961451851
 31
0.0
  0
LINE
  5
25E
330
256
100
AcDbEntity
  8
0
  6
Continuous
 62
     7
370
     0
100
AcDbLine
 10
8.588386701726419
 20
6.627190961451847
 30
0.0
 11
8.991215031932796
 21
6.62719096145185
 31
0.0
  0
MTEXT
  5
25F
330
256
100
AcDbEntity
  8
0
  6
Continuous
 62
     7
370
     0
100
AcDbMText
 10
9.054715031932795
 20
6.683414293039903
 30
-0.0000000000000492
 40
0.1058333333333333
 41
0.0
 71
     1
 72
     1
  1
0.60
  7
SLDTEXTSTYLE0
 73
     1
 44
1.0
1001
ACAD
1000
MTEXTBEGIN
1070
    73
1070
     1
1070
    44
1040
1.0
1070
    74
1070
     0
1000
MTEXTEND
  0
ENDBLK
  5
258
330
256
100
AcDbEntity
  8
0
100
AcDbBlockEnd
  0
BLOCK
  5
263
330
262
100
AcDbEntity
  8
0
100
AcDbBlockBegin
  2
_D_13
 70
     0
 10
0.0
 20
0.0
 30
0.0
  3
_D_13
  1

  0
SOLID
  5
265
330
262
100
AcDbEntity
  8
0
  6
Continuous
 62
     7
370
     0
100
AcDbTrace
 10
8.629379392843718
 20
4.173079154544018
 30
0.0
 11
8.555264853160055
 21
4.141345339653922
 31
0.0
 12
8.565356701123269
 22
4.124078185728407
 32
0.0
 13
8.565356701123269
 23
4.124078185728407
 33
0.0
  0
LINE
  5
266
330
262
100
AcDbEntity
  8
0
  6
Continuous
 62
     7
370
     0
100
AcDbLine
 10
8.629379392843718
 20
4.173079154544018
 30
0.0
 11
8.173602095093656
 21
3.906698533057729
 31
0.0
  0
LINE
  5
267
330
262
100
AcDbEntity
  8
0
  6
Continuous
 62
     7
370
     0
100
AcDbLine
 10
8.173602095093656
 20
3.906698533057729
 30
0.0
 11
8.053602095093657
 21
3.906698533057729
 31
0.0
  0
MTEXT
  5
268
330
262
100
AcDbEntity
  8
0
  6
Continuous
 62
     7
370
     0
100
AcDbMText
 10
7.6372088868385
 20
3.962921864645781
 30
-0.0000000000000302
 40
0.1058333333333333
 41
0.0
 71
     1
 72
     1
  1
R
  7
SLDTEXTSTYLE0
 73
     1
 44
1.0
1001
ACAD
1000
MTEXTBEGIN
1070
    73
1070
     1
1070
    44
1040
1.0
1070
    74
1070
     0
1000
MTEXTEND
  0
MTEXT
  5
269
330
262
100
AcDbEntity
  8
0
  6
Continuous
 62
     7
370
     0
100
AcDbMText
 10
7.722758755506415
 20
3.962921864645781
 30
-0.0000000000000302
 40
0.1058333333333333
 41
0.0
 71
     1
 72
     1
  1
0.15
  7
SLDTEXTSTYLE0
 73
     1
 44
1.0
1001
ACAD
1000
MTEXTBEGIN
1070
    73
1070
     1
1070
    44
1040
1.0
1070
    74
1070
     0
1000
MTEXTEND
  0
ENDBLK
  5
264
330
262
100
AcDbEntity
  8
0
100
AcDbBlockEnd
  0
BLOCK
  5
26D
330
26C
100
AcDbEntity
  8
0
100
AcDbBlockBegin
  2
_D_14
 70
     0
 10
0.0
 20
0.0
 30
0.0
  3
_D_14
  1

  0
SOLID
  5
26F
330
26C
100
AcDbEntity
  8
0
  6
Continuous
 62
     7
370
     0
100
AcDbTrace
 10
9.78838670172643
 20
3.343518337525879
 30
0.0
 11
9.70838670172643
 21
3.353518337525878
 31
0.0
 12
9.70838670172643
 22
3.333518337525879
 32
0.0
 13
9.70838670172643
 23
3.333518337525879
 33
0.0
  0
SOLID
  5
270
330
26C
100
AcDbEntity
  8
0
  6
Continuous
 62
     7
370
     0
100
AcDbTrace
 10
9.938386701726431
 20
3.34351833752588
 30
0.0
 11
10.01838670172643
 21
3.333518337525881
 31
0.0
 12
10.01838670172643
 22
3.35351833752588
 32
0.0
 13
10.01838670172643
 23
3.35351833752588
 33
0.0
  0
LINE
  5
271
330
26C
100
AcDbEntity
  8
0
  6
Continuous
 62
     7
370
     0
100
AcDbLine
 10
9.788386701726427
 20
3.964456873992219
 30
0.0
 11
9.78838670172643
 21
3.263518337525879
 31
0.0
  0
LINE
  5
272
330
26C
100
AcDbEntity
  8
0
  6
Continuous
 62
     7
370
     0
100
AcDbLine
 10
9.938386701726427
 20
3.81445687399222
 30
0.0
 11
9.938386701726431
 21
3.26351833752588
 31
0.0
  0
LINE
  5
273
330
26C
100
AcDbEntity
  8
0
  6
Continuous
 62
     7
370
     0
100
AcDbLine
 10
9.78838670172643
 20
3.343518337525879
 30
0.0
 11
9.522186784923839
 21
3.343518337525877
 31
0.0
  0
LINE
  5
274
330
26C
100
AcDbEntity
  8
0
  6
Continuous
 62
     7
370
     0
100
AcDbLine
 10
9.938386701726431
 20
3.34351833752588
 30
0.0
 11
10.09838670172643
 21
3.343518337525881
 31
0.0
  0
MTEXT
  5
275
330
26C
100
AcDbEntity
  8
0
  6
Continuous
 62
     7
370
     0
100
AcDbMText
 10
8.539025696743722
 20
3.4799446709901
 30
-0.0000000000000268
 40
0.1058333333333333
 41
0.0
 71
     1
 72
     1
  1
0.060~
  7
SLDTEXTSTYLE0
 73
     1
 44
1.0
1001
ACAD
1000
MTEXTBEGIN
1070
    73
1070
     1
1070
    44
1040
1.0
1070
    74
1070
     0
1000
MTEXTEND
  0
MTEXT
  5
276
330
26C
100
AcDbEntity
  8
0
  6
Continuous
 62
     7
370
     0
100
AcDbMText
 10
8.966775040083307
 20
3.4799446709901
 30
-0.0000000000000268
 40
0.1058333333333333
 41
0.0
 71
     1
 72
     1
  1
0.075
  7
SLDTEXTSTYLE0
 73
     1
 44
1.0
1001
ACAD
1000
MTEXTBEGIN
1070
    73
1070
     1
1070
    44
1040
1.0
1070
    74
1070
     0
1000
MTEXTEND
  0
MTEXT
  5
277
330
26C
100
AcDbEntity
  8
0
  6
Continuous
 62
     7
370
     0
100
AcDbMText
 10
8.405188426574866
 20
3.319538667237755
 30
-0.0000000000000257
 40
0.1058333333333333
 41
0.0
 71
     1
 72
     1
  1
MASK OPENING
  7
SLDTEXTSTYLE0
 73
     1
 44
1.0
1001
ACAD
1000
MTEXTBEGIN
1070
    73
1070
     1
1070
    44
1040
1.0
1070
    74
1070
     0
1000
MTEXTEND
  0
ENDBLK
  5
26E
330
26C
100
AcDbEntity
  8
0
100
AcDbBlockEnd
  0
BLOCK
  5
27B
330
27A
100
AcDbEntity
  8
0
100
AcDbBlockBegin
  2
_D_15
 70
     0
 10
0.0
 20
0.0
 30
0.0
  3
_D_15
  1

  0
SOLID
  5
27D
330
27A
100
AcDbEntity
  8
0
  6
Continuous
 62
     7
370
     0
100
AcDbTrace
 10
10.04996673567774
 20
4.77445687399222
 30
0.0
 11
10.03996673567774
 21
4.69445687399222
 31
0.0
 12
10.05996673567774
 22
4.69445687399222
 32
0.0
 13
10.05996673567774
 23
4.69445687399222
 33
0.0
  0
SOLID
  5
27E
330
27A
100
AcDbEntity
  8
0
  6
Continuous
 62
     7
370
     0
100
AcDbTrace
 10
10.04996673567774
 20
5.17445687399222
 30
0.0
 11
10.05996673567774
 21
5.25445687399222
 31
0.0
 12
10.03996673567774
 22
5.25445687399222
 32
0.0
 13
10.03996673567774
 23
5.25445687399222
 33
0.0
  0
LINE
  5
27F
330
27A
100
AcDbEntity
  8
0
  6
Continuous
 62
     7
370
     0
100
AcDbLine
 10
9.998386701726424
 20
4.774456873992219
 30
0.0
 11
10.12996673567774
 21
4.774456873992221
 31
0.0
  0
LINE
  5
280
330
27A
100
AcDbEntity
  8
0
  6
Continuous
 62
     7
370
     0
100
AcDbLine
 10
9.998386701726424
 20
5.17445687399222
 30
0.0
 11
10.12996673567774
 21
5.17445687399222
 31
0.0
  0
LINE
  5
281
330
27A
100
AcDbEntity
  8
0
  6
Continuous
 62
     7
370
     0
100
AcDbLine
 10
10.04996673567774
 20
4.77445687399222
 30
0.0
 11
10.04996673567774
 21
4.61445687399222
 31
0.0
  0
LINE
  5
282
330
27A
100
AcDbEntity
  8
0
  6
Continuous
 62
     7
370
     0
100
AcDbLine
 10
10.04996673567774
 20
5.17445687399222
 30
0.0
 11
10.04996673567774
 21
5.33445687399222
 31
0.0
  0
MTEXT
  5
283
330
27A
100
AcDbEntity
  8
0
  6
Continuous
 62
     7
370
     0
100
AcDbMText
 10
9.493892589336274
 20
5.030680205580271
 30
-0.0000000000000376
 40
0.1058333333333333
 41
0.0
 71
     1
 72
     1
  1
0.185~
  7
SLDTEXTSTYLE0
 73
     1
 44
1.0
1001
ACAD
1000
MTEXTBEGIN
1070
    73
1070
     1
1070
    44
1040
1.0
1070
    74
1070
     0
1000
MTEXTEND
  0
MTEXT
  5
284
330
27A
100
AcDbEntity
  8
0
  6
Continuous
 62
     7
370
     0
100
AcDbMText
 10
9.921641932675861
 20
5.030680205580271
 30
-0.0000000000000376
 40
0.1058333333333333
 41
0.0
 71
     1
 72
     1
  1
0.200
  7
SLDTEXTSTYLE0
 73
     1
 44
1.0
1001
ACAD
1000
MTEXTBEGIN
1070
    73
1070
     1
1070
    44
1040
1.0
1070
    74
1070
     0
1000
MTEXTEND
  0
MTEXT
  5
285
330
27A
100
AcDbEntity
  8
0
  6
Continuous
 62
     7
370
     0
100
AcDbMText
 10
10.30352890734753
 20
5.030680205580271
 30
-0.0000000000000376
 40
0.1058333333333333
 41
0.0
 71
     1
 72
     1
  1
MIN.
  7
SLDTEXTSTYLE0
 73
     1
 44
1.0
1001
ACAD
1000
MTEXTBEGIN
1070
    73
1070
     1
1070
    44
1040
1.0
1070
    74
1070
     0
1000
MTEXTEND
  0
ENDBLK
  5
27C
330
27A
100
AcDbEntity
  8
0
100
AcDbBlockEnd
  0
BLOCK
  5
287
330
286
100
AcDbEntity
  8
0
100
AcDbBlockBegin
  2
SW_NOTE_24
 70
     0
 10
0.0
 20
0.0
 30
0.0
  3
SW_NOTE_24
  1

  0
MTEXT
  5
289
330
286
100
AcDbEntity
  8
0
  6
Continuous
 62
     0
370
     0
100
AcDbMText
 10
0.3413124999999995
 20
0.1637116029510394
 30
0.0
 40
0.127
 41
0.0
 71
     2
 72
     1
  1
DETAIL A
  7
SLDTEXTSTYLE0
 73
     1
 44
1.0
1001
ACAD
1000
MTEXTBEGIN
1070
    73
1070
     1
1070
    44
1040
1.0
1070
    74
1070
     0
1000
MTEXTEND
  0
MTEXT
  5
28A
330
286
100
AcDbEntity
  8
0
  6
Continuous
 62
     0
370
     0
100
AcDbMText
 10
0.3623910216093062
 20
-0.0032883927574262
 30
0.0
 40
0.127
 41
0.0
 71
     2
 72
     1
  1
SCALE 50 : 1
  7
SLDTEXTSTYLE1
 73
     1
 44
1.0
1001
ACAD
1000
MTEXTBEGIN
1070
    73
1070
     1
1070
    44
1040
1.0
1070
    74
1070
     0
1000
MTEXTEND
  0
ENDBLK
  5
288
330
286
100
AcDbEntity
  8
0
100
AcDbBlockEnd
  0
ENDSEC
  0
SECTION
  2
ENTITIES
  0
OLE2FRAME
  5
54
330
1F
100
AcDbEntity
  8
0
100
AcDbOle2Frame
 70
     2
  3
Paintbrush Picture
 10
8.022819673604535
 20
2.361064018356127
 30
0.0
 11
8.776239578718438
 21
2.044627658208288
 31
0.0
 71
     2
 72
     0
 73
     2
 90
    40576
310
80557BAC2F05AF0B2040B6D0348875E302400000000000000000BCE928466F8D
310
2140B6D0348875E302400000000000000000BCE928466F8D21406803E4BE655B
310
004000000000000000007BAC2F05AF0B20406803E4BE655B0040000000000000
310
00000000000001000000000100000100000001000000000001000000009E0000
310
D0CF11E0A1B11AE1000000000000000000000000000000003E000300FEFF0900
310
0600000000000000000000000100000001000000000000000010000002000000
310
01000000FEFFFFFF0000000000000000FFFFFFFFFFFFFFFFFFFFFFFFFFFFFFFF
310
FFFFFFFFFFFFFFFFFFFFFFFFFFFFFFFFFFFFFFFFFFFFFFFFFFFFFFFFFFFFFFFF
310
FFFFFFFFFFFFFFFFFFFFFFFFFFFFFFFFFFFFFFFFFFFFFFFFFFFFFFFFFFFFFFFF
310
FFFFFFFFFFFFFFFFFFFFFFFFFFFFFFFFFFFFFFFFFFFFFFFFFFFFFFFFFFFFFFFF
310
FFFFFFFFFFFFFFFFFFFFFFFFFFFFFFFFFFFFFFFFFFFFFFFFFFFFFFFFFFFFFFFF
310
FFFFFFFFFFFFFFFFFFFFFFFFFFFFFFFFFFFFFFFFFFFFFFFFFFFFFFFFFFFFFFFF
310
FFFFFFFFFFFFFFFFFFFFFFFFFFFFFFFFFFFFFFFFFFFFFFFFFFFFFFFFFFFFFFFF
310
FFFFFFFFFFFFFFFFFFFFFFFFFFFFFFFFFFFFFFFFFFFFFFFFFFFFFFFFFFFFFFFF
310
FFFFFFFFFFFFFFFFFFFFFFFFFFFFFFFFFFFFFFFFFFFFFFFFFFFFFFFFFFFFFFFF
310
FFFFFFFFFFFFFFFFFFFFFFFFFFFFFFFFFFFFFFFFFFFFFFFFFFFFFFFFFFFFFFFF
310
FFFFFFFFFFFFFFFFFFFFFFFFFFFFFFFFFFFFFFFFFFFFFFFFFFFFFFFFFFFFFFFF
310
FFFFFFFFFFFFFFFFFFFFFFFFFFFFFFFFFFFFFFFFFFFFFFFFFFFFFFFFFFFFFFFF
310
FFFFFFFFFFFFFFFFFFFFFFFFFFFFFFFFFFFFFFFFFFFFFFFFFFFFFFFFFFFFFFFF
310
FFFFFFFFFFFFFFFFFFFFFFFFFFFFFFFFFFFFFFFFFFFFFFFFFFFFFFFFFFFFFFFF
310
FDFFFFFFFEFFFFFFFEFFFFFFFEFFFFFF05000000060000000700000008000000
310
090000000A0000000B0000000C0000000D0000000E0000000F00000010000000
310
1100000012000000130000001400000015000000160000001700000018000000
310
190000001A0000001B0000001C0000001D0000001E0000001F00000020000000
310
2100000022000000230000002400000025000000260000002700000028000000
310
290000002A0000002B0000002C0000002D0000002E0000002F00000030000000
310
3100000032000000330000003400000035000000360000003700000038000000
310
390000003A0000003B0000003C0000003D0000003E0000003F00000040000000
310
4100000042000000430000004400000045000000460000004700000048000000
310
490000004A0000004B0000004C0000004D000000FEFFFFFFFFFFFFFFFFFFFFFF
310
FFFFFFFFFFFFFFFFFFFFFFFFFFFFFFFFFFFFFFFFFFFFFFFFFFFFFFFFFFFFFFFF
310
FFFFFFFFFFFFFFFFFFFFFFFFFFFFFFFFFFFFFFFFFFFFFFFFFFFFFFFFFFFFFFFF
310
FFFFFFFFFFFFFFFFFFFFFFFFFFFFFFFFFFFFFFFFFFFFFFFFFFFFFFFFFFFFFFFF
310
FFFFFFFFFFFFFFFFFFFFFFFFFFFFFFFFFFFFFFFFFFFFFFFFFFFFFFFFFFFFFFFF
310
FFFFFFFFFFFFFFFFFFFFFFFFFFFFFFFFFFFFFFFFFFFFFFFFFFFFFFFFFFFFFFFF
310
FFFFFFFFFFFFFFFFFFFFFFFFFFFFFFFFFFFFFFFFFFFFFFFFFFFFFFFFFFFFFFFF
310
52006F006F007400200045006E00740072007900000000000000000000000000
310
0000000000000000000000000000000000000000000000000000000000000000
310
16000500FFFFFFFFFFFFFFFF020000000A00030000000000C000000000000046
310
000000000000000000000000E0CDB52511D7CD0103000000C000000000000000
310
01004F006C006500310030004E00610074006900760065000000000000000000
310
0000000000000000000000000000000000000000000000000000000000000000
310
1A000200FFFFFFFFFFFFFFFFFFFFFFFF00000000000000000000000000000000
310
000000000000000000000000000000000000000004000000E493000000000000
310
010043006F006D0070004F0062006A0000000000000000000000000000000000
310
0000000000000000000000000000000000000000000000000000000000000000
310
120002010300000001000000FFFFFFFF00000000000000000000000000000000
310
0000000000000000000000000000000000000000000000004D00000000000000
310
01004F006C006500000000000000000000000000000000000000000000000000
310
0000000000000000000000000000000000000000000000000000000000000000
310
0A000200FFFFFFFFFFFFFFFFFFFFFFFF00000000000000000000000000000000
310
0000000000000000000000000000000000000000020000001400000000000000
310
01000000FEFFFFFFFEFFFFFFFFFFFFFFFFFFFFFFFFFFFFFFFFFFFFFFFFFFFFFF
310
FFFFFFFFFFFFFFFFFFFFFFFFFFFFFFFFFFFFFFFFFFFFFFFFFFFFFFFFFFFFFFFF
310
FFFFFFFFFFFFFFFFFFFFFFFFFFFFFFFFFFFFFFFFFFFFFFFFFFFFFFFFFFFFFFFF
310
FFFFFFFFFFFFFFFFFFFFFFFFFFFFFFFFFFFFFFFFFFFFFFFFFFFFFFFFFFFFFFFF
310
FFFFFFFFFFFFFFFFFFFFFFFFFFFFFFFFFFFFFFFFFFFFFFFFFFFFFFFFFFFFFFFF
310
FFFFFFFFFFFFFFFFFFFFFFFFFFFFFFFFFFFFFFFFFFFFFFFFFFFFFFFFFFFFFFFF
310
FFFFFFFFFFFFFFFFFFFFFFFFFFFFFFFFFFFFFFFFFFFFFFFFFFFFFFFFFFFFFFFF
310
FFFFFFFFFFFFFFFFFFFFFFFFFFFFFFFFFFFFFFFFFFFFFFFFFFFFFFFFFFFFFFFF
310
FFFFFFFFFFFFFFFFFFFFFFFFFFFFFFFFFFFFFFFFFFFFFFFFFFFFFFFFFFFFFFFF
310
FFFFFFFFFFFFFFFFFFFFFFFFFFFFFFFFFFFFFFFFFFFFFFFFFFFFFFFFFFFFFFFF
310
FFFFFFFFFFFFFFFFFFFFFFFFFFFFFFFFFFFFFFFFFFFFFFFFFFFFFFFFFFFFFFFF
310
FFFFFFFFFFFFFFFFFFFFFFFFFFFFFFFFFFFFFFFFFFFFFFFFFFFFFFFFFFFFFFFF
310
FFFFFFFFFFFFFFFFFFFFFFFFFFFFFFFFFFFFFFFFFFFFFFFFFFFFFFFFFFFFFFFF
310
FFFFFFFFFFFFFFFFFFFFFFFFFFFFFFFFFFFFFFFFFFFFFFFFFFFFFFFFFFFFFFFF
310
FFFFFFFFFFFFFFFFFFFFFFFFFFFFFFFFFFFFFFFFFFFFFFFFFFFFFFFFFFFFFFFF
310
FFFFFFFFFFFFFFFFFFFFFFFFFFFFFFFFFFFFFFFFFFFFFFFFFFFFFFFFFFFFFFFF
310
0100FEFF030A0000FFFFFFFF0A00030000000000C00000000000004607000000
310
5042727573680007000000504272757368000700000050427275736800F439B2
310
7100000000000000000000000000000000000000000000000000000000000000
310
0000000000000000000000000000000000000000000000000000000000000000
310
0100000200000000000000000000000000000000000000000000000000000000
310
0000000000000000000000000000000000000000000000000000000000000000
310
0000000000000000000000000000000000000000000000000000000000000000
310
0000000000000000000000000000000000000000000000000000000000000000
310
0000000000000000000000000000000000000000000000000000000000000000
310
0000000000000000000000000000000000000000000000000000000000000000
310
0000000000000000000000000000000000000000000000000000000000000000
310
0000000000000000000000000000000000000000000000000000000000000000
310
0000000000000000000000000000000000000000000000000000000000000000
310
0000000000000000000000000000000000000000000000000000000000000000
310
0000000000000000000000000000000000000000000000000000000000000000
310
0000000000000000000000000000000000000000000000000000000000000000
310
E0930000424DDE930000000000003600000028000000960000003F0000000100
310
20000000000000000000C40E0000C40E00000000000000000000D9D7D6FFBEBC
310
BBFFA09D9CFF8F8D8BFF858381FF82807EFF8A8886FF9A9796FFBCB9B8FFEDEC
310
EBFFFFFFFFFFFFFFFFFFFFFFFFFFF7F7F7FFBDBBBAFF949190FF858381FF7E7C
310
7BFF858381FF989694FFC1BFBDFFFDFDFDFFF7F7F7FFA8A6A4FF989694FFA4A1
310
A0FFF4F3F3FFFFFFFFFFEEEEEDFFA09D9CFF989594FFADAAA9FFF7F7F7FFFFFF
310
FFFFE0DFDEFF9D9A99FF989694FFB8B6B5FFFFFFFFFFFEFDFEFFB6B4B2FF9694
310
92FF9E9C9AFFE5E4E4FFFFFFFFFFFFFFFFFFFFFFFFFFD6D5D4FF9E9C9AFF8684
310
83FF817E7DFF858381FF9B9997FFD6D5D4FFFFFFFFFFFFFFFFFFEEEEEDFFABA8
310
A7FF898685FF7D7A79FF7E7C7BFF908E8CFFBCBAB9FFF6F6F6FFFFFFFFFFFFFF
310
FFFFCDCCCBFF989694FF989694FFCBC9C8FFFFFFFFFFFFFFFFFFD9D7D6FF9A97
310
96FF989594FFC2C0BFFFFFFFFFFFFFFFFFFFFCFCFCFFBAB8B6FF868483FF8280
310
7EFF9B9997FFC7C5C4FFA6A4A2FF989694FFABA8A7FFF8F8F8FFFFFFFFFFFFFF
310
FFFFD0CECDFF8C8A88FF82807EFF8D8B89FFBEBCBBFFC3C1C0FF9B9997FF9895
310
94FFD0CECDFFFFFFFFFFFFFFFFFFFFFFFFFFE8E7E6FFABA8A7FF8C8988FF8280
310
7EFF82807EFF949190FFC6C4C3FFFCFCFCFFFFFFFFFFE5E4E3FF9E9C9AFF8C89
310
88FF8A8886FF898685FFD1CFCEFFFFFFFFFFFFFFFFFFD9D7D6FF9B9997FF8381
310
80FF7B7877FF838180FF9D9A99FFD0CECDFFFFFFFFFFFFFFFFFFFCFBFBFFB2B0
310
AEFF969492FFA09D9CFFEAEAE9FFFFFFFFFFFFFFFFFFFFFFFFFFFFFFFFFFFFFF
310
FFFFFFFFFFFFFFFFFFFFFFFFFFFFFFFFFFFFFFFFFFFFFFFFFFFFFFFFFFFFFFFF
310
FFFFFFFFFFFFFFFFFFFFFFFFFFFFFFFFFFFF868483FF6A6766FF646261FF615F
310
5FFF636160FF676564FF646261FF605E5DFF666463FF7B7877FFD6D5D4FFFFFF
310
FFFFF8F8F8FF969492FF646261FF646261FF666463FF6F6D6CFF6E6C6BFF605E
310
5DFF605E5DFFDBDAD9FFFEFDFEFF8D8B89FF605E5DFF666463FFD9D7D6FFFFFF
310
FFFFF2F2F1FF7D7A79FF5D5B5AFF706E6DFFE6E5E5FFFFFFFFFFE8E7E6FF6F6D
310
6CFF615F5FFF7D7A79FFF5F4F4FFFFFFFFFFA8A6A4FF5D5B5AFF605E5DFFBEBC
310
BBFFFFFFFFFFFFFFFFFFD0CECDFF6D6B6AFF676564FF646261FF6C6A69FF6E6C
310
6BFF5A5858FF858381FFFEFDFEFFF7F7F7FF8D8B89FF636160FF666463FF716F
310
6EFF767473FF636160FF636160FF8D8B89FFEDECEBFFFFFFFFFFCCCAC9FF6462
310
61FF605E5DFF989594FFFFFFFFFFFFFFFFFFD9D7D6FF696766FF5D5B5AFF8986
310
85FFFCFCFCFFFFFFFFFFC8C6C5FF646261FF6A6766FF666463FF676564FF6866
310
65FF666463FF666463FF6C6A69FFE4E3E2FFFFFFFFFFF4F3F3FF7A7776FF6664
310
63FF6B6968FF636160FF605E5DFF686665FF686665FF605E5DFF9B9997FFFFFF
310
FFFFFFFFFFFFE8E7E6FF7E7C7BFF636160FF666463FF696766FF706E6DFF605E
310
5DFF6A6867FFE8E7E6FFFFFFFFFF9E9C9AFF605E5DFF6A6867FF6B6968FF6A67
310
66FF9B9997FFFFFFFFFFDEDDDCFF716F6EFF666463FF686665FF787574FF6E6C
310
6BFF615F5FFF686665FFADAAA9FFFBFBFCFFFEFDFEFFA09D9CFF5D5B5AFF615F
310
5FFFC8C6C5FFFFFFFFFFFFFFFFFFFFFFFFFFFFFFFFFFFFFFFFFFFFFFFFFFFFFF
310
FFFFFFFFFFFFFFFFFFFFFFFFFFFFFFFFFFFFFFFFFFFFFFFFFFFFFFFFFFFFFFFF
310
FFFFFFFFFFFFFFFFFFFFADAAA9FF6B6968FF747170FFA4A1A0FFC7C5C4FFD3D1
310
D0FFCDCCCBFFA29F9EFF6F6D6CFF666463FF817E7DFFF2F2F1FFCDCCCBFF6664
310
63FF6B6968FF7E7C7BFFC9C8C6FFE4E3E2FFE3E2E1FFCECDCBFF8F8D8BFFBEBC
310
BBFFFFFFFFFFB2B0AEFF676564FF686665FFB8B6B5FFFFFFFFFFFDFDFDFFA09D
310
9CFF666463FF6A6766FFCECDCBFFFFFFFFFFFCFCFCFF8D8B89FF676564FF716F
310
6EFFDDDBDAFFFFFFFFFFCDCCCBFF6B6968FF666463FFA09D9CFFFFFFFFFFFDFD
310
FDFF8F8D8BFF666463FF6A6867FF9A9796FFDBDAD9FFE0DFDEFFBCB9B8FF8381
310
80FFE8E7E6FFD5D3D2FF676564FF6B6968FF817E7DFFDDDBDAFFE9E9E8FFA6A4
310
A2FF6A6867FF646261FF989694FFFDFDFDFFEDECEBFF787574FF696766FF8583
310
81FFF5F4F4FFFFFFFFFFF0EFEFFF82807EFF686665FF797776FFEEEEEDFFFFFF
310
FFFF9E9C9AFF666463FF6B6968FF949190FFD6D5D4FFCDCCCBFF868483FF6C6A
310
69FF6A6766FFC8C6C5FFFFFFFFFFEBEAEAFF72706FFF6D6B6AFF706E6DFFAFAC
310
ABFFC8C6C5FF9D9A99FF6F6D6CFF6A6867FF858381FFF9F9F9FFFFFFFFFFB0AD
310
ACFF646261FF6C6A69FF868483FFD4D2D1FFE3E2E1FFCCCAC9FF858381FFCCCA
310
C9FFFFFFFFFF989594FF676564FF696766FFB6B4B2FFE7E6E5FFDEDDDCFFFFFF
310
FFFFA8A6A4FF666463FF6A6867FFA09D9CFFECEBEBFFDDDCDBFF858381FF6967
310
66FF676564FFC3C1C0FFFFFFFFFFC7C5C4FF6A6766FF666463FFA8A6A4FFFFFF
310
FFFFFFFFFFFFFFFFFFFFFFFFFFFFFFFFFFFFFFFFFFFFFFFFFFFFFFFFFFFFFFFF
310
FFFFFFFFFFFFFFFFFFFFFFFFFFFFFFFFFFFFFFFFFFFFFFFFFFFFFFFFFFFFFFFF
310
FFFFD9D7D6FFA6A4A2FFE3E2E1FFFFFFFFFFFFFFFFFFFFFFFFFFFFFFFFFFFCFC
310
FCFF817E7DFF6A6867FF6A6867FFD7D6D5FFB8B6B5FF666463FF6A6766FFB8B6
310
B5FFFFFFFFFFFDFDFDFFFDFDFDFFFFFFFFFFF1F0F0FFEDECEBFFFFFFFFFFCECD
310
CBFF6A6867FF686665FF9E9C9AFFFFFFFFFFFFFFFFFFBDBBBAFF686665FF6664
310
63FFAFACABFFFFFFFFFFFFFFFFFFA8A6A4FF676564FF696766FFC2C0BFFFFFFF
310
FFFFE4E3E2FF767473FF666463FF858381FFFCFBFBFFF1F0F0FF7E7C7BFF6B69
310
68FF706E6DFFDEDDDCFFFFFFFFFFFFFFFFFFFFFFFFFFE9E9E8FFF6F5F5FFC1BF
310
BDFF666463FF686665FFA4A1A0FFFFFFFFFFFFFFFFFFF8F8F8FF868483FF6967
310
66FF6B6968FFD7D6D5FFFEFDFEFF8C8A88FF676564FF737170FFDDDCDBFFFFFF
310
FFFFFEFDFEFF9A9796FF686665FF6B6968FFD1CFCEFFFFFFFFFF9B9997FF6664
310
63FF6A6766FFC6C4C3FFFFFFFFFFFFFFFFFFC1BFBDFF686665FF666463FFA8A6
310
A4FFFFFFFFFFF6F5F5FF817E7DFF676564FF767473FFE8E7E6FFFFFFFFFFF9F9
310
F9FF898685FF696766FF72706FFFE4E3E2FFFFFFFFFF989694FF676564FF6A67
310
66FFC2C0BFFFFFFFFFFFFFFFFFFFFFFFFFFFF1F0F0FFEBEAEAFFFFFFFFFFB2B0
310
AEFF686665FF676564FFC2C0BFFFFFFFFFFFFFFFFFFFFCFCFCFF989694FF6866
310
65FF6A6867FFCDCCCBFFFFFFFFFFFFFFFFFFD7D6D5FF716F6EFF676564FF8381
310
80FFFBFAFAFFE1E0DFFF72706FFF666463FF8C8A88FFFEFDFEFFFFFFFFFFFFFF
310
FFFFFFFFFFFFFFFFFFFFFFFFFFFFFFFFFFFFF5F4F7FFDFDBE4FFFFFFFFFFFFFF
310
FFFFDFDBE4FFF8F7FAFFFFFFFFFFFAF9FBFFDFDCE5FFFCFCFCFFFFFFFFFFFFFF
310
FFFFFFFFFFFFFFFFFFFFFFFFFFFFF8F8F8FFDAD9D8FFAFACABFF72706FFF6D6B
310
6AFF6A6766FFD5D3D2FFBAB8B6FF666463FF716E6DFF838180FF8A8886FF8986
310
85FF898685FF8A8886FF8C8A88FF928F8EFFEAEAE9FFEDEDECFF767473FF6967
310
66FF858381FFF5F4F4FFFFFFFFFFD6D5D4FF6E6C6BFF676564FF928F8EFFFFFF
310
FFFFFFFFFFFFC8C6C5FF696766FF676564FFA4A1A0FFFFFFFFFFF8F8F8FF8A88
310
86FF686665FF737170FFE8E7E6FFF7F7F7FF82807EFF6A6867FF72706FFFE4E3
310
E2FFFFFFFFFFFFFFFFFFFFFFFFFFFFFFFFFFFFFFFFFFC8C6C5FF676564FF6866
310
65FF9B9997FFFFFFFFFFFFFFFFFFFFFFFFFFB2B0AEFF676564FF676564FFB0AD
310
ACFFFFFFFFFFABA8A7FF666463FF6A6867FFC6C4C3FFFFFFFFFFFFFFFFFFB6B4
310
B2FF676564FF676564FFB6B4B2FFFFFFFFFFA4A1A0FF666463FF696766FFC1BF
310
BDFFFFFFFFFFFFFFFFFFDEDDDCFF716E6DFF696766FF8D8B89FFFEFDFEFFFEFD
310
FEFF9A9796FF666463FF6D6A6AFFD3D1D0FFFFFFFFFFFFFFFFFFA4A1A0FF6765
310
64FF6A6867FFC7C5C4FFFFFFFFFF9D9A99FF666463FF6A6867FFC9C8C6FFFFFF
310
FFFFFFFFFFFFFFFFFFFFFFFFFFFFFFFFFFFFFFFFFFFFCDCCCBFF6C6A69FF6765
310
64FF9E9C9AFFFFFFFFFFFFFFFFFFFDFDFDFF9E9C9AFF686665FF696766FFC6C4
310
C3FFFFFFFFFFFFFFFFFFF8F8F8FF8C8988FF6A6766FF6D6B6AFFDEDDDCFFF8F8
310
F8FF838180FF696766FF787574FFEDECEBFFFFFFFFFFFFFFFFFFFFFFFFFFFFFF
310
FFFFFFFFFFFFFFFFFFFFECEAEFFF8A769DFFEAE7EDFFFFFFFFFF9584A7FFD1CA
310
D8FFFFFFFFFFFCFBFBFF8F7CA2FFDFDBE4FFFFFFFFFFFFFFFFFFFFFFFFFFE3E2
310
E1FFAFACABFF898685FF716F6EFF686665FF6B6968FF636160FF82807EFFF2F2
310
F1FFCDCCCBFF676564FF6F6D6CFF737170FF7E7C7BFF7B7978FF7D7A79FF7270
310
6FFF676564FF666463FFCCCAC9FFFFFFFFFF8A8886FF666463FF747170FFE3E2
310
E1FFFFFFFFFFF0EFEFFF7E7C7BFF686665FF7B7978FFF6F5F5FFFFFFFFFFE7E6
310
E5FF747170FF666463FF8A8886FFF6F6F6FFFFFFFFFFA4A1A0FF676564FF6967
310
66FFC8C6C5FFFFFFFFFF969492FF676564FF6A6867FFC7C5C4FFFFFFFFFFFFFF
310
FFFFFFFFFFFFFFFFFFFFFFFFFFFFE1E0DFFF6F6D6CFF6A6766FF82807EFFF1F0
310
F0FFFFFFFFFFFFFFFFFFC7C5C4FF696766FF686665FFA09D9CFFFFFFFFFFC9C8
310
C6FF686665FF666463FFA8A6A4FFFFFFFFFFFFFFFFFFD1CFCEFF6B6968FF6866
310
65FF989694FFFFFFFFFFC7C5C4FF676564FF696766FF9D9A99FFFFFFFFFFFFFF
310
FFFFF6F6F6FF838180FF686665FF7A7776FFEAEAE9FFFFFFFFFFB8B6B5FF6866
310
65FF686665FFB6B4B2FFFFFFFFFFFFFFFFFFC2C0BFFF676564FF686665FFABA8
310
A7FFFFFFFFFFB8B6B5FF646261FF686665FFA6A4A2FFFFFFFFFFFFFFFFFFFFFF
310
FFFFFFFFFFFFFFFFFFFFFFFFFFFFE8E7E6FF787675FF686665FF858381FFF8F8
310
F8FFFFFFFFFFFFFFFFFFB6B4B2FF666463FF676564FFA4A1A0FFFFFFFFFFFFFF
310
FFFFFFFFFFFF989694FF696766FF686665FFC9C8C6FFFFFFFFFF9B9997FF6765
310
64FF6B6968FFCECDCBFFFFFFFFFFFFFFFFFFFFFFFFFFFFFFFFFFFFFFFFFFFFFF
310
FFFFFEFDFEFF9786A8FFC9C1D1FFFFFFFFFFA99BB7FFC0B6CAFFC5BCCEFFC5BC
310
CEFFA99BB7FFC0B6CAFFFFFFFFFFFFFFFFFFC9C8C6FF72706FFF666463FF6866
310
65FF646261FF676564FF747170FF9B9997FFE5E4E3FFFFFFFFFFF3F3F2FF817E
310
7DFF646261FF817E7DFFE5E4E3FFFDFDFDFFFFFFFFFFA6A4A2FF676564FF6866
310
65FFC2C0BFFFFFFFFFFFA8A6A4FF666463FF6C6A69FFB0ADACFFF1F0F0FFEBEA
310
EAFF82807EFF6B6968FF6D6B6AFFBDBBBAFFF5F4F4FFE0DFDEFF767473FF6967
310
66FF767473FFE8E7E6FFFFFFFFFFC2C0BFFF686665FF676564FFA8A6A4FFFFFF
310
FFFFD1CFCEFF6A6766FF6A6867FF82807EFFE0DFDEFFFFFFFFFFFFFFFFFFE1E0
310
DFFFB0ADACFFF1F0F0FF9A9796FF666463FF6B6968FFB4B1B0FFFFFFFFFFFFFF
310
FFFFB4B1B0FF686665FF676564FFA29F9EFFFFFFFFFFE5E4E4FF747170FF6765
310
64FF82807EFFDDDBDAFFF9F9F9FFCBC9C8FF6D6B6AFF6A6867FF838180FFF5F4
310
F4FFF5F4F4FF817E7DFF686665FF6F6D6CFFC4C2C0FFFDFDFDFFFFFFFFFF9B99
310
97FF676564FF6C6A69FFD0CECDFFFFFFFFFFD5D3D2FF6E6C6BFF666463FF9694
310
92FFFDFDFDFFFFFFFFFFE0DFDEFF706E6DFF686665FF8F8D8BFFFCFCFCFFEDED
310
ECFF797776FF676564FF716F6EFFCBC9C8FFFFFFFFFFFFFFFFFFF2F2F1FFB0AD
310
ACFFE3E2E1FFFFFFFFFF8D8B89FF686665FF72706FFFE1E0DFFFFFFFFFFFFFFF
310
FFFFE9E8E7FF767473FF696766FF767473FFDDDBDAFFFFFFFFFFFDFDFDFF8D8B
310
89FF6A6867FF686665FFCBC9C8FFFFFFFFFFBAB8B6FF676564FF6D6B6AFF8986
310
85FFB6B4B2FFBDBBBAFFB6B4B2FFECEBEBFFFFFFFFFFFFFFFFFFFFFFFFFFAEA1
310
BBFFA99BB7FFFFFFFFFFCDC6D5FFA394B2FF9584A7FF88749CFFA191B0FFB0A3
310
BDFFFFFFFFFFF0EFEFFF7D7A79FF676564FF6E6C6BFF747170FF9A9796FFC2C0
310
BFFFE3E2E1FFFDFDFDFFFFFFFFFFFFFFFFFFFFFFFFFFCCCAC9FF6B6968FF6361
310
60FF8C8988FFC4C2C0FFC1BFBDFF7E7C7BFF676564FF6D6B6AFFDBDAD9FFFFFF
310
FFFFC6C4C3FF676564FF6D6B6AFF6A6867FF7D7A79FF82807EFF6F6D6CFF6F6D
310
6CFF6B6968FF6B6968FF817E7DFF7E7C7BFF6F6D6CFF6C6A69FF6E6C6BFFE6E5
310
E5FFFFFFFFFFDDDBDAFF6E6C6BFF666463FF8C8988FFFCFCFCFFFEFDFEFFADAA
310
A9FF676564FF646261FF787675FFA4A1A0FFA6A4A2FF7A7776FF646261FFE1E0
310
DFFFE7E6E5FF7B7877FF636160FF6D6B6AFFA4A1A0FFB1AFADFF797776FF6A68
310
67FF646261FFC3C1C0FFFFFFFFFFF3F3F2FF858381FF676564FF6C6A69FF706E
310
6DFF868483FF7B7877FF6F6D6CFF696766FF7D7A79FFF0EFEFFFFFFFFFFFCBC9
310
C8FF6B6968FF666463FF6F6D6CFF9A9796FFA6A4A2FF7B7978FF6D6B6AFF6765
310
64FFB6B4B2FFFFFFFFFFEAEAE9FF7B7877FF646261FF7B7877FFF4F3F3FFFFFF
310
FFFFF4F3F3FF7E7C7BFF646261FF787675FFE8E7E6FFFFFFFFFFC9C8C6FF6C6A
310
69FF646261FF6E6C6BFF9B9997FFABA8A7FF898685FF605E5DFFBCBAB9FFC3C1
310
C0FF787574FF6D6B6AFF6F6D6CFF8F8D8BFF9D9A99FFA29F9EFFF2F2F1FFC3C1
310
C0FF686665FF646261FF7D7A79FFB0ADACFFA29F9EFF6F6D6CFF676564FF7674
310
73FFECEBEBFFFFFFFFFFD7D6D5FF6B6968FF6E6C6BFF6A6867FF615F5FFF6361
310
60FF5D5B5AFFC4C2C0FFFFFFFFFFFFFFFFFFFFFFFFFFCBC4D3FF9482A6FFFEFD
310
FEFFECEAEFFF7F6994FF9280A4FFD8D3DEFF7E6793FF9280A4FFFFFFFFFFE5E4
310
E3FF716F6EFF6B6968FF6F6D6CFFD7D6D5FFFFFFFFFFFFFFFFFFFFFFFFFFFFFF
310
FFFFFCFCFCFFEDEDECFFFEFDFEFFFFFFFFFFCDCCCBFF82807EFF666463FF605E
310
5DFF605E5DFF646261FF6D6B6AFFB0ADACFFFFFFFFFFFFFFFFFFE1E0DFFF716F
310
6EFF666463FF787675FF8C8A88FF676564FF666463FF646261FF8F8D8BFFCBC9
310
C8FF858381FF646261FF666463FF636160FF928F8EFFF6F5F5FFFFFFFFFFF6F6
310
F6FF7E7C7BFF646261FF767473FFE7E6E5FFFFFFFFFFFEFDFEFFBEBCBBFF817E
310
7DFF666463FF5D5B5AFF5D5B5AFF646261FF6B6968FFCDCCCBFFFFFFFFFFE1E0
310
DFFF8F8D8BFF6B6968FF5D5B5AFF5D5B5AFF646261FF6C6A69FFA4A1A0FFF9F9
310
F9FFFFFFFFFFFFFFFFFFA09D9CFF666463FF6B6968FF8C8A88FF767473FF6361
310
60FF666463FF646261FFA6A4A2FFFEFDFEFFFFFFFFFFFFFFFFFFC8C6C5FF7B78
310
77FF666463FF5D5B5AFF605E5DFF6F6D6CFF716F6EFF686665FF989594FFFDFD
310
FDFFFCFCFCFF928F8EFF646261FF6A6867FFD9D7D6FFFFFFFFFFFDFDFDFF9A97
310
96FF636160FF696766FFD1CFCEFFFFFFFFFFFFFFFFFFD3D1D0FF8A8886FF6A68
310
67FF605E5DFF5D5B5AFF615F5FFF676564FFB4B1B0FFB0ADACFF615F5FFF706E
310
6DFF716E6DFF6A6867FF615F5FFF615F5FFFD3D1D0FFFFFFFFFFC6C4C3FF7E7C
310
7BFF646261FF5D5B5AFF605E5DFF676564FF747170FFC7C5C4FFFFFFFFFFFFFF
310
FFFFF2F2F1FF7B7877FF666463FF7B7978FFB1AFADFF858381FF636160FFA4A1
310
A0FFFFFFFFFFFCFCFCFFB9AEC4FF9280A4FF7A628FFF9A89ABFFB9AEC4FF8C78
310
9FFF9A89ABFFFFFFFFFFB6AAC1FF7D6692FFFFFFFFFFF0EFEFFF7D7A79FF6765
310
64FF6F6D6CFFC3C1C0FFF6F5F5FFFBFAFAFFF3F3F2FFD9D7D6FF9B9997FF8C8A
310
88FFF7F7F7FFFFFFFFFFFFFFFFFFF1F0F0FFCDCCCBFFB6B4B2FFB1AFADFFBCB9
310
B8FFDAD9D8FFFFFFFFFFFFFFFFFFFFFFFFFFF9F9F9FFD7D6D5FFD0CECDFFDBDA
310
D9FFF8F8F8FFD1CFCEFFB4B1B0FFBCBAB9FFEBEAEAFFFFFFFFFFF7F7F7FFCCCA
310
C9FFB4B1B0FFBEBCBBFFF0EFEFFFFFFFFFFFFFFFFFFFFFFFFFFFDEDDDCFFD6D5
310
D4FFD9D7D6FFF7F7F7FFFFFFFFFFFFFFFFFFFFFFFFFFEEEEEDFFCDCCCBFFB8B6
310
B5FFB4B1B0FFC1BFBDFFDBDAD9FFF9F9F9FFFFFFFFFFFFFFFFFFF9F9F9FFD5D3
310
D2FFBAB8B6FFB1AFADFFB8B6B5FFD5D3D2FFFCFCFCFFFFFFFFFFFFFFFFFFFFFF
310
FFFFE8E7E6FFD1CFCEFFD1CFCEFFF0EFEFFFE9E8E7FFBEBCBBFFB2B0AEFFC7C5
310
C4FFF6F6F6FFFFFFFFFFFFFFFFFFFFFFFFFFFFFFFFFFE9E8E7FFC3C1C0FFB2B0
310
AEFFC3C1C0FFD1CFCEFF7D7A79FF666463FF7E7C7BFFF1F0F0FFFFFFFFFFE3E2
310
E1FFD1CFCEFFD1CFCEFFEEEEEDFFFFFFFFFFFFFFFFFFE6E5E5FFD0CECDFFD1CF
310
CEFFECEBEBFFFFFFFFFFFFFFFFFFFFFFFFFFF7F7F7FFD5D3D2FFBCBAB9FFB2B0
310
AEFFBCBAB9FFD3D1D0FFF6F5F5FFEFEEEEFFC1BFBDFF72706FFF6A6867FF8381
310
80FFCCCAC9FFD1CFCEFFEBEAEAFFFFFFFFFFFFFFFFFFEDEDECFFC9C8C6FFB6B4
310
B2FFB2B0AEFFBEBCBBFFE5E4E4FFFFFFFFFFFFFFFFFFFFFFFFFFFDFDFDFFDAD9
310
D8FFD0CECDFFD5D3D2FFFDFDFDFFF1F0F0FFD3D1D0FFDDDCDBFFFFFFFFFFFFFF
310
FFFFDBD6E0FFCFC8D6FFD6D1DDFFCDC6D5FFDBD6E0FFE5E2E9FFEAE7EDFFFFFF
310
FFFFFBFAFAFFDDD9E2FFFFFFFFFFFEFDFEFFBDBBBAFF666463FF676564FF6B69
310
68FF82807EFF8A8886FF82807EFF6F6D6CFF615F5FFF6E6C6BFFE9E9E8FFFFFF
310
FFFFFFFFFFFFFFFFFFFFFFFFFFFFFFFFFFFFFFFFFFFFFFFFFFFFFFFFFFFFFFFF
310
FFFFFFFFFFFFFFFFFFFFFFFFFFFFFFFFFFFFFFFFFFFFFFFFFFFFFFFFFFFFFFFF
310
FFFFFFFFFFFFFFFFFFFFFFFFFFFFFFFFFFFFFFFFFFFFFFFFFFFFFFFFFFFFFFFF
310
FFFFFFFFFFFFFFFFFFFFFFFFFFFFFFFFFFFFDBDAD9FFB4B1B0FFB4B1B0FFD1CF
310
CEFFFFFFFFFFFFFFFFFFFFFFFFFFFFFFFFFFFFFFFFFFFFFFFFFFFFFFFFFFFFFF
310
FFFFFFFFFFFFFFFFFFFFFFFFFFFFFFFFFFFFFFFFFFFFFFFFFFFFFFFFFFFFFFFF
310
FFFFFFFFFFFFFFFFFFFFFFFFFFFFFFFFFFFFFFFFFFFFFFFFFFFFFFFFFFFFFFFF
310
FFFFFFFFFFFFFFFFFFFFFFFFFFFFFFFFFFFFFFFFFFFFFFFFFFFFFFFFFFFFFFFF
310
FFFFFFFFFFFFFFFFFFFFFFFFFFFFFFFFFFFFFFFFFFFFFFFFFFFFFFFFFFFFFFFF
310
FFFF949190FF666463FF6F6D6CFFDDDBDAFFFFFFFFFFFFFFFFFFFFFFFFFFFFFF
310
FFFFFFFFFFFFFFFFFFFFFFFFFFFFFFFFFFFFFFFFFFFFFFFFFFFFFFFFFFFFFFFF
310
FFFFFFFFFFFFFFFFFFFFFFFFFFFFFFFFFFFFFFFFFFFFFFFFFFFFFFFFFFFFFFFF
310
FFFFFFFFFFFFFFFFFFFFFBFAFAFF7E7C7BFF5D5B5AFF747170FFECEBEBFFFFFF
310
FFFFFFFFFFFFFFFFFFFFFFFFFFFFFFFFFFFFFFFFFFFFFFFFFFFFFFFFFFFFFFFF
310
FFFFFFFFFFFFFFFFFFFFFFFFFFFFFFFFFFFFFFFFFFFFFFFFFFFFFFFFFFFFFFFF
310
FFFFFFFFFFFFFFFFFFFFFFFFFFFFFFFFFFFFFFFFFFFFFFFFFFFFFFFFFFFFFFFF
310
FFFFFFFFFFFFFFFFFFFFFFFFFFFFFFFFFFFFFFFFFFFFFFFFFFFFFFFFFFFFFFFF
310
FFFFFFFFFFFFFFFFFFFFFFFFFFFFC8C6C5FF868483FF6C6A69FF636160FF6361
310
60FF646261FF676564FF6F6D6CFF858381FFE9E8E7FFFFFFFFFFFFFFFFFFFFFF
310
FFFFFFFFFFFFFFFFFFFFFFFFFFFFFFFFFFFFFFFFFFFFFFFFFFFFFFFFFFFFFFFF
310
FFFFFFFFFFFFFFFFFFFFFFFFFFFFFFFFFFFFFFFFFFFFFFFFFFFFFFFFFFFFFFFF
310
FFFFFFFFFFFFFFFFFFFFFFFFFFFFFFFFFFFFFFFFFFFFFFFFFFFFFFFFFFFFFFFF
310
FFFFFFFFFFFFFFFFFFFFC6C4C3FF5A5858FF545252FF82807EFFF8F8F8FFFFFF
310
FFFFFFFFFFFFFFFFFFFFFFFFFFFFFFFFFFFFFFFFFFFFFFFFFFFFFFFFFFFFFFFF
310
FFFFFFFFFFFFFFFFFFFFFFFFFFFFFFFFFFFFFFFFFFFFFFFFFFFFFFFFFFFFFFFF
310
FFFFFFFFFFFFFFFFFFFFFFFFFFFFFFFFFFFFFFFFFFFFFFFFFFFFFFFFFFFFFFFF
310
FFFFFFFFFFFFFFFFFFFFFFFFFFFFFFFFFFFFFFFFFFFFFFFFFFFFFFFFFFFFFFFF
310
FFFFFFFFFFFFFFFFFFFFFFFFFFFFFFFFFFFFFFFFFFFFFFFFFFFFB0ADACFF605E
310
5DFF5D5B5AFFB8B6B5FFFFFFFFFFFFFFFFFFFFFFFFFFFFFFFFFFFFFFFFFFFFFF
310
FFFFFFFFFFFFFFFFFFFFFFFFFFFFFFFFFFFFFFFFFFFFFFFFFFFFFFFFFFFFFFFF
310
FFFFFFFFFFFFFFFFFFFFFFFFFFFFFFFFFFFFFFFFFFFFFFFFFFFFFFFFFFFFFFFF
310
FFFFFDFDFDFFB0ADACFF858381FF8C8A88FFDDDBDAFFFFFFFFFFFFFFFFFFFFFF
310
FFFFFFFFFFFFFFFFFFFFFFFFFFFFFFFFFFFFFFFFFFFFFFFFFFFFFFFFFFFFFFFF
310
FFFFFFFFFFFFFFFFFFFFFFFFFFFFFFFFFFFFFFFFFFFFFFFFFFFFFFFFFFFFFFFF
310
FFFFFFFFFFFFFFFFFFFFFFFFFFFFFFFFFFFFFFFFFFFFFFFFFFFFFFFFFFFFFFFF
310
FFFFFFFFFFFFFFFFFFFFFFFFFFFFFFFFFFFFFFFFFFFFFFFFFFFFFFFFFFFFFFFF
310
FFFFFFFFFFFFFFFFFFFFF5F4F4FFDDDBDAFFC9C8C6FFBEBCBBFFC1BFBDFFCDCC
310
CBFFE0DFDEFFF2F2F1FFFFFFFFFFFFFFFFFFFFFFFFFFFFFFFFFFFFFFFFFFFFFF
310
FFFFFFFFFFFFFFFFFFFFFFFFFFFFFFFFFFFFFFFFFFFFFFFFFFFFFFFFFFFFFFFF
310
FFFFFFFFFFFFFFFFFFFFFFFFFFFFFFFFFFFFFFFFFFFFFFFFFFFFFFFFFFFFFFFF
310
FFFFFFFFFFFFFFFFFFFFFFFFFFFFFFFFFFFFFFFFFFFFFFFFFFFFFFFFFFFFFFFF
310
FFFFE9E9E8FF989594FF8F8D8BFF9B9997FFF3F3F2FFFFFFFFFFFFFFFFFFFFFF
310
FFFFFFFFFFFFFFFFFFFFFFFFFFFFFFFFFFFFFFFFFFFFFFFFFFFFFFFFFFFFFFFF
310
FFFFFFFFFFFFFFFFFFFFFFFFFFFFFFFFFFFFFFFFFFFFFFFFFFFFFFFFFFFFFFFF
310
FFFFFFFFFFFFFFFFFFFFFFFFFFFFFFFFFFFFFFFFFFFFFFFFFFFFFFFFFFFFFFFF
310
FFFFFFFFFFFFFFFFFFFFFFFFFFFFFFFFFFFFFFFFFFFFFFFFFFFFFFFFFFFFFFFF
310
FFFFFFFFFFFFFFFFFFFFFFFFFFFFFFFFFFFFDAD9D8FF9B9997FF989594FFC1BF
310
BDFFFFFFFFFFFFFFFFFFFFFFFFFFFFFFFFFFFFFFFFFFFFFFFFFFFFFFFFFFFFFF
310
FFFFFFFFFFFFFFFFFFFFFFFFFFFFFFFFFFFFFFFFFFFFFFFFFFFFFFFFFFFFFFFF
310
FFFFFFFFFFFFFFFFFFFFFFFFFFFFFFFFFFFFFFFFFFFFFFFFFFFFFFFFFFFFFBFA
310
FAFFF6F6F6FFF6F6F6FFFBFAFAFFFFFFFFFFFFFFFFFFFFFFFFFFFFFFFFFFFFFF
310
FFFFFFFFFFFFFFFFFFFFFFFFFFFFFFFFFFFFFFFFFFFFFFFFFFFFFFFFFFFFFFFF
310
FFFFFFFFFFFFFFFFFFFFFFFFFFFFFFFFFFFFFFFFFFFFFFFFFFFFFFFFFFFFFFFF
310
FFFFFFFFFFFFFFFFFFFFFFFFFFFFFFFFFFFFFFFFFFFFFFFFFFFFFFFFFFFFFFFF
310
FFFFFFFFFFFFFFFFFFFFFFFFFFFFFFFFFFFFFFFFFFFFFFFFFFFFFFFFFFFFFFFF
310
FFFFFFFFFFFFFFFFFFFFFFFFFFFFFFFFFFFFFFFFFFFFFFFFFFFFFFFFFFFFFFFF
310
FFFFFFFFFFFFFFFFFFFFFFFFFFFFFFFFFFFFFFFFFFFFFFFFFFFFFFFFFFFFFFFF
310
FFFFFFFFFFFFFFFFFFFFFFFFFFFFFFFFFFFFFFFFFFFFFFFFFFFFFFFFFFFFFFFF
310
FFFFFFFFFFFFFFFFFFFFFFFFFFFFFFFFFFFFFFFFFFFFFFFFFFFFFFFFFFFFFFFF
310
FFFFFFFFFFFFFFFFFFFFFFFFFFFFFFFFFFFFFFFFFFFFFFFFFFFFFFFFFFFFFFFF
310
FFFFFFFFFFFFFFFFFFFFFFFFFFFFFFFFFFFFFFFFFFFFFFFFFFFFFFFFFFFFFFFF
310
FFFFFFFFFFFFFFFFFFFFFFFFFFFFFFFFFFFFFFFFFFFFFFFFFFFFFFFFFFFFFFFF
310
FFFFFFFFFFFFFFFFFFFFFFFFFFFFFFFFFFFFFFFFFFFFFFFFFFFFFFFFFFFFFFFF
310
FFFFFFFFFFFFFFFFFFFFFFFFFFFFFFFFFFFFFFFFFFFFFFFFFFFFFFFFFFFFFFFF
310
FFFFFFFFFFFFFFFFFFFFFFFFFFFFFFFFFFFFFFFFFFFFFFFFFFFFFFFFFFFFFFFF
310
FFFFFFFFFFFFFFFFFFFFFFFFFFFFFFFFFFFFFFFFFFFFFFFFFFFFFFFFFFFFFFFF
310
FFFFFFFFFFFFFFFFFFFFFFFFFFFFFFFFFFFFFFFFFFFFFFFFFFFFFFFFFFFFFFFF
310
FFFFFFFFFFFFFFFFFFFFFFFFFFFFFFFFFFFFFFFFFFFFFFFFFFFFFFFFFFFFFFFF
310
FFFFFFFFFFFFFFFFFFFFFFFFFFFFFFFFFFFFFFFFFFFFFFFFFFFFFFFFFFFFFFFF
310
FFFFFFFFFFFFFFFFFFFFFFFFFFFFFFFFFFFFFFFFFFFFFFFFFFFFFFFFFFFFFFFF
310
FFFFFFFFFFFFFFFFFFFFFFFFFFFFFFFFFFFFFFFFFFFFFFFFFFFFFFFFFFFFFFFF
310
FFFFFFFFFFFFFFFFFFFFFFFFFFFFFFFFFFFFFFFFFFFFFFFFFFFFFFFFFFFFFFFF
310
FFFFFFFFFFFFFFFFFFFFFFFFFFFFFFFFFFFFFFFFFFFFFFFFFFFFFFFFFFFFFFFF
310
FFFFFFFFFFFFFFFFFFFFFFFFFFFFFFFFFFFFFFFFFFFFFFFFFFFFFFFFFFFFFFFF
310
FFFFFFFFFFFFFFFFFFFFFFFFFFFFFFFFFFFFFFFFFFFFFFFFFFFFFFFFFFFFFFFF
310
FFFFFFFFFFFFFFFFFFFFFFFFFFFFFFFFFFFFFFFFFFFFFFFFFFFFFFFFFFFFFFFF
310
FFFFFFFFFFFFFFFFFFFFFFFFFFFFFFFFFFFFFFFFFFFFFFFFFFFFFFFFFFFFFFFF
310
FFFFFFFFFFFFFFFFFFFFFFFFFFFFFFFFFFFFFFFFFFFFFFFFFFFFFFFFFFFFFFFF
310
FFFFFFFFFFFFFFFFFFFFFFFFFFFFFFFFFFFFFFFFFFFFFFFFFFFFFFFFFFFFFFFF
310
FFFFFFFFFFFFFFFFFFFFFFFFFFFFFFFFFFFFFFFFFFFFFFFFFFFFFFFFFFFFFFFF
310
FFFFFFFFFFFFFFFFFFFFFFFFFFFFFFFFFFFFFFFFFFFFFFFFFFFFFFFFFFFFFFFF
310
FFFFFFFFFFFFFFFFFFFFFFFFFFFFFFFFFFFFFFFFFFFFFFFFFFFFFFFFFFFFFFFF
310
FFFFFFFFFFFFFFFFFFFFFFFFFFFFFFFFFFFFFFFFFFFFFFFFFFFFFFFFFFFFFFFF
310
FFFFFFFFFFFFFFFFFFFFFFFFFFFFFFFFFFFFFFFFFFFFFFFFFFFFFFFFFFFFFFFF
310
FFFFFFFFFFFFFFFFFFFFFFFFFFFFFFFFFFFFFFFFFFFFFFFFFFFFFFFFFFFFFFFF
310
FFFFFFFFFFFFFFFFFFFFFFFFFFFFFFFFFFFFFFFFFFFFFFFFFFFFFFFFFFFFFFFF
310
FFFFFFFFFFFFFFFFFFFFFFFFFFFFFFFFFFFFFFFFFFFFFFFFFFFFFFFFFFFFFFFF
310
FFFFFFFFFFFFFFFFFFFFFFFFFFFFFFFFFFFFFFFFFFFFFFFFFFFFFFFFFFFFFFFF
310
FFFFFFFFFFFFFFFFFFFFFFFFFFFFFFFFFFFFFFFFFFFFFFFFFFFFFFFFFFFFFFFF
310
FFFFFFFFFFFFFFFFFFFFFFFFFFFFFFFFFFFFFFFFFFFFFFFFFFFFFFFFFFFFFFFF
310
FFFFFFFFFFFFFFFFFFFFFFFFFFFFFFFFFFFFFFFFFFFFFFFFFFFFFFFFFFFFFFFF
310
FFFFFFFFFFFFFFFFFFFFFFFFFFFFFFFFFFFFFFFFFFFFFFFFFFFFFFFFFFFFFFFF
310
FFFFFFFFFFFFFFFFFFFFFFFFFFFFFFFFFFFFFFFFFFFFFFFFFFFFFFFFFFFFFFFF
310
FFFFFFFFFFFFFFFFFFFFFFFFFFFFFFFFFFFFFFFFFFFFFFFFFFFFFFFFFFFFFFFF
310
FFFFFFFFFFFFFFFFFFFFFFFFFFFFFFFFFFFFFFFFFFFFFFFFFFFFFFFFFFFFFFFF
310
FFFFFFFFFFFFFFFFFFFFFFFFFFFFFFFFFFFFFFFFFFFFFFFFFFFFFFFFFFFFFFFF
310
FFFFFFFFFFFFFFFFFFFFFFFFFFFFFFFFFFFFFFFFFFFFFFFFFFFFFFFFFFFFFFFF
310
FFFFFFFFFFFFFFFFFFFFFFFFFFFFFFFFFFFFFFFFFFFFFFFFFFFFFFFFFFFFFFFF
310
FFFFFFFFFFFFFFFFFFFFFFFFFFFFFFFFFFFFFFFFFFFFFFFFFFFFFFFFFFFFFFFF
310
FFFFFFFFFFFFFFFFFFFFFFFFFFFFFFFFFFFFFFFFFFFFFFFFFFFFFFFFFFFFFFFF
310
FFFFFFFFFFFFFFFFFFFFFFFFFFFFFFFFFFFFFFFFFFFFFFFFFFFFFFFFFFFFFFFF
310
FFFFFFFFFFFFFFFFFFFFFFFFFFFFFFFFFFFFFFFFFFFFFFFFFFFFFFFFFFFFFFFF
310
FFFFFFFFFFFFFFFFFFFFFFFFFFFFFFFFFFFFFFFFFFFFFFFFFFFFFFFFFFFFFFFF
310
FFFFFFFFFFFFFFFFFFFFFFFFFFFFFFFFFFFFFFFFFFFFFFFFFFFFFFFFFFFFFFFF
310
FFFFFFFFFFFFFFFFFFFFFFFFFFFFFFFFFFFFFFFFFFFFFFFFFFFFFFFFFFFFFFFF
310
FFFFFFFFFFFFFFFFFFFFFFFFFFFFFFFFFFFFFFFFFFFFFFFFFFFFFFFFFFFFFFFF
310
FFFFFFFFFFFFFFFFFFFFFFFFFFFFFFFFFFFFFFFFFFFFFFFFFFFFFFFFFFFFFFFF
310
FFFFFFFFFFFFFFFFFFFFFFFFFFFFFFFFFFFFFFFFFFFFFFFFFFFFFFFFFFFFFFFF
310
FFFFFFFFFFFFFFFFFFFFFFFFFFFFFFFFFFFFFFFFFFFFFFFFFFFFFFFFFFFFFFFF
310
FFFFFFFFFFFFFFFFFFFFFFFFFFFFFFFFFFFFFFFFFFFFFFFFFFFFFFFFFFFFFFFF
310
FFFFFFFFFFFFFFFFFFFFFFFFFFFFFFFFFFFFFFFFFFFFFFFFFFFFFFFFFFFFFFFF
310
FFFFFFFFFFFFFFFFFFFFFFFFFFFFFFFFFFFFFFFFFFFFFFFFFFFFFFFFFFFFFFFF
310
FFFFFFFFFFFFFFFFFFFFFFFFFFFFFFFFFFFFFFFFFFFFFFFFFFFFFFFFFFFFFFFF
310
FFFFFFFFFFFFFFFFFFFFFFFFFFFFFFFFFFFFFFFFFFFFFFFFFFFFFFFFFFFFFFFF
310
FFFFFFFFFFFFFFFFFFFFFFFFFFFFFFFFFFFFFFFFFFFFFFFFFFFFFFFFFFFFFFFF
310
FFFFFFFFFFFFFFFFFFFFFFFFFFFFFFFFFFFFFFFFFFFFFFFFFFFFFFFFFFFFFFFF
310
FFFFFFFFFFFFFFFFFFFFFFFFFFFFFFFFFFFFFFFFFFFFFFFFFFFFFFFFFFFFFFFF
310
FFFFFFFFFFFFFFFFFFFFFFFFFFFFFFFFFFFFFFFFFFFFFFFFFFFFFEFDFEFFFCFB
310
FBFFFCFCFCFFFCFCFCFFFCFCFCFFFCFCFCFFFCFCFCFFFDFDFDFFFFFFFFFFFFFF
310
FFFFFFFFFFFFFFFFFFFFFFFFFFFFFCFBFBFFFCFBFBFFFCFCFCFFFCFCFCFFFCFC
310
FCFFFCFCFCFFFCFCFCFFFFFFFFFFFFFFFFFFFFFFFFFFFFFFFFFFFFFFFFFFFFFF
310
FFFFFFFFFFFFFFFFFFFFFFFFFFFFFFFFFFFFFFFFFFFFFCFBFBFFFCFBFBFFFCFC
310
FCFFFCFCFCFFFCFCFCFFFCFCFCFFFDFDFDFFFFFFFFFFFFFFFFFFFFFFFFFFFFFF
310
FFFFFFFFFFFFFFFFFFFFFFFFFFFFFFFFFFFFFFFFFFFFFFFFFFFFFFFFFFFFFFFF
310
FFFFFFFFFFFFFFFFFFFFFFFFFFFFFFFFFFFFFFFFFFFFF9F9F9FFD6D5D4FFB8B6
310
B5FFABA8A7FFA8A6A4FFA8A6A4FFB4B1B0FFCBC9C8FFEDEDECFFFFFFFFFFFFFF
310
FFFFFFFFFFFFFFFFFFFFFFFFFFFFFFFFFFFFFFFFFFFFFFFFFFFFFFFFFFFFFFFF
310
FFFFFCFBFBFFFCFBFBFFFCFCFCFFFCFCFCFFFCFCFCFFFCFCFCFFFDFDFDFFFFFF
310
FFFFFFFFFFFFFFFFFFFFFFFFFFFFFFFFFFFFFFFFFFFFFFFFFFFFFFFFFFFFFFFF
310
FFFFFFFFFFFFFFFFFFFFFFFFFFFFFFFFFFFFFFFFFFFFFFFFFFFFFFFFFFFFFFFF
310
FFFFFFFFFFFFFFFFFFFFE2DEE6FF9D8DAEFF9785A8FF9D8DAEFF9D8DAEFF9F8F
310
AFFF9F8FAFFF9D8DAEFF9D8DAEFFE5E2E9FFFFFFFFFFFFFFFFFFFFFFFFFFFFFF
310
FFFFFFFFFFFFFFFFFFFFFFFFFFFFFFFFFFFFFFFFFFFFFFFFFFFFFFFFFFFFFFFF
310
FFFFFFFFFFFFFFFFFFFFFFFFFFFFFFFFFFFFFFFFFFFFFFFFFFFFFFFFFFFFFFFF
310
FFFFFFFFFFFFFFFFFFFFFFFFFFFFD1CAD8FF9786A8FF9F8FAFFF9F8FAFFF9F8F
310
AFFF9F8FAFFF9F8FAFFF9F8FAFFF9F8FAFFF9F8FAFFF9F8FAFFF9786A8FFD1CA
310
D8FFFFFFFFFFFFFFFFFFFFFFFFFFFFFFFFFFFCFCFCFF868483FF525050FF5755
310
55FF5A5858FF5A5858FF4E4C4CFF858381FFFBFAFAFFFFFFFFFFFFFFFFFFFFFF
310
FFFFFFFFFFFFC4C2C0FF565454FF5A5858FF575555FF575555FF565454FF5755
310
55FFD5D3D2FFFFFFFFFFFFFFFFFFFFFFFFFFFFFFFFFFFFFFFFFFFFFFFFFFFFFF
310
FFFFFFFFFFFFFFFFFFFFFFFFFFFFCDCCCBFF5A5858FF5A5858FF575555FF5755
310
55FF565454FF504E4EFFC9C8C6FFFFFFFFFFFFFFFFFFFFFFFFFFFFFFFFFFFFFF
310
FFFFFFFFFFFFFFFFFFFFFFFFFFFFFFFFFFFFFFFFFFFFFFFFFFFFFFFFFFFFFFFF
310
FFFFFFFFFFFFF1F0F0FF9B9997FF4E4C4CFF2F2E30FF252427FF252427FF2524
310
27FF252427FF252427FF252427FF3D3B3CFF72706FFFC1BFBDFFFBFAFAFFFFFF
310
FFFFFFFFFFFFFFFFFFFFFFFFFFFFFFFFFFFFFFFFFFFFFFFFFFFFD0CECDFF5A58
310
58FF5A5858FF565454FF575555FF575555FF525050FFC8C6C5FFFFFFFFFFFFFF
310
FFFFFFFFFFFFFFFFFFFFFFFFFFFFFFFFFFFFFFFFFFFFFFFFFFFFFFFFFFFFFFFF
310
FFFFFFFFFFFFFFFFFFFFFFFFFFFFFFFFFFFFFFFFFFFFFFFFFFFFFFFFFFFFFFFF
310
FFFFFBFBFCFFC5BCCEFF6F5486FF5F3C78FF5F3C78FF62407BFF63427BFF5F3C
310
78FF5F3C78FFBEB4C8FFFFFFFFFFFFFFFFFFFFFFFFFFFFFFFFFFFFFFFFFFFFFF
310
FFFFFFFFFFFFFFFFFFFFFFFFFFFFFFFFFFFFFFFFFFFFFFFFFFFFFFFFFFFFFFFF
310
FFFFFFFFFFFFFFFFFFFFFFFFFFFFFFFFFFFFFFFFFFFFFFFFFFFFFFFFFFFFFFFF
310
FFFFFFFFFFFFC7BFD0FF5F3C78FF62407BFF62407BFF62407BFF62407BFF6240
310
7BFF62407BFF62407BFF62407BFF5F3C78FF5F3C78FF9B8AACFFFFFFFFFFFFFF
310
FFFFFFFFFFFFFFFFFFFFFFFFFFFF7B7978FF252427FF252427FF252427FF2524
310
27FF252427FF434242FFE9E9E8FFFFFFFFFFFFFFFFFFFFFFFFFFFFFFFFFFD4D2
310
D1FF252427FF252427FF252427FF252427FF252427FF252427FFA8A6A4FFFFFF
310
FFFFFFFFFFFFFFFFFFFFFFFFFFFFFFFFFFFFFFFFFFFFFFFFFFFFFFFFFFFFFFFF
310
FFFFFFFFFFFFE3E2E1FF252427FF252427FF252427FF252427FF252427FF2524
310
27FF989694FFFFFFFFFFFFFFFFFFFFFFFFFFFFFFFFFFFFFFFFFFFFFFFFFFFFFF
310
FFFFFFFFFFFFFFFFFFFFFFFFFFFFFFFFFFFFFFFFFFFFFFFFFFFFD1CFCEFF4C4A
310
4AFF252427FF252427FF252427FF252427FF252427FF252427FF252427FF2524
310
27FF252427FF252427FF252427FF252427FF6A6867FFD9D7D6FFFFFFFFFFFFFF
310
FFFFFFFFFFFFFFFFFFFFFFFFFFFFFFFFFFFFE3E2E1FF2A292BFF252427FF2524
310
27FF252427FF252427FF252427FF969492FFFFFFFFFFFFFFFFFFFFFFFFFFFFFF
310
FFFFFFFFFFFFFFFFFFFFFFFFFFFFFFFFFFFFFFFFFFFFFFFFFFFFFFFFFFFFFFFF
310
FFFFFFFFFFFFFFFFFFFFFFFFFFFFFEFDFEFFE2DEE6FFF4F2F5FFFFFFFFFFFFFF
310
FFFFEDEBF0FF9D8DAEFF64457DFF63437CFF684A80FF684A80FF62407BFFA394
310
B2FFFFFFFFFFFFFFFFFFFFFFFFFFFFFFFFFFFFFFFFFFFFFFFFFFFFFFFFFFFFFF
310
FFFFFFFFFFFFFFFFFFFFFFFFFFFFFFFFFFFFFFFFFFFFFFFFFFFFFFFFFFFFFFFF
310
FFFFFFFFFFFFFFFFFFFFFFFFFFFFFFFFFFFFFFFFFFFFFFFFFFFFFFFFFFFFF1EF
310
F3FF715788FF66477EFF684A80FF684A80FF684A80FF684A80FF684A80FF684A
310
80FF684A80FF684A80FF63437CFF846E98FFF5F4F7FFFFFFFFFFFFFFFFFFFFFF
310
FFFFFFFFFFFFB4B1B0FF252427FF252427FF252427FF252427FF252427FF2524
310
27FFCBC9C8FFFFFFFFFFFFFFFFFFFFFFFFFFFFFFFFFFF1F0F0FF504E4EFF2524
310
27FF252427FF252427FF252427FF252427FF797776FFFFFFFFFFFFFFFFFFFFFF
310
FFFFFFFFFFFFFFFFFFFFFFFFFFFFFFFFFFFFFFFFFFFFFFFFFFFFFFFFFFFFF7F7
310
F7FF5A5858FF252427FF252427FF252427FF252427FF252427FF686665FFFFFF
310
FFFFFFFFFFFFFFFFFFFFFFFFFFFFFFFFFFFFFFFFFFFFFFFFFFFFFFFFFFFFFFFF
310
FFFFFFFFFFFFFFFFFFFFFFFFFFFFE0DFDEFF434242FF252427FF252427FF2524
310
27FF252427FF252427FF252427FF252427FF252427FF252427FF252427FF2524
310
27FF252427FF252427FF252427FF2F2E30FFBAB8B6FFFFFFFFFFFFFFFFFFFFFF
310
FFFFFFFFFFFFFFFFFFFFFBFAFAFF5D5B5AFF252427FF252427FF252427FF2524
310
27FF252427FF676564FFFFFFFFFFFFFFFFFFFFFFFFFFFFFFFFFFFFFFFFFFFFFF
310
FFFFFFFFFFFFFFFFFFFFFFFFFFFFFFFFFFFFFFFFFFFFFFFFFFFFFFFFFFFFFFFF
310
FFFFFFFFFFFFFFFFFFFFB9AEC4FF846E98FFDFDCE5FFFFFFFFFFFFFFFFFFFFFF
310
FFFFC5BCCEFF745A8AFF62407BFF67497FFF63427BFF846E98FFF5F4F7FFFFFF
310
FFFFFFFFFFFFFFFFFFFFFFFFFFFFFFFFFFFFFFFFFFFFFFFFFFFFFFFFFFFFFFFF
310
FFFFFFFFFFFFFFFFFFFFFFFFFFFFFFFFFFFFFFFFFFFFFFFFFFFFFFFFFFFFFFFF
310
FFFFFFFFFFFFFFFFFFFFFFFFFFFFFFFFFFFFFFFFFFFFFCFCFCFF86719AFF6342
310
7BFF684A80FF684A80FF684A80FF684A80FF684A80FF684A80FF684A80FF684A
310
80FF64457DFF6F5486FFDFDBE4FFFFFFFFFFFFFFFFFFFFFFFFFFFFFFFFFFDAD9
310
D8FF2A292BFF252427FF252427FF252427FF252427FF252427FFA09D9CFFFFFF
310
FFFFFFFFFFFFFFFFFFFFFFFFFFFFFEFDFEFF6F6D6CFF252427FF252427FF2524
310
27FF252427FF252427FF545252FFF5F4F4FFFFFFFFFFFFFFFFFFFFFFFFFFFFFF
310
FFFFFFFFFFFFFFFFFFFFFFFFFFFFFFFFFFFFFFFFFFFFFFFFFFFF7D7A79FF2524
310
27FF252427FF252427FF252427FF252427FF484747FFEDEDECFFFFFFFFFFFFFF
310
FFFFFFFFFFFFFFFFFFFFFFFFFFFFFFFFFFFFFFFFFFFFFFFFFFFFFFFFFFFFFFFF
310
FFFFFBFAFAFF6A6867FF252427FF252427FF252427FF252427FF252427FF2524
310
27FF252427FF383738FF434242FF2A292BFF252427FF252427FF252427FF2524
310
27FF252427FF252427FF2A292BFFB6B4B2FFFFFFFFFFFFFFFFFFFFFFFFFFFFFF
310
FFFFFFFFFFFF817E7DFF252427FF252427FF252427FF252427FF252427FF4342
310
42FFEDEDECFFFFFFFFFFFFFFFFFFFFFFFFFFFFFFFFFFFFFFFFFFFFFFFFFFFFFF
310
FFFFFFFFFFFFFFFFFFFFFFFFFFFFFFFFFFFFFFFFFFFFFFFFFFFFFFFFFFFFFFFF
310
FFFFD8D3DEFF63427BFF6D5285FFBEB4C8FFFFFFFFFFFFFFFFFFFFFFFFFFE8E5
310
ECFF9785A8FF62407BFF5F3C78FF6F5486FFE2DFE7FFFFFFFFFFFFFFFFFFFFFF
310
FFFFFFFFFFFFFFFFFFFFFFFFFFFFFFFFFFFFFFFFFFFFFFFFFFFFFFFFFFFFFFFF
310
FFFFFFFFFFFFFFFFFFFFFFFFFFFFFFFFFFFFFFFFFFFFFFFFFFFFFFFFFFFFFFFF
310
FFFFFFFFFFFFFFFFFFFFFFFFFFFFFFFFFFFFA394B2FF62407BFF684A80FF684A
310
80FF684A80FF684A80FF684A80FF684A80FF684A80FF684A80FF67487FFF6444
310
7CFFCBC4D3FFFFFFFFFFFFFFFFFFFFFFFFFFFFFFFFFFF9F9F9FF525050FF2524
310
27FF252427FF252427FF252427FF252427FF737170FFFFFFFFFFFFFFFFFFFFFF
310
FFFFFFFFFFFFFFFFFFFFA4A1A0FF252427FF252427FF252427FF252427FF2524
310
27FF343334FFD9D7D6FFFFFFFFFFFFFFFFFFFFFFFFFFFFFFFFFFFFFFFFFFFFFF
310
FFFFFFFFFFFFFFFFFFFFFFFFFFFFFFFFFFFFB1AFADFF252427FF252427FF2524
310
27FF252427FF252427FF2A292BFFCECDCBFFFFFFFFFFFFFFFFFFFFFFFFFFFFFF
310
FFFFFFFFFFFFFFFFFFFFFFFFFFFFFFFFFFFFFFFFFFFFFFFFFFFFD4D2D1FF2F2E
310
30FF252427FF252427FF252427FF252427FF252427FF2A292BFF908E8CFFD6D5
310
D4FFE1E0DFFFCECDCBFF82807EFF252427FF252427FF252427FF252427FF2524
310
27FF252427FF2A292BFFD1CFCEFFFFFFFFFFFFFFFFFFFFFFFFFFFFFFFFFFB4B1
310
B0FF252427FF252427FF252427FF252427FF252427FF2A292BFFCCCAC9FFFFFF
310
FFFFFFFFFFFFFFFFFFFFFFFFFFFFFFFFFFFFFFFFFFFFFFFFFFFFFFFFFFFFFFFF
310
FFFFFFFFFFFFFFFFFFFFFFFFFFFFFFFFFFFFFFFFFFFFFFFFFFFFF4F2F5FF7B64
310
91FF5F3C78FF62407BFF9584A7FFE6E3EAFFFFFFFFFFFFFFFFFFFFFFFFFFBEB4
310
C8FF6F5486FF5F3C78FFCBC4D3FFFFFFFFFFFFFFFFFFFFFFFFFFFFFFFFFFFFFF
310
FFFFFFFFFFFFFFFFFFFFFFFFFFFFFFFFFFFFFFFFFFFFFFFFFFFFFFFFFFFFFFFF
310
FFFFFFFFFFFFFFFFFFFFFFFFFFFFFFFFFFFFFFFFFFFFFFFFFFFFFFFFFFFFFFFF
310
FFFFFFFFFFFFFFFFFFFFC7BFD0FF63437CFF67497FFF684A80FF684A80FF684A
310
80FF684A80FF684A80FF684A80FF684A80FF67497FFF62407BFFAB9DB9FFFFFF
310
FFFFFFFFFFFFFFFFFFFFFFFFFFFFFFFFFFFF72706FFF252427FF252427FF2524
310
27FF252427FF252427FF4C4A4AFFF6F6F6FFFFFFFFFFFFFFFFFFFFFFFFFFFFFF
310
FFFFC9C8C6FF2A292BFF252427FF252427FF252427FF252427FF252427FFBAB8
310
B6FFFFFFFFFFFFFFFFFFFFFFFFFFFFFFFFFFFFFFFFFFFFFFFFFFFFFFFFFFFFFF
310
FFFFFFFFFFFFFFFFFFFFD4D2D1FF2F2E30FF252427FF252427FF252427FF2524
310
27FF252427FFABA8A7FFFFFFFFFFFFFFFFFFFFFFFFFFFFFFFFFFFFFFFFFFFFFF
310
FFFFFFFFFFFFFFFFFFFFFFFFFFFFFFFFFFFF969492FF252427FF252427FF2524
310
27FF252427FF252427FF252427FF8D8B89FFFFFFFFFFFFFFFFFFFFFFFFFFFFFF
310
FFFFFFFFFFFFA6A4A2FF252427FF252427FF252427FF252427FF252427FF2524
310
27FF5A5858FFF7F7F7FFFFFFFFFFFFFFFFFFFFFFFFFFD7D6D5FF2F2E30FF2524
310
27FF252427FF252427FF252427FF252427FFA8A6A4FFFFFFFFFFFFFFFFFFFFFF
310
FFFFFFFFFFFFFFFFFFFFFFFFFFFFFFFFFFFFFFFFFFFFFFFFFFFFFFFFFFFFFFFF
310
FFFFFFFFFFFFFFFFFFFFFFFFFFFFFFFFFFFFFFFFFFFF9482A6FF62407BFF6749
310
7FFF62407BFF725889FFC7BFD0FFFFFFFFFFFFFFFFFFFFFFFFFFE2DFE7FF8671
310
9AFFA394B2FFFFFFFFFFFFFFFFFFFFFFFFFFFFFFFFFFFFFFFFFFFFFFFFFFFFFF
310
FFFFFFFFFFFFFFFFFFFFFFFFFFFFFFFFFFFFFFFFFFFFFFFFFFFFFFFFFFFFFFFF
310
FFFFFFFFFFFFFFFFFFFFFFFFFFFFFFFFFFFFFFFFFFFFFFFFFFFFFFFFFFFFFFFF
310
FFFFDFDBE4FF6C4F83FF64457DFF684A80FF684A80FF684A80FF684A80FF684A
310
80FF684A80FF684A80FF684A80FF62407BFF8A769DFFFBFAFAFFFFFFFFFFFFFF
310
FFFFFFFFFFFFFFFFFFFFA4A1A0FF252427FF252427FF252427FF252427FF2524
310
27FF2A292BFFD6D5D4FFFFFFFFFFFFFFFFFFFFFFFFFFFFFFFFFFE8E7E6FF3D3B
310
3CFF252427FF252427FF252427FF252427FF252427FF858381FFFFFFFFFFFFFF
310
FFFFFFFFFFFFFFFFFFFFFFFFFFFFFFFFFFFFFFFFFFFFFFFFFFFFFFFFFFFFFFFF
310
FFFFF0EFEFFF4C4A4AFF252427FF252427FF252427FF252427FF252427FF7674
310
73FFFFFFFFFFFFFFFFFFFFFFFFFFFFFFFFFFFFFFFFFFFFFFFFFFFFFFFFFFFFFF
310
FFFFFFFFFFFFFFFFFFFF7E7C7BFF252427FF252427FF252427FF252427FF2524
310
27FF2A292BFFD0CECDFFFFFFFFFFFFFFFFFFFFFFFFFFFFFFFFFFFFFFFFFFFFFF
310
FFFF8F8D8BFF252427FF252427FF252427FF252427FF252427FF252427FFADAA
310
A9FFFFFFFFFFFFFFFFFFFFFFFFFFF1F0F0FF4E4C4CFF252427FF252427FF2524
310
27FF252427FF252427FF706E6DFFFEFDFEFFFFFFFFFFFFFFFFFFFFFFFFFFFFFF
310
FFFFFFFFFFFFFFFFFFFFFFFFFFFFFFFFFFFFFFFFFFFFFFFFFFFFFFFFFFFFFFFF
310
FFFFFFFFFFFFFFFFFFFFFFFFFFFFB0A3BDFF62407BFF684A80FF684A80FF6342
310
7BFF64447CFF9A89ABFFEDEBF0FFFFFFFFFFFFFFFFFFF5F4F7FFD4CEDBFFFDFC
310
FEFFFFFFFFFFFFFFFFFFFFFFFFFFFFFFFFFFFFFFFFFFFFFFFFFFFFFFFFFFFFFF
310
FFFFFFFFFFFFFFFFFFFFFFFFFFFFFFFFFFFFFFFFFFFFFFFFFFFFFFFFFFFFFFFF
310
FFFFFFFFFFFFFFFFFFFFFFFFFFFFFFFFFFFFFFFFFFFFFFFFFFFFF2F1F5FF816B
310
96FF63427BFF684A80FF684A80FF684A80FF684A80FF684A80FF684A80FF684A
310
80FF684A80FF65457DFF725889FFF0EEF1FFFFFFFFFFFFFFFFFFFFFFFFFFFFFF
310
FFFFD1CFCEFF2A292BFF252427FF252427FF252427FF252427FF252427FFB2B0
310
AEFFFFFFFFFFFFFFFFFFFFFFFFFFFFFFFFFFFEFDFEFF605E5DFF252427FF2524
310
27FF252427FF252427FF252427FF646261FFFBFAFAFFFFFFFFFFFFFFFFFFFFFF
310
FFFFFFFFFFFFFFFFFFFFFFFFFFFFFFFFFFFFFFFFFFFFFFFFFFFFFFFFFFFF6F6D
310
6CFF252427FF252427FF252427FF252427FF252427FF575555FFF6F5F5FFFFFF
310
FFFFFFFFFFFFFFFFFFFFFFFFFFFFFFFFFFFFFFFFFFFFFFFFFFFFFFFFFFFFFEFD
310
FEFF696766FF252427FF252427FF252427FF252427FF252427FF383738FFE0DF
310
DEFFFFFFFFFFFFFFFFFFFFFFFFFFFFFFFFFFFFFFFFFFFFFFFFFFECEBEBFF3D3B
310
3CFF252427FF252427FF252427FF252427FF252427FF605E5DFFF9F9F9FFFFFF
310
FFFFFFFFFFFFFFFFFFFF716F6EFF252427FF252427FF252427FF252427FF2524
310
27FF565454FFF2F2F1FFFFFFFFFFFFFFFFFFFFFFFFFFFFFFFFFFFFFFFFFFFFFF
310
FFFFFFFFFFFFFFFFFFFFFFFFFFFFFFFFFFFFFFFFFFFFFFFFFFFFFFFFFFFFFFFF
310
FFFFFFFFFFFFD1CBD9FF66477EFF67497FFF684A80FF684A80FF66477EFF5F3C
310
78FF78608EFFCBC4D3FFFFFFFFFFFFFFFFFFFFFFFFFFFFFFFFFFFFFFFFFFFFFF
310
FFFFFFFFFFFFFFFFFFFFFFFFFFFFFFFFFFFFFFFFFFFFFFFFFFFFFFFFFFFFFFFF
310
FFFFFFFFFFFFFFFFFFFFFFFFFFFFFFFFFFFFFFFFFFFFFFFFFFFFFFFFFFFFFFFF
310
FFFFFFFFFFFFFFFFFFFFFFFFFFFFFFFFFFFFFFFFFFFF9D8DAEFF62407BFF684A
310
80FF684A80FF684A80FF684A80FF684A80FF684A80FF684A80FF684A80FF6749
310
7FFF66477EFFD1CBD9FFFFFFFFFFFFFFFFFFFFFFFFFFFFFFFFFFE9E8E7FF4A48
310
48FF252427FF252427FF252427FF252427FF252427FF7E7C7BFFFFFFFFFFFFFF
310
FFFFFFFFFFFFFFFFFFFFFFFFFFFF949190FF252427FF252427FF252427FF2524
310
27FF252427FF3D3B3CFFE9E9E8FFFFFFFFFFFFFFFFFFFFFFFFFFFFFFFFFFFFFF
310
FFFFFFFFFFFFFFFFFFFFFFFFFFFFFFFFFFFFFFFFFFFFA29F9EFF252427FF2524
310
27FF252427FF252427FF252427FF2F2E30FFDEDDDCFFFFFFFFFFFFFFFFFFFFFF
310
FFFFFFFFFFFFFFFFFFFFFFFFFFFFFFFFFFFFFFFFFFFFFEFDFEFF787574FF2524
310
27FF252427FF252427FF252427FF252427FF343334FFDDDCDBFFFFFFFFFFFFFF
310
FFFFFFFFFFFFFFFFFFFFFFFFFFFFFFFFFFFFFFFFFFFF8C8988FF252427FF2524
310
27FF252427FF252427FF252427FF2A292BFFD3D1D0FFFFFFFFFFFFFFFFFFFFFF
310
FFFFA4A1A0FF252427FF252427FF252427FF252427FF252427FF2F2E30FFDAD9
310
D8FFFFFFFFFFFFFFFFFFFFFFFFFFFFFFFFFFFFFFFFFFFFFFFFFFFFFFFFFFFFFF
310
FFFFFFFFFFFFFFFFFFFFFFFFFFFFFFFFFFFFFFFFFFFFFFFFFFFFFFFFFFFFF0EE
310
F1FF725889FF65467DFF684A80FF684A80FF684A80FF684A80FF63427BFF6647
310
7EFFA191B0FFF1EFF3FFFFFFFFFFFFFFFFFFFFFFFFFFFFFFFFFFFFFFFFFFFFFF
310
FFFFFFFFFFFFFFFFFFFFFFFFFFFFFFFFFFFFFFFFFFFFFFFFFFFFFFFFFFFFFFFF
310
FFFFFFFFFFFFFFFFFFFFFFFFFFFFFFFFFFFFFFFFFFFFFFFFFFFFFFFFFFFFFFFF
310
FFFFFFFFFFFFFFFFFFFFFFFFFFFFB9AEC4FF62407BFF684A80FF684A80FF684A
310
80FF684A80FF684A80FF684A80FF684A80FF684A80FF684A80FF62407BFFB1A5
310
BEFFFFFFFFFFFFFFFFFFFFFFFFFFFFFFFFFFFDFDFDFF666463FF252427FF2524
310
27FF252427FF252427FF252427FF5D5B5AFFF7F7F7FFFFFFFFFFFFFFFFFFFFFF
310
FFFFFFFFFFFFB8B6B5FF252427FF252427FF252427FF252427FF252427FF2524
310
27FFC4C2C0FFFFFFFFFFFFFFFFFFFFFFFFFFFFFFFFFFFFFFFFFFFFFFFFFFFFFF
310
FFFFFFFFFFFFFFFFFFFFFFFFFFFFC8C6C5FF252427FF252427FF252427FF2524
310
27FF252427FF252427FFB8B6B5FFFFFFFFFFFFFFFFFFFFFFFFFFFFFFFFFFFFFF
310
FFFFFFFFFFFFFFFFFFFFFFFFFFFFFFFFFFFF7E7C7BFF252427FF252427FF2524
310
27FF252427FF252427FF2F2E30FFD1CFCEFFFFFFFFFFFFFFFFFFFFFFFFFFFFFF
310
FFFFFFFFFFFFFFFFFFFFFFFFFFFFC2C0BFFF252427FF252427FF252427FF2524
310
27FF252427FF252427FFA6A4A2FFFFFFFFFFFFFFFFFFFFFFFFFFC9C8C6FF2524
310
27FF252427FF252427FF252427FF252427FF252427FFB4B1B0FFFFFFFFFFFFFF
310
FFFFFFFFFFFFFFFFFFFFFFFFFFFFFFFFFFFFFFFFFFFFFFFFFFFFFFFFFFFFFFFF
310
FFFFFFFFFFFFFFFFFFFFFFFFFFFFFFFFFFFFFFFFFFFFFBFBFCFF8A769DFF6342
310
7BFF684A80FF684A80FF684A80FF684A80FF684A80FF65467DFF5F3C78FF7D66
310
92FFD1CAD8FFFFFFFFFFFFFFFFFFFFFFFFFFFFFFFFFFFFFFFFFFFFFFFFFFFFFF
310
FFFFFFFFFFFFFEFDFEFFEDEBF0FFEAE7EDFFEAE7EDFFEAE7EDFFEAE7EDFFEAE7
310
EDFFEAE7EDFFEAE7EDFFFDFDFDFFFFFFFFFFFFFFFFFFFFFFFFFFFFFFFFFFFFFF
310
FFFFFFFFFFFFD6D1DDFF684A80FF67487FFF684A80FF684A80FF684A80FF684A
310
80FF684A80FF684A80FF684A80FF684A80FF62407BFF9280A4FFFFFFFFFFFFFF
310
FFFFFFFFFFFFFFFFFFFFFFFFFFFF9A9796FF252427FF252427FF252427FF2524
310
27FF252427FF383738FFE0DFDEFFFFFFFFFFFFFFFFFFFFFFFFFFFFFFFFFFE5E4
310
E3FF383738FF252427FF252427FF252427FF252427FF252427FF949190FFFFFF
310
FFFFFFFFFFFFFFFFFFFFFFFFFFFFFFFFFFFFFFFFFFFFFFFFFFFFFFFFFFFFFFFF
310
FFFFFFFFFFFFF0EFEFFF434242FF252427FF252427FF252427FF252427FF2524
310
27FF868483FFFFFFFFFFFFFFFFFFFFFFFFFFFFFFFFFFFFFFFFFFFFFFFFFFFFFF
310
FFFFFFFFFFFFFFFFFFFFA6A4A2FF252427FF252427FF252427FF252427FF2524
310
27FF252427FFB2B0AEFFFFFFFFFFFFFFFFFFFFFFFFFFFFFFFFFFFFFFFFFFFFFF
310
FFFFFFFFFFFFE3E2E1FF383738FF252427FF252427FF252427FF252427FF2524
310
27FF7B7978FFFFFFFFFFFFFFFFFFFFFFFFFFF1F0F0FF434242FF252427FF2524
310
27FF252427FF252427FF252427FF838180FFFFFFFFFFFFFFFFFFFFFFFFFFFFFF
310
FFFFFFFFFFFFFFFFFFFFFFFFFFFFFFFFFFFFFFFFFFFFFFFFFFFFFFFFFFFFFFFF
310
FFFFFFFFFFFFFFFFFFFFFFFFFFFFFFFFFFFFA99BB7FF62407BFF67497FFF684A
310
80FF684A80FF684A80FF684A80FF684A80FF684A80FF63427BFF65457EFFB9AE
310
C4FFFFFFFFFFFFFFFFFFFFFFFFFFFFFFFFFFFFFFFFFFFFFFFFFFFFFFFFFFE8E5
310
ECFF816B96FF775D8DFF78608EFF78608EFF78608EFF78608EFF78608EFF745A
310
8AFFB9AEC4FFFFFFFFFFFFFFFFFFFFFFFFFFFFFFFFFFFFFFFFFFFFFFFFFFF7F6
310
F8FF775D8DFF64457DFF684A80FF684A80FF684A80FF684A80FF684A80FF684A
310
80FF684A80FF684A80FF64447CFF7B6491FFF4F2F5FFFFFFFFFFFFFFFFFFFFFF
310
FFFFFFFFFFFFC1BFBDFF252427FF252427FF252427FF252427FF252427FF2524
310
27FFC1BFBDFFFFFFFFFFFFFFFFFFFFFFFFFFFFFFFFFFF8F8F8FF545252FF2524
310
27FF252427FF252427FF252427FF252427FF716F6EFFFFFFFFFFFFFFFFFFFFFF
310
FFFFFFFFFFFFFFFFFFFFFFFFFFFFFFFFFFFFFFFFFFFFFFFFFFFFFFFFFFFFFDFD
310
FDFF605E5DFF252427FF252427FF252427FF252427FF252427FF615F5FFFFEFD
310
FEFFFFFFFFFFFFFFFFFFFFFFFFFFFFFFFFFFFFFFFFFFFFFFFFFFFFFFFFFFFFFF
310
FFFFCDCCCBFF2A292BFF252427FF252427FF252427FF252427FF252427FF8A88
310
86FFFFFFFFFFFFFFFFFFFFFFFFFFFFFFFFFFFFFFFFFFFFFFFFFFFFFFFFFFEEEE
310
EDFF434242FF252427FF252427FF252427FF252427FF252427FF706E6DFFFFFF
310
FFFFFFFFFFFFFFFFFFFFFFFFFFFF636160FF252427FF252427FF252427FF2524
310
27FF252427FF615F5FFFFFFFFFFFFFFFFFFFFFFFFFFFFFFFFFFFFFFFFFFFFFFF
310
FFFFFFFFFFFFFFFFFFFFFFFFFFFFFFFFFFFFFFFFFFFFFFFFFFFFFFFFFFFFFFFF
310
FFFFFFFFFFFFFFFFFFFFCBC4D3FF64447CFF67487FFF684A80FF684A80FF684A
310
80FF684A80FF684A80FF684A80FF684A80FF5F3C78FF7A628FFFF1EFF3FFFFFF
310
FFFFFFFFFFFFFFFFFFFFFFFFFFFFFFFFFFFFFFFFFFFFC7BFD0FF5F3C78FF6444
310
7CFF63437CFF63437CFF63437CFF63437CFF63437CFF62407BFF6A4D82FFDDD9
310
E2FFFFFFFFFFFFFFFFFFFFFFFFFFFFFFFFFFFFFFFFFFFFFFFFFF8F7CA2FF6240
310
7BFF684A80FF684A80FF684A80FF684A80FF684A80FF684A80FF684A80FF684A
310
80FF66477EFF6A4D82FFD8D3DEFFFFFFFFFFFFFFFFFFFFFFFFFFFFFFFFFFE5E4
310
E4FF383738FF252427FF252427FF252427FF252427FF252427FF8C8988FFFFFF
310
FFFFFFFFFFFFFFFFFFFFFFFFFFFFFFFFFFFF82807EFF252427FF252427FF2524
310
27FF252427FF252427FF434242FFF6F5F5FFFFFFFFFFFFFFFFFFFFFFFFFFFFFF
310
FFFFFFFFFFFFFFFFFFFFFFFFFFFFFFFFFFFFFFFFFFFFFFFFFFFF8F8D8BFF2524
310
27FF252427FF252427FF252427FF252427FF383738FFEDECEBFFFFFFFFFFFFFF
310
FFFFFFFFFFFFFFFFFFFFFFFFFFFFFFFFFFFFFFFFFFFFFFFFFFFFF1F0F0FF5250
310
50FF252427FF252427FF252427FF252427FF252427FF484747FFEFEEEEFFFFFF
310
FFFFFFFFFFFFFFFFFFFFFFFFFFFFFFFFFFFFFFFFFFFFF3F3F2FF504E4EFF2524
310
27FF252427FF252427FF252427FF252427FF5A5858FFFCFCFCFFFFFFFFFFFFFF
310
FFFFFFFFFFFF928F8EFF252427FF252427FF252427FF252427FF252427FF3837
310
38FFEDECEBFFFFFFFFFFFFFFFFFFFFFFFFFFFFFFFFFFFFFFFFFFFFFFFFFFFFFF
310
FFFFFFFFFFFFFFFFFFFFFFFFFFFFFFFFFFFFFFFFFFFFFFFFFFFFFFFFFFFFFFFF
310
FFFFDFDCE5FF6F5486FF64457DFF684A80FF684A80FF684A80FF684A80FF684A
310
80FF684A80FF684A80FF65467DFF6C4F83FFDBD6E0FFFFFFFFFFFFFFFFFFFFFF
310
FFFFFFFFFFFFFFFFFFFFFFFFFFFFC5BCCEFF64447CFF63427BFF684A80FF684A
310
80FF684A80FF684A80FF684A80FF684A80FF62407BFF8C789FFFF8F7FAFFFFFF
310
FFFFFFFFFFFFFFFFFFFFFFFFFFFFFFFFFFFFAEA1BBFF62407BFF684A80FF684A
310
80FF684A80FF684A80FF684A80FF684A80FF684A80FF684A80FF67497FFF6240
310
7BFFC0B6CAFFFFFFFFFFFFFFFFFFFFFFFFFFFFFFFFFFFEFDFEFF575555FF2524
310
27FF252427FF252427FF252427FF252427FF6A6867FFFFFFFFFFFFFFFFFFFFFF
310
FFFFFFFFFFFFFFFFFFFFB0ADACFF252427FF252427FF252427FF252427FF2524
310
27FF2F2E30FFA4A1A0FFE8E7E6FFFEFDFEFFFFFFFFFFFFFFFFFFFFFFFFFFFFFF
310
FFFFFDFDFDFFFCFCFCFFFFFFFFFFFFFFFFFFBEBCBBFF252427FF252427FF2524
310
27FF252427FF252427FF2A292BFF9B9997FFE6E5E5FFFDFDFDFFFFFFFFFFFFFF
310
FFFFFFFFFFFFFFFFFFFFFDFDFDFFFCFBFBFFFFFFFFFF949190FF252427FF2524
310
27FF252427FF252427FF252427FF252427FFAFACABFFFFFFFFFFFFFFFFFFFFFF
310
FFFFFFFFFFFFFFFFFFFFFFFFFFFFEDEDECFF434242FF252427FF252427FF2524
310
27FF252427FF252427FF636160FFFEFDFEFFFFFFFFFFFFFFFFFFFFFFFFFFBDBB
310
BAFF252427FF252427FF252427FF252427FF252427FF252427FF9B9997FFE5E4
310
E3FFFDFDFDFFFFFFFFFFFFFFFFFFFFFFFFFFFFFFFFFFFDFDFDFFFCFCFCFFFFFF
310
FFFFFFFFFFFFFFFFFFFFFFFFFFFFFFFFFFFFFFFFFFFFFFFFFFFFF5F4F7FF846E
310
98FF63427BFF684A80FF684A80FF684A80FF684A80FF684A80FF684A80FF684A
310
80FF67497FFF62407BFFC1B8CBFFFFFFFFFFFFFFFFFFFFFFFFFFFFFFFFFFFFFF
310
FFFFFFFFFFFFFCFBFBFFCBC4D3FF78608EFF5F3C78FF67487FFF684A80FF684A
310
80FF684A80FF684A80FF67497FFF62407BFFB9AEC4FFFFFFFFFFFFFFFFFFFFFF
310
FFFFFFFFFFFFFFFFFFFFD4CEDBFF65467DFF67487FFF684A80FF684A80FF684A
310
80FF684A80FF684A80FF684A80FF684A80FF684A80FF62407BFFA090B0FFFFFF
310
FFFFFFFFFFFFFFFFFFFFFFFFFFFFFFFFFFFF868483FF252427FF252427FF2524
310
27FF252427FF252427FF3D3B3CFFF1F0F0FFFFFFFFFFFFFFFFFFFFFFFFFFFFFF
310
FFFFD5D3D2FF343334FF252427FF252427FF252427FF252427FF252427FF2524
310
27FF383738FF5A5858FF6E6C6BFF7E7C7BFF7E7C7BFF6E6C6BFF4E4C4CFFABA8
310
A7FFFFFFFFFFFFFFFFFFDEDDDCFF3D3B3CFF252427FF252427FF252427FF2524
310
27FF252427FF252427FF343334FF575555FF6D6B6AFF7D7A79FF7E7C7BFF706E
310
6DFF4E4C4CFF9E9C9AFFFFFFFFFFE9E8E7FF434242FF252427FF252427FF2524
310
27FF252427FF252427FF383738FFDAD9D8FFFFFFFFFFFFFFFFFFFFFFFFFFFFFF
310
FFFFFFFFFFFFCBC9C8FF252427FF252427FF252427FF252427FF252427FF2524
310
27FF706E6DFFFFFFFFFFFFFFFFFFFFFFFFFFFFFFFFFFE0DFDEFF3D3B3CFF2524
310
27FF252427FF252427FF252427FF252427FF252427FF343334FF565454FF6D6A
310
6AFF7D7A79FF7E7C7BFF6F6D6CFF504E4EFF9D9A99FFFFFFFFFFFFFFFFFFFFFF
310
FFFFFFFFFFFFFFFFFFFFFFFFFFFFFFFFFFFFFFFFFFFF9D8DAEFF62407BFF684A
310
80FF684A80FF684A80FF684A80FF684A80FF684A80FF684A80FF684A80FF6240
310
7BFF9F8FAFFFFFFFFFFFFFFFFFFFFFFFFFFFFFFFFFFFFFFFFFFFFFFFFFFFFFFF
310
FFFFFFFFFFFFECEAEFFF9B8AACFF64447CFF64447CFF684A80FF684A80FF684A
310
80FF684A80FF64447DFF6F5486FFE2DFE7FFFFFFFFFFFFFFFFFFFFFFFFFFFFFF
310
FFFFE8E5ECFF725889FF64447CFF684A80FF684A80FF684A80FF684A80FF684A
310
80FF684A80FF684A80FF684A80FF63427BFF816B96FFF4F2F5FFFFFFFFFFFFFF
310
FFFFFFFFFFFFFFFFFFFFB0ADACFF252427FF252427FF252427FF252427FF2524
310
27FF252427FFCBC9C8FFFFFFFFFFFFFFFFFFFFFFFFFFFFFFFFFFEFEEEEFF4847
310
47FF252427FF252427FF252427FF252427FF252427FF252427FF252427FF2524
310
27FF252427FF252427FF252427FF252427FF252427FF767473FFFFFFFFFFFFFF
310
FFFFF6F6F6FF504E4EFF252427FF252427FF252427FF252427FF252427FF2524
310
27FF252427FF252427FF252427FF252427FF252427FF252427FF252427FF6765
310
64FFFFFFFFFFFFFFFFFFABA8A7FF252427FF252427FF252427FF252427FF2524
310
27FF252427FF4C4A4AFFC9C8C6FFFFFFFFFFFFFFFFFFFFFFFFFFE7E6E5FF5755
310
55FF252427FF252427FF252427FF252427FF252427FF252427FF9D9A99FFFFFF
310
FFFFFFFFFFFFFFFFFFFFFFFFFFFFF6F5F5FF545252FF252427FF252427FF2524
310
27FF252427FF252427FF252427FF252427FF252427FF252427FF252427FF2524
310
27FF252427FF252427FF666463FFFEFDFEFFFFFFFFFFFFFFFFFFFFFFFFFFFFFF
310
FFFFFFFFFFFFFFFFFFFFFFFFFFFFBCB1C6FF62407BFF684A80FF684A80FF684A
310
80FF684A80FF684A80FF684A80FF684A80FF684A80FF63427BFF816B96FFFAF9
310
FBFFFFFFFFFFFFFFFFFFFFFFFFFFFFFFFFFFF2F1F5FFE6E3EAFFFFFFFFFFFFFF
310
FFFFFDFDFDFFC3BACCFF745A8AFF5F3C78FF67497FFF684A80FF684A80FF684A
310
80FF62407BFF8F7CA2FFFEFDFEFFFFFFFFFFFFFFFFFFFFFFFFFFF7F6F8FF8A76
310
9DFF62407BFF684A80FF684A80FF684A80FF684A80FF684A80FF684A80FF684A
310
80FF684A80FF65467EFF6D5285FFE6E3EAFFFFFFFFFFFFFFFFFFFFFFFFFFFFFF
310
FFFFDDDBDAFF343334FF252427FF252427FF252427FF252427FF252427FF9D9A
310
99FFFFFFFFFFFFFFFFFFFFFFFFFFFFFFFFFFFFFFFFFF737170FF252427FF2524
310
27FF252427FF252427FF252427FF252427FF252427FF252427FF252427FF2524
310
27FF252427FF252427FF252427FF434242FFF7F6F8FFFFFFFFFFFFFFFFFF8280
310
7EFF252427FF252427FF252427FF252427FF252427FF252427FF252427FF2524
310
27FF252427FF252427FF252427FF252427FF252427FF3D3B3CFFEDEDECFFFFFF
310
FFFFFDFDFDFF858381FF252427FF252427FF252427FF252427FF252427FF2524
310
27FF252427FF666463FF868483FF7B7978FF434242FF252427FF252427FF2524
310
27FF252427FF252427FF252427FF2A292BFFDEDDDCFFFFFFFFFFFFFFFFFFFFFF
310
FFFFFFFFFFFFFFFFFFFF868483FF252427FF252427FF252427FF252427FF2524
310
27FF252427FF252427FF252427FF252427FF252427FF252427FF252427FF2524
310
27FF383738FFEFEEEEFFFFFFFFFFFFFFFFFFFFFFFFFFFFFFFFFFFFFFFFFFFFFF
310
FFFFFFFFFFFFDBD6E0FF6A4D82FF67487FFF684A80FF684A80FF684A80FF684A
310
80FF684A80FF684A80FF684A80FF66477EFF6F5486FFECEAEFFFFFFFFFFFFFFF
310
FFFFFFFFFFFFFFFFFFFFD1CAD8FF6D5285FFBCB1C6FFFDFDFDFFFFFFFFFFFFFF
310
FFFFE6E3EAFF9482A6FF63437CFF64457DFF684A80FF684A80FF67487FFF6240
310
7BFFBEB4C8FFFFFFFFFFFFFFFFFFFFFFFFFFFFFFFFFFA99BB7FF62407BFF684A
310
80FF684A80FF684A80FF684A80FF684A80FF684A80FF684A80FF684A80FF6749
310
7FFF64447CFFC9C1D1FFFFFFFFFFFFFFFFFFFFFFFFFFFFFFFFFFF2F2F1FF4A48
310
48FF252427FF252427FF252427FF252427FF252427FF767473FFFFFFFFFFFFFF
310
FFFFFFFFFFFFFFFFFFFFFFFFFFFF9E9C9AFF252427FF252427FF252427FF2524
310
27FF252427FF2F2E30FF545252FF252427FF252427FF252427FF252427FF2524
310
27FF252427FF2F2E30FFD5D3D2FFFFFFFFFFFFFFFFFFAFACABFF252427FF2524
310
27FF252427FF252427FF252427FF2A292BFF565454FF252427FF252427FF2524
310
27FF252427FF252427FF252427FF2A292BFFC8C6C5FFFFFFFFFFFFFFFFFFF7F7
310
F7FF797776FF252427FF252427FF252427FF252427FF252427FF252427FF2524
310
27FF252427FF252427FF252427FF252427FF252427FF252427FF252427FF2524
310
27FF252427FF908E8CFFFFFFFFFFFFFFFFFFFFFFFFFFFFFFFFFFFFFFFFFFFFFF
310
FFFFB1AFADFF252427FF252427FF252427FF252427FF252427FF2A292BFF5452
310
52FF252427FF252427FF252427FF252427FF252427FF252427FF252427FFC9C8
310
C6FFFFFFFFFFFFFFFFFFFFFFFFFFFFFFFFFFFFFFFFFFFFFFFFFFFFFFFFFFF5F4
310
F7FF78608EFF64447DFF684A80FF684A80FF684A80FF684A80FF684A80FF684A
310
80FF684A80FF67497FFF64457DFFC9C1D1FFFFFFFFFFFFFFFFFFFFFFFFFFFFFF
310
FFFFB9AEC4FF5F3C78FF63427BFF9786A8FFE9E6ECFFFFFFFFFFFFFFFFFFFBFB
310
FCFFBCB1C6FF6F5486FF62407BFF67487FFF684A80FF63437CFF745A8AFFE8E5
310
ECFFFFFFFFFFFFFFFFFFFFFFFFFFC3BACCFF63427BFF67487FFF684A80FF684A
310
80FF684A80FF684A80FF684A80FF684A80FF684A80FF684A80FF62407BFFA799
310
B5FFFFFFFFFFFFFFFFFFFFFFFFFFFFFFFFFFFDFDFDFF767473FF252427FF2524
310
27FF252427FF252427FF252427FF484747FFF1F0F0FFFFFFFFFFFFFFFFFFFFFF
310
FFFFFFFFFFFFC8C6C5FF252427FF252427FF252427FF252427FF252427FF2524
310
27FFB0ADACFFB2B0AEFF3D3B3CFF252427FF252427FF252427FF252427FF2524
310
27FFABA8A7FFFFFFFFFFFFFFFFFFD5D3D2FF2A292BFF252427FF252427FF2524
310
27FF252427FF252427FFA8A6A4FFBAB8B6FF434242FF252427FF252427FF2524
310
27FF252427FF252427FF9A9796FFFFFFFFFFFFFFFFFFFFFFFFFFF9F9F9FF9D9A
310
99FF2F2E30FF252427FF252427FF252427FF252427FF252427FF252427FF2524
310
27FF252427FF252427FF252427FF252427FF252427FF252427FF72706FFFF6F5
310
F5FFFFFFFFFFFFFFFFFFFFFFFFFFFFFFFFFFFFFFFFFFFFFFFFFFD6D5D4FF2A29
310
2BFF252427FF252427FF252427FF252427FF252427FF9E9C9AFFBCBAB9FF4342
310
42FF252427FF252427FF252427FF252427FF252427FF9D9A99FFFFFFFFFFFFFF
310
FFFFFFFFFFFFFFFFFFFFFFFFFFFFFFFFFFFFFFFFFFFFFFFFFFFF9280A4FF6240
310
7BFF684A80FF684A80FF684A80FF684A80FF684A80FF684A80FF684A80FF684A
310
80FF62407BFFA99BB7FFFFFFFFFFFFFFFFFFFFFFFFFFFFFFFFFF9A89ABFF6240
310
7BFF67487FFF5F3C78FF755B8CFFC7BFD0FFFEFDFEFFFFFFFFFFFFFFFFFFE2DE
310
E6FF8F7CA2FF62407BFF65457DFF684A80FF62407BFF9584A7FFFDFDFDFFFFFF
310
FFFFFFFFFFFFDFDBE4FF6D5285FF66477EFF684A80FF684A80FF684A80FF684A
310
80FF684A80FF684A80FF684A80FF684A80FF62407BFF8A769DFFFEFDFEFFFFFF
310
FFFFFFFFFFFFFFFFFFFFFFFFFFFFA6A4A2FF252427FF2A292BFF2A292BFF2A29
310
2BFF252427FF383738FFD3D1D0FFFFFFFFFFFFFFFFFFFFFFFFFFFFFFFFFFEDED
310
ECFF434242FF252427FF2A292BFF2A292BFF2A292BFF252427FF8F8D8BFFFFFF
310
FFFFE9E8E7FF928F8EFF4A4848FF2F2E30FF252427FF252427FF7E7C7BFFFFFF
310
FFFFFFFFFFFFF6F5F5FF4E4C4CFF252427FF2A292BFF2A292BFF2A292BFF2524
310
27FF817E7DFFFFFFFFFFECEBEBFF9A9796FF525050FF2F2E30FF252427FF2524
310
27FF716F6EFFFDFDFDFFFFFFFFFFFFFFFFFFFFFFFFFFFFFFFFFFD6D5D4FF7876
310
75FF343334FF252427FF252427FF252427FF252427FF252427FF252427FF2524
310
27FF252427FF252427FF434242FF989594FFFCFCFCFFFFFFFFFFFFFFFFFFFFFF
310
FFFFFFFFFFFFFFFFFFFFFFFFFFFFFFFFFFFFF7F7F7FF4C4A4AFF252427FF2A29
310
2BFF2A292BFF2A292BFF252427FF7E7C7BFFFFFFFFFFEDEDECFF9B9997FF504E
310
4EFF2F2E30FF252427FF252427FF767473FFFFFFFFFFFFFFFFFFFFFFFFFFFFFF
310
FFFFFFFFFFFFFFFFFFFFFFFFFFFFFFFFFFFFB3A7BFFF62407BFF684A80FF684A
310
80FF684A80FF684A80FF684A80FF684A80FF684A80FF684A80FF62407BFF8C78
310
9FFFFFFFFFFFFFFFFFFFFFFFFFFFFBFBFCFF816B96FF63437CFF684A80FF684A
310
80FF63437CFF64447CFF9D8DAEFFEDEBF0FFFFFFFFFFFFFFFFFFF9F9F9FFB6AA
310
C1FF6C4F83FF62407BFF66477EFF64447CFFC5BCCEFFFFFFFFFFFFFFFFFFFBFB
310
FCFF7F6994FF63437CFF684A80FF684A80FF684A80FF684A80FF684A80FF684A
310
80FF684A80FF684A80FF65467DFF745A8AFFECEAEFFFFFFFFFFFFFFFFFFFFFFF
310
FFFFFFFFFFFFECEBEBFFBEBCBBFFC1BFBDFFC2C0BFFFC2C0BFFFC1BFBDFFBEBC
310
BBFFEAEAE9FFFFFFFFFFFFFFFFFFFFFFFFFFFFFFFFFFFEFDFEFFCCCAC9FFBEBC
310
BBFFC2C0BFFFC2C0BFFFC2C0BFFFBDBBBAFFD3D1D0FFFFFFFFFFFFFFFFFFFFFF
310
FFFFF0EFEFFFCCCAC9FFB6B4B2FFABA8A7FFC9C8C6FFFFFFFFFFFFFFFFFFFFFF
310
FFFFD0CECDFFBEBCBBFFC2C0BFFFC2C0BFFFC2C0BFFFBEBCBBFFCDCCCBFFFFFF
310
FFFFFFFFFFFFFFFFFFFFF3F3F2FFD0CECDFFB8B6B5FFABA8A7FFC4C2C0FFFDFD
310
FDFFFFFFFFFFFFFFFFFFFFFFFFFFFFFFFFFFFFFFFFFFFFFFFFFFDDDBDAFFA8A6
310
A4FF7B7978FF615F5FFF565454FF565454FF565454FF605E5DFF787574FFA8A6
310
A4FFE4E3E2FFFFFFFFFFFFFFFFFFFFFFFFFFFFFFFFFFFFFFFFFFFFFFFFFFFFFF
310
FFFFFFFFFFFFFFFFFFFFFFFFFFFFD1CFCEFFBEBCBBFFC2C0BFFFC2C0BFFFC2C0
310
BFFFBEBCBBFFCDCCCBFFFFFFFFFFFFFFFFFFFFFFFFFFF3F3F2FFD0CECDFFB8B6
310
B5FFABA8A7FFC8C6C5FFFFFFFFFFFFFFFFFFFFFFFFFFFFFFFFFFFFFFFFFFFFFF
310
FFFFFFFFFFFFFFFFFFFFD6D1DDFF65467DFF66477EFF684A80FF684A80FF684A
310
80FF684A80FF684A80FF684A80FF684A80FF64447CFF755B8CFFEAE7EDFFFFFF
310
FFFFFFFFFFFFEDEBF0FF725889FF65467DFF684A80FF684A80FF684A80FF6748
310
7FFF5F3C78FF7A628FFFCBC4D3FFFFFFFFFFFFFFFFFFFFFFFFFFDDD9E2FF8874
310
9CFF5F3C78FF5F3C78FF775D8DFFEAE7EDFFFFFFFFFFFFFFFFFF9786A8FF6240
310
7BFF684A80FF684A80FF684A80FF684A80FF684A80FF684A80FF684A80FF684A
310
80FF67487FFF67487FFFCFC8D6FFFFFFFFFFFFFFFFFFFFFFFFFFFFFFFFFFFFFF
310
FFFFFFFFFFFFFFFFFFFFFFFFFFFFFFFFFFFFFFFFFFFFFFFFFFFFFFFFFFFFFFFF
310
FFFFFFFFFFFFFFFFFFFFFFFFFFFFFFFFFFFFFFFFFFFFFFFFFFFFFFFFFFFFFFFF
310
FFFFFFFFFFFFFFFFFFFFFFFFFFFFFFFFFFFFFFFFFFFFFFFFFFFFFFFFFFFFFFFF
310
FFFFFFFFFFFFFFFFFFFFFFFFFFFFFFFFFFFFFFFFFFFFFFFFFFFFFFFFFFFFFFFF
310
FFFFFFFFFFFFFFFFFFFFFFFFFFFFFFFFFFFFFFFFFFFFFFFFFFFFFFFFFFFFFFFF
310
FFFFFFFFFFFFFFFFFFFFFFFFFFFFFFFFFFFFFFFFFFFFFFFFFFFFFFFFFFFFFFFF
310
FFFFFFFFFFFFFFFFFFFFFFFFFFFFFFFFFFFFFFFFFFFFFFFFFFFFFFFFFFFFF7F7
310
F7FFF3F3F2FFF4F3F3FFF3F3F2FFF6F6F6FFFFFFFFFFFFFFFFFFFFFFFFFFFFFF
310
FFFFFFFFFFFFFFFFFFFFFFFFFFFFFFFFFFFFFFFFFFFFFFFFFFFFFFFFFFFFFFFF
310
FFFFFFFFFFFFFFFFFFFFFFFFFFFFFFFFFFFFFFFFFFFFFFFFFFFFFFFFFFFFFFFF
310
FFFFFFFFFFFFFFFFFFFFFFFFFFFFFFFFFFFFFFFFFFFFFFFFFFFFFFFFFFFFFFFF
310
FFFFFFFFFFFFFFFFFFFFFFFFFFFFFFFFFFFFFFFFFFFFFFFFFFFFFFFFFFFFFFFF
310
FFFFE9E6ECFF745A8AFF64447CFF684A80FF684A80FF684A80FF684A80FF684A
310
80FF684A80FF684A80FF66477EFF67497FFFD1CBD9FFFFFFFFFFFFFFFFFFD1CB
310
D9FF66477EFF67497FFF684A80FF684A80FF684A80FF684A80FF684A80FF6342
310
7BFF63427BFFA191B0FFF0EEF1FFFFFFFFFFFFFFFFFFF7F6F8FFB0A3BDFF694C
310
81FF5F3C78FF9A89ABFFFDFDFDFFFFFFFFFFB9AEC4FF63427BFF684A80FF684A
310
80FF684A80FF684A80FF684A80FF684A80FF684A80FF684A80FF684A80FF6240
310
7BFFB3A7BFFFFFFFFFFFFFFFFFFFFFFFFFFFFFFFFFFFFFFFFFFFF2F2F1FFF0EF
310
EFFFF1F0F0FFF1F0F0FFF1F0F0FFF1F0F0FFF1F0F0FFFDFCFEFFFFFFFFFFFFFF
310
FFFFFFFFFFFFFFFFFFFFFFFFFFFFFFFFFFFFFFFFFFFFFFFFFFFFFFFFFFFFFFFF
310
FFFFFFFFFFFFFFFFFFFFFFFFFFFFFFFFFFFFFFFFFFFFFFFFFFFFFFFFFFFFFFFF
310
FFFFFFFFFFFFFFFFFFFFFFFFFFFFFFFFFFFFFFFFFFFFFFFFFFFFFFFFFFFFFFFF
310
FFFFFFFFFFFFFFFFFFFFFFFFFFFFFFFFFFFFFFFFFFFFFFFFFFFFFFFFFFFFFFFF
310
FFFFFFFFFFFFFFFFFFFFFFFFFFFFFFFFFFFFFFFFFFFFFFFFFFFFFFFFFFFFFFFF
310
FFFFFFFFFFFFFFFFFFFFFFFFFFFFFFFFFFFFFFFFFFFFFFFFFFFFFFFFFFFFFFFF
310
FFFFFFFFFFFFFFFFFFFFFFFFFFFFFFFFFFFFFFFFFFFFFFFFFFFFFFFFFFFFFFFF
310
FFFFFFFFFFFFFFFFFFFFFFFFFFFFFFFFFFFFFFFFFFFFFFFFFFFFFFFFFFFFFFFF
310
FFFFFFFFFFFFFFFFFFFFFFFFFFFFFFFFFFFFFFFFFFFFFFFFFFFFFFFFFFFFFFFF
310
FFFFFFFFFFFFFFFFFFFFFFFFFFFFFFFFFFFFFFFFFFFFFFFFFFFFFFFFFFFFFFFF
310
FFFFFFFFFFFFFFFFFFFFFFFFFFFFFFFFFFFFFFFFFFFFFFFFFFFFF9F8F9FF8C78
310
9FFF62407BFF684A80FF684A80FF684A80FF684A80FF684A80FF684A80FF684A
310
80FF684A80FF5F3C78FFB9AEC4FFFFFFFFFFFFFFFFFFB6AAC1FF62407BFF684A
310
80FF684A80FF684A80FF684A80FF684A80FF684A80FF65467DFF816B96FF6B4E
310
83FF7A628FFFD4CEDBFFFFFFFFFFFFFFFFFFFFFFFFFFD6D1DDFF7E6793FF5F3C
310
78FFC9C1D1FFFFFFFFFFDDD9E2FF684A80FF66477EFF684A80FF684A80FF684A
310
80FF684A80FF684A80FF684A80FF684A80FF684A80FF62407BFF9785A8FFFDFD
310
FDFFFFFFFFFFFFFFFFFFFFFFFFFFFFFFFFFF8A8886FF3D3B3CFF434242FF4342
310
42FF434242FF3D3B3CFF3D3B3CFFD3D1D0FFFFFFFFFFFFFFFFFFFFFFFFFFFFFF
310
FFFFFFFFFFFFFFFFFFFFFFFFFFFFFFFFFFFFFFFFFFFFFFFFFFFFFFFFFFFFFFFF
310
FFFFFFFFFFFFFFFFFFFFFFFFFFFFFFFFFFFFFFFFFFFFFFFFFFFFFFFFFFFFFFFF
310
FFFFFFFFFFFFFFFFFFFFFFFFFFFFFFFFFFFFFFFFFFFFFFFFFFFFFFFFFFFFFFFF
310
FFFFFFFFFFFFFFFFFFFFFFFFFFFFFFFFFFFFFFFFFFFFFFFFFFFFFFFFFFFFFFFF
310
FFFFFFFFFFFFFFFFFFFFFFFFFFFFFFFFFFFFFFFFFFFFFFFFFFFFFFFFFFFFFFFF
310
FFFFFFFFFFFFFFFFFFFFFFFFFFFFFFFFFFFFFFFFFFFFFFFFFFFFFFFFFFFFFFFF
310
FFFFFFFFFFFFFFFFFFFFFFFFFFFFFFFFFFFFFFFFFFFFFFFFFFFFFFFFFFFFFFFF
310
FFFFFFFFFFFFFFFFFFFFFFFFFFFFFFFFFFFFFFFFFFFFFFFFFFFFFFFFFFFFFFFF
310
FFFFFFFFFFFFFFFFFFFFFFFFFFFFFFFFFFFFFFFFFFFFFFFFFFFFFFFFFFFFFFFF
310
FFFFFFFFFFFFFFFFFFFFFFFFFFFFFFFFFFFFFFFFFFFFFFFFFFFFFFFFFFFFFFFF
310
FFFFFFFFFFFFFFFFFFFFFFFFFFFFFFFFFFFFFFFFFFFFA99BB7FF62407BFF684A
310
80FF684A80FF684A80FF684A80FF684A80FF684A80FF684A80FF684A80FF6240
310
7BFF9584A7FFFEFDFEFFFFFFFFFF9D8DAEFF62407BFF684A80FF684A80FF684A
310
80FF684A80FF684A80FF684A80FF62407BFFBCB1C6FFC0B6CAFF5F3C78FF6647
310
7EFFAB9DB9FFF4F2F5FFFFFFFFFFFFFFFFFFF4F2F5FFA090B0FF7A628FFFECEA
310
EFFFF5F4F7FF775D8DFF63437CFF684A80FF684A80FF684A80FF684A80FF684A
310
80FF684A80FF684A80FF684A80FF63437CFF7A628FFFEDEBF0FFFFFFFFFFFFFF
310
FFFFFFFFFFFFFFFFFFFF989594FF252427FF252427FF252427FF252427FF2524
310
27FF252427FF969492FFFFFFFFFFFFFFFFFFFFFFFFFFFFFFFFFFFFFFFFFFFFFF
310
FFFFFFFFFFFFFFFFFFFFFFFFFFFFFFFFFFFFFFFFFFFFFFFFFFFFFFFFFFFFFFFF
310
FFFFFFFFFFFFFFFFFFFFFFFFFFFFFFFFFFFFFFFFFFFFFFFFFFFFFFFFFFFFFFFF
310
FFFFFFFFFFFFFFFFFFFFFFFFFFFFFFFFFFFFFFFFFFFFFFFFFFFFFFFFFFFFFFFF
310
FFFFFFFFFFFFFFFFFFFFFFFFFFFFFFFFFFFFFFFFFFFFFFFFFFFFFFFFFFFFFFFF
310
FFFFFFFFFFFFFFFFFFFFFFFFFFFFFFFFFFFFFFFFFFFFFFFFFFFFFFFFFFFFFFFF
310
FFFFFFFFFFFFFFFFFFFFFFFFFFFFFFFFFFFFFFFFFFFFFFFFFFFFFFFFFFFFFFFF
310
FFFFFFFFFFFFFFFFFFFFFFFFFFFFFFFFFFFFFFFFFFFFFFFFFFFFFFFFFFFFFFFF
310
FFFFFFFFFFFFFFFFFFFFFFFFFFFFFFFFFFFFFFFFFFFFFFFFFFFFFFFFFFFFFFFF
310
FFFFFFFFFFFFFFFFFFFFFFFFFFFFFFFFFFFFFFFFFFFFFFFFFFFFFFFFFFFFFFFF
310
FFFFFFFFFFFFFFFFFFFFFFFFFFFFFFFFFFFFFFFFFFFFFFFFFFFFFFFFFFFFFFFF
310
FFFFFFFFFFFFFFFFFFFFFFFFFFFFC5BCCEFF64447CFF67497FFF684A80FF684A
310
80FF684A80FF684A80FF684A80FF684A80FF684A80FF63437CFF7B6491FFF5F4
310
F7FFFBFBFCFF88749CFF62407BFF684A80FF684A80FF684A80FF684A80FF684A
310
80FF67487FFF65457DFFD6D1DDFFFBFBFCFF8F7CA2FF5F3C78FF62407BFF8671
310
9AFFDBD6E0FFFFFFFFFFFFFFFFFFFFFFFFFFC5BCCEFFBCB1C6FFFBFAFAFF9280
310
A4FF62407BFF684A80FF684A80FF684A80FF684A80FF684A80FF684A80FF684A
310
80FF684A80FF65467DFF694C81FFDDD9E2FFFFFFFFFFFFFFFFFFFFFFFFFFFFFF
310
FFFFC8C6C5FF252427FF252427FF252427FF252427FF252427FF252427FF7674
310
73FFFFFFFFFFFFFFFFFFFFFFFFFFFFFFFFFFFFFFFFFFFFFFFFFFFFFFFFFFFFFF
310
FFFFFFFFFFFFFFFFFFFFFFFFFFFFFFFFFFFFFFFFFFFFFFFFFFFFFFFFFFFFFFFF
310
FFFFFFFFFFFFFFFFFFFFFFFFFFFFFFFFFFFFFFFFFFFFFFFFFFFFFFFFFFFFFFFF
310
FFFFFFFFFFFFFFFFFFFFFFFFFFFFFFFFFFFFFFFFFFFFFFFFFFFFFFFFFFFFFFFF
310
FFFFFFFFFFFFFFFFFFFFFFFFFFFFFFFFFFFFFFFFFFFFFFFFFFFFFFFFFFFFFFFF
310
FFFFFFFFFFFFFFFFFFFFFFFFFFFFFFFFFFFFFFFFFFFFFFFFFFFFFFFFFFFFFFFF
310
FFFFFFFFFFFFFFFFFFFFFFFFFFFFFFFFFFFFFFFFFFFFFFFFFFFFFFFFFFFFFFFF
310
FFFFFFFFFFFFFFFFFFFFFFFFFFFFFFFFFFFFFFFFFFFFFFFFFFFFFFFFFFFFFFFF
310
FFFFFFFFFFFFFFFFFFFFFFFFFFFFFFFFFFFFFFFFFFFFFFFFFFFFFFFFFFFFFFFF
310
FFFFFFFFFFFFFFFFFFFFFFFFFFFFFFFFFFFFFFFFFFFFFFFFFFFFFFFFFFFFFFFF
310
FFFFFFFFFFFFFFFFFFFFFFFFFFFFFFFFFFFFFFFFFFFFFFFFFFFFFFFFFFFFFFFF
310
FFFFFFFFFFFFE2DFE7FF6F5486FF66477EFF684A80FF684A80FF684A80FF684A
310
80FF684A80FF684A80FF684A80FF66477EFF694C81FFE8E5ECFFEDEBF0FF755B
310
8CFF64447CFF684A80FF684A80FF684A80FF684A80FF684A80FF64447CFF7258
310
89FFE8E5ECFFFFFFFFFFE2DEE6FF6F5486FF64447CFF62407BFF6C4F83FFB1A5
310
BEFFF8F7FAFFFFFFFFFFFFFFFFFFF2F1F5FFFEFDFEFFB1A5BEFF5F3C78FF6748
310
7FFF684A80FF684A80FF684A80FF684A80FF684A80FF684A80FF684A80FF6749
310
7FFF62407BFFC0B6CAFFFFFFFFFFFFFFFFFFFFFFFFFFFFFFFFFFECEBEBFF4342
310
42FF252427FF252427FF252427FF252427FF252427FF434242FFF4F3F3FFFFFF
310
FFFFFFFFFFFFFFFFFFFFFFFFFFFFFFFFFFFFFFFFFFFFFFFFFFFFFFFFFFFFFFFF
310
FFFFFFFFFFFFFFFFFFFFFFFFFFFFFFFFFFFFFFFFFFFFFFFFFFFFFFFFFFFFFFFF
310
FFFFFFFFFFFFFFFFFFFFFFFFFFFFFFFFFFFFFFFFFFFFFFFFFFFFFFFFFFFFFFFF
310
FFFFFFFFFFFFFFFFFFFFFFFFFFFFFFFFFFFFFFFFFFFFFFFFFFFFFFFFFFFFFFFF
310
FFFFFFFFFFFFFFFFFFFFFFFFFFFFFFFFFFFFFFFFFFFFFFFFFFFFFFFFFFFFFFFF
310
FFFFFFFFFFFFFFFFFFFFFFFFFFFFFFFFFFFFFFFFFFFFFFFFFFFFFFFFFFFFFFFF
310
FFFFFFFFFFFFFFFFFFFFFFFFFFFFFFFFFFFFFFFFFFFFFFFFFFFFFFFFFFFFFFFF
310
FFFFFFFFFFFFFFFFFFFFFFFFFFFFFFFFFFFFFFFFFFFFFFFFFFFFFFFFFFFFFFFF
310
FFFFFFFFFFFFFFFFFFFFFFFFFFFFFFFFFFFFFFFFFFFFFFFFFFFFFFFFFFFFFFFF
310
FFFFFFFFFFFFFFFFFFFFFFFFFFFFFFFFFFFFFFFFFFFFFFFFFFFFFFFFFFFFFFFF
310
FFFFFFFFFFFFFFFFFFFFFFFFFFFFFFFFFFFFFFFFFFFFFFFFFFFFFFFFFFFFFBFB
310
FCFF816B96FF63437CFF684A80FF684A80FF684A80FF684A80FF684A80FF684A
310
80FF684A80FF684A80FF63427BFFC7BFD0FFDBD6E0FF684A80FF66477EFF684A
310
80FF684A80FF684A80FF684A80FF684A80FF62407BFF86719AFFF5F4F7FFFFFF
310
FFFFFFFFFFFFBCB1C6FF62407BFF67497FFF64457DFF62407BFF8C789FFFDFDB
310
E4FFFFFFFFFFFFFFFFFFFFFFFFFFE2DEE6FF775D8DFF5F3C78FF67487FFF684A
310
80FF684A80FF684A80FF684A80FF684A80FF684A80FF684A80FF62407BFF9B8B
310
ACFFFFFFFFFFFFFFFFFFFFFFFFFFFFFFFFFFFBFAFAFF6D6B6AFF2A292BFF3433
310
34FF343334FF343334FF2F2E30FF3D3B3CFFD5D3D2FFFFFFFFFFFFFFFFFFFFFF
310
FFFFFFFFFFFFFFFFFFFFFFFFFFFFFFFFFFFFFFFFFFFFFFFFFFFFFFFFFFFFFFFF
310
FFFFFFFFFFFFFFFFFFFFFFFFFFFFFFFFFFFFFFFFFFFFFFFFFFFFFFFFFFFFFFFF
310
FFFFFFFFFFFFFFFFFFFFFFFFFFFFFFFFFFFFFFFFFFFFFFFFFFFFFFFFFFFFFFFF
310
FFFFFFFFFFFFFFFFFFFFFFFFFFFFFFFFFFFFFFFFFFFFFFFFFFFFFFFFFFFFFFFF
310
FFFFFFFFFFFFFFFFFFFFFFFFFFFFFFFFFFFFFFFFFFFFFFFFFFFFFFFFFFFFFFFF
310
FFFFFFFFFFFFFFFFFFFFFFFFFFFFFFFFFFFFFFFFFFFFFFFFFFFFFFFFFFFFFFFF
310
FFFFFFFFFFFFFFFFFFFFFFFFFFFFFFFFFFFFFFFFFFFFFFFFFFFFFFFFFFFFFFFF
310
FFFFFFFFFFFFFFFFFFFFFFFFFFFFFFFFFFFFFFFFFFFFFFFFFFFFFFFFFFFFFFFF
310
FFFFFFFFFFFFFFFFFFFFFFFFFFFFFFFFFFFFFFFFFFFFFFFFFFFFFFFFFFFFFFFF
310
FFFFFFFFFFFFFFFFFFFFFFFFFFFFFFFFFFFFFFFFFFFFFFFFFFFFFFFFFFFFFFFF
310
FFFFFFFFFFFFFFFFFFFFFFFFFFFFFFFFFFFFFFFFFFFFFFFFFFFF9B8BACFF6240
310
7BFF684A80FF684A80FF684A80FF684A80FF684A80FF684A80FF684A80FF684A
310
80FF62407BFFA99BB7FFC9C1D1FF62407BFF67487FFF684A80FF684A80FF684A
310
80FF684A80FF684A80FF62407BFFA596B4FFFFFFFFFFFFFFFFFFFFFFFFFFFCFC
310
FCFF9280A4FF5F3C78FF694C81FF67497FFF62407BFF6D5285FFBCB1C6FFFBFB
310
FCFFFFFFFFFFFFFFFFFFEDEBF0FF9A89ABFF64447CFF63427BFF684A80FF684A
310
80FF684A80FF684A80FF684A80FF684A80FF63437CFF816B96FFFCFCFCFFFFFF
310
FFFFFFFFFFFFFFFFFFFFFFFFFFFFE9E9E8FFD9D7D6FFDDDBDAFFDBDAD9FFDDDB
310
DAFFDBDAD9FFDAD9D8FFF2F2F1FFFFFFFFFFFFFFFFFFFFFFFFFFFFFFFFFFFFFF
310
FFFFFFFFFFFFFFFFFFFFFFFFFFFFFFFFFFFFFFFFFFFFFFFFFFFFFFFFFFFFFFFF
310
FFFFFFFFFFFFFFFFFFFFFFFFFFFFFFFFFFFFFFFFFFFFFFFFFFFFFFFFFFFFFFFF
310
FFFFFFFFFFFFFFFFFFFFFFFFFFFFFFFFFFFFFFFFFFFFFFFFFFFFFFFFFFFFFFFF
310
FFFFFFFFFFFFFFFFFFFFFFFFFFFFFFFFFFFFFFFFFFFFFFFFFFFFFFFFFFFFFFFF
310
FFFFFFFFFFFFFFFFFFFFFFFFFFFFFFFFFFFFFFFFFFFFFFFFFFFFFFFFFFFFFFFF
310
FFFFFFFFFFFFFFFFFFFFFFFFFFFFFFFFFFFFFFFFFFFFFFFFFFFFFFFFFFFFFFFF
310
FFFFFFFFFFFFFFFFFFFFFFFFFFFFFFFFFFFFFFFFFFFFFFFFFFFFFFFFFFFFFFFF
310
FFFFFFFFFFFFFFFFFFFFFFFFFFFFFFFFFFFFFFFFFFFFFFFFFFFFFFFFFFFFFFFF
310
FFFFFFFFFFFFFFFFFFFFFFFFFFFFFFFFFFFFFFFFFFFFFFFFFFFFFFFFFFFFFFFF
310
FFFFFFFFFFFFFFFFFFFFFFFFFFFFFFFFFFFFFFFFFFFFFFFFFFFFFFFFFFFFFFFF
310
FFFFFFFFFFFFFFFFFFFFFFFFFFFFFFFFFFFFBEB4C8FF63427BFF684A80FF684A
310
80FF684A80FF684A80FF684A80FF684A80FF684A80FF684A80FF63437CFF8874
310
9CFFA394B2FF62407BFF684A80FF684A80FF684A80FF684A80FF684A80FF6749
310
7FFF63427BFFC0B6CAFFFFFFFFFFFFFFFFFFFFFFFFFFFFFFFFFFE5E2E9FF7157
310
88FF64447CFF684A80FF684A80FF64447CFF62407BFF9280A4FFE5E2E9FFFFFF
310
FFFFFFFFFFFFFFFFFFFFC3BACCFF725889FF62407BFF67497FFF684A80FF684A
310
80FF684A80FF684A80FF67487FFF6D5285FFE5E2E9FFFFFFFFFFFFFFFFFFFFFF
310
FFFFFFFFFFFFFFFFFFFFFFFFFFFFFFFFFFFFFFFFFFFFFFFFFFFFFFFFFFFFFFFF
310
FFFFFFFFFFFFFFFFFFFFFFFFFFFFFFFFFFFFFFFFFFFFFFFFFFFFFFFFFFFFFFFF
310
FFFFFFFFFFFFFFFFFFFFFFFFFFFFFFFFFFFFFFFFFFFFFFFFFFFFFFFFFFFFFFFF
310
FFFFFFFFFFFFFFFFFFFFFFFFFFFFFFFFFFFFFFFFFFFFFFFFFFFFFFFFFFFFFFFF
310
FFFFFFFFFFFFFFFFFFFFFFFFFFFFFFFFFFFFFFFFFFFFFFFFFFFFFFFFFFFFFFFF
310
FFFFFFFFFFFFFFFFFFFFFFFFFFFFFFFFFFFFFFFFFFFFFFFFFFFFFFFFFFFFFFFF
310
FFFFFFFFFFFFFFFFFFFFFFFFFFFFFFFFFFFFFFFFFFFFFFFFFFFFFFFFFFFFFFFF
310
FFFFFFFFFFFFFFFFFFFFFFFFFFFFFFFFFFFFFFFFFFFFFFFFFFFFFFFFFFFFFFFF
310
FFFFFFFFFFFFFFFFFFFFFFFFFFFFFFFFFFFFFFFFFFFFFFFFFFFFFFFFFFFFFFFF
310
FFFFFFFFFFFFFFFFFFFFFFFFFFFFFFFFFFFFFFFFFFFFFFFFFFFFFFFFFFFFFFFF
310
FFFFFFFFFFFFFFFFFFFFFFFFFFFFFFFFFFFFFFFFFFFFFFFFFFFFFFFFFFFFFFFF
310
FFFFFFFFFFFFFFFFFFFFFFFFFFFFFFFFFFFFFFFFFFFFFFFFFFFFFFFFFFFFFFFF
310
FFFFFFFFFFFFFFFFFFFFDFDBE4FF684A80FF66477EFF684A80FF684A80FF684A
310
80FF684A80FF684A80FF684A80FF684A80FF67487FFF715788FF7A628FFF6647
310
7EFF684A80FF684A80FF684A80FF684A80FF684A80FF66477EFF6A4D82FFD6D1
310
DDFFFFFFFFFFFFFFFFFFFFFFFFFFFFFFFFFFFFFFFFFFBEB4C8FF62407BFF6749
310
7FFF684A80FF684A80FF67497FFF62407BFF725889FFC1B8CBFFFFFFFFFFFFFF
310
FFFFFFFFFFFFE5E2E9FF9280A4FF62407BFF64447CFF684A80FF684A80FF684A
310
80FF67497FFF64457DFFC5BCCEFFFFFFFFFFFFFFFFFFFFFFFFFFFFFFFFFFFFFF
310
FFFFFFFFFFFFFFFFFFFFFFFFFFFFFFFFFFFFFFFFFFFFFFFFFFFFFFFFFFFFFFFF
310
FFFFFFFFFFFFFFFFFFFFFFFFFFFFFFFFFFFFFFFFFFFFFFFFFFFFFFFFFFFFFFFF
310
FFFFFFFFFFFFFFFFFFFFFFFFFFFFFFFFFFFFFFFFFFFFFFFFFFFFFFFFFFFFFFFF
310
FFFFFFFFFFFFFFFFFFFFFFFFFFFFFFFFFFFFFFFFFFFFFFFFFFFFFFFFFFFFFFFF
310
FFFFFFFFFFFFFFFFFFFFFFFFFFFFFFFFFFFFFFFFFFFFFFFFFFFFFFFFFFFFFFFF
310
FFFFFFFFFFFFFFFFFFFFFFFFFFFFFFFFFFFFFFFFFFFFFFFFFFFFFFFFFFFFFFFF
310
FFFFFFFFFFFFFFFFFFFFFFFFFFFFFFFFFFFFFFFFFFFFFFFFFFFFFFFFFFFFFFFF
310
FFFFFFFFFFFFFFFFFFFFFFFFFFFFFFFFFFFFFFFFFFFFFFFFFFFFFFFFFFFFFFFF
310
FFFFFFFFFFFFFFFFFFFFFFFFFFFFFFFFFFFFFFFFFFFFFFFFFFFFFFFFFFFFFFFF
310
FFFFFFFFFFFFFFFFFFFFFFFFFFFFFFFFFFFFFFFFFFFFFFFFFFFFFFFFFFFFFFFF
310
FFFFFFFFFFFFFFFFFFFFFFFFFFFFFFFFFFFFFFFFFFFFFFFFFFFFFFFFFFFFFFFF
310
FFFFFFFFFFFFFFFFFFFFFFFFFFFFFFFFFFFFFFFFFFFFFFFFFFFFFFFFFFFFFFFF
310
FFFFF1EFF3FF7A628FFF63427BFF684A80FF684A80FF684A80FF684A80FF684A
310
80FF684A80FF684A80FF684A80FF67497FFF67497FFF684A80FF684A80FF684A
310
80FF684A80FF684A80FF684A80FF64457DFF7A628FFFF4F2F5FFFFFFFFFFFFFF
310
FFFFFFFFFFFFFFFFFFFFFFFFFFFFFCFCFCFF9482A6FF62407BFF684A80FF684A
310
80FF684A80FF684A80FF63437CFF63427BFF9785A8FFEAE7EDFFFFFFFFFFFFFF
310
FFFFFFFFFFFFBCB1C6FF6F5486FF62407BFF67497FFF684A80FF684A80FF6240
310
7BFFA99BB7FFFFFFFFFFFFFFFFFFFFFFFFFFFFFFFFFFFFFFFFFFFFFFFFFFFFFF
310
FFFFFFFFFFFFFFFFFFFFFFFFFFFFFFFFFFFFFFFFFFFFFFFFFFFFFFFFFFFFFFFF
310
FFFFFFFFFFFFFFFFFFFFFFFFFFFFFFFFFFFFFFFFFFFFFFFFFFFFFFFFFFFFFFFF
310
FFFFFFFFFFFFFFFFFFFFFFFFFFFFFFFFFFFFFFFFFFFFFFFFFFFFFFFFFFFFFFFF
310
FFFFFFFFFFFFFFFFFFFFFFFFFFFFFFFFFFFFFFFFFFFFFFFFFFFFFFFFFFFFFFFF
310
FFFFFFFFFFFFFFFFFFFFFFFFFFFFFFFFFFFFFFFFFFFFFFFFFFFFFFFFFFFFFFFF
310
FFFFFFFFFFFFFFFFFFFFFFFFFFFFFFFFFFFFFFFFFFFFFFFFFFFFFFFFFFFFFFFF
310
FFFFFFFFFFFFFFFFFFFFFFFFFFFFFFFFFFFFFFFFFFFFFFFFFFFFFFFFFFFFFFFF
310
FFFFFFFFFFFFFFFFFFFFFFFFFFFFFFFFFFFFFFFFFFFFFFFFFFFFFFFFFFFFFFFF
310
FFFFFFFFFFFFFFFFFFFFFFFFFFFFFFFFFFFFFFFFFFFFFFFFFFFFFFFFFFFFFFFF
310
FFFFFFFFFFFFFFFFFFFFFFFFFFFFFFFFFFFFFFFFFFFFFFFFFFFFFFFFFFFFFFFF
310
FFFFFFFFFFFFFFFFFFFFFFFFFFFFFFFFFFFFFFFFFFFFFFFFFFFFFFFFFFFFFFFF
310
FFFFFFFFFFFFFFFFFFFFFFFFFFFFFFFFFFFFFFFFFFFFFFFFFFFFFDFDFDFF9584
310
A7FF62407BFF684A80FF684A80FF684A80FF684A80FF684A80FF684A80FF684A
310
80FF684A80FF684A80FF684A80FF684A80FF684A80FF684A80FF684A80FF684A
310
80FF684A80FF62407BFF8F7CA2FFFFFFFFFFFFFFFFFFFFFFFFFFFFFFFFFFFFFF
310
FFFFFFFFFFFFFFFFFFFFE5E2E9FF715788FF63427BFF684A80FF684A80FF684A
310
80FF684A80FF67497FFF5F3C78FF78608EFFC7BFD0FFFFFFFFFFFFFFFFFFFFFF
310
FFFFE2DEE6FF8A769DFF62407BFF64447CFF684A80FF62407BFF8C789FFFFBFB
310
FCFFFFFFFFFFFFFFFFFFFFFFFFFFFFFFFFFFFFFFFFFFFFFFFFFFFFFFFFFFFFFF
310
FFFFFFFFFFFFFFFFFFFFFFFFFFFFFFFFFFFFFFFFFFFFFFFFFFFFFFFFFFFFFFFF
310
FFFFFFFFFFFFFFFFFFFFFFFFFFFFFFFFFFFFFFFFFFFFFFFFFFFFFFFFFFFFFFFF
310
FFFFFFFFFFFFFFFFFFFFFFFFFFFFFFFFFFFFFFFFFFFFFFFFFFFFFFFFFFFFFFFF
310
FFFFFFFFFFFFFFFFFFFFFFFFFFFFFFFFFFFFFFFFFFFFFFFFFFFFFFFFFFFFFFFF
310
FFFFFFFFFFFFFFFFFFFFFFFFFFFFFFFFFFFFFFFFFFFFFFFFFFFFFFFFFFFFFFFF
310
FFFFFFFFFFFFFFFFFFFFFFFFFFFFFFFFFFFFFFFFFFFFFFFFFFFFFFFFFFFFFFFF
310
FFFFFFFFFFFFFFFFFFFFFFFFFFFFFFFFFFFFFFFFFFFFFFFFFFFFFFFFFFFFFFFF
310
FFFFFFFFFFFFFFFFFFFFFFFFFFFFFFFFFFFFFFFFFFFFFFFFFFFFFFFFFFFFFFFF
310
FFFFFFFFFFFFFFFFFFFFFFFFFFFFFFFFFFFFFFFFFFFFFFFFFFFFFFFFFFFFFFFF
310
FFFFFFFFFFFFFFFFFFFFFFFFFFFFFFFFFFFFFFFFFFFFFFFFFFFFFFFFFFFFFFFF
310
FFFFFFFFFFFFFFFFFFFFFFFFFFFFFFFFFFFFFFFFFFFFFFFFFFFFFFFFFFFFFFFF
310
FFFFFFFFFFFFFFFFFFFFFFFFFFFFFFFFFFFFFFFFFFFFB6AAC1FF62407BFF6749
310
7FFF684A80FF684A80FF684A80FF684A80FF684A80FF684A80FF684A80FF684A
310
80FF684A80FF684A80FF684A80FF684A80FF684A80FF684A80FF684A80FF6240
310
7BFFA99BB7FFFFFFFFFFFFFFFFFFFFFFFFFFFFFFFFFFFFFFFFFFFFFFFFFFFFFF
310
FFFFFFFFFFFFC1B8CBFF63437CFF67497FFF684A80FF684A80FF684A80FF684A
310
80FF684A80FF62407BFF64447CFF9F8FAFFFEDEBF0FFFFFFFFFFFFFFFFFFFBFA
310
FAFFB6AAC1FF6C4F83FF62407BFF64447CFF745A8AFFE6E3EAFFFFFFFFFFFFFF
310
FFFFFFFFFFFFFFFFFFFFFFFFFFFFFFFFFFFFFFFFFFFFFFFFFFFFFFFFFFFFFFFF
310
FFFFFFFFFFFFFFFFFFFFFFFFFFFFFFFFFFFFFFFFFFFFFFFFFFFFFFFFFFFFFFFF
310
FFFFFFFFFFFFFFFFFFFFFFFFFFFFFFFFFFFFFFFFFFFFFFFFFFFFFFFFFFFFFFFF
310
FFFFFFFFFFFFFFFFFFFFFFFFFFFFFFFFFFFFFFFFFFFFFFFFFFFFFFFFFFFFFFFF
310
FFFFFFFFFFFFFFFFFFFFFFFFFFFFFFFFFFFFFFFFFFFFFFFFFFFFFFFFFFFFFFFF
310
FFFFFFFFFFFFFFFFFFFFFFFFFFFFFFFFFFFFFFFFFFFFFFFFFFFFFFFFFFFFFFFF
310
FFFFFFFFFFFFFFFFFFFFFFFFFFFFFFFFFFFFFFFFFFFFFFFFFFFFFFFFFFFFFFFF
310
FFFFFFFFFFFFFFFFFFFFFFFFFFFFFFFFFFFFFFFFFFFFFFFFFFFFFFFFFFFFFFFF
310
FFFFFFFFFFFFFFFFFFFFFFFFFFFFFFFFFFFFFFFFFFFFFFFFFFFFFFFFFFFFFFFF
310
FFFFFFFFFFFFFFFFFFFFFFFFFFFFFFFFFFFFFFFFFFFFFFFFFFFFFFFFFFFFFFFF
310
FFFFFFFFFFFFFFFFFFFFFFFFFFFFFFFFFFFFFFFFFFFFFFFFFFFFFFFFFFFFFFFF
310
FFFFFFFFFFFFFFFFFFFFFFFFFFFFFFFFFFFFFFFFFFFFFFFFFFFFFFFFFFFFFFFF
310
FFFFFFFFFFFFFFFFFFFFFFFFFFFFCFC8D6FF66477EFF67487FFF684A80FF684A
310
80FF684A80FF684A80FF684A80FF684A80FF684A80FF684A80FF684A80FF684A
310
80FF684A80FF684A80FF684A80FF684A80FF67497FFF64447CFFCBC4D3FFFFFF
310
FFFFFFFFFFFFFFFFFFFFFFFFFFFFFFFFFFFFFFFFFFFFFFFFFFFFFFFFFFFFFFFF
310
FFFF9785A8FF62407BFF684A80FF684A80FF684A80FF684A80FF684A80FF684A
310
80FF66477EFF62407BFF7B6491FFD1CAD8FFFFFFFFFFFFFFFFFFFFFFFFFFDBD6
310
E0FF846E98FF5F3C78FF63437CFFD4CEDBFFFFFFFFFFFFFFFFFFFFFFFFFFFFFF
310
FFFFFFFFFFFFFFFFFFFFFFFFFFFFFFFFFFFFFFFFFFFFFFFFFFFFFFFFFFFFFFFF
310
FFFFFFFFFFFFFFFFFFFFFFFFFFFFFFFFFFFFFFFFFFFFFFFFFFFFFFFFFFFFFFFF
310
FFFFFFFFFFFFFFFFFFFFFFFFFFFFFFFFFFFFFFFFFFFFFFFFFFFFFFFFFFFFFFFF
310
FFFFFFFFFFFFFFFFFFFFFFFFFFFFFFFFFFFFFFFFFFFFFFFFFFFFFFFFFFFFFFFF
310
FFFFFFFFFFFFFFFFFFFFFFFFFFFFFFFFFFFFFFFFFFFFFFFFFFFFFFFFFFFFFFFF
310
FFFFFFFFFFFFFFFFFFFFFFFFFFFFFFFFFFFFFFFFFFFFFFFFFFFFFFFFFFFFFFFF
310
FFFFFFFFFFFFFFFFFFFFFFFFFFFFFFFFFFFFFFFFFFFFFFFFFFFFFFFFFFFFFFFF
310
FFFFFFFFFFFFFFFFFFFFFFFFFFFFFFFFFFFFFFFFFFFFFFFFFFFFFFFFFFFFFFFF
310
FFFFFFFFFFFFFFFFFFFFFFFFFFFFFFFFFFFFFFFFFFFFFFFFFFFFFFFFFFFFFFFF
310
FFFFFFFFFFFFFFFFFFFFFFFFFFFFFFFFFFFFFFFFFFFFFFFFFFFFFFFFFFFFFFFF
310
FFFFFFFFFFFFFFFFFFFFFFFFFFFFFFFFFFFFFFFFFFFFFFFFFFFFFFFFFFFFFFFF
310
FFFFFFFFFFFFFFFFFFFFFFFFFFFFFFFFFFFFFFFFFFFFFFFFFFFFFFFFFFFFFFFF
310
FFFFFFFFFFFFE9E6ECFF745A8AFF64457DFF684A80FF684A80FF684A80FF684A
310
80FF684A80FF684A80FF684A80FF684A80FF684A80FF684A80FF684A80FF684A
310
80FF684A80FF684A80FF65467DFF6C4F83FFE8E5ECFFFFFFFFFFFFFFFFFFFFFF
310
FFFFFFFFFFFFFFFFFFFFFFFFFFFFFFFFFFFFFFFFFFFFFFFFFFFFE5E2E9FF745A
310
8AFF63427BFF684A80FF684A80FF684A80FF684A80FF684A80FF684A80FF684A
310
80FF62407BFF67487FFFA596B4FFF5F4F7FFFFFFFFFFFFFFFFFFF7F6F8FFAB9D
310
B9FF62407BFFAEA1BBFFFFFFFFFFFFFFFFFFFFFFFFFFFFFFFFFFFFFFFFFFFFFF
310
FFFFFFFFFFFFFFFFFFFFFFFFFFFFFFFFFFFFFFFFFFFFFFFFFFFFFFFFFFFFFFFF
310
FFFFFFFFFFFFFFFFFFFFFFFFFFFFFFFFFFFFFFFFFFFFFFFFFFFFFFFFFFFFFFFF
310
FFFFFFFFFFFFFFFFFFFFFFFFFFFFFFFFFFFFFFFFFFFFFFFFFFFFFFFFFFFFFFFF
310
FFFFFFFFFFFFFFFFFFFFFFFFFFFFFFFFFFFFFFFFFFFFFFFFFFFFFFFFFFFFFFFF
310
FFFFFFFFFFFFFFFFFFFFFFFFFFFFFFFFFFFFFFFFFFFFFFFFFFFFFFFFFFFFFFFF
310
FFFFFFFFFFFFFFFFFFFFFFFFFFFFFFFFFFFFFFFFFFFFFFFFFFFFFFFFFFFFFFFF
310
FFFFFFFFFFFFFFFFFFFFFFFFFFFFFFFFFFFFFFFFFFFFFFFFFFFFFFFFFFFFFFFF
310
FFFFFFFFFFFFFFFFFFFFFFFFFFFFFFFFFFFFFFFFFFFFFFFFFFFFFFFFFFFFFFFF
310
FFFFFFFFFFFFFFFFFFFFFFFFFFFFFFFFFFFFFFFFFFFFFFFFFFFFFFFFFFFFFFFF
310
FFFFFFFFFFFFFFFFFFFFFFFFFFFFFFFFFFFFFFFFFFFFFFFFFFFFFFFFFFFFFFFF
310
FFFFFFFFFFFFFFFFFFFFFFFFFFFFFFFFFFFFFFFFFFFFFFFFFFFFFFFFFFFFFFFF
310
FFFFFFFFFFFFFFFFFFFFFFFFFFFFFFFFFFFFFFFFFFFFFFFFFFFFFFFFFFFFFFFF
310
FFFF8C789FFF62407BFF684A80FF684A80FF684A80FF684A80FF684A80FF684A
310
80FF684A80FF684A80FF684A80FF684A80FF684A80FF684A80FF684A80FF684A
310
80FF63427BFF7F6994FFF4F2F5FFFFFFFFFFFFFFFFFFFFFFFFFFFFFFFFFFFFFF
310
FFFFFFFFFFFFFFFFFFFFFFFFFFFFFFFFFFFFFFFFFFFFC5BCCEFF63437CFF6748
310
7FFF684A80FF684A80FF684A80FF684A80FF684A80FF684A80FF684A80FF6546
310
7EFF5F3C78FF816B96FFD6D1DDFFFFFFFFFFFFFFFFFFFFFFFFFFC9C1D1FFAEA1
310
BBFFFCFBFBFFFFFFFFFFFFFFFFFFFFFFFFFFFFFFFFFFFFFFFFFFFFFFFFFFFFFF
310
FFFFFFFFFFFFFFFFFFFFFFFFFFFFFFFFFFFFFFFFFFFFFFFFFFFFFFFFFFFFFFFF
310
FFFFFFFFFFFFFFFFFFFFFFFFFFFFFFFFFFFFFFFFFFFFFFFFFFFFFFFFFFFFFFFF
310
FFFFFFFFFFFFFFFFFFFFFFFFFFFFFFFFFFFFFFFFFFFFFFFFFFFFFFFFFFFFFFFF
310
FFFFFFFFFFFFFFFFFFFFFFFFFFFFFFFFFFFFFFFFFFFFFFFFFFFFFFFFFFFFFFFF
310
FFFFFFFFFFFFFFFFFFFFFFFFFFFFFFFFFFFFFFFFFFFFFFFFFFFFFFFFFFFFFFFF
310
FFFFFFFFFFFFFFFFFFFFFFFFFFFFFFFFFFFFFFFFFFFFFFFFFFFFFFFFFFFFFFFF
310
FFFFFFFFFFFFFFFFFFFFFFFFFFFFFFFFFFFFFFFFFFFFFFFFFFFFFFFFFFFFFFFF
310
FFFFFFFFFFFFFFFFFFFFFFFFFFFFFFFFFFFFFFFFFFFFFFFFFFFFFFFFFFFFFFFF
310
FFFFFFFFFFFFFFFFFFFFFFFFFFFFFFFFFFFFFFFFFFFFFFFFFFFFFFFFFFFFFFFF
310
FFFFFFFFFFFFFFFFFFFFFFFFFFFFFFFFFFFFFFFFFFFFFFFFFFFFFFFFFFFFFFFF
310
FFFFFFFFFFFFFFFFFFFFFFFFFFFFFFFFFFFFFFFFFFFFFFFFFFFFFFFFFFFFFFFF
310
FFFFFFFFFFFFFFFFFFFFFFFFFFFFFFFFFFFFFFFFFFFFFFFFFFFFA799B5FF5F3C
310
78FF684A80FF684A80FF684A80FF684A80FF684A80FF684A80FF684A80FF684A
310
80FF684A80FF684A80FF684A80FF684A80FF684A80FF684A80FF62407BFF9B8A
310
ACFFFEFDFEFFFFFFFFFFFFFFFFFFFFFFFFFFFFFFFFFFFFFFFFFFFFFFFFFFFFFF
310
FFFFFFFFFFFFFFFFFFFFFFFFFFFFFEFDFEFF9786A8FF62407BFF684A80FF684A
310
80FF684A80FF684A80FF684A80FF684A80FF684A80FF684A80FF684A80FF6240
310
7BFF694C81FFAEA1BBFFF9F8FAFFFFFFFFFFFFFFFFFFF9F8FAFFFEFDFEFFFFFF
310
FFFFFFFFFFFFFFFFFFFFFFFFFFFFFFFFFFFFFFFFFFFFFFFFFFFFFFFFFFFFFFFF
310
FFFFFFFFFFFFFFFFFFFFFFFFFFFFFFFFFFFFFFFFFFFFFFFFFFFFFFFFFFFFFFFF
310
FFFFFFFFFFFFFFFFFFFFFFFFFFFFFFFFFFFFFFFFFFFFFFFFFFFFFFFFFFFFFFFF
310
FFFFFFFFFFFFFFFFFFFFFFFFFFFFFFFFFFFFFFFFFFFFFFFFFFFFFFFFFFFFFFFF
310
FFFFFFFFFFFFFFFFFFFFFFFFFFFFFFFFFFFFFFFFFFFFFFFFFFFFFFFFFFFFFFFF
310
FFFFFFFFFFFFFFFFFFFFFFFFFFFFFFFFFFFFFFFFFFFFFFFFFFFFFFFFFFFFFFFF
310
FFFFFFFFFFFFFFFFFFFFFFFFFFFFFFFFFFFFFFFFFFFFFFFFFFFFFFFFFFFFFFFF
310
FFFFFFFFFFFFFFFFFFFFFFFFFFFFFFFFFFFFFFFFFFFFFFFFFFFFFFFFFFFFFFFF
310
FFFFFFFFFFFFFFFFFFFFFFFFFFFFFFFFFFFFFFFFFFFFFFFFFFFFFFFFFFFFFFFF
310
FFFFFFFFFFFFFFFFFFFFFFFFFFFFFFFFFFFFFFFFFFFFFFFFFFFFFFFFFFFFFFFF
310
FFFFFFFFFFFFFFFFFFFFFFFFFFFFFFFFFFFFFFFFFFFFFFFFFFFFFFFFFFFFFFFF
310
FFFFFFFFFFFFFFFFFFFFFFFFFFFFFFFFFFFFFFFFFFFFFFFFFFFFFFFFFFFFFFFF
310
FFFFFFFFFFFFFFFFFFFFFFFFFFFFFFFFFFFFC7BFD0FF64447CFF684A80FF684A
310
80FF684A80FF684A80FF684A80FF684A80FF684A80FF684A80FF684A80FF684A
310
80FF684A80FF684A80FF684A80FF67497FFF62407BFFB9AEC4FFFFFFFFFFFFFF
310
FFFFFFFFFFFFFFFFFFFFFFFFFFFFFFFFFFFFFFFFFFFFFFFFFFFFFFFFFFFFFFFF
310
FFFFFFFFFFFFFFFFFFFFECEAEFFF775D8DFF63427BFF684A80FF684A80FF684A
310
80FF684A80FF684A80FF684A80FF684A80FF684A80FF684A80FF64457DFF5F3C
310
78FF86719AFFDBD6E0FFFFFFFFFFFFFFFFFFFFFFFFFFFFFFFFFFFFFFFFFFFFFF
310
FFFFFFFFFFFFFFFFFFFFFFFFFFFFFFFFFFFFFFFFFFFFFFFFFFFFFFFFFFFFFFFF
310
FFFFFFFFFFFFFFFFFFFFFFFFFFFFFFFFFFFFFFFFFFFFFFFFFFFFFFFFFFFFFFFF
310
FFFFFFFFFFFFFFFFFFFFFFFFFFFFFFFFFFFFFFFFFFFFFFFFFFFFFFFFFFFFFFFF
310
FFFFFFFFFFFFFFFFFFFFFFFFFFFFFFFFFFFFFFFFFFFFFFFFFFFFFFFFFFFFFFFF
310
FFFFFFFFFFFFFFFFFFFFFFFFFFFFFFFFFFFFFFFFFFFFFFFFFFFFFFFFFFFFFFFF
310
FFFFFFFFFFFFFFFFFFFFFFFFFFFFFFFFFFFFFFFFFFFFFFFFFFFFFFFFFFFFFFFF
310
FFFFFFFFFFFFFFFFFFFFFFFFFFFFFFFFFFFFFFFFFFFFFFFFFFFFFFFFFFFFFFFF
310
FFFFFFFFFFFFFFFFFFFFFFFFFFFFFFFFFFFFFFFFFFFFFFFFFFFFFFFFFFFFFFFF
310
FFFFFFFFFFFFFFFFFFFFFFFFFFFFFFFFFFFFFFFFFFFFFFFFFFFFFFFFFFFFFFFF
310
FFFFFFFFFFFFFFFFFFFFFFFFFFFFFFFFFFFFFFFFFFFFFFFFFFFFFFFFFFFFFFFF
310
FFFFFFFFFFFFFFFFFFFFFFFFFFFFFFFFFFFFFFFFFFFFFFFFFFFFFFFFFFFFFFFF
310
FFFFFFFFFFFFFFFFFFFFFFFFFFFFFFFFFFFFFFFFFFFFFFFFFFFFFFFFFFFFFFFF
310
FFFFFFFFFFFFFFFFFFFFE8E5ECFF6C4F83FF66477EFF684A80FF684A80FF684A
310
80FF684A80FF684A80FF684A80FF684A80FF684A80FF684A80FF684A80FF684A
310
80FF684A80FF66477EFF67497FFFD1CAD8FFFFFFFFFFFFFFFFFFFFFFFFFFFFFF
310
FFFFFFFFFFFFFFFFFFFFFFFFFFFFFFFFFFFFFFFFFFFFFFFFFFFFFFFFFFFFFFFF
310
FFFFFFFFFFFFC5BCCEFF64447CFF67487FFF684A80FF684A80FF684A80FF684A
310
80FF684A80FF684A80FF684A80FF684A80FF684A80FF684A80FF62407BFF6C4F
310
83FFB9AEC4FFFBFAFAFFFFFFFFFFFFFFFFFFFFFFFFFFFFFFFFFFFFFFFFFFFFFF
310
FFFFFFFFFFFFFFFFFFFFFFFFFFFFFFFFFFFFFFFFFFFFFFFFFFFFFFFFFFFFFFFF
310
FFFFFFFFFFFFFFFFFFFFFFFFFFFFFFFFFFFFFFFFFFFFFFFFFFFFFFFFFFFFFFFF
310
FFFFFFFFFFFFFFFFFFFFFFFFFFFFFFFFFFFFFFFFFFFFFFFFFFFFFFFFFFFFFFFF
310
FFFFFFFFFFFFFFFFFFFFFFFFFFFFFFFFFFFFFFFFFFFFFFFFFFFFFFFFFFFFFFFF
310
FFFFFFFFFFFFFFFFFFFFFFFFFFFFFFFFFFFFFFFFFFFFFFFFFFFFFFFFFFFFFFFF
310
FFFFFFFFFFFFFFFFFFFFFFFFFFFFFFFFFFFFFFFFFFFFFFFFFFFFFFFFFFFFFFFF
310
FFFFFFFFFFFFFFFFFFFFFFFFFFFFFFFFFFFFFFFFFFFFFFFFFFFFFFFFFFFFFFFF
310
FFFFFFFFFFFFFFFFFFFFFFFFFFFFFFFFFFFFFFFFFFFFFFFFFFFFFFFFFFFFFFFF
310
FFFFFFFFFFFFFFFFFFFFFFFFFFFFFFFFFFFFFFFFFFFFFFFFFFFFFFFFFFFFFFFF
310
FFFFFFFFFFFFFFFFFFFFFFFFFFFFFFFFFFFFFFFFFFFFFFFFFFFFFFFFFFFFFFFF
310
FFFFFFFFFFFFFFFFFFFFFFFFFFFFFFFFFFFFFFFFFFFFFFFFFFFFFFFFFFFFFFFF
310
FFFFFFFFFFFFFFFFFFFFFFFFFFFFFFFFFFFFFFFFFFFFFFFFFFFFFFFFFFFFFFFF
310
FFFFF7F6F8FF7F6994FF63427BFF684A80FF684A80FF684A80FF684A80FF684A
310
80FF684A80FF684A80FF684A80FF684A80FF684A80FF684A80FF684A80FF6445
310
7DFF755B8CFFEAE7EDFFFFFFFFFFFFFFFFFFFFFFFFFFFFFFFFFFFFFFFFFFFFFF
310
FFFFFFFFFFFFFFFFFFFFFFFFFFFFFFFFFFFFFFFFFFFFFFFFFFFFFFFFFFFFFFFF
310
FFFF9B8BACFF5F3C78FF694C81FF684A80FF684A80FF684A80FF684A80FF684A
310
80FF684A80FF684A80FF684A80FF684A80FF684A80FF64447CFF62407BFF8C78
310
9FFFE5E2E9FFFFFFFFFFFFFFFFFFFFFFFFFFFFFFFFFFFFFFFFFFFFFFFFFFFFFF
310
FFFFFFFFFFFFFFFFFFFFFFFFFFFFFFFFFFFFFFFFFFFFFFFFFFFFFFFFFFFFFFFF
310
FFFFFFFFFFFFFFFFFFFFFFFFFFFFFFFFFFFFFFFFFFFFFFFFFFFFFFFFFFFFFFFF
310
FFFFFFFFFFFFFFFFFFFFFFFFFFFFFFFFFFFFFFFFFFFFFFFFFFFFFFFFFFFFFFFF
310
FFFFFFFFFFFFFFFFFFFFFFFFFFFFFFFFFFFFFFFFFFFFFFFFFFFFFFFFFFFFFFFF
310
FFFFFFFFFFFFFFFFFFFFFFFFFFFFFFFFFFFFFFFFFFFFFFFFFFFFFFFFFFFFFFFF
310
FFFFFFFFFFFFFFFFFFFFFFFFFFFFFFFFFFFFFFFFFFFFFFFFFFFFFFFFFFFFFFFF
310
FFFFFFFFFFFFFFFFFFFFFFFFFFFFFFFFFFFFFFFFFFFFFFFFFFFFFFFFFFFFFFFF
310
FFFFFFFFFFFFFFFFFFFFFFFFFFFFFFFFFFFFFFFFFFFFFFFFFFFFFFFFFFFFFFFF
310
FFFFFFFFFFFFFFFFFFFFFFFFFFFFFFFFFFFFFFFFFFFFFFFFFFFFFFFFFFFFFFFF
310
FFFFFFFFFFFFFFFFFFFFFFFFFFFFFFFFFFFFFFFFFFFFFFFFFFFFFFFFFFFFFFFF
310
FFFFFFFFFFFFFFFFFFFFFFFFFFFFFFFFFFFFFFFFFFFFFFFFFFFFFFFFFFFFFFFF
310
FFFFFFFFFFFFFFFFFFFFFFFFFFFFFFFFFFFFFFFFFFFFFFFFFFFFFEFDFEFF9D8D
310
AEFF62407BFF684A80FF684A80FF684A80FF684A80FF684A80FF684A80FF684A
310
80FF684A80FF684A80FF684A80FF684A80FF684A80FF62407BFF88749CFFFDFD
310
FDFFFFFFFFFFFFFFFFFFFFFFFFFFFFFFFFFFFFFFFFFFFFFFFFFFFFFFFFFFFFFF
310
FFFFFFFFFFFFFFFFFFFFFFFFFFFFFFFFFFFFFFFFFFFFFFFFFFFFECEAEFFF775D
310
8DFF63427BFF684A80FF684A80FF684A80FF684A80FF684A80FF684A80FF684A
310
80FF684A80FF684A80FF684A80FF684A80FF67487FFF5F3C78FF86719AFFF9F8
310
F9FFFFFFFFFFFFFFFFFFFFFFFFFFFFFFFFFFFFFFFFFFFFFFFFFFFFFFFFFFFFFF
310
FFFFFFFFFFFFFFFFFFFFFFFFFFFFFFFFFFFFFFFFFFFFFFFFFFFFFFFFFFFFFFFF
310
FFFFFFFFFFFFFFFFFFFFFFFFFFFFFFFFFFFFFFFFFFFFFFFFFFFFFFFFFFFFFFFF
310
FFFFFFFFFFFFFFFFFFFFFFFFFFFFFFFFFFFFFFFFFFFFFFFFFFFFFFFFFFFFFFFF
310
FFFFFFFFFFFFFFFFFFFFFFFFFFFFFFFFFFFFFFFFFFFFFFFFFFFFFFFFFFFFFFFF
310
FFFFFFFFFFFFFFFFFFFFFFFFFFFFFFFFFFFFFFFFFFFFFFFFFFFFFFFFFFFFFFFF
310
FFFFFFFFFFFFFFFFFFFFFFFFFFFFFFFFFFFFFFFFFFFFFFFFFFFFFFFFFFFFFFFF
310
FFFFFFFFFFFFFFFFFFFFFFFFFFFFFFFFFFFFFFFFFFFFFFFFFFFFFFFFFFFFFFFF
310
FFFFFFFFFFFFFFFFFFFFFFFFFFFFFFFFFFFFFFFFFFFFFFFFFFFFFFFFFFFFFFFF
310
FFFFFFFFFFFFFFFFFFFFFFFFFFFFFFFFFFFFFFFFFFFFFFFFFFFFFFFFFFFFFFFF
310
FFFFFFFFFFFFFFFFFFFFFFFFFFFFFFFFFFFFFFFFFFFFFFFFFFFFFFFFFFFFFFFF
310
FFFFFFFFFFFFFFFFFFFFFFFFFFFFFFFFFFFFFFFFFFFFFFFFFFFFFFFFFFFFFFFF
310
FFFFFFFFFFFFFFFFFFFFFFFFFFFFFFFFFFFFFFFFFFFFC0B6CAFF62407BFF6749
310
7FFF684A80FF684A80FF684A80FF684A80FF684A80FF684A80FF684A80FF684A
310
80FF684A80FF684A80FF684A80FF62407BFFA191B0FFFFFFFFFFFFFFFFFFFFFF
310
FFFFFFFFFFFFFFFFFFFFFFFFFFFFFFFFFFFFFFFFFFFFFFFFFFFFFFFFFFFFFFFF
310
FFFFFFFFFFFFFFFFFFFFFFFFFFFFFFFFFFFFFFFFFFFFCBC4D3FF65457DFF6647
310
7EFF684A80FF684A80FF684A80FF684A80FF684A80FF684A80FF684A80FF684A
310
80FF684A80FF684A80FF684A80FF64457DFF6D5285FFDFDBE4FFFFFFFFFFFFFF
310
FFFFFFFFFFFFFFFFFFFFFFFFFFFFFFFFFFFFFFFFFFFFFFFFFFFFFFFFFFFFFFFF
310
FFFFFFFFFFFFFFFFFFFFFFFFFFFFFFFFFFFFFFFFFFFFFFFFFFFFFFFFFFFFFFFF
310
FFFFFFFFFFFFFFFFFFFFFFFFFFFFFFFFFFFFFFFFFFFFFFFFFFFFFFFFFFFFFFFF
310
FFFFFFFFFFFFFFFFFFFFFFFFFFFFFFFFFFFFFFFFFFFFFFFFFFFFFFFFFFFFFFFF
310
FFFFFFFFFFFFFFFFFFFFFFFFFFFFFFFFFFFFFFFFFFFFFFFFFFFFFFFFFFFFFFFF
310
FFFFFFFFFFFFFFFFFFFFFFFFFFFFFFFFFFFFFFFFFFFFFFFFFFFFFFFFFFFFFFFF
310
FFFFFFFFFFFFFFFFFFFFFFFFFFFFFFFFFFFFFFFFFFFFFFFFFFFFFFFFFFFFFFFF
310
FFFFFFFFFFFFFFFFFFFFFFFFFFFFFFFFFFFFFFFFFFFFFFFFFFFFFFFFFFFFFFFF
310
FFFFFFFFFFFFFFFFFFFFFFFFFFFFFFFFFFFFFFFFFFFFFFFFFFFFFFFFFFFFFFFF
310
FFFFFFFFFFFFFFFFFFFFFFFFFFFFFFFFFFFFFFFFFFFFFFFFFFFFFFFFFFFFFFFF
310
FFFFFFFFFFFFFFFFFFFFFFFFFFFFFFFFFFFFFFFFFFFFFFFFFFFFFFFFFFFFFFFF
310
FFFFFFFFFFFFFFFFFFFFFFFFFFFFFFFFFFFFFFFFFFFFFFFFFFFFFFFFFFFFFFFF
310
FFFFFFFFFFFFFFFFFFFFFFFFFFFFD8D3DEFF6A4D82FF65467EFF684A80FF684A
310
80FF684A80FF684A80FF684A80FF684A80FF684A80FF684A80FF684A80FF684A
310
80FF684A80FF63437CFFC1B8CBFFFFFFFFFFFFFFFFFFFFFFFFFFFFFFFFFFFFFF
310
FFFFFFFFFFFFFFFFFFFFFFFFFFFFFFFFFFFFFFFFFFFFFFFFFFFFFFFFFFFFFFFF
310
FFFFFFFFFFFFFFFFFFFFFFFFFFFFFFFFFFFF9F8FAFFF5F3C78FF684A80FF684A
310
80FF684A80FF684A80FF684A80FF684A80FF684A80FF684A80FF684A80FF684A
310
80FF684A80FF67487FFF63437CFFC9C1D1FFFFFFFFFFFFFFFFFFFFFFFFFFFFFF
310
FFFFFFFFFFFFFFFFFFFFFFFFFFFFFFFFFFFFFFFFFFFFFFFFFFFFFFFFFFFFFFFF
310
FFFFFFFFFFFFFFFFFFFFFFFFFFFFFFFFFFFFFFFFFFFFFFFFFFFFFFFFFFFFFFFF
310
FFFFFFFFFFFFFFFFFFFFFFFFFFFFFFFFFFFFFFFFFFFFFFFFFFFFFFFFFFFFFFFF
310
FFFFFFFFFFFFFFFFFFFFFFFFFFFFFFFFFFFFFFFFFFFFFFFFFFFFFFFFFFFFFFFF
310
FFFFFFFFFFFFFFFFFFFFFFFFFFFFFFFFFFFFFFFFFFFFFFFFFFFFFFFFFFFFFFFF
310
FFFFFFFFFFFFFFFFFFFFFFFFFFFFFFFFFFFFFFFFFFFFFFFFFFFFFFFFFFFFFFFF
310
FFFFFFFFFFFFFFFFFFFFFFFFFFFFFFFFFFFFFFFFFFFFFFFFFFFFFFFFFFFFFFFF
310
FFFFFFFFFFFFFFFFFFFFFFFFFFFFFFFFFFFFFFFFFFFFFFFFFFFFFFFFFFFFFFFF
310
FFFFFFFFFFFFFFFFFFFFFFFFFFFFFFFFFFFFFFFFFFFFFFFFFFFFFFFFFFFFFFFF
310
FFFFFFFFFFFFFFFFFFFFFFFFFFFFFFFFFFFFFFFFFFFFFFFFFFFFFFFFFFFFFFFF
310
FFFFFFFFFFFFFFFFFFFFFFFFFFFFFFFFFFFFFFFFFFFFFFFFFFFFFFFFFFFFFFFF
310
FFFFFFFFFFFFFFFFFFFFFFFFFFFFFFFFFFFFFFFFFFFFFFFFFFFFFFFFFFFFFFFF
310
FFFFFFFFFFFFF1EFF3FF7E6793FF63437CFF684A80FF684A80FF684A80FF684A
310
80FF684A80FF684A80FF684A80FF684A80FF684A80FF684A80FF67487FFF6C4F
310
83FFE2DFE7FFFFFFFFFFFFFFFFFFFFFFFFFFFFFFFFFFFFFFFFFFFFFFFFFFFFFF
310
FFFFFFFFFFFFFFFFFFFFFFFFFFFFFFFFFFFFFFFFFFFFFFFFFFFFFFFFFFFFFFFF
310
FFFFFFFFFFFFFFFFFFFFF0EEF1FF7E6793FF65457DFF684A80FF684A80FF684A
310
80FF684A80FF684A80FF684A80FF684A80FF684A80FF684A80FF684A80FF684A
310
80FF62407BFFA799B5FFFEFDFEFFFFFFFFFFFFFFFFFFFFFFFFFFFFFFFFFFFFFF
310
FFFFFFFFFFFFFFFFFFFFFFFFFFFFFFFFFFFFFFFFFFFFFFFFFFFFFFFFFFFFFFFF
310
FFFFFFFFFFFFFFFFFFFFFFFFFFFFFFFFFFFFFFFFFFFFFFFFFFFFFFFFFFFFFFFF
310
FFFFFFFFFFFFFFFFFFFFFFFFFFFFFFFFFFFFFFFFFFFFFFFFFFFFFFFFFFFFFFFF
310
FFFFFFFFFFFFFFFFFFFFFFFFFFFFFFFFFFFFFFFFFFFFFFFFFFFFFFFFFFFFFFFF
310
FFFFFFFFFFFFFFFFFFFFFFFFFFFFFFFFFFFFFFFFFFFFFFFFFFFFFFFFFFFFFFFF
310
FFFFFFFFFFFFFFFFFFFFFFFFFFFFFFFFFFFFFFFFFFFFFFFFFFFFFFFFFFFFFFFF
310
FFFFFFFFFFFFFFFFFFFFFFFFFFFFFFFFFFFFFFFFFFFFFFFFFFFFFFFFFFFFFFFF
310
FFFFFFFFFFFFFFFFFFFFFFFFFFFFFFFFFFFFFFFFFFFFFFFFFFFFFFFFFFFFFFFF
310
FFFFFFFFFFFFFFFFFFFFFFFFFFFFFFFFFFFFFFFFFFFFFFFFFFFFFFFFFFFFFFFF
310
FFFFFFFFFFFFFFFFFFFFFFFFFFFFFFFFFFFFFFFFFFFFFFFFFFFFFFFFFFFFFFFF
310
FFFFFFFFFFFFFFFFFFFFFFFFFFFFFFFFFFFFFFFFFFFFFFFFFFFFFFFFFFFFFFFF
310
FFFFFFFFFFFFFFFFFFFFFFFFFFFFFFFFFFFFFFFFFFFFFFFFFFFFFFFFFFFFFFFF
310
FFFF9280A4FF62407BFF684A80FF684A80FF684A80FF684A80FF684A80FF684A
310
80FF684A80FF684A80FF684A80FF684A80FF64447CFF775D8DFFF4F2F5FFFFFF
310
FFFFFFFFFFFFFFFFFFFFFFFFFFFFFFFFFFFFFFFFFFFFFFFFFFFFFFFFFFFFFFFF
310
FFFFFFFFFFFFFFFFFFFFFFFFFFFFFFFFFFFFFFFFFFFFFFFFFFFFFFFFFFFFFFFF
310
FFFFFFFFFFFFBCB1C6FF63427BFF67487FFF684A80FF684A80FF684A80FF684A
310
80FF684A80FF684A80FF684A80FF684A80FF684A80FF684A80FF62407BFF8F7C
310
A2FFFBFAFAFFFFFFFFFFFFFFFFFFFFFFFFFFFFFFFFFFFFFFFFFFFFFFFFFFFFFF
310
FFFFFFFFFFFFFFFFFFFFFFFFFFFFFFFFFFFFFFFFFFFFFFFFFFFFFFFFFFFFFFFF
310
FFFFFFFFFFFFFFFFFFFFFFFFFFFFFFFFFFFFFFFFFFFFFFFFFFFFFFFFFFFFFFFF
310
FFFFFFFFFFFFFFFFFFFFFFFFFFFFFFFFFFFFFFFFFFFFFFFFFFFFFFFFFFFFFFFF
310
FFFFFFFFFFFFFFFFFFFFFFFFFFFFFFFFFFFFFFFFFFFFFFFFFFFFFFFFFFFFFFFF
310
FFFFFFFFFFFFFFFFFFFFFFFFFFFFFFFFFFFFFFFFFFFFFFFFFFFFFFFFFFFFFFFF
310
FFFFFFFFFFFFFFFFFFFFFFFFFFFFFFFFFFFFFFFFFFFFFFFFFFFFFFFFFFFFFFFF
310
FFFFFFFFFFFFFFFFFFFFFFFFFFFFFFFFFFFFFFFFFFFFFFFFFFFFFFFFFFFFFFFF
310
FFFFFFFFFFFFFFFFFFFFFFFFFFFFFFFFFFFFFFFFFFFFFFFFFFFFFFFFFFFFFFFF
310
FFFFFFFFFFFFFFFFFFFFFFFFFFFFFFFFFFFFFFFFFFFFFFFFFFFFFFFFFFFFFFFF
310
FFFFFFFFFFFFFFFFFFFFFFFFFFFFFFFFFFFFFFFFFFFFFFFFFFFFFFFFFFFFFFFF
310
FFFF000000000000000000000000000000000000000000000000000000000000
  1
OLE
  0
LINE
  5
55
330
1F
100
AcDbEntity
  8
0
  6
Continuous
 62
     7
370
     0
100
AcDbLine
 10
0.3352058319999974
 20
8.323146341463363
 30
0.0
 11
10.800005832
 21
8.323146341463413
 31
0.0
  0
LINE
  5
56
330
1F
100
AcDbEntity
  8
0
  6
Continuous
 62
     7
370
     0
100
AcDbLine
 10
0.3352058319999974
 20
8.323146341463363
 30
0.0
 11
0.3352058319999984
 21
0.3983463414634101
 31
0.0
  0
LINE
  5
57
330
1F
100
AcDbEntity
  8
0
  6
Continuous
 62
     7
370
     0
100
AcDbLine
 10
10.800005832
 20
0.3983463414634114
 30
0.0
 11
0.3352058319999984
 21
0.3983463414634101
 31
0.0
  0
LINE
  5
58
330
1F
100
AcDbEntity
  8
0
  6
Continuous
 62
     7
370
     0
100
AcDbLine
 10
10.800005832
 20
0.3983463414634114
 30
0.0
 11
10.800005832
 21
8.323146341463413
 31
0.0
  0
LINE
  5
59
330
1F
100
AcDbEntity
  8
0
  6
Continuous
 62
     7
370
     0
100
AcDbLine
 10
7.9971463164783
 20
2.394123874787422
 30
0.0
 11
7.9971463164783
 21
0.3983463414634165
 31
0.0
  0
LINE
  5
5A
330
1F
100
AcDbEntity
  8
0
  6
Continuous
 62
     7
370
     0
100
AcDbLine
 10
7.9971463164783
 20
0.6146383542598823
 30
0.0
 11
10.800005832
 21
0.6146383542598774
 31
0.0
  0
LINE
  5
5B
330
1F
100
AcDbEntity
  8
0
  6
Continuous
 62
     7
370
     0
100
AcDbLine
 10
7.9971463164783
 20
1.129727225594771
 30
0.0
 11
10.800005832
 21
1.129727225594765
 31
0.0
  0
LINE
  5
5C
330
1F
100
AcDbEntity
  8
0
  6
Continuous
 62
     7
370
     0
100
AcDbLine
 10
7.9971463164783
 20
2.021098696783294
 30
0.0
 11
10.800005832
 21
2.021098696783289
 31
0.0
  0
LINE
  5
5D
330
1F
100
AcDbEntity
  8
0
  6
Continuous
 62
     7
370
     0
100
AcDbLine
 10
8.603615364935981
 20
1.129727225594771
 30
0.0
 11
8.603615364935981
 21
0.6146383542598774
 31
0.0
  0
LINE
  5
5E
330
1F
100
AcDbEntity
  8
0
  6
Continuous
 62
     7
370
     0
100
AcDbLine
 10
8.967904755140452
 20
1.129727225594771
 30
0.0
 11
8.967904755140452
 21
0.6146383542598774
 31
0.0
  0
LINE
  5
5F
330
1F
100
AcDbEntity
  8
0
  6
Continuous
 62
     7
370
     0
100
AcDbLine
 10
10.11389499370114
 20
1.129727225594771
 30
0.0
 11
10.11389499370114
 21
0.6146383542598774
 31
0.0
  0
LINE
  5
60
330
1F
100
AcDbEntity
  8
0
  6
Continuous
 62
     7
370
     0
100
AcDbLine
 10
9.820915753708174
 20
0.6146383542598774
 30
0.0
 11
9.820915753708174
 21
0.3983463414634115
 31
0.0
  0
LINE
  5
61
330
1F
100
AcDbEntity
  8
0
  6
Continuous
 62
     7
370
     0
100
AcDbLine
 10
7.9971463164783
 20
2.394123874787422
 30
0.0
 11
10.800005832
 21
2.394123874787422
 31
0.0
  0
INSERT
  5
68
330
1F
100
AcDbEntity
  8
0
  6
Continuous
 62
     7
370
     0
100
AcDbBlockReference
  2
SW_NOTE_18
 10
8.555046367335146
 20
1.373517063085003
 30
0.0
  0
INSERT
  5
8E
330
1F
100
AcDbEntity
  8
0
  6
Continuous
 62
     7
370
     0
100
AcDbBlockReference
  2
SW_NOTE_19
 10
0.4868041379310374
 20
3.104833715852143
 30
0.0
  0
INSERT
  5
94
330
1F
100
AcDbEntity
  8
0
  6
Continuous
 62
     7
370
     0
100
AcDbBlockReference
  2
SW_NOTE_20
 10
8.447302393866193
 20
1.780218370973398
 30
0.0
  0
MTEXT
  5
96
330
1F
100
AcDbEntity
  8
0
  6
Continuous
 62
     7
370
     0
100
AcDbMText
 10
9.913241893899225
 20
0.5612627364607939
 30
0.0
 40
0.1016
 41
0.0
 71
     1
 72
     1
  1
SHEET 4 OF 4
  7
SLDTEXTSTYLE1
 73
     1
 44
1.0
1001
ACAD
1000
MTEXTBEGIN
1070
    73
1070
     1
1070
    44
1040
1.0
1070
    74
1070
     0
1000
MTEXTEND
  0
MTEXT
  5
97
330
1F
100
AcDbEntity
  8
0
  6
Continuous
 62
     7
370
     0
100
AcDbMText
 10
8.296824523576498
 20
0.8753053790193577
 30
0.0
 40
0.1481666666666667
 41
0.0
 71
     2
 72
     1
  1
25:1
  7
SLDTEXTSTYLE0
 73
     1
 44
1.0
1001
ACAD
1000
MTEXTBEGIN
1070
    73
1070
     1
1070
    44
1040
1.0
1070
    74
1070
     0
1000
MTEXTEND
  0
MTEXT
  5
99
330
1F
100
AcDbEntity
  8
0
  6
Continuous
 62
     7
370
     0
100
AcDbMText
 10
9.54997221728624
 20
1.08703318613937
 30
0.0
 40
0.1016
 41
0.0
 71
     2
 72
     1
  1
DWG.  NO.
  7
SLDTEXTSTYLE2
 73
     1
 44
1.0
1001
ACAD
1000
MTEXTBEGIN
1070
    73
1070
     1
1070
    44
1040
1.0
1070
    74
1070
     0
1000
MTEXTEND
  0
MTEXT
  5
9A
330
1F
100
AcDbEntity
  8
0
  6
Continuous
 62
     7
370
     0
100
AcDbMText
 10
8.666814612010044
 20
0.8981931458897879
 30
0.0
 40
0.254
 41
0.0
 71
     1
 72
     1
  1
A
  7
SLDTEXTSTYLE0
 73
     1
 44
1.0
1001
ACAD
1000
MTEXTBEGIN
1070
    73
1070
     1
1070
    44
1040
1.0
1070
    74
1070
     0
1000
MTEXTEND
  0
MTEXT
  5
9B
330
1F
100
AcDbEntity
  8
0
  6
Continuous
 62
     7
370
     0
100
AcDbMText
 10
8.676749719092173
 20
1.087033186139369
 30
0.0
 40
0.1016
 41
0.0
 71
     1
 72
     1
  1
SIZE
  7
SLDTEXTSTYLE0
 73
     1
 44
1.0
1001
ACAD
1000
MTEXTBEGIN
1070
    73
1070
     1
1070
    44
1040
1.0
1070
    74
1070
     0
1000
MTEXTEND
  0
MTEXT
  5
9C
330
1F
100
AcDbEntity
  8
0
  6
Continuous
 62
     7
370
     0
100
AcDbMText
 10
8.043743544387208
 20
1.986064722566765
 30
0.0
 40
0.1016
 41
0.0
 71
     1
 72
     1
  1
TITLE:
  7
SLDTEXTSTYLE0
 73
     1
 44
1.0
1001
ACAD
1000
MTEXTBEGIN
1070
    73
1070
     1
1070
    44
1040
1.0
1070
    74
1070
     0
1000
MTEXTEND
  0
MTEXT
  5
9D
330
1F
100
AcDbEntity
  8
0
  6
Continuous
 62
     7
370
     0
100
AcDbMText
 10
8.081201634787079
 20
0.5612627364607935
 30
0.0
 40
0.1016
 41
0.0
 71
     1
 72
     1
  1
DO NOT SCALE DRAWING
  7
SLDTEXTSTYLE0
 73
     1
 44
1.0
1001
ACAD
1000
MTEXTBEGIN
1070
    73
1070
     1
1070
    44
1040
1.0
1070
    74
1070
     0
1000
MTEXTEND
  0
MTEXT
  5
9E
330
1F
100
AcDbEntity
  8
0
  6
Continuous
 62
     7
370
     0
100
AcDbMText
 10
8.286759569647314
 20
1.087033186139369
 30
0.0
 40
0.1016
 41
0.0
 71
     2
 72
     1
  1
SCALE
  7
SLDTEXTSTYLE0
 73
     1
 44
1.0
1001
ACAD
1000
MTEXTBEGIN
1070
    73
1070
     1
1070
    44
1040
1.0
1070
    74
1070
     0
1000
MTEXTEND
  0
INSERT
  5
A4
330
1F
100
AcDbEntity
  8
0
  6
Continuous
 62
     7
370
     0
100
AcDbBlockReference
  2
SW_NOTE_21
 10
9.266815111292013
 20
0.7732643852445975
 30
0.0
  0
MTEXT
  5
A5
330
1F
100
AcDbEntity
  8
0
  6
Continuous
 62
     7
370
     0
100
AcDbMText
 10
10.47033400115098
 20
1.087033186139369
 30
0.0
 40
0.1016
 41
0.0
 71
     2
 72
     1
  1
REV
  7
SLDTEXTSTYLE0
 73
     1
 44
1.0
1001
ACAD
1000
MTEXTBEGIN
1070
    73
1070
     1
1070
    44
1040
1.0
1070
    74
1070
     0
1000
MTEXTEND
  0
MTEXT
  5
A6
330
1F
100
AcDbEntity
  8
0
  6
Continuous
 62
     7
370
     0
100
AcDbMText
 10
10.47132987642231
 20
0.9309039558411875
 30
0.0
 40
0.254
 41
0.0
 71
     2
 72
     1
  1
A
  7
SLDTEXTSTYLE0
 73
     1
 44
1.0
1001
ACAD
1000
MTEXTBEGIN
1070
    73
1070
     1
1070
    44
1040
1.0
1070
    74
1070
     0
1000
MTEXTEND
  0
MTEXT
  5
A8
330
1F
100
AcDbEntity
  8
0
  6
Continuous
 62
     7
370
     0
100
AcDbMText
 10
9.101629930232547
 20
2.248732416219914
 30
0.0
 40
0.1058333333333333
 41
0.0
 71
     1
 72
     1
  1
www.MirrorSemi.com
  7
SLDTEXTSTYLE3
 73
     1
 44
1.0
1001
ACAD
1000
MTEXTBEGIN
1070
    73
1070
     1
1070
    44
1040
1.0
1070
    74
1070
     0
1000
MTEXTEND
  0
ARC
  5
A9
330
1F
100
AcDbEntity
  8
0
  6
Continuous
 62
     7
100
AcDbCircle
 10
1.822702338778889
 20
7.01119860180714
 30
0.0
 40
0.2250000000000005
100
AcDbArc
 50
270.0000000000009
 51
90.00000000000023
  0
ARC
  5
AA
330
1F
100
AcDbEntity
  8
0
  6
Continuous
 62
     7
100
AcDbCircle
 10
1.822702338778891
 20
6.36119860180714
 30
0.0
 40
0.2249999999999996
100
AcDbArc
 50
270.0000000000009
 51
90.00000000000028
  0
ARC
  5
AB
330
1F
100
AcDbEntity
  8
0
  6
Continuous
 62
     7
100
AcDbCircle
 10
1.822702338778893
 20
5.71119860180714
 30
0.0
 40
0.2250000000000014
100
AcDbArc
 50
270.000000000001
 51
90.00000000000019
  0
ARC
  5
AC
330
1F
100
AcDbEntity
  8
0
  6
Continuous
 62
     7
100
AcDbCircle
 10
1.822702338778896
 20
5.06119860180714
 30
0.0
 40
0.2249999999999996
100
AcDbArc
 50
270.0000000000009
 51
90.00000000000023
  0
ARC
  5
AD
330
1F
100
AcDbEntity
  8
0
  6
Continuous
 62
     7
100
AcDbCircle
 10
4.322702338778896
 20
5.061198601807149
 30
0.0
 40
0.2250000000000005
100
AcDbArc
 50
90.00000000000023
 51
270.000000000001
  0
ARC
  5
AE
330
1F
100
AcDbEntity
  8
0
  6
Continuous
 62
     7
100
AcDbCircle
 10
4.322702338778893
 20
5.711198601807149
 30
0.0
 40
0.2249999999999996
100
AcDbArc
 50
90.0
 51
270.0000000000013
  0
ARC
  5
AF
330
1F
100
AcDbEntity
  8
0
  6
Continuous
 62
     7
100
AcDbCircle
 10
4.322702338778891
 20
6.361198601807148
 30
0.0
 40
0.2250000000000005
100
AcDbArc
 50
90.00000000000023
 51
270.000000000001
  0
ARC
  5
B0
330
1F
100
AcDbEntity
  8
0
  6
Continuous
 62
     7
100
AcDbCircle
 10
4.322702338778888
 20
7.011198601807149
 30
0.0
 40
0.2249999999999996
100
AcDbArc
 50
90.00000000000023
 51
270.0000000000013
  0
ARC
  5
B1
330
1F
100
AcDbEntity
  8
0
  6
Continuous
 62
     7
100
AcDbCircle
 10
1.822702338778889
 20
7.01119860180714
 30
0.0
 40
0.2250000000000005
100
AcDbArc
 50
270.0000000000009
 51
90.00000000000023
  0
ARC
  5
B2
330
1F
100
AcDbEntity
  8
0
  6
Continuous
 62
     7
100
AcDbCircle
 10
1.822702338778891
 20
6.36119860180714
 30
0.0
 40
0.2249999999999996
100
AcDbArc
 50
270.0000000000009
 51
90.00000000000028
  0
ARC
  5
B3
330
1F
100
AcDbEntity
  8
0
  6
Continuous
 62
     7
100
AcDbCircle
 10
1.822702338778893
 20
5.71119860180714
 30
0.0
 40
0.2250000000000014
100
AcDbArc
 50
270.000000000001
 51
90.00000000000019
  0
ARC
  5
B4
330
1F
100
AcDbEntity
  8
0
  6
Continuous
 62
     7
100
AcDbCircle
 10
1.822702338778896
 20
5.06119860180714
 30
0.0
 40
0.2249999999999996
100
AcDbArc
 50
270.0000000000009
 51
90.00000000000023
  0
ARC
  5
B5
330
1F
100
AcDbEntity
  8
0
  6
Continuous
 62
     7
100
AcDbCircle
 10
4.322702338778896
 20
5.061198601807149
 30
0.0
 40
0.2250000000000005
100
AcDbArc
 50
90.00000000000023
 51
270.000000000001
  0
ARC
  5
B6
330
1F
100
AcDbEntity
  8
0
  6
Continuous
 62
     7
100
AcDbCircle
 10
4.322702338778893
 20
5.711198601807149
 30
0.0
 40
0.2249999999999996
100
AcDbArc
 50
90.0
 51
270.0000000000013
  0
ARC
  5
B7
330
1F
100
AcDbEntity
  8
0
  6
Continuous
 62
     7
100
AcDbCircle
 10
4.322702338778891
 20
6.361198601807148
 30
0.0
 40
0.2250000000000005
100
AcDbArc
 50
90.00000000000023
 51
270.000000000001
  0
ARC
  5
B8
330
1F
100
AcDbEntity
  8
0
  6
Continuous
 62
     7
100
AcDbCircle
 10
4.322702338778888
 20
7.011198601807149
 30
0.0
 40
0.2249999999999996
100
AcDbArc
 50
90.00000000000023
 51
270.0000000000013
  0
LINE
  5
B9
330
1F
100
AcDbEntity
  8
0
  6
Continuous
 62
     7
100
AcDbLine
 10
2.467702338778888
 20
7.061198601807141
 30
0.0
 11
2.467702338778896
 21
5.011198601807142
 31
0.0
  0
LINE
  5
BA
330
1F
100
AcDbEntity
  8
0
  6
Continuous
 62
     7
100
AcDbLine
 10
2.467702338778896
 20
5.011198601807142
 30
0.0
 11
3.677702338778896
 21
5.011198601807146
 31
0.0
  0
LINE
  5
BB
330
1F
100
AcDbEntity
  8
0
  6
Continuous
 62
     7
100
AcDbLine
 10
3.677702338778896
 20
5.011198601807146
 30
0.0
 11
3.677702338778888
 21
7.061198601807145
 31
0.0
  0
LINE
  5
BC
330
1F
100
AcDbEntity
  8
0
  6
Continuous
 62
     7
100
AcDbLine
 10
3.677702338778888
 20
7.061198601807145
 30
0.0
 11
2.467702338778888
 21
7.061198601807141
 31
0.0
  0
LINE
  5
BD
330
1F
100
AcDbEntity
  8
0
  6
Continuous
 62
     7
100
AcDbLine
 10
1.572702338778897
 20
4.536198601807138
 30
0.0
 11
4.572702338778897
 21
4.536198601807149
 31
0.0
  0
LINE
  5
BE
330
1F
100
AcDbEntity
  8
0
  6
Continuous
 62
     7
100
AcDbLine
 10
1.572702338778897
 20
4.536198601807138
 30
0.0
 11
1.572702338778887
 21
7.536198601807138
 31
0.0
  0
LINE
  5
BF
330
1F
100
AcDbEntity
  8
0
  6
Continuous
 62
     7
100
AcDbLine
 10
1.572702338778887
 20
7.536198601807138
 30
0.0
 11
4.572702338778888
 21
7.536198601807148
 31
0.0
  0
LINE
  5
C0
330
1F
100
AcDbEntity
  8
0
  6
Continuous
 62
     7
100
AcDbLine
 10
4.572702338778897
 20
4.536198601807149
 30
0.0
 11
4.572702338778888
 21
7.536198601807148
 31
0.0
  0
LINE
  5
C1
330
1F
100
AcDbEntity
  8
0
  6
Continuous
 62
     7
100
AcDbLine
 10
1.29770233877889
 20
6.786198601807138
 30
0.0
 11
1.82270233877889
 21
6.786198601807139
 31
0.0
  0
LINE
  5
C2
330
1F
100
AcDbEntity
  8
0
  6
Continuous
 62
     7
100
AcDbLine
 10
1.822702338778888
 20
7.23619860180714
 30
0.0
 11
1.297702338778888
 21
7.236198601807137
 31
0.0
  0
LINE
  5
C3
330
1F
100
AcDbEntity
  8
0
  6
Continuous
 62
     7
100
AcDbLine
 10
1.297702338778888
 20
7.236198601807137
 30
0.0
 11
1.29770233877889
 21
6.786198601807138
 31
0.0
  0
LINE
  5
C4
330
1F
100
AcDbEntity
  8
0
  6
Continuous
 62
     7
100
AcDbLine
 10
2.982702338778895
 20
5.116198601807143
 30
0.0
 11
3.162702338778895
 21
5.116198601807145
 31
0.0
  0
LINE
  5
C5
330
1F
100
AcDbEntity
  8
0
  6
Continuous
 62
     7
100
AcDbLine
 10
2.982702338778896
 20
4.936198601807143
 30
0.0
 11
2.982702338778895
 21
5.116198601807143
 31
0.0
  0
LINE
  5
C6
330
1F
100
AcDbEntity
  8
0
  6
Continuous
 62
     7
100
AcDbLine
 10
2.392702338778895
 20
4.936198601807141
 30
0.0
 11
2.982702338778896
 21
4.936198601807143
 31
0.0
  0
LINE
  5
C7
330
1F
100
AcDbEntity
  8
0
  6
Continuous
 62
     7
100
AcDbLine
 10
2.392702338778893
 20
5.571198601807142
 30
0.0
 11
2.392702338778895
 21
4.936198601807141
 31
0.0
  0
LINE
  5
C8
330
1F
100
AcDbEntity
  8
0
  6
Continuous
 62
     7
100
AcDbLine
 10
2.572702338778894
 20
5.571198601807142
 30
0.0
 11
2.392702338778893
 21
5.571198601807142
 31
0.0
  0
LINE
  5
C9
330
1F
100
AcDbEntity
  8
0
  6
Continuous
 62
     7
100
AcDbLine
 10
2.572702338778893
 20
5.751198601807142
 30
0.0
 11
2.572702338778894
 21
5.571198601807142
 31
0.0
  0
LINE
  5
CA
330
1F
100
AcDbEntity
  8
0
  6
Continuous
 62
     7
100
AcDbLine
 10
2.392702338778893
 20
5.751198601807142
 30
0.0
 11
2.572702338778893
 21
5.751198601807142
 31
0.0
  0
LINE
  5
CB
330
1F
100
AcDbEntity
  8
0
  6
Continuous
 62
     7
100
AcDbLine
 10
2.392702338778891
 20
6.321198601807141
 30
0.0
 11
2.392702338778893
 21
5.751198601807142
 31
0.0
  0
LINE
  5
CC
330
1F
100
AcDbEntity
  8
0
  6
Continuous
 62
     7
100
AcDbLine
 10
2.572702338778891
 20
6.321198601807143
 30
0.0
 11
2.392702338778891
 21
6.321198601807141
 31
0.0
  0
LINE
  5
CD
330
1F
100
AcDbEntity
  8
0
  6
Continuous
 62
     7
100
AcDbLine
 10
2.572702338778891
 20
6.501198601807143
 30
0.0
 11
2.572702338778891
 21
6.321198601807143
 31
0.0
  0
LINE
  5
CE
330
1F
100
AcDbEntity
  8
0
  6
Continuous
 62
     7
100
AcDbLine
 10
2.392702338778891
 20
6.501198601807142
 30
0.0
 11
2.572702338778891
 21
6.501198601807143
 31
0.0
  0
LINE
  5
CF
330
1F
100
AcDbEntity
  8
0
  6
Continuous
 62
     7
100
AcDbLine
 10
2.392702338778889
 20
6.736198601807141
 30
0.0
 11
2.392702338778891
 21
6.501198601807142
 31
0.0
  0
LINE
  5
D0
330
1F
100
AcDbEntity
  8
0
  6
Continuous
 62
     7
100
AcDbLine
 10
2.792702338778888
 20
7.136198601807143
 30
0.0
 11
2.392702338778889
 21
6.736198601807141
 31
0.0
  0
LINE
  5
D1
330
1F
100
AcDbEntity
  8
0
  6
Continuous
 62
     7
100
AcDbLine
 10
2.982702338778888
 20
7.136198601807144
 30
0.0
 11
2.792702338778888
 21
7.136198601807143
 31
0.0
  0
LINE
  5
D2
330
1F
100
AcDbEntity
  8
0
  6
Continuous
 62
     7
100
AcDbLine
 10
2.982702338778889
 20
6.956198601807144
 30
0.0
 11
2.982702338778888
 21
7.136198601807144
 31
0.0
  0
LINE
  5
D3
330
1F
100
AcDbEntity
  8
0
  6
Continuous
 62
     7
100
AcDbLine
 10
3.162702338778889
 20
6.956198601807145
 30
0.0
 11
2.982702338778889
 21
6.956198601807144
 31
0.0
  0
LINE
  5
D4
330
1F
100
AcDbEntity
  8
0
  6
Continuous
 62
     7
100
AcDbLine
 10
3.162702338778888
 20
7.136198601807144
 30
0.0
 11
3.162702338778889
 21
6.956198601807145
 31
0.0
  0
LINE
  5
D5
330
1F
100
AcDbEntity
  8
0
  6
Continuous
 62
     7
100
AcDbLine
 10
3.752702338778888
 20
7.136198601807146
 30
0.0
 11
3.162702338778888
 21
7.136198601807144
 31
0.0
  0
LINE
  5
D6
330
1F
100
AcDbEntity
  8
0
  6
Continuous
 62
     7
100
AcDbLine
 10
3.75270233877889
 20
6.501198601807146
 30
0.0
 11
3.752702338778888
 21
7.136198601807146
 31
0.0
  0
LINE
  5
D7
330
1F
100
AcDbEntity
  8
0
  6
Continuous
 62
     7
100
AcDbLine
 10
3.572702338778891
 20
6.501198601807146
 30
0.0
 11
3.75270233877889
 21
6.501198601807146
 31
0.0
  0
LINE
  5
D8
330
1F
100
AcDbEntity
  8
0
  6
Continuous
 62
     7
100
AcDbLine
 10
3.572702338778892
 20
6.321198601807146
 30
0.0
 11
3.572702338778891
 21
6.501198601807146
 31
0.0
  0
LINE
  5
D9
330
1F
100
AcDbEntity
  8
0
  6
Continuous
 62
     7
100
AcDbLine
 10
3.752702338778891
 20
6.321198601807147
 30
0.0
 11
3.572702338778892
 21
6.321198601807146
 31
0.0
  0
LINE
  5
DA
330
1F
100
AcDbEntity
  8
0
  6
Continuous
 62
     7
100
AcDbLine
 10
3.752702338778893
 20
5.751198601807146
 30
0.0
 11
3.752702338778891
 21
6.321198601807147
 31
0.0
  0
LINE
  5
DB
330
1F
100
AcDbEntity
  8
0
  6
Continuous
 62
     7
100
AcDbLine
 10
3.572702338778893
 20
5.751198601807145
 30
0.0
 11
3.752702338778893
 21
5.751198601807146
 31
0.0
  0
LINE
  5
DC
330
1F
100
AcDbEntity
  8
0
  6
Continuous
 62
     7
100
AcDbLine
 10
3.572702338778894
 20
5.571198601807145
 30
0.0
 11
3.572702338778893
 21
5.751198601807145
 31
0.0
  0
LINE
  5
DD
330
1F
100
AcDbEntity
  8
0
  6
Continuous
 62
     7
100
AcDbLine
 10
3.752702338778894
 20
5.571198601807147
 30
0.0
 11
3.572702338778894
 21
5.571198601807145
 31
0.0
  0
LINE
  5
DE
330
1F
100
AcDbEntity
  8
0
  6
Continuous
 62
     7
100
AcDbLine
 10
3.752702338778895
 20
4.936198601807147
 30
0.0
 11
3.752702338778894
 21
5.571198601807147
 31
0.0
  0
LINE
  5
DF
330
1F
100
AcDbEntity
  8
0
  6
Continuous
 62
     7
100
AcDbLine
 10
3.162702338778896
 20
4.936198601807144
 30
0.0
 11
3.752702338778895
 21
4.936198601807147
 31
0.0
  0
LINE
  5
E0
330
1F
100
AcDbEntity
  8
0
  6
Continuous
 62
     7
100
AcDbLine
 10
3.162702338778895
 20
5.116198601807145
 30
0.0
 11
3.162702338778896
 21
4.936198601807144
 31
0.0
  0
LINE
  5
E1
330
1F
100
AcDbEntity
  8
0
  6
Continuous
 62
     7
100
AcDbLine
 10
1.297702338778892
 20
6.136198601807137
 30
0.0
 11
1.822702338778892
 21
6.13619860180714
 31
0.0
  0
LINE
  5
E2
330
1F
100
AcDbEntity
  8
0
  6
Continuous
 62
     7
100
AcDbLine
 10
1.82270233877889
 20
6.586198601807139
 30
0.0
 11
1.297702338778891
 21
6.586198601807138
 31
0.0
  0
LINE
  5
E3
330
1F
100
AcDbEntity
  8
0
  6
Continuous
 62
     7
100
AcDbLine
 10
1.297702338778891
 20
6.586198601807138
 30
0.0
 11
1.297702338778892
 21
6.136198601807137
 31
0.0
  0
LINE
  5
E4
330
1F
100
AcDbEntity
  8
0
  6
Continuous
 62
     7
100
AcDbLine
 10
1.297702338778894
 20
5.486198601807138
 30
0.0
 11
1.822702338778894
 21
5.486198601807139
 31
0.0
  0
LINE
  5
E5
330
1F
100
AcDbEntity
  8
0
  6
Continuous
 62
     7
100
AcDbLine
 10
1.822702338778893
 20
5.93619860180714
 30
0.0
 11
1.297702338778893
 21
5.936198601807137
 31
0.0
  0
LINE
  5
E6
330
1F
100
AcDbEntity
  8
0
  6
Continuous
 62
     7
100
AcDbLine
 10
1.297702338778893
 20
5.936198601807137
 30
0.0
 11
1.297702338778894
 21
5.486198601807138
 31
0.0
  0
LINE
  5
E7
330
1F
100
AcDbEntity
  8
0
  6
Continuous
 62
     7
100
AcDbLine
 10
1.297702338778897
 20
4.836198601807137
 30
0.0
 11
1.822702338778896
 21
4.83619860180714
 31
0.0
  0
LINE
  5
E8
330
1F
100
AcDbEntity
  8
0
  6
Continuous
 62
     7
100
AcDbLine
 10
1.822702338778895
 20
5.286198601807139
 30
0.0
 11
1.297702338778895
 21
5.286198601807138
 31
0.0
  0
LINE
  5
E9
330
1F
100
AcDbEntity
  8
0
  6
Continuous
 62
     7
100
AcDbLine
 10
1.297702338778895
 20
5.286198601807138
 30
0.0
 11
1.297702338778897
 21
4.836198601807137
 31
0.0
  0
LINE
  5
EA
330
1F
100
AcDbEntity
  8
0
  6
Continuous
 62
     7
100
AcDbLine
 10
4.847702338778894
 20
5.28619860180715
 30
0.0
 11
4.322702338778895
 21
5.286198601807149
 31
0.0
  0
LINE
  5
EB
330
1F
100
AcDbEntity
  8
0
  6
Continuous
 62
     7
100
AcDbLine
 10
4.322702338778896
 20
4.836198601807149
 30
0.0
 11
4.847702338778896
 21
4.836198601807151
 31
0.0
  0
LINE
  5
EC
330
1F
100
AcDbEntity
  8
0
  6
Continuous
 62
     7
100
AcDbLine
 10
4.847702338778896
 20
4.836198601807151
 30
0.0
 11
4.847702338778894
 21
5.28619860180715
 31
0.0
  0
LINE
  5
ED
330
1F
100
AcDbEntity
  8
0
  6
Continuous
 62
     7
100
AcDbLine
 10
4.847702338778892
 20
5.93619860180715
 30
0.0
 11
4.322702338778893
 21
5.936198601807149
 31
0.0
  0
LINE
  5
EE
330
1F
100
AcDbEntity
  8
0
  6
Continuous
 62
     7
100
AcDbLine
 10
4.322702338778895
 20
5.486198601807149
 30
0.0
 11
4.847702338778894
 21
5.48619860180715
 31
0.0
  0
LINE
  5
EF
330
1F
100
AcDbEntity
  8
0
  6
Continuous
 62
     7
100
AcDbLine
 10
4.847702338778894
 20
5.48619860180715
 30
0.0
 11
4.847702338778892
 21
5.93619860180715
 31
0.0
  0
LINE
  5
F0
330
1F
100
AcDbEntity
  8
0
  6
Continuous
 62
     7
100
AcDbLine
 10
4.84770233877889
 20
6.58619860180715
 30
0.0
 11
4.32270233877889
 21
6.586198601807149
 31
0.0
  0
LINE
  5
F1
330
1F
100
AcDbEntity
  8
0
  6
Continuous
 62
     7
100
AcDbLine
 10
4.322702338778892
 20
6.136198601807149
 30
0.0
 11
4.847702338778892
 21
6.136198601807151
 31
0.0
  0
LINE
  5
F2
330
1F
100
AcDbEntity
  8
0
  6
Continuous
 62
     7
100
AcDbLine
 10
4.847702338778892
 20
6.136198601807151
 30
0.0
 11
4.84770233877889
 21
6.58619860180715
 31
0.0
  0
LINE
  5
F3
330
1F
100
AcDbEntity
  8
0
  6
Continuous
 62
     7
100
AcDbLine
 10
4.847702338778888
 20
7.236198601807151
 30
0.0
 11
4.322702338778888
 21
7.236198601807148
 31
0.0
  0
LINE
  5
F4
330
1F
100
AcDbEntity
  8
0
  6
Continuous
 62
     7
100
AcDbLine
 10
4.32270233877889
 20
6.786198601807149
 30
0.0
 11
4.847702338778889
 21
6.78619860180715
 31
0.0
  0
LINE
  5
F5
330
1F
100
AcDbEntity
  8
0
  6
Continuous
 62
     7
100
AcDbLine
 10
4.847702338778889
 20
6.78619860180715
 30
0.0
 11
4.847702338778888
 21
7.236198601807151
 31
0.0
  0
LINE
  5
F6
330
1F
100
AcDbEntity
  8
0
  6
Continuous
 62
     7
100
AcDbLine
 10
2.467702338778888
 20
7.061198601807141
 30
0.0
 11
2.467702338778896
 21
5.011198601807142
 31
0.0
  0
LINE
  5
F7
330
1F
100
AcDbEntity
  8
0
  6
Continuous
 62
     7
100
AcDbLine
 10
2.467702338778896
 20
5.011198601807142
 30
0.0
 11
3.677702338778896
 21
5.011198601807146
 31
0.0
  0
LINE
  5
F8
330
1F
100
AcDbEntity
  8
0
  6
Continuous
 62
     7
100
AcDbLine
 10
3.677702338778896
 20
5.011198601807146
 30
0.0
 11
3.677702338778888
 21
7.061198601807145
 31
0.0
  0
LINE
  5
F9
330
1F
100
AcDbEntity
  8
0
  6
Continuous
 62
     7
100
AcDbLine
 10
3.677702338778888
 20
7.061198601807145
 30
0.0
 11
2.467702338778888
 21
7.061198601807141
 31
0.0
  0
LINE
  5
FA
330
1F
100
AcDbEntity
  8
0
  6
Continuous
 62
     7
100
AcDbLine
 10
1.572702338778897
 20
4.536198601807138
 30
0.0
 11
4.572702338778897
 21
4.536198601807149
 31
0.0
  0
LINE
  5
FB
330
1F
100
AcDbEntity
  8
0
  6
Continuous
 62
     7
100
AcDbLine
 10
1.572702338778897
 20
4.536198601807138
 30
0.0
 11
1.572702338778887
 21
7.536198601807138
 31
0.0
  0
LINE
  5
FC
330
1F
100
AcDbEntity
  8
0
  6
Continuous
 62
     7
100
AcDbLine
 10
1.572702338778887
 20
7.536198601807138
 30
0.0
 11
4.572702338778888
 21
7.536198601807148
 31
0.0
  0
LINE
  5
FD
330
1F
100
AcDbEntity
  8
0
  6
Continuous
 62
     7
100
AcDbLine
 10
4.572702338778897
 20
4.536198601807149
 30
0.0
 11
4.572702338778888
 21
7.536198601807148
 31
0.0
  0
LINE
  5
FE
330
1F
100
AcDbEntity
  8
0
  6
Continuous
 62
     7
100
AcDbLine
 10
1.29770233877889
 20
6.786198601807138
 30
0.0
 11
1.82270233877889
 21
6.786198601807139
 31
0.0
  0
LINE
  5
FF
330
1F
100
AcDbEntity
  8
0
  6
Continuous
 62
     7
100
AcDbLine
 10
1.822702338778888
 20
7.23619860180714
 30
0.0
 11
1.297702338778888
 21
7.236198601807137
 31
0.0
  0
LINE
  5
100
330
1F
100
AcDbEntity
  8
0
  6
Continuous
 62
     7
100
AcDbLine
 10
1.297702338778888
 20
7.236198601807137
 30
0.0
 11
1.29770233877889
 21
6.786198601807138
 31
0.0
  0
LINE
  5
101
330
1F
100
AcDbEntity
  8
0
  6
Continuous
 62
     7
100
AcDbLine
 10
2.982702338778895
 20
5.116198601807143
 30
0.0
 11
3.162702338778895
 21
5.116198601807145
 31
0.0
  0
LINE
  5
102
330
1F
100
AcDbEntity
  8
0
  6
Continuous
 62
     7
100
AcDbLine
 10
2.982702338778896
 20
4.936198601807143
 30
0.0
 11
2.982702338778895
 21
5.116198601807143
 31
0.0
  0
LINE
  5
103
330
1F
100
AcDbEntity
  8
0
  6
Continuous
 62
     7
100
AcDbLine
 10
2.392702338778895
 20
4.936198601807141
 30
0.0
 11
2.982702338778896
 21
4.936198601807143
 31
0.0
  0
LINE
  5
104
330
1F
100
AcDbEntity
  8
0
  6
Continuous
 62
     7
100
AcDbLine
 10
2.392702338778893
 20
5.571198601807142
 30
0.0
 11
2.392702338778895
 21
4.936198601807141
 31
0.0
  0
LINE
  5
105
330
1F
100
AcDbEntity
  8
0
  6
Continuous
 62
     7
100
AcDbLine
 10
2.572702338778894
 20
5.571198601807142
 30
0.0
 11
2.392702338778893
 21
5.571198601807142
 31
0.0
  0
LINE
  5
106
330
1F
100
AcDbEntity
  8
0
  6
Continuous
 62
     7
100
AcDbLine
 10
2.572702338778893
 20
5.751198601807142
 30
0.0
 11
2.572702338778894
 21
5.571198601807142
 31
0.0
  0
LINE
  5
107
330
1F
100
AcDbEntity
  8
0
  6
Continuous
 62
     7
100
AcDbLine
 10
2.392702338778893
 20
5.751198601807142
 30
0.0
 11
2.572702338778893
 21
5.751198601807142
 31
0.0
  0
LINE
  5
108
330
1F
100
AcDbEntity
  8
0
  6
Continuous
 62
     7
100
AcDbLine
 10
2.392702338778891
 20
6.321198601807141
 30
0.0
 11
2.392702338778893
 21
5.751198601807142
 31
0.0
  0
LINE
  5
109
330
1F
100
AcDbEntity
  8
0
  6
Continuous
 62
     7
100
AcDbLine
 10
2.572702338778891
 20
6.321198601807143
 30
0.0
 11
2.392702338778891
 21
6.321198601807141
 31
0.0
  0
LINE
  5
10A
330
1F
100
AcDbEntity
  8
0
  6
Continuous
 62
     7
100
AcDbLine
 10
2.572702338778891
 20
6.501198601807143
 30
0.0
 11
2.572702338778891
 21
6.321198601807143
 31
0.0
  0
LINE
  5
10B
330
1F
100
AcDbEntity
  8
0
  6
Continuous
 62
     7
100
AcDbLine
 10
2.392702338778891
 20
6.501198601807142
 30
0.0
 11
2.572702338778891
 21
6.501198601807143
 31
0.0
  0
LINE
  5
10C
330
1F
100
AcDbEntity
  8
0
  6
Continuous
 62
     7
100
AcDbLine
 10
2.392702338778889
 20
6.736198601807141
 30
0.0
 11
2.392702338778891
 21
6.501198601807142
 31
0.0
  0
LINE
  5
10D
330
1F
100
AcDbEntity
  8
0
  6
Continuous
 62
     7
100
AcDbLine
 10
2.792702338778888
 20
7.136198601807143
 30
0.0
 11
2.392702338778889
 21
6.736198601807141
 31
0.0
  0
LINE
  5
10E
330
1F
100
AcDbEntity
  8
0
  6
Continuous
 62
     7
100
AcDbLine
 10
2.982702338778888
 20
7.136198601807144
 30
0.0
 11
2.792702338778888
 21
7.136198601807143
 31
0.0
  0
LINE
  5
10F
330
1F
100
AcDbEntity
  8
0
  6
Continuous
 62
     7
100
AcDbLine
 10
2.982702338778889
 20
6.956198601807144
 30
0.0
 11
2.982702338778888
 21
7.136198601807144
 31
0.0
  0
LINE
  5
110
330
1F
100
AcDbEntity
  8
0
  6
Continuous
 62
     7
100
AcDbLine
 10
3.162702338778889
 20
6.956198601807145
 30
0.0
 11
2.982702338778889
 21
6.956198601807144
 31
0.0
  0
LINE
  5
111
330
1F
100
AcDbEntity
  8
0
  6
Continuous
 62
     7
100
AcDbLine
 10
3.162702338778888
 20
7.136198601807144
 30
0.0
 11
3.162702338778889
 21
6.956198601807145
 31
0.0
  0
LINE
  5
112
330
1F
100
AcDbEntity
  8
0
  6
Continuous
 62
     7
100
AcDbLine
 10
3.752702338778888
 20
7.136198601807146
 30
0.0
 11
3.162702338778888
 21
7.136198601807144
 31
0.0
  0
LINE
  5
113
330
1F
100
AcDbEntity
  8
0
  6
Continuous
 62
     7
100
AcDbLine
 10
3.75270233877889
 20
6.501198601807146
 30
0.0
 11
3.752702338778888
 21
7.136198601807146
 31
0.0
  0
LINE
  5
114
330
1F
100
AcDbEntity
  8
0
  6
Continuous
 62
     7
100
AcDbLine
 10
3.572702338778891
 20
6.501198601807146
 30
0.0
 11
3.75270233877889
 21
6.501198601807146
 31
0.0
  0
LINE
  5
115
330
1F
100
AcDbEntity
  8
0
  6
Continuous
 62
     7
100
AcDbLine
 10
3.572702338778892
 20
6.321198601807146
 30
0.0
 11
3.572702338778891
 21
6.501198601807146
 31
0.0
  0
LINE
  5
116
330
1F
100
AcDbEntity
  8
0
  6
Continuous
 62
     7
100
AcDbLine
 10
3.752702338778891
 20
6.321198601807147
 30
0.0
 11
3.572702338778892
 21
6.321198601807146
 31
0.0
  0
LINE
  5
117
330
1F
100
AcDbEntity
  8
0
  6
Continuous
 62
     7
100
AcDbLine
 10
3.752702338778893
 20
5.751198601807146
 30
0.0
 11
3.752702338778891
 21
6.321198601807147
 31
0.0
  0
LINE
  5
118
330
1F
100
AcDbEntity
  8
0
  6
Continuous
 62
     7
100
AcDbLine
 10
3.572702338778893
 20
5.751198601807145
 30
0.0
 11
3.752702338778893
 21
5.751198601807146
 31
0.0
  0
LINE
  5
119
330
1F
100
AcDbEntity
  8
0
  6
Continuous
 62
     7
100
AcDbLine
 10
3.572702338778894
 20
5.571198601807145
 30
0.0
 11
3.572702338778893
 21
5.751198601807145
 31
0.0
  0
LINE
  5
11A
330
1F
100
AcDbEntity
  8
0
  6
Continuous
 62
     7
100
AcDbLine
 10
3.752702338778894
 20
5.571198601807147
 30
0.0
 11
3.572702338778894
 21
5.571198601807145
 31
0.0
  0
LINE
  5
11B
330
1F
100
AcDbEntity
  8
0
  6
Continuous
 62
     7
100
AcDbLine
 10
3.752702338778895
 20
4.936198601807147
 30
0.0
 11
3.752702338778894
 21
5.571198601807147
 31
0.0
  0
LINE
  5
11C
330
1F
100
AcDbEntity
  8
0
  6
Continuous
 62
     7
100
AcDbLine
 10
3.162702338778896
 20
4.936198601807144
 30
0.0
 11
3.752702338778895
 21
4.936198601807147
 31
0.0
  0
LINE
  5
11D
330
1F
100
AcDbEntity
  8
0
  6
Continuous
 62
     7
100
AcDbLine
 10
3.162702338778895
 20
5.116198601807145
 30
0.0
 11
3.162702338778896
 21
4.936198601807144
 31
0.0
  0
LINE
  5
11E
330
1F
100
AcDbEntity
  8
0
  6
Continuous
 62
     7
100
AcDbLine
 10
1.297702338778892
 20
6.136198601807137
 30
0.0
 11
1.822702338778892
 21
6.13619860180714
 31
0.0
  0
LINE
  5
11F
330
1F
100
AcDbEntity
  8
0
  6
Continuous
 62
     7
100
AcDbLine
 10
1.82270233877889
 20
6.586198601807139
 30
0.0
 11
1.297702338778891
 21
6.586198601807138
 31
0.0
  0
LINE
  5
120
330
1F
100
AcDbEntity
  8
0
  6
Continuous
 62
     7
100
AcDbLine
 10
1.297702338778891
 20
6.586198601807138
 30
0.0
 11
1.297702338778892
 21
6.136198601807137
 31
0.0
  0
LINE
  5
121
330
1F
100
AcDbEntity
  8
0
  6
Continuous
 62
     7
100
AcDbLine
 10
1.297702338778894
 20
5.486198601807138
 30
0.0
 11
1.822702338778894
 21
5.486198601807139
 31
0.0
  0
LINE
  5
122
330
1F
100
AcDbEntity
  8
0
  6
Continuous
 62
     7
100
AcDbLine
 10
1.822702338778893
 20
5.93619860180714
 30
0.0
 11
1.297702338778893
 21
5.936198601807137
 31
0.0
  0
LINE
  5
123
330
1F
100
AcDbEntity
  8
0
  6
Continuous
 62
     7
100
AcDbLine
 10
1.297702338778893
 20
5.936198601807137
 30
0.0
 11
1.297702338778894
 21
5.486198601807138
 31
0.0
  0
LINE
  5
124
330
1F
100
AcDbEntity
  8
0
  6
Continuous
 62
     7
100
AcDbLine
 10
1.297702338778897
 20
4.836198601807137
 30
0.0
 11
1.822702338778896
 21
4.83619860180714
 31
0.0
  0
LINE
  5
125
330
1F
100
AcDbEntity
  8
0
  6
Continuous
 62
     7
100
AcDbLine
 10
1.822702338778895
 20
5.286198601807139
 30
0.0
 11
1.297702338778895
 21
5.286198601807138
 31
0.0
  0
LINE
  5
126
330
1F
100
AcDbEntity
  8
0
  6
Continuous
 62
     7
100
AcDbLine
 10
1.297702338778895
 20
5.286198601807138
 30
0.0
 11
1.297702338778897
 21
4.836198601807137
 31
0.0
  0
LINE
  5
127
330
1F
100
AcDbEntity
  8
0
  6
Continuous
 62
     7
100
AcDbLine
 10
4.847702338778894
 20
5.28619860180715
 30
0.0
 11
4.322702338778895
 21
5.286198601807149
 31
0.0
  0
LINE
  5
128
330
1F
100
AcDbEntity
  8
0
  6
Continuous
 62
     7
100
AcDbLine
 10
4.322702338778896
 20
4.836198601807149
 30
0.0
 11
4.847702338778896
 21
4.836198601807151
 31
0.0
  0
LINE
  5
129
330
1F
100
AcDbEntity
  8
0
  6
Continuous
 62
     7
100
AcDbLine
 10
4.847702338778896
 20
4.836198601807151
 30
0.0
 11
4.847702338778894
 21
5.28619860180715
 31
0.0
  0
LINE
  5
12A
330
1F
100
AcDbEntity
  8
0
  6
Continuous
 62
     7
100
AcDbLine
 10
4.847702338778892
 20
5.93619860180715
 30
0.0
 11
4.322702338778893
 21
5.936198601807149
 31
0.0
  0
LINE
  5
12B
330
1F
100
AcDbEntity
  8
0
  6
Continuous
 62
     7
100
AcDbLine
 10
4.322702338778895
 20
5.486198601807149
 30
0.0
 11
4.847702338778894
 21
5.48619860180715
 31
0.0
  0
LINE
  5
12C
330
1F
100
AcDbEntity
  8
0
  6
Continuous
 62
     7
100
AcDbLine
 10
4.847702338778894
 20
5.48619860180715
 30
0.0
 11
4.847702338778892
 21
5.93619860180715
 31
0.0
  0
LINE
  5
12D
330
1F
100
AcDbEntity
  8
0
  6
Continuous
 62
     7
100
AcDbLine
 10
4.84770233877889
 20
6.58619860180715
 30
0.0
 11
4.32270233877889
 21
6.586198601807149
 31
0.0
  0
LINE
  5
12E
330
1F
100
AcDbEntity
  8
0
  6
Continuous
 62
     7
100
AcDbLine
 10
4.322702338778892
 20
6.136198601807149
 30
0.0
 11
4.847702338778892
 21
6.136198601807151
 31
0.0
  0
LINE
  5
12F
330
1F
100
AcDbEntity
  8
0
  6
Continuous
 62
     7
100
AcDbLine
 10
4.847702338778892
 20
6.136198601807151
 30
0.0
 11
4.84770233877889
 21
6.58619860180715
 31
0.0
  0
LINE
  5
130
330
1F
100
AcDbEntity
  8
0
  6
Continuous
 62
     7
100
AcDbLine
 10
4.847702338778888
 20
7.236198601807151
 30
0.0
 11
4.322702338778888
 21
7.236198601807148
 31
0.0
  0
LINE
  5
131
330
1F
100
AcDbEntity
  8
0
  6
Continuous
 62
     7
100
AcDbLine
 10
4.32270233877889
 20
6.786198601807149
 30
0.0
 11
4.847702338778889
 21
6.78619860180715
 31
0.0
  0
LINE
  5
132
330
1F
100
AcDbEntity
  8
0
  6
Continuous
 62
     7
100
AcDbLine
 10
4.847702338778889
 20
6.78619860180715
 30
0.0
 11
4.847702338778888
 21
7.236198601807151
 31
0.0
  0
ARC
  5
133
330
1F
100
AcDbEntity
  8
0
  6
Continuous
 62
     7
370
    15
100
AcDbCircle
 10
1.822702338778892
 20
7.011198601807144
 30
0.0
 40
0.1500000000000003
100
AcDbArc
 50
270.0000000000008
 51
90.0
  0
LINE
  5
134
330
1F
100
AcDbEntity
  8
0
  6
Continuous
 62
     7
370
    15
100
AcDbLine
 10
1.372702338778893
 20
7.161198601807143
 30
0.0
 11
1.372702338778893
 21
6.861198601807144
 31
0.0
  0
LINE
  5
135
330
1F
100
AcDbEntity
  8
0
  6
Continuous
 62
     7
370
    15
100
AcDbLine
 10
1.372702338778893
 20
6.861198601807144
 30
0.0
 11
1.822702338778892
 21
6.861198601807144
 31
0.0
  0
LINE
  5
136
330
1F
100
AcDbEntity
  8
0
  6
Continuous
 62
     7
370
    15
100
AcDbLine
 10
1.822702338778892
 20
7.161198601807143
 30
0.0
 11
1.372702338778893
 21
7.161198601807143
 31
0.0
  0
ARC
  5
137
330
1F
100
AcDbEntity
  8
0
  6
Continuous
 62
     7
370
    15
100
AcDbCircle
 10
1.822702338778892
 20
5.061198601807143
 30
0.0
 40
0.1500000000000003
100
AcDbArc
 50
270.0000000000008
 51
90.0
  0
LINE
  5
138
330
1F
100
AcDbEntity
  8
0
  6
Continuous
 62
     7
370
    15
100
AcDbLine
 10
1.372702338778893
 20
5.211198601807144
 30
0.0
 11
1.372702338778893
 21
4.911198601807144
 31
0.0
  0
LINE
  5
139
330
1F
100
AcDbEntity
  8
0
  6
Continuous
 62
     7
370
    15
100
AcDbLine
 10
1.372702338778893
 20
4.911198601807144
 30
0.0
 11
1.822702338778892
 21
4.911198601807144
 31
0.0
  0
LINE
  5
13A
330
1F
100
AcDbEntity
  8
0
  6
Continuous
 62
     7
370
    15
100
AcDbLine
 10
1.822702338778892
 20
5.211198601807144
 30
0.0
 11
1.372702338778893
 21
5.211198601807144
 31
0.0
  0
ARC
  5
13B
330
1F
100
AcDbEntity
  8
0
  6
Continuous
 62
     7
370
    15
100
AcDbCircle
 10
1.822702338778892
 20
5.711198601807145
 30
0.0
 40
0.1500000000000003
100
AcDbArc
 50
270.0000000000008
 51
90.0
  0
LINE
  5
13C
330
1F
100
AcDbEntity
  8
0
  6
Continuous
 62
     7
370
    15
100
AcDbLine
 10
1.372702338778893
 20
5.861198601807143
 30
0.0
 11
1.372702338778893
 21
5.561198601807144
 31
0.0
  0
LINE
  5
13D
330
1F
100
AcDbEntity
  8
0
  6
Continuous
 62
     7
370
    15
100
AcDbLine
 10
1.372702338778893
 20
5.561198601807144
 30
0.0
 11
1.822702338778892
 21
5.561198601807144
 31
0.0
  0
LINE
  5
13E
330
1F
100
AcDbEntity
  8
0
  6
Continuous
 62
     7
370
    15
100
AcDbLine
 10
1.822702338778892
 20
5.861198601807143
 30
0.0
 11
1.372702338778893
 21
5.861198601807143
 31
0.0
  0
ARC
  5
13F
330
1F
100
AcDbEntity
  8
0
  6
Continuous
 62
     7
370
    15
100
AcDbCircle
 10
1.822702338778892
 20
6.361198601807144
 30
0.0
 40
0.1500000000000003
100
AcDbArc
 50
270.0000000000008
 51
90.0
  0
LINE
  5
140
330
1F
100
AcDbEntity
  8
0
  6
Continuous
 62
     7
370
    15
100
AcDbLine
 10
1.372702338778893
 20
6.511198601807144
 30
0.0
 11
1.372702338778893
 21
6.211198601807144
 31
0.0
  0
LINE
  5
141
330
1F
100
AcDbEntity
  8
0
  6
Continuous
 62
     7
370
    15
100
AcDbLine
 10
1.372702338778893
 20
6.211198601807144
 30
0.0
 11
1.822702338778892
 21
6.211198601807144
 31
0.0
  0
LINE
  5
142
330
1F
100
AcDbEntity
  8
0
  6
Continuous
 62
     7
370
    15
100
AcDbLine
 10
1.822702338778892
 20
6.511198601807144
 30
0.0
 11
1.372702338778893
 21
6.511198601807144
 31
0.0
  0
LINE
  5
143
330
1F
100
AcDbEntity
  8
0
  6
Continuous
 62
     7
370
    15
100
AcDbLine
 10
4.772702338778892
 20
4.911198601807144
 30
0.0
 11
4.772702338778892
 21
5.211198601807144
 31
0.0
  0
LINE
  5
144
330
1F
100
AcDbEntity
  8
0
  6
Continuous
 62
     7
370
    15
100
AcDbLine
 10
4.322702338778892
 20
4.911198601807144
 30
0.0
 11
4.772702338778892
 21
4.911198601807144
 31
0.0
  0
LINE
  5
145
330
1F
100
AcDbEntity
  8
0
  6
Continuous
 62
     7
370
    15
100
AcDbLine
 10
4.772702338778892
 20
5.211198601807144
 30
0.0
 11
4.322702338778892
 21
5.211198601807144
 31
0.0
  0
ARC
  5
146
330
1F
100
AcDbEntity
  8
0
  6
Continuous
 62
     7
370
    15
100
AcDbCircle
 10
4.322702338778892
 20
5.061198601807143
 30
0.0
 40
0.1500000000000003
100
AcDbArc
 50
90.0
 51
270.0000000000008
  0
LINE
  5
147
330
1F
100
AcDbEntity
  8
0
  6
Continuous
 62
     7
370
    15
100
AcDbLine
 10
4.772702338778892
 20
5.561198601807144
 30
0.0
 11
4.772702338778892
 21
5.861198601807144
 31
0.0
  0
LINE
  5
148
330
1F
100
AcDbEntity
  8
0
  6
Continuous
 62
     7
370
    15
100
AcDbLine
 10
4.322702338778892
 20
5.561198601807144
 30
0.0
 11
4.772702338778892
 21
5.561198601807144
 31
0.0
  0
LINE
  5
149
330
1F
100
AcDbEntity
  8
0
  6
Continuous
 62
     7
370
    15
100
AcDbLine
 10
4.772702338778892
 20
5.861198601807144
 30
0.0
 11
4.322702338778892
 21
5.861198601807144
 31
0.0
  0
ARC
  5
14A
330
1F
100
AcDbEntity
  8
0
  6
Continuous
 62
     7
370
    15
100
AcDbCircle
 10
4.322702338778892
 20
5.711198601807145
 30
0.0
 40
0.1500000000000003
100
AcDbArc
 50
90.0
 51
270.0000000000008
  0
LINE
  5
14B
330
1F
100
AcDbEntity
  8
0
  6
Continuous
 62
     7
370
    15
100
AcDbLine
 10
4.772702338778892
 20
6.211198601807145
 30
0.0
 11
4.772702338778892
 21
6.511198601807144
 31
0.0
  0
LINE
  5
14C
330
1F
100
AcDbEntity
  8
0
  6
Continuous
 62
     7
370
    15
100
AcDbLine
 10
4.322702338778892
 20
6.211198601807145
 30
0.0
 11
4.772702338778892
 21
6.211198601807145
 31
0.0
  0
LINE
  5
14D
330
1F
100
AcDbEntity
  8
0
  6
Continuous
 62
     7
370
    15
100
AcDbLine
 10
4.772702338778892
 20
6.511198601807144
 30
0.0
 11
4.322702338778892
 21
6.511198601807144
 31
0.0
  0
ARC
  5
14E
330
1F
100
AcDbEntity
  8
0
  6
Continuous
 62
     7
370
    15
100
AcDbCircle
 10
4.322702338778892
 20
6.361198601807144
 30
0.0
 40
0.1500000000000003
100
AcDbArc
 50
90.0
 51
270.0000000000008
  0
LINE
  5
14F
330
1F
100
AcDbEntity
  8
0
  6
Continuous
 62
     7
370
    15
100
AcDbLine
 10
4.772702338778892
 20
6.861198601807144
 30
0.0
 11
4.772702338778892
 21
7.161198601807145
 31
0.0
  0
LINE
  5
150
330
1F
100
AcDbEntity
  8
0
  6
Continuous
 62
     7
370
    15
100
AcDbLine
 10
4.322702338778892
 20
6.861198601807144
 30
0.0
 11
4.772702338778892
 21
6.861198601807144
 31
0.0
  0
LINE
  5
151
330
1F
100
AcDbEntity
  8
0
  6
Continuous
 62
     7
370
    15
100
AcDbLine
 10
4.772702338778892
 20
7.161198601807145
 30
0.0
 11
4.322702338778892
 21
7.161198601807145
 31
0.0
  0
ARC
  5
152
330
1F
100
AcDbEntity
  8
0
  6
Continuous
 62
     7
370
    15
100
AcDbCircle
 10
4.322702338778892
 20
7.011198601807144
 30
0.0
 40
0.1500000000000003
100
AcDbArc
 50
90.0
 51
270.0000000000008
  0
DIMENSION
  5
153
330
1F
100
AcDbEntity
  8
0
  6
Continuous
 62
     7
370
     0
100
AcDbDimension
  2
_D
 10
0.4927023387788814
 20
7.536198601807135
 30
0.0
 11
0.4927023387788871
 21
6.036198601807135
 31
0.0
 70
   160
  1
<>
 71
     2
 42
-1.0
  3
SLDDIMSTYLE0
100
AcDbAlignedDimension
 13
1.572702338778897
 23
4.536198601807138
 33
0.0
 14
1.572702338778887
 24
7.536198601807138
 34
0.0
 50
90.00000000000019
100
AcDbRotatedDimension
  0
DIMENSION
  5
15F
330
1F
100
AcDbEntity
  8
0
  6
Continuous
 62
     7
370
     0
100
AcDbDimension
  2
_D_1
 10
0.8260356721122271
 20
5.061198601807135
 30
0.0
 11
0.8260356721122231
 21
6.036198601807136
 31
0.0
 70
   160
  1
<>
 71
     2
 42
-1.0
  3
SLDDIMSTYLE1
100
AcDbAlignedDimension
 13
1.292702338778889
 23
7.011198601807137
 33
0.0
 14
1.292702338778896
 24
5.061198601807137
 34
0.0
 50
90.00000000000019
100
AcDbRotatedDimension
  0
DIMENSION
  5
16B
330
1F
100
AcDbEntity
  8
0
  6
Continuous
 62
     7
370
     0
100
AcDbDimension
  2
_D_2
 10
1.098288553799323
 20
6.361198601807136
 30
0.0
 11
1.098288553799322
 21
6.686198601807137
 31
0.0
 70
   160
  1
<>
 71
     2
 42
-1.0
  3
SLDDIMSTYLE2
100
AcDbAlignedDimension
 13
1.292702338778889
 23
7.011198601807137
 33
0.0
 14
1.292702338778891
 24
6.361198601807137
 34
0.0
 50
90.00000000000019
100
AcDbRotatedDimension
  0
DIMENSION
  5
177
330
1F
100
AcDbEntity
  8
0
  6
Continuous
 62
     7
370
     0
100
AcDbDimension
  2
_D_3
 10
4.572702338778886
 20
7.974252645173629
 30
0.0
 11
3.072702338778885
 21
7.974252645173623
 31
0.0
 70
   160
  1
<>
 71
     2
 42
-1.0
  3
SLDDIMSTYLE0
100
AcDbAlignedDimension
 13
1.572702338778887
 23
7.536198601807138
 33
0.0
 14
4.572702338778888
 24
7.536198601807148
 34
0.0
 50
0.0000000000002036
100
AcDbRotatedDimension
  0
DIMENSION
  5
182
330
1F
100
AcDbEntity
  8
0
  6
Continuous
 62
     7
370
     0
100
AcDbDimension
  2
_D_4
 10
3.752702338778898
 20
4.099985548515435
 30
0.0
 11
3.072702338778898
 21
4.099985548515433
 31
0.0
 70
   160
  1
<>
 71
     2
 42
-1.0
  3
SLDDIMSTYLE1
100
AcDbAlignedDimension
 13
2.392702338778895
 23
4.936198601807141
 33
0.0
 14
3.752702338778895
 24
4.936198601807147
 34
0.0
 50
0.0000000000002245
100
AcDbRotatedDimension
  0
DIMENSION
  5
18D
330
1F
100
AcDbEntity
  8
0
  6
Continuous
 62
     7
370
     0
100
AcDbDimension
  2
_D_5
 10
3.677702338778898
 20
4.313432696252322
 30
0.0
 11
3.072702338778898
 21
4.31343269625232
 31
0.0
 70
   160
  1
<>
 71
     2
 42
-1.0
  3
SLDDIMSTYLE1
100
AcDbAlignedDimension
 13
2.467702338778896
 23
5.011198601807142
 33
0.0
 14
3.677702338778896
 24
5.011198601807146
 34
0.0
 50
0.0000000000001682
100
AcDbRotatedDimension
  0
DIMENSION
  5
198
330
1F
100
AcDbEntity
  8
0
  6
Continuous
 62
     7
370
     0
100
AcDbDimension
  2
_D_6
 10
7.572702338778897
 20
7.136198601807156
 30
0.0
 11
7.5727023387789
 21
6.036198601807156
 31
0.0
 70
   160
  1
<>
 71
     2
 42
-1.0
  3
SLDDIMSTYLE3
100
AcDbAlignedDimension
 13
3.752702338778895
 23
4.936198601807147
 33
0.0
 14
3.752702338778888
 24
7.136198601807146
 34
0.0
 50
90.00000000000019
100
AcDbRotatedDimension
  0
DIMENSION
  5
1A4
330
1F
100
AcDbEntity
  8
0
  6
Continuous
 62
     7
370
     0
100
AcDbDimension
  2
_D_7
 10
7.156577428809628
 20
7.061198601807157
 30
0.0
 11
7.156577428809631
 21
6.036198601807159
 31
0.0
 70
   160
  1
<>
 71
     2
 42
-1.0
  3
SLDDIMSTYLE1
100
AcDbAlignedDimension
 13
3.677702338778896
 23
5.011198601807146
 33
0.0
 14
3.677702338778888
 24
7.061198601807145
 34
0.0
 50
90.00000000000019
100
AcDbRotatedDimension
  0
DIMENSION
  5
1AF
330
1F
100
AcDbEntity
  8
0
  6
Continuous
 62
     7
370
     0
100
AcDbDimension
  2
_D_8
 10
1.111621887132654
 20
5.211198601807137
 30
0.0
 11
1.111621887132655
 21
4.760624607284468
 31
0.0
 70
   160
  1
<>
 71
     2
 42
-1.0
  3
SLDDIMSTYLE0
100
AcDbAlignedDimension
 13
1.372702338778897
 23
4.911198601807138
 33
0.0
 14
1.372702338778895
 24
5.211198601807138
 34
0.0
 50
90.00000000000019
100
AcDbRotatedDimension
  0
MTEXT
  5
1BB
330
1F
100
AcDbEntity
  8
0
  6
Continuous
 62
     7
370
     0
100
AcDbMText
 10
5.027232770113912
 20
7.380625346800647
 30
0.0
 40
0.127
 41
0.0
 71
     1
 72
     1
  1
PCB PAD
  7
SLDTEXTSTYLE0
 73
     1
 44
1.0
1001
ACAD
1000
MTEXTBEGIN
1070
    73
1070
     1
1070
    44
1040
1.0
1070
    74
1070
     0
1000
MTEXTEND
  0
LEADER
  5
1C5
330
1F
100
AcDbEntity
  8
0
  6
Continuous
 62
     7
370
     0
100
AcDbLeader
  3
SLDDIMSTYLE4
 76
     3
 10
4.696422208313108
 20
7.009986475493029
 30
0.0
 10
4.886666666666667
 20
7.320000000000001
 30
0.0
 10
5.006666666666666
 20
7.320000000000001
 30
0.0
  0
MTEXT
  5
1C6
330
1F
100
AcDbEntity
  8
0
  6
Continuous
 62
     7
370
     0
100
AcDbMText
 10
5.027232770113912
 20
7.624464770139621
 30
0.0
 40
0.127
 41
0.0
 71
     1
 72
     1
  1
COMPONENT PAD
  7
SLDTEXTSTYLE0
 73
     1
 44
1.0
1001
ACAD
1000
MTEXTBEGIN
1070
    73
1070
     1
1070
    44
1040
1.0
1070
    74
1070
     0
1000
MTEXTEND
  0
LEADER
  5
1C7
330
1F
100
AcDbEntity
  8
0
  6
Continuous
 62
     7
370
     0
100
AcDbLeader
  3
SLDDIMSTYLE4
 76
     3
 10
4.446810652464009
 20
7.00210400530832
 30
0.0
 10
4.886666666666667
 20
7.564444444444444
 30
0.0
 10
5.006666666666666
 20
7.564444444444444
 30
0.0
  0
MTEXT
  5
1C8
330
1F
100
AcDbEntity
  8
0
  6
Continuous
 62
     7
370
     0
100
AcDbMText
 10
5.027232770113911
 20
7.874448305537945
 30
0.0
 40
0.127
 41
0.0
 71
     1
 72
     1
  1
SOLDER MASK OPENING
  7
SLDTEXTSTYLE0
 73
     1
 44
1.0
1001
ACAD
1000
MTEXTBEGIN
1070
    73
1070
     1
1070
    44
1040
1.0
1070
    74
1070
     0
1000
MTEXTEND
  0
LEADER
  5
1CA
330
1F
100
AcDbEntity
  8
0
  6
Continuous
 62
     7
370
     0
100
AcDbLeader
  3
SLDDIMSTYLE5
 76
     3
 10
4.349593520185917
 20
7.236198601807148
 30
0.0
 10
4.886666666666667
 20
7.813333333333334
 30
0.0
 10
5.006666666666666
 20
7.813333333333334
 30
0.0
  0
INSERT
  5
1D2
102
{ACAD_REACTORS
330
1D3
102
}
330
1F
100
AcDbEntity
  8
0
  6
Continuous
 62
     7
370
     0
100
AcDbBlockReference
  2
SW_NOTE_22
 10
4.988888888888889
 20
6.915555555555556
 30
0.0
  0
LEADER
  5
1D3
330
1F
100
AcDbEntity
  8
0
  6
Continuous
 62
     7
370
     0
100
AcDbLeader
  3
SLDDIMSTYLE5
 73
     2
 76
     3
 10
3.75270233877889
 20
6.597532334878083
 30
0.0
 10
4.868888888888889
 20
6.915555555555556
 30
0.0
 10
4.988888888888889
 20
6.915555555555556
 30
0.0
340
1D2
  0
MTEXT
  5
1D4
330
1F
100
AcDbEntity
  8
0
  6
Continuous
 62
     7
370
     0
100
AcDbMText
 10
5.010938674694993
 20
6.375397185065445
 30
0.0
 40
0.127
 41
0.0
 71
     1
 72
     1
  1
SOLDER MASK OPENING
  7
SLDTEXTSTYLE0
 73
     1
 44
1.0
1001
ACAD
1000
MTEXTBEGIN
1070
    73
1070
     1
1070
    44
1040
1.0
1070
    74
1070
     0
1000
MTEXTEND
  0
LEADER
  5
1D5
330
1F
100
AcDbEntity
  8
0
  6
Continuous
 62
     7
370
     0
100
AcDbLeader
  3
SLDDIMSTYLE5
 76
     3
 10
3.677702338778891
 20
6.410150237560522
 30
0.0
 10
4.868888888888889
 20
6.315555555555556
 30
0.0
 10
4.988888888888889
 20
6.315555555555556
 30
0.0
  0
INSERT
  5
1DB
102
{ACAD_REACTORS
330
1DC
102
}
330
1F
100
AcDbEntity
  8
0
  6
Continuous
 62
     7
370
     0
100
AcDbBlockReference
  2
SW_NOTE_23
 10
5.006666666666666
 20
8.19111111111111
 30
0.0
  0
LEADER
  5
1DC
330
1F
100
AcDbEntity
  8
0
  6
Continuous
 62
     7
370
     0
100
AcDbLeader
  3
SLDDIMSTYLE5
 73
     2
 76
     3
 10
3.398582102417416
 20
6.935332212627844
 30
0.0
 10
4.886666666666667
 20
8.19111111111111
 30
0.0
 10
5.006666666666666
 20
8.19111111111111
 30
0.0
340
1DB
  0
ARC
  5
1DD
330
1F
100
AcDbEntity
  8
0
  6
Continuous
 62
     7
370
     0
100
AcDbCircle
 10
4.472715555843425
 20
5.39991632158757
 30
0.0
 40
0.7216720897994137
100
AcDbArc
 50
6.660241892967323
 51
356.4548880167228
  0
SOLID
  5
1DE
330
1F
100
AcDbEntity
  8
0
  6
Continuous
 62
     7
370
     0
100
AcDbTrace
 10
5.189517347292289
 20
5.483616960600374
 30
0.0
 11
5.185708676527431
 21
5.564149525609847
 31
0.0
 12
5.166002465779403
 22
5.560734081575128
 32
0.0
 13
5.166002465779403
 23
5.560734081575128
 33
0.0
  0
SOLID
  5
1DF
330
1F
100
AcDbEntity
  8
0
  6
Continuous
 62
     7
370
     0
100
AcDbTrace
 10
5.19300667003527
 20
5.355292157598498
 30
0.0
 11
5.173717271652058
 21
5.277011131097731
 31
0.0
 12
5.193579967356345
 22
5.274671618464964
 32
0.0
 13
5.193579967356345
 23
5.274671618464964
 33
0.0
  0
MTEXT
  5
1E0
330
1F
100
AcDbEntity
  8
0
  6
Continuous
 62
     7
370
     0
100
AcDbMText
 10
5.138863189493434
 20
5.483616960600374
 30
-0.0000000000000417
 40
0.127
 41
0.0
 71
     1
 72
     1
  1
A
  7
SLDTEXTSTYLE0
 73
     1
 44
1.0
1001
ACAD
1000
MTEXTBEGIN
1070
    73
1070
     1
1070
    44
1040
1.0
1070
    74
1070
     0
1000
MTEXTEND
  0
LINE
  5
1E1
330
1F
100
AcDbEntity
  8
0
  6
CENTERX2
 62
     7
370
     0
100
AcDbLine
 10
1.292702338778889
 20
7.011198601807137
 30
0.0
 11
1.902702338778889
 21
7.01119860180714
 31
0.0
  0
LINE
  5
1E2
330
1F
100
AcDbEntity
  8
0
  6
CENTERX2
 62
     7
370
     0
100
AcDbLine
 10
1.292702338778891
 20
6.361198601807137
 30
0.0
 11
1.902702338778891
 21
6.36119860180714
 31
0.0
  0
LINE
  5
1E3
330
1F
100
AcDbEntity
  8
0
  6
CENTERX2
 62
     7
370
     0
100
AcDbLine
 10
1.292702338778896
 20
5.061198601807137
 30
0.0
 11
1.902702338778896
 21
5.06119860180714
 31
0.0
  0
LINE
  5
1E4
330
1F
100
AcDbEntity
  8
0
  6
CENTERX2
 62
     7
100
AcDbLine
 10
9.38838672780346
 20
3.572468197429312
 30
0.0
 11
9.388386727803453
 21
6.431316319261436
 31
0.0
  0
LINE
  5
1E5
330
1F
100
AcDbEntity
  8
0
  6
CENTERX2
 62
     7
100
AcDbLine
 10
7.748386696473765
 20
4.904084972562021
 30
0.0
 11
7.748386696473765
 21
5.09969961688829
 31
0.0
  0
LINE
  5
1E6
330
1F
100
AcDbEntity
  8
0
  6
CENTERX2
 62
     7
100
AcDbLine
 10
9.938386724823224
 20
4.774456860953702
 30
0.0
 11
8.888386645847072
 21
4.7744568609537
 31
0.0
  0
LINE
  5
1E7
330
1F
100
AcDbEntity
  8
0
  6
CENTERX2
 62
     7
100
AcDbLine
 10
8.888386645847074
 20
3.874456759998332
 30
0.0
 11
9.938386724823228
 21
3.874456759998335
 31
0.0
  0
LINE
  5
1E8
330
1F
100
AcDbEntity
  8
0
  6
CENTERX2
 62
     7
100
AcDbLine
 10
9.938386724823228
 20
3.874456759998335
 30
0.0
 11
9.938386724823224
 21
4.774456860953702
 31
0.0
  0
LINE
  5
1E9
330
1F
100
AcDbEntity
  8
0
  6
CENTERX2
 62
     7
100
AcDbLine
 10
9.938386724823221
 20
6.074456879044643
 30
0.0
 11
8.888386645847067
 21
6.074456879044641
 31
0.0
  0
LINE
  5
1EA
330
1F
100
AcDbEntity
  8
0
  6
CENTERX2
 62
     7
100
AcDbLine
 10
8.88838664584707
 20
5.17445687995268
 30
0.0
 11
9.938386724823224
 21
5.174456879952683
 31
0.0
  0
LINE
  5
1EB
330
1F
100
AcDbEntity
  8
0
  6
CENTERX2
 62
     7
100
AcDbLine
 10
9.938386724823224
 20
5.174456879952683
 30
0.0
 11
9.938386724823221
 21
6.074456879044643
 31
0.0
  0
LINE
  5
1EC
330
1F
100
AcDbEntity
  8
0
  6
CENTERX2
 62
     7
100
AcDbLine
 10
8.888386645847072
 20
4.7744568609537
 30
0.0
 11
8.841348802232255
 21
4.771991766514013
 31
0.0
  0
LINE
  5
1ED
330
1F
100
AcDbEntity
  8
0
  6
CENTERX2
 62
     7
100
AcDbLine
 10
8.841348802232255
 20
4.771991766514013
 30
0.0
 11
8.794826445662488
 21
4.764623258718978
 31
0.0
  0
LINE
  5
1EE
330
1F
100
AcDbEntity
  8
0
  6
CENTERX2
 62
     7
100
AcDbLine
 10
8.794826445662488
 20
4.764623258718978
 30
0.0
 11
8.749329009586086
 21
4.752432362632583
 31
0.0
  0
LINE
  5
1EF
330
1F
100
AcDbEntity
  8
0
  6
CENTERX2
 62
     7
100
AcDbLine
 10
8.749329009586086
 20
4.752432362632583
 30
0.0
 11
8.705355217241754
 21
4.73555237379832
 31
0.0
  0
LINE
  5
1F0
330
1F
100
AcDbEntity
  8
0
  6
CENTERX2
 62
     7
100
AcDbLine
 10
8.705355217241754
 20
4.73555237379832
 30
0.0
 11
8.663386795231213
 21
4.714168276162574
 31
0.0
  0
LINE
  5
1F1
330
1F
100
AcDbEntity
  8
0
  6
CENTERX2
 62
     7
100
AcDbLine
 10
8.663386795231213
 20
4.714168276162574
 30
0.0
 11
8.623883351245035
 21
4.688514530183503
 31
0.0
  0
LINE
  5
1F2
330
1F
100
AcDbEntity
  8
0
  6
CENTERX2
 62
     7
100
AcDbLine
 10
8.623883351245035
 20
4.688514530183503
 30
0.0
 11
8.587277950280418
 21
4.658872046032676
 31
0.0
  0
LINE
  5
1F3
330
1F
100
AcDbEntity
  8
0
  6
CENTERX2
 62
     7
100
AcDbLine
 10
8.587277950280418
 20
4.658872046032676
 30
0.0
 11
8.553971526705732
 21
4.62556562245799
 31
0.0
  0
LINE
  5
1F4
330
1F
100
AcDbEntity
  8
0
  6
CENTERX2
 62
     7
100
AcDbLine
 10
8.553971526705732
 20
4.62556562245799
 30
0.0
 11
8.524329158970227
 21
4.588960221493373
 31
0.0
  0
LINE
  5
1F5
330
1F
100
AcDbEntity
  8
0
  6
CENTERX2
 62
     7
100
AcDbLine
 10
8.524329158970227
 20
4.588960221493373
 30
0.0
 11
8.498675180160512
 21
4.549456893922517
 31
0.0
  0
LINE
  5
1F6
330
1F
100
AcDbEntity
  8
0
  6
CENTERX2
 62
     7
100
AcDbLine
 10
8.498675180160512
 20
4.549456893922517
 30
0.0
 11
8.47729131535541
 21
4.507488355496654
 31
0.0
  0
LINE
  5
1F7
330
1F
100
AcDbEntity
  8
0
  6
CENTERX2
 62
     7
100
AcDbLine
 10
8.47729131535541
 20
4.507488355496654
 30
0.0
 11
8.460411326521148
 21
4.463514563152322
 31
0.0
  0
LINE
  5
1F8
330
1F
100
AcDbEntity
  8
0
  6
CENTERX2
 62
     7
100
AcDbLine
 10
8.460411326521148
 20
4.463514563152322
 30
0.0
 11
8.448220314019431
 21
4.41801712707592
 31
0.0
  0
LINE
  5
1F9
330
1F
100
AcDbEntity
  8
0
  6
CENTERX2
 62
     7
100
AcDbLine
 10
8.448220314019431
 20
4.41801712707592
 30
0.0
 11
8.440851922639717
 21
4.371494654090831
 31
0.0
  0
LINE
  5
1FA
330
1F
100
AcDbEntity
  8
0
  6
CENTERX2
 62
     7
100
AcDbLine
 10
8.440851922639717
 20
4.371494654090831
 30
0.0
 11
8.43838671178471
 21
4.324456926891336
 31
0.0
  0
LINE
  5
1FB
330
1F
100
AcDbEntity
  8
0
  6
CENTERX2
 62
     7
100
AcDbLine
 10
8.43838671178471
 20
4.324456926891336
 30
0.0
 11
8.440851922639717
 21
4.277419083276519
 31
0.0
  0
LINE
  5
1FC
330
1F
100
AcDbEntity
  8
0
  6
CENTERX2
 62
     7
100
AcDbLine
 10
8.440851922639717
 20
4.277419083276519
 30
0.0
 11
8.448220314019431
 21
4.230896726706752
 31
0.0
  0
LINE
  5
1FD
330
1F
100
AcDbEntity
  8
0
  6
CENTERX2
 62
     7
100
AcDbLine
 10
8.448220314019431
 20
4.230896726706752
 30
0.0
 11
8.46041132652115
 21
4.18539929063035
 31
0.0
  0
LINE
  5
1FE
330
1F
100
AcDbEntity
  8
0
  6
CENTERX2
 62
     7
100
AcDbLine
 10
8.46041132652115
 20
4.18539929063035
 30
0.0
 11
8.477291315355412
 21
4.141425498286018
 31
0.0
  0
LINE
  5
1FF
330
1F
100
AcDbEntity
  8
0
  6
CENTERX2
 62
     7
100
AcDbLine
 10
8.477291315355412
 20
4.141425498286018
 30
0.0
 11
8.498675180160514
 21
4.099456843444833
 31
0.0
  0
LINE
  5
200
330
1F
100
AcDbEntity
  8
0
  6
CENTERX2
 62
     7
100
AcDbLine
 10
8.498675180160514
 20
4.099456843444833
 30
0.0
 11
8.524329158970228
 21
4.059953399458656
 31
0.0
  0
LINE
  5
201
330
1F
100
AcDbEntity
  8
0
  6
CENTERX2
 62
     7
100
AcDbLine
 10
8.524329158970228
 20
4.059953399458656
 30
0.0
 11
8.553971526705733
 21
4.023347998494038
 31
0.0
  0
LINE
  5
202
330
1F
100
AcDbEntity
  8
0
  6
CENTERX2
 62
     7
100
AcDbLine
 10
8.553971526705733
 20
4.023347998494038
 30
0.0
 11
8.587277950280419
 21
3.990041807749996
 31
0.0
  0
LINE
  5
203
330
1F
100
AcDbEntity
  8
0
  6
CENTERX2
 62
     7
100
AcDbLine
 10
8.587277950280419
 20
3.990041807749996
 30
0.0
 11
8.623883351245037
 21
3.960399207183847
 31
0.0
  0
LINE
  5
204
330
1F
100
AcDbEntity
  8
0
  6
CENTERX2
 62
     7
100
AcDbLine
 10
8.623883351245037
 20
3.960399207183847
 30
0.0
 11
8.663386795231215
 21
3.934745461204776
 31
0.0
  0
LINE
  5
205
330
1F
100
AcDbEntity
  8
0
  6
CENTERX2
 62
     7
100
AcDbLine
 10
8.663386795231215
 20
3.934745461204776
 30
0.0
 11
8.705355217241756
 21
3.913361363569031
 31
0.0
  0
LINE
  5
206
330
1F
100
AcDbEntity
  8
0
  6
CENTERX2
 62
     7
100
AcDbLine
 10
8.705355217241756
 20
3.913361363569031
 30
0.0
 11
8.749329009586087
 21
3.896481374734769
 31
0.0
  0
LINE
  5
207
330
1F
100
AcDbEntity
  8
0
  6
CENTERX2
 62
     7
100
AcDbLine
 10
8.749329009586087
 20
3.896481374734769
 30
0.0
 11
8.79482644566249
 21
3.884290362233053
 31
0.0
  0
LINE
  5
208
330
1F
100
AcDbEntity
  8
0
  6
CENTERX2
 62
     7
100
AcDbLine
 10
8.79482644566249
 20
3.884290362233053
 30
0.0
 11
8.841348802232257
 21
3.876921970853339
 31
0.0
  0
LINE
  5
209
330
1F
100
AcDbEntity
  8
0
  6
CENTERX2
 62
     7
100
AcDbLine
 10
8.841348802232257
 20
3.876921970853339
 30
0.0
 11
8.888386645847074
 21
3.874456759998332
 31
0.0
  0
LINE
  5
20A
330
1F
100
AcDbEntity
  8
0
  6
CENTERX2
 62
     7
100
AcDbLine
 10
8.888386645847067
 20
6.074456879044641
 30
0.0
 11
8.84134880223225
 21
6.071991726397294
 31
0.0
  0
LINE
  5
20B
330
1F
100
AcDbEntity
  8
0
  6
CENTERX2
 62
     7
100
AcDbLine
 10
8.84134880223225
 20
6.071991726397294
 30
0.0
 11
8.794826445662483
 21
6.064623291361835
 31
0.0
  0
LINE
  5
20C
330
1F
100
AcDbEntity
  8
0
  6
CENTERX2
 62
     7
100
AcDbLine
 10
8.794826445662483
 20
6.064623291361835
 30
0.0
 11
8.74932900958608
 21
6.052432307963947
 31
0.0
  0
LINE
  5
20D
330
1F
100
AcDbEntity
  8
0
  6
CENTERX2
 62
     7
100
AcDbLine
 10
8.74932900958608
 20
6.052432307963947
 30
0.0
 11
8.705355217241748
 21
6.0355523336816
 31
0.0
  0
LINE
  5
20E
330
1F
100
AcDbEntity
  8
0
  6
CENTERX2
 62
     7
100
AcDbLine
 10
8.705355217241748
 20
6.0355523336816
 30
0.0
 11
8.663386795231208
 21
6.01416830880543
 31
0.0
  0
LINE
  5
20F
330
1F
100
AcDbEntity
  8
0
  6
CENTERX2
 62
     7
100
AcDbLine
 10
8.663386795231208
 20
6.01416830880543
 30
0.0
 11
8.62388335124503
 21
5.988514533722529
 31
0.0
  0
LINE
  5
210
330
1F
100
AcDbEntity
  8
0
  6
CENTERX2
 62
     7
100
AcDbLine
 10
8.62388335124503
 20
5.988514533722529
 30
0.0
 11
8.587277950280412
 21
5.958872049571702
 31
0.0
  0
LINE
  5
211
330
1F
100
AcDbEntity
  8
0
  6
CENTERX2
 62
     7
100
AcDbLine
 10
8.587277950280412
 20
5.958872049571702
 30
0.0
 11
8.553971526705726
 21
5.925565655100847
 31
0.0
  0
LINE
  5
212
330
1F
100
AcDbEntity
  8
0
  6
CENTERX2
 62
     7
100
AcDbLine
 10
8.553971526705726
 20
5.925565655100847
 30
0.0
 11
8.524329158970221
 21
5.888960225032398
 31
0.0
  0
LINE
  5
213
330
1F
100
AcDbEntity
  8
0
  6
CENTERX2
 62
     7
100
AcDbLine
 10
8.524329158970221
 20
5.888960225032398
 30
0.0
 11
8.498675180160507
 21
5.849456868357712
 31
0.0
  0
LINE
  5
214
330
1F
100
AcDbEntity
  8
0
  6
CENTERX2
 62
     7
100
AcDbLine
 10
8.498675180160507
 20
5.849456868357712
 30
0.0
 11
8.477291315355406
 21
5.80748835903568
 31
0.0
  0
LINE
  5
215
330
1F
100
AcDbEntity
  8
0
  6
CENTERX2
 62
     7
100
AcDbLine
 10
8.477291315355406
 20
5.80748835903568
 30
0.0
 11
8.460411326521144
 21
5.763514508483687
 31
0.0
  0
LINE
  5
216
330
1F
100
AcDbEntity
  8
0
  6
CENTERX2
 62
     7
100
AcDbLine
 10
8.460411326521144
 20
5.763514508483687
 30
0.0
 11
8.448220314019428
 21
5.718017130614945
 31
0.0
  0
LINE
  5
217
330
1F
100
AcDbEntity
  8
0
  6
CENTERX2
 62
     7
100
AcDbLine
 10
8.448220314019428
 20
5.718017130614945
 30
0.0
 11
8.440851922639714
 21
5.671494657629856
 31
0.0
  0
LINE
  5
218
330
1F
100
AcDbEntity
  8
0
  6
CENTERX2
 62
     7
100
AcDbLine
 10
8.440851922639714
 20
5.671494657629856
 30
0.0
 11
8.438386711784707
 21
5.6244568722227
 31
0.0
  0
LINE
  5
219
330
1F
100
AcDbEntity
  8
0
  6
CENTERX2
 62
     7
100
AcDbLine
 10
8.438386711784707
 20
5.6244568722227
 30
0.0
 11
8.440851922639714
 21
5.577419086815544
 31
0.0
  0
LINE
  5
21A
330
1F
100
AcDbEntity
  8
0
  6
CENTERX2
 62
     7
100
AcDbLine
 10
8.440851922639714
 20
5.577419086815544
 30
0.0
 11
8.448220314019428
 21
5.530896613830456
 31
0.0
  0
LINE
  5
21B
330
1F
100
AcDbEntity
  8
0
  6
CENTERX2
 62
     7
100
AcDbLine
 10
8.448220314019428
 20
5.530896613830456
 30
0.0
 11
8.460411326521144
 21
5.485399235961714
 31
0.0
  0
LINE
  5
21C
330
1F
100
AcDbEntity
  8
0
  6
CENTERX2
 62
     7
100
AcDbLine
 10
8.460411326521144
 20
5.485399235961714
 30
0.0
 11
8.477291315355406
 21
5.441425385409721
 31
0.0
  0
LINE
  5
21D
330
1F
100
AcDbEntity
  8
0
  6
CENTERX2
 62
     7
100
AcDbLine
 10
8.477291315355406
 20
5.441425385409721
 30
0.0
 11
8.498675180160509
 21
5.399456846983859
 31
0.0
  0
LINE
  5
21E
330
1F
100
AcDbEntity
  8
0
  6
CENTERX2
 62
     7
100
AcDbLine
 10
8.498675180160509
 20
5.399456846983859
 30
0.0
 11
8.524329158970223
 21
5.359953519413004
 31
0.0
  0
LINE
  5
21F
330
1F
100
AcDbEntity
  8
0
  6
CENTERX2
 62
     7
100
AcDbLine
 10
8.524329158970223
 20
5.359953519413004
 30
0.0
 11
8.553971526705728
 21
5.323348118448386
 31
0.0
  0
LINE
  5
220
330
1F
100
AcDbEntity
  8
0
  6
CENTERX2
 62
     7
100
AcDbLine
 10
8.553971526705728
 20
5.323348118448386
 30
0.0
 11
8.587277950280414
 21
5.2900416948737
 31
0.0
  0
LINE
  5
221
330
1F
100
AcDbEntity
  8
0
  6
CENTERX2
 62
     7
100
AcDbLine
 10
8.587277950280414
 20
5.2900416948737
 30
0.0
 11
8.623883351245032
 21
5.260399210722873
 31
0.0
  0
LINE
  5
222
330
1F
100
AcDbEntity
  8
0
  6
CENTERX2
 62
     7
100
AcDbLine
 10
8.623883351245032
 20
5.260399210722873
 30
0.0
 11
8.663386795231209
 21
5.234745464743802
 31
0.0
  0
LINE
  5
223
330
1F
100
AcDbEntity
  8
0
  6
CENTERX2
 62
     7
100
AcDbLine
 10
8.663386795231209
 20
5.234745464743802
 30
0.0
 11
8.705355217241752
 21
5.213361367108056
 31
0.0
  0
LINE
  5
224
330
1F
100
AcDbEntity
  8
0
  6
CENTERX2
 62
     7
100
AcDbLine
 10
8.705355217241752
 20
5.213361367108056
 30
0.0
 11
8.749329009586084
 21
5.196481494689116
 31
0.0
  0
LINE
  5
225
330
1F
100
AcDbEntity
  8
0
  6
CENTERX2
 62
     7
100
AcDbLine
 10
8.749329009586084
 20
5.196481494689116
 30
0.0
 11
8.794826445662486
 21
5.184290482187401
 31
0.0
  0
LINE
  5
226
330
1F
100
AcDbEntity
  8
0
  6
CENTERX2
 62
     7
100
AcDbLine
 10
8.794826445662486
 20
5.184290482187401
 30
0.0
 11
8.841348802232253
 21
5.176921974392366
 31
0.0
  0
LINE
  5
227
330
1F
100
AcDbEntity
  8
0
  6
CENTERX2
 62
     7
100
AcDbLine
 10
8.841348802232253
 20
5.176921974392366
 30
0.0
 11
8.88838664584707
 21
5.17445687995268
 31
0.0
  0
CIRCLE
  5
228
330
1F
100
AcDbEntity
  8
0
  6
Continuous
 62
     7
370
     0
100
AcDbCircle
 10
9.188413293984481
 20
5.001897430450301
 30
0.0
 40
1.443344307052026
  0
LINE
  5
229
330
1F
100
AcDbEntity
  8
0
  6
Continuous
 62
     7
370
    15
100
AcDbLine
 10
9.788386746802434
 20
4.024456970849755
 30
0.0
 11
9.788386746802434
 21
4.624456882932904
 31
0.0
  0
LINE
  5
22A
330
1F
100
AcDbEntity
  8
0
  6
Continuous
 62
     7
370
    15
100
AcDbLine
 10
8.888386645847067
 20
4.024456970849755
 30
0.0
 11
9.788386746802434
 21
4.024456970849755
 31
0.0
  0
LINE
  5
22B
330
1F
100
AcDbEntity
  8
0
  6
Continuous
 62
     7
370
    15
100
AcDbLine
 10
9.788386746802434
 20
4.624456882932904
 30
0.0
 11
8.888386645847067
 21
4.624456882932904
 31
0.0
  0
ARC
  5
22C
330
1F
100
AcDbEntity
  8
0
  6
Continuous
 62
     7
370
    15
100
AcDbCircle
 10
8.888386702623021
 20
4.324456926891329
 30
0.0
 40
0.2999999560415798
100
AcDbArc
 50
90.00001084341018
 51
269.9999891565906
  0
LINE
  5
22D
330
1F
100
AcDbEntity
  8
0
  6
Continuous
 62
     7
370
    15
100
AcDbLine
 10
9.788386746802434
 20
5.324456857973459
 30
0.0
 11
9.788386746802434
 21
5.924456886471929
 31
0.0
  0
LINE
  5
22E
330
1F
100
AcDbEntity
  8
0
  6
Continuous
 62
     7
370
    15
100
AcDbLine
 10
8.888386645847067
 20
5.324456857973459
 30
0.0
 11
9.788386746802434
 21
5.324456857973459
 31
0.0
  0
LINE
  5
22F
330
1F
100
AcDbEntity
  8
0
  6
Continuous
 62
     7
370
    15
100
AcDbLine
 10
9.788386746802434
 20
5.924456886471929
 30
0.0
 11
8.888386645847067
 21
5.924456886471929
 31
0.0
  0
ARC
  5
230
330
1F
100
AcDbEntity
  8
0
  6
Continuous
 62
     7
370
    15
100
AcDbCircle
 10
8.888386756985198
 20
5.624456872222694
 30
0.0
 40
0.300000014249256
100
AcDbArc
 50
90.00002122581859
 51
269.9999787741822
  0
DIMENSION
  5
231
330
1F
100
AcDbEntity
  8
0
  6
Continuous
 62
     7
370
     0
100
AcDbDimension
  2
_D_9
 10
8.17806159819783
 20
4.324456873992213
 30
0.0
 11
8.178061598197828
 21
4.974456873992213
 31
0.0
 70
   160
  1
<>
 71
     2
 42
-1.0
  3
SLDDIMSTYLE6
100
AcDbAlignedDimension
 13
8.808386701726423
 23
5.624456873992215
 33
0.0
 14
8.808386701726426
 24
4.324456873992216
 34
0.0
 50
90.00000000000019
100
AcDbRotatedDimension
  0
DIMENSION
  5
23D
330
1F
100
AcDbEntity
  8
0
  6
Continuous
 62
     7
370
     0
100
AcDbDimension
  2
_D_10
 10
10.18838670172642
 20
5.92445687399222
 30
0.0
 11
10.18838670172642
 21
5.624456873992221
 31
0.0
 70
   160
  1
<>
 71
     2
 42
-1.0
  3
SLDDIMSTYLE7
100
AcDbAlignedDimension
 13
9.788386701726421
 23
5.324456873992219
 33
0.0
 14
9.788386701726421
 24
5.924456873992218
 34
0.0
 50
90.00000000000019
100
AcDbRotatedDimension
  0
DIMENSION
  5
24A
330
1F
100
AcDbEntity
  8
0
  6
Continuous
 62
     7
370
     0
100
AcDbDimension
  2
_D_11
 10
9.388386701726421
 20
6.190071670631649
 30
0.0
 11
10.28107885625376
 21
6.190071670631652
 31
0.0
 70
   160
  1
<>
 71
     2
 42
-1.0
  3
SLDDIMSTYLE8
100
AcDbAlignedDimension
 13
9.788386701726421
 23
5.924456873992218
 33
0.0
 14
9.388386701726421
 24
6.431316319261426
 34
0.0
 50
0.0000000000002544
100
AcDbRotatedDimension
  0
DIMENSION
  5
255
330
1F
100
AcDbEntity
  8
0
  6
Continuous
 62
     7
370
     0
100
AcDbDimension
  2
_D_12
 10
8.588386701726419
 20
6.627190961451848
 30
0.0
 11
9.188386701726418
 21
6.62719096145185
 31
0.0
 70
   160
  1
<>
 71
     2
 42
-1.0
  3
SLDDIMSTYLE7
100
AcDbAlignedDimension
 13
9.788386701726421
 23
5.924456873992218
 33
0.0
 14
8.588386701726422
 24
5.624456873992215
 34
0.0
 50
0.0000000000001696
100
AcDbRotatedDimension
  0
DIMENSION
  5
260
330
1F
100
AcDbEntity
  8
0
  6
Continuous
 62
     7
370
     0
100
AcDbDimension
  2
_D_13
 10
8.888386701726426
 20
4.324456873992216
 30
0.0
 11
7.813655490966077
 21
3.90669853305773
 31
0.0
 70
   164
  1
<>
 42
-1.0
  3
SLDDIMSTYLE9
100
AcDbRadialDimension
 15
8.629379392843718
 25
4.173079154544018
 35
0.0
 40
0.0
  0
DIMENSION
  5
26A
330
1F
100
AcDbEntity
  8
0
  6
Continuous
 62
     7
370
     0
100
AcDbDimension
  2
_D_14
 10
9.938386701726429
 20
3.34351833752588
 30
0.0
 11
8.924000105749353
 21
3.343518337525876
 31
0.0
 70
   160
  1
0.060~<>\PMASK OPENING
 71
     2
 42
-1.0
  3
SLDDIMSTYLE10
100
AcDbAlignedDimension
 13
9.788386701726427
 23
4.024456873992219
 33
0.0
 14
9.938386701726427
 24
3.87445687399222
 34
0.0
 50
0.0000000000001696
100
AcDbRotatedDimension
  0
DIMENSION
  5
278
330
1F
100
AcDbEntity
  8
0
  6
Continuous
 62
     7
370
     0
100
AcDbDimension
  2
_D_15
 10
10.04996673567774
 20
5.17445687399222
 30
0.0
 11
10.04996673567774
 21
4.974456873992219
 31
0.0
 70
   160
  1
0.185~<> MIN.
 71
     2
 42
-1.0
  3
SLDDIMSTYLE11
100
AcDbAlignedDimension
 13
9.938386701726425
 23
4.774456873992219
 33
0.0
 14
9.938386701726424
 24
5.17445687399222
 34
0.0
 50
90.00000000000019
100
AcDbRotatedDimension
  0
INSERT
  5
28B
330
1F
100
AcDbEntity
  8
0
  6
Continuous
 62
     7
370
     0
100
AcDbBlockReference
  2
SW_NOTE_24
 10
8.828286288818866
 20
2.840327422675663
 30
0.0
  0
LINE
  5
28C
330
1F
100
AcDbEntity
  8
0
  6
CENTERX2
 62
     7
370
     0
100
AcDbLine
 10
9.868386657469972
 20
5.624456872222694
 30
0.0
 11
8.808386735179528
 21
5.624456872222694
 31
0.0
  0
LINE
  5
28D
330
1F
100
AcDbEntity
  8
0
  6
CENTERX2
 62
     7
370
     0
100
AcDbLine
 10
8.808386735179528
 20
4.324456926891329
 30
0.0
 11
9.868386657469972
 21
4.324456926891329
 31
0.0
  0
ENDSEC
  0
SECTION
  2
OBJECTS
  0
DICTIONARY
  5
C
330
0
100
AcDbDictionary
281
     1
  3
ACAD_2007HEADERVARS_RT
350
2D7
  3
ACAD_COLOR
350
2BF
  3
ACAD_GROUP
350
D
  3
ACAD_LAYOUT
350
1A
  3
ACAD_MATERIAL
350
3B
  3
ACAD_MLEADERSTYLE
350
2B3
  3
ACAD_MLINESTYLE
350
17
  3
ACAD_PLOTSETTINGS
350
19
  3
ACAD_PLOTSTYLENAME
350
E
  3
ACAD_SCALELIST
350
28E
  3
ACAD_TABLESTYLE
350
2B2
  3
ACAD_VISUALSTYLE
350
2A
  3
ACDB_RECOMPOSE_DATA
350
2D5
  3
AcDbVariableDictionary
350
2B0
  3
DWGPROPS
350
2D6
  0
DICTIONARY
  5
2D7
102
{ACAD_REACTORS
330
C
102
}
330
C
100
AcDbDictionary
281
     1
  3
INTERFERECOLOR
350
2D8
  0
DICTIONARY
  5
2BF
102
{ACAD_REACTORS
330
C
102
}
330
C
100
AcDbDictionary
281
     1
  0
DICTIONARY
  5
D
102
{ACAD_REACTORS
330
C
102
}
330
C
100
AcDbDictionary
281
     1
  0
DICTIONARY
  5
1A
102
{ACAD_REACTORS
330
C
102
}
330
C
100
AcDbDictionary
281
     1
  3
Layout1
350
1E
  3
Layout2
350
26
  3
Model
350
22
  0
DICTIONARY
  5
3B
102
{ACAD_REACTORS
330
C
102
}
330
C
100
AcDbDictionary
281
     1
  3
ByBlock
350
3D
  3
ByLayer
350
3C
  3
Global
350
3E
  0
DICTIONARY
  5
2B3
102
{ACAD_REACTORS
330
C
102
}
330
C
100
AcDbDictionary
281
     1
  3
Standard
350
2C1
  0
DICTIONARY
  5
17
102
{ACAD_REACTORS
330
C
102
}
330
C
100
AcDbDictionary
281
     1
  3
Standard
350
18
  0
DICTIONARY
  5
19
102
{ACAD_REACTORS
330
C
102
}
330
C
100
AcDbDictionary
281
     1
  0
ACDBDICTIONARYWDFLT
  5
E
102
{ACAD_REACTORS
330
C
102
}
330
C
100
AcDbDictionary
281
     1
  3
Normal
350
F
100
AcDbDictionaryWithDefault
340
F
  0
DICTIONARY
  5
28E
102
{ACAD_REACTORS
330
C
102
}
330
C
100
AcDbDictionary
281
     1
  3
A0
350
28F
  3
A1
350
290
  3
A2
350
291
  3
A3
350
292
  3
A4
350
293
  3
A5
350
294
  3
A6
350
295
  3
A7
350
296
  3
A8
350
297
  3
A9
350
298
  3
B0
350
299
  3
B1
350
29A
  3
B2
350
29B
  3
B3
350
29C
  3
B4
350
29D
  3
B5
350
29E
  3
B6
350
29F
  3
B7
350
2A0
  3
B8
350
2A1
  3
B9
350
2A2
  3
C0
350
2A3
  3
C1
350
2A4
  3
C2
350
2A5
  3
C3
350
2A6
  3
C4
350
2A7
  3
C5
350
2A8
  3
C6
350
2A9
  3
C7
350
2AA
  3
C8
350
2AB
  3
C9
350
2AC
  3
D0
350
2AD
  3
D1
350
2AE
  3
D2
350
2AF
  0
DICTIONARY
  5
2B2
102
{ACAD_REACTORS
330
C
102
}
330
C
100
AcDbDictionary
281
     1
  3
Standard
350
2C0
  0
DICTIONARY
  5
2A
102
{ACAD_REACTORS
330
C
102
}
330
C
100
AcDbDictionary
281
     1
  3
2dWireframe
350
2F
  3
3D Hidden
350
31
  3
3dWireframe
350
30
  3
Basic
350
32
  3
Brighten
350
36
  3
ColorChange
350
3A
  3
Conceptual
350
34
  3
Dim
350
35
  3
EdgeColorOff
350
2BE
  3
Facepattern
350
39
  3
Flat
350
2B
  3
FlatWithEdges
350
2C
  3
Gouraud
350
2D
  3
GouraudWithEdges
350
2E
  3
Hidden
350
2B6
  3
JitterOff
350
2BC
  3
Linepattern
350
38
  3
OverhangOff
350
2BD
  3
Realistic
350
33
  3
Shaded
350
2BB
  3
Shaded with edges
350
2BA
  3
Shades of Gray
350
2B7
  3
Sketchy
350
2B8
  3
Thicken
350
37
  3
Wireframe
350
2B5
  3
X-Ray
350
2B9
  0
XRECORD
  5
2D5
102
{ACAD_REACTORS
330
C
102
}
330
C
100
AcDbXrecord
280
     1
 90
        1
330
2C0
  0
DICTIONARY
  5
2B0
102
{ACAD_REACTORS
330
C
102
}
330
C
100
AcDbDictionary
281
     1
  3
CANNOSCALE
350
2B1
  3
CMLEADERSTYLE
350
2C6
  3
CTABLESTYLE
350
2C5
  3
DGNFRAME
350
2CF
  3
DIMASSOC
350
2CE
  3
HIDETEXT
350
2CD
  3
INDEXCTL
350
2CC
  3
LAYEREVAL
350
2C9
  3
LAYERNOTIFY
350
2CA
  3
LIGHTINGUNITS
350
2C8
  3
MSLTSCALE
350
2C7
  3
PSOLHEIGHT
350
2D1
  3
PSOLWIDTH
350
2D0
  3
SORTENTS
350
2CB
  3
XCLIPFRAME
350
2D2
  0
XRECORD
  5
2D6
102
{ACAD_REACTORS
330
C
102
}
330
C
100
AcDbXrecord
280
     1
  1
DWGPROPS COOKIE
  2

  3

  4

  6

  7

  8
admin
  9

300
=
301
=
302
=
303
=
304
=
305
=
306
=
307
=
308
=
309
=
 40
0.0001601967592593
 41
2456272.496810348
 42
2456272.501053009
  1

 90
        0
  0
XRECORD
  5
2D8
102
{ACAD_REACTORS
330
2D7
102
}
330
2D7
100
AcDbXrecord
280
     1
1004
1800000001000000000000C0000000000000000000000000
  0
LAYOUT
  5
1E
102
{ACAD_XDICTIONARY
360
2D9
102
}
102
{ACAD_REACTORS
330
1A
102
}
330
1A
100
AcDbPlotSettings
  1

  2
none_device
  4

  6

 40
0.0
 41
0.0
 42
0.0
 43
0.0
 44
0.0
 45
0.0
 46
0.0
 47
0.0
 48
0.0
 49
0.0
140
0.0
141
0.0
142
1.0
143
1.0
 70
   688
 72
     0
 73
     0
 74
     5
  7

 75
    16
147
1.0
148
0.0
149
0.0
100
AcDbLayout
  1
Layout1
 70
     1
 71
     1
 10
0.0
 20
0.0
 11
420.0
 21
297.0
 12
0.0
 22
0.0
 32
0.0
 14
1.000000000000000E+20
 24
1.000000000000000E+20
 34
1.000000000000000E+20
 15
-1.000000000000000E+20
 25
-1.000000000000000E+20
 35
-1.000000000000000E+20
146
0.0
 13
0.0
 23
0.0
 33
0.0
 16
1.0
 26
0.0
 36
0.0
 17
0.0
 27
1.0
 37
0.0
 76
     0
330
1B
  0
LAYOUT
  5
26
102
{ACAD_XDICTIONARY
360
2DD
102
}
102
{ACAD_REACTORS
330
1A
102
}
330
1A
100
AcDbPlotSettings
  1

  2
none_device
  4

  6

 40
0.0
 41
0.0
 42
0.0
 43
0.0
 44
0.0
 45
0.0
 46
0.0
 47
0.0
 48
0.0
 49
0.0
140
0.0
141
0.0
142
1.0
143
1.0
 70
   688
 72
     0
 73
     0
 74
     5
  7

 75
    16
147
1.0
148
0.0
149
0.0
100
AcDbLayout
  1
Layout2
 70
     1
 71
     2
 10
0.0
 20
0.0
 11
0.0
 21
0.0
 12
0.0
 22
0.0
 32
0.0
 14
0.0
 24
0.0
 34
0.0
 15
0.0
 25
0.0
 35
0.0
146
0.0
 13
0.0
 23
0.0
 33
0.0
 16
1.0
 26
0.0
 36
0.0
 17
0.0
 27
1.0
 37
0.0
 76
     0
330
23
  0
LAYOUT
  5
22
102
{ACAD_XDICTIONARY
360
2DB
102
}
102
{ACAD_REACTORS
330
1A
102
}
330
1A
100
AcDbPlotSettings
  1

  2
none_device
  4

  6

 40
0.0
 41
0.0
 42
0.0
 43
0.0
 44
0.0
 45
0.0
 46
0.0
 47
0.0
 48
0.0
 49
0.0
140
0.0
141
0.0
142
1.0
143
1.0
 70
  1712
 72
     0
 73
     0
 74
     0
  7

 75
     0
147
1.0
148
0.0
149
0.0
100
AcDbLayout
  1
Model
 70
     1
 71
     0
 10
0.0
 20
0.0
 11
11.176
 21
8.635999999999999
 12
0.0
 22
0.0
 32
0.0
 14
0.0
 24
0.0
 34
0.0
 15
11.176
 25
8.635999999999999
 35
0.0
146
0.0
 13
0.0
 23
0.0
 33
0.0
 16
1.0
 26
0.0
 36
0.0
 17
0.0
 27
1.0
 37
0.0
 76
     0
330
1F
331
29
  0
MATERIAL
  5
3D
102
{ACAD_XDICTIONARY
360
301
102
}
102
{ACAD_REACTORS
330
3B
102
}
330
3B
100
AcDbMaterial
  1
ByBlock
 73
     1
 78
     1
172
     1
176
     1
270
     1
274
     1
  0
MATERIAL
  5
3C
102
{ACAD_XDICTIONARY
360
2FF
102
}
102
{ACAD_REACTORS
330
3B
102
}
330
3B
100
AcDbMaterial
  1
ByLayer
 73
     1
 78
     1
172
     1
176
     1
270
     1
274
     1
  0
MATERIAL
  5
3E
102
{ACAD_XDICTIONARY
360
303
102
}
102
{ACAD_REACTORS
330
3B
102
}
330
3B
100
AcDbMaterial
  1
Global
 73
     1
 78
     1
172
     1
176
     1
270
     1
274
     1
  0
MLEADERSTYLE
  5
2C1
102
{ACAD_REACTORS
330
2B3
102
}
330
2B3
100
AcDbMLeaderStyle
170
     2
171
     1
172
     0
 90
        2
 40
0.0
 41
0.0
173
     1
 91
-1056964608
340
14
 92
       -2
290
     1
 42
2.0
291
     1
 43
0.36
  3
Standard
 44
4.0
300

342
11
174
     1
178
     6
175
     1
176
     0
 93
-1056964608
 45
4.0
292
     0
297
     0
 46
4.0
 94
-1056964608
 47
1.0
 49
1.0
140
1.0
293
     1
141
0.0
294
     1
177
     0
142
1.0
295
     0
296
     0
143
0.125
1001
ACAD_MLEADERVER
1070
     2
  0
MLINESTYLE
  5
18
102
{ACAD_REACTORS
330
17
102
}
330
17
100
AcDbMlineStyle
  2
STANDARD
 70
     0
  3

 62
   256
 51
90.0
 52
90.0
 71
     2
 49
0.5
 62
   256
  6
BYLAYER
 49
-0.5
 62
   256
  6
BYLAYER
  0
ACDBPLACEHOLDER
  5
F
102
{ACAD_REACTORS
330
E
102
}
330
E
  0
SCALE
  5
28F
102
{ACAD_REACTORS
330
28E
102
}
330
28E
100
AcDbScale
 70
     0
300
1:1
140
1.0
141
1.0
290
     1
  0
SCALE
  5
290
102
{ACAD_REACTORS
330
28E
102
}
330
28E
100
AcDbScale
 70
     0
300
1:2
140
1.0
141
2.0
290
     0
  0
SCALE
  5
291
102
{ACAD_REACTORS
330
28E
102
}
330
28E
100
AcDbScale
 70
     0
300
1:4
140
1.0
141
4.0
290
     0
  0
SCALE
  5
292
102
{ACAD_REACTORS
330
28E
102
}
330
28E
100
AcDbScale
 70
     0
300
1:5
140
1.0
141
5.0
290
     0
  0
SCALE
  5
293
102
{ACAD_REACTORS
330
28E
102
}
330
28E
100
AcDbScale
 70
     0
300
1:8
140
1.0
141
8.0
290
     0
  0
SCALE
  5
294
102
{ACAD_REACTORS
330
28E
102
}
330
28E
100
AcDbScale
 70
     0
300
1:10
140
1.0
141
10.0
290
     0
  0
SCALE
  5
295
102
{ACAD_REACTORS
330
28E
102
}
330
28E
100
AcDbScale
 70
     0
300
1:16
140
1.0
141
16.0
290
     0
  0
SCALE
  5
296
102
{ACAD_REACTORS
330
28E
102
}
330
28E
100
AcDbScale
 70
     0
300
1:20
140
1.0
141
20.0
290
     0
  0
SCALE
  5
297
102
{ACAD_REACTORS
330
28E
102
}
330
28E
100
AcDbScale
 70
     0
300
1:30
140
1.0
141
30.0
290
     0
  0
SCALE
  5
298
102
{ACAD_REACTORS
330
28E
102
}
330
28E
100
AcDbScale
 70
     0
300
1:40
140
1.0
141
40.0
290
     0
  0
SCALE
  5
299
102
{ACAD_REACTORS
330
28E
102
}
330
28E
100
AcDbScale
 70
     0
300
1:50
140
1.0
141
50.0
290
     0
  0
SCALE
  5
29A
102
{ACAD_REACTORS
330
28E
102
}
330
28E
100
AcDbScale
 70
     0
300
1:100
140
1.0
141
100.0
290
     0
  0
SCALE
  5
29B
102
{ACAD_REACTORS
330
28E
102
}
330
28E
100
AcDbScale
 70
     0
300
2:1
140
2.0
141
1.0
290
     0
  0
SCALE
  5
29C
102
{ACAD_REACTORS
330
28E
102
}
330
28E
100
AcDbScale
 70
     0
300
4:1
140
4.0
141
1.0
290
     0
  0
SCALE
  5
29D
102
{ACAD_REACTORS
330
28E
102
}
330
28E
100
AcDbScale
 70
     0
300
8:1
140
8.0
141
1.0
290
     0
  0
SCALE
  5
29E
102
{ACAD_REACTORS
330
28E
102
}
330
28E
100
AcDbScale
 70
     0
300
10:1
140
10.0
141
1.0
290
     0
  0
SCALE
  5
29F
102
{ACAD_REACTORS
330
28E
102
}
330
28E
100
AcDbScale
 70
     0
300
100:1
140
100.0
141
1.0
290
     0
  0
SCALE
  5
2A0
102
{ACAD_REACTORS
330
28E
102
}
330
28E
100
AcDbScale
 70
     0
300
1/128" = 1'-0"
140
0.0078125
141
12.0
290
     0
  0
SCALE
  5
2A1
102
{ACAD_REACTORS
330
28E
102
}
330
28E
100
AcDbScale
 70
     0
300
1/64" = 1'-0"
140
0.015625
141
12.0
290
     0
  0
SCALE
  5
2A2
102
{ACAD_REACTORS
330
28E
102
}
330
28E
100
AcDbScale
 70
     0
300
1/32" = 1'-0"
140
0.03125
141
12.0
290
     0
  0
SCALE
  5
2A3
102
{ACAD_REACTORS
330
28E
102
}
330
28E
100
AcDbScale
 70
     0
300
1/16" = 1'-0"
140
0.0625
141
12.0
290
     0
  0
SCALE
  5
2A4
102
{ACAD_REACTORS
330
28E
102
}
330
28E
100
AcDbScale
 70
     0
300
3/32" = 1'-0"
140
0.09375
141
12.0
290
     0
  0
SCALE
  5
2A5
102
{ACAD_REACTORS
330
28E
102
}
330
28E
100
AcDbScale
 70
     0
300
1/8" = 1'-0"
140
0.125
141
12.0
290
     0
  0
SCALE
  5
2A6
102
{ACAD_REACTORS
330
28E
102
}
330
28E
100
AcDbScale
 70
     0
300
3/16" = 1'-0"
140
0.1875
141
12.0
290
     0
  0
SCALE
  5
2A7
102
{ACAD_REACTORS
330
28E
102
}
330
28E
100
AcDbScale
 70
     0
300
1/4" = 1'-0"
140
0.25
141
12.0
290
     0
  0
SCALE
  5
2A8
102
{ACAD_REACTORS
330
28E
102
}
330
28E
100
AcDbScale
 70
     0
300
3/8" = 1'-0"
140
0.375
141
12.0
290
     0
  0
SCALE
  5
2A9
102
{ACAD_REACTORS
330
28E
102
}
330
28E
100
AcDbScale
 70
     0
300
1/2" = 1'-0"
140
0.5
141
12.0
290
     0
  0
SCALE
  5
2AA
102
{ACAD_REACTORS
330
28E
102
}
330
28E
100
AcDbScale
 70
     0
300
3/4" = 1'-0"
140
0.75
141
12.0
290
     0
  0
SCALE
  5
2AB
102
{ACAD_REACTORS
330
28E
102
}
330
28E
100
AcDbScale
 70
     0
300
1" = 1'-0"
140
1.0
141
12.0
290
     0
  0
SCALE
  5
2AC
102
{ACAD_REACTORS
330
28E
102
}
330
28E
100
AcDbScale
 70
     0
300
1-1/2" = 1'-0"
140
1.5
141
12.0
290
     0
  0
SCALE
  5
2AD
102
{ACAD_REACTORS
330
28E
102
}
330
28E
100
AcDbScale
 70
     0
300
3" = 1'-0"
140
3.0
141
12.0
290
     0
  0
SCALE
  5
2AE
102
{ACAD_REACTORS
330
28E
102
}
330
28E
100
AcDbScale
 70
     0
300
6" = 1'-0"
140
6.0
141
12.0
290
     0
  0
SCALE
  5
2AF
102
{ACAD_REACTORS
330
28E
102
}
330
28E
100
AcDbScale
 70
     0
300
1'-0" = 1'-0"
140
12.0
141
12.0
290
     0
  0
TABLESTYLE
  5
2C0
102
{ACAD_XDICTIONARY
360
2D3
102
}
102
{ACAD_REACTORS
330
2B2
102
}
330
2B2
100
AcDbTableStyle
  3
Standard
 70
     0
 71
     0
 40
1.5
 41
1.5
280
     0
281
     0
  7
Standard
140
4.5
170
     2
 62
     0
 63
     7
283
     0
274
    -2
284
     1
 64
     0
275
    -2
285
     1
 65
     0
276
    -2
286
     1
 66
     0
277
    -2
287
     1
 67
     0
278
    -2
288
     1
 68
     0
279
    -2
289
     1
 69
     0
  7
Standard
140
6.0
170
     5
 62
     0
 63
     7
283
     0
274
    -2
284
     1
 64
     0
275
    -2
285
     1
 65
     0
276
    -2
286
     1
 66
     0
277
    -2
287
     1
 67
     0
278
    -2
288
     1
 68
     0
279
    -2
289
     1
 69
     0
  7
Standard
140
4.5
170
     5
 62
     0
 63
     7
283
     0
274
    -2
284
     1
 64
     0
275
    -2
285
     1
 65
     0
276
    -2
286
     1
 66
     0
277
    -2
287
     1
 67
     0
278
    -2
288
     1
 68
     0
279
    -2
289
     1
 69
     0
  0
VISUALSTYLE
  5
2F
102
{ACAD_XDICTIONARY
360
2E7
102
}
102
{ACAD_REACTORS
330
2A
102
}
330
2A
100
AcDbVisualStyle
  2
2dWireframe
 70
     4
 71
     0
 72
     2
 73
     0
 90
        0
 40
-0.6
 41
-30.0
 62
     5
 63
     7
 74
     1
 91
        4
 64
     7
 65
   257
 75
     1
175
     1
 42
1.0
 92
        0
 66
   257
 43
1.0
 76
     1
 77
     6
 78
     2
 67
     7
 79
     5
170
     0
171
     0
290
     0
174
     0
 93
        1
 44
0.0
173
     0
291
     0
 45
0.0
1001
ACAD
1000
AcDbSavedByObjectVersion
1070
     0
  0
VISUALSTYLE
  5
31
102
{ACAD_XDICTIONARY
360
2EB
102
}
102
{ACAD_REACTORS
330
2A
102
}
330
2A
100
AcDbVisualStyle
  2
3D Hidden
 70
     6
 71
     1
 72
     2
 73
     2
 90
        0
 40
-0.6
 41
-30.0
 62
     5
 63
     7
 74
     2
 91
        2
 64
     7
 65
   257
 75
     2
175
     1
 42
40.0
 92
        0
 66
   257
 43
1.0
 76
     1
 77
     6
 78
     2
 67
     7
 79
     3
170
     0
171
     0
290
     0
174
     0
 93
        1
 44
0.0
173
     0
291
     0
 45
0.0
1001
ACAD
1000
AcDbSavedByObjectVersion
1070
     0
  0
VISUALSTYLE
  5
30
102
{ACAD_XDICTIONARY
360
2E9
102
}
102
{ACAD_REACTORS
330
2A
102
}
330
2A
100
AcDbVisualStyle
  2
3dWireframe
 70
     5
 71
     0
 72
     2
 73
     0
 90
        0
 40
-0.6
 41
-30.0
 62
     5
 63
     7
 74
     1
 91
        4
 64
     7
 65
   257
 75
     1
175
     1
 42
1.0
 92
        0
 66
   257
 43
1.0
 76
     1
 77
     6
 78
     2
 67
     7
 79
     5
170
     0
171
     0
290
     0
174
     0
 93
        1
 44
0.0
173
     0
291
     0
 45
0.0
1001
ACAD
1000
AcDbSavedByObjectVersion
1070
     0
  0
VISUALSTYLE
  5
32
102
{ACAD_XDICTIONARY
360
2ED
102
}
102
{ACAD_REACTORS
330
2A
102
}
330
2A
100
AcDbVisualStyle
  2
Basic
 70
     7
 71
     1
 72
     0
 73
     1
 90
        0
 40
-0.6
 41
-30.0
 62
     5
 63
     7
 74
     0
 91
        4
 64
     7
 65
   257
 75
     1
175
     1
 42
1.0
 92
        8
 66
     7
 43
1.0
 76
     1
 77
     6
 78
     2
 67
     7
 79
     5
170
     0
171
     0
290
     0
174
     0
 93
        1
 44
0.0
173
     0
291
     1
 45
0.0
1001
ACAD
1000
AcDbSavedByObjectVersion
1070
     0
  0
VISUALSTYLE
  5
36
102
{ACAD_XDICTIONARY
360
2F5
102
}
102
{ACAD_REACTORS
330
2A
102
}
330
2A
100
AcDbVisualStyle
  2
Brighten
 70
    12
 71
     2
 72
     2
 73
     0
 90
        0
 40
-0.6
 41
-30.0
 62
     5
 63
     7
 74
     1
 91
        4
 64
     7
 65
   257
 75
     1
175
     1
 42
1.0
 92
        8
 66
     7
 43
1.0
 76
     1
 77
     6
 78
     2
 67
     7
 79
     5
170
     0
171
     0
290
     0
174
     0
 93
        1
 44
50.0
173
     0
291
     1
 45
0.0
1001
ACAD
1000
AcDbSavedByObjectVersion
1070
     0
  0
VISUALSTYLE
  5
3A
102
{ACAD_XDICTIONARY
360
2FD
102
}
102
{ACAD_REACTORS
330
2A
102
}
330
2A
100
AcDbVisualStyle
  2
ColorChange
 70
    16
 71
     2
 72
     2
 73
     3
 90
        0
 40
-0.6
 41
-30.0
 62
     5
 63
     8
 74
     1
 91
        4
 64
     7
 65
   257
 75
     1
175
     1
 42
1.0
 92
        8
 66
     8
 43
1.0
 76
     1
 77
     6
 78
     2
 67
     7
 79
     5
170
     0
171
     0
290
     0
174
     0
 93
        1
 44
0.0
173
     0
291
     1
 45
0.0
1001
ACAD
1000
AcDbSavedByObjectVersion
1070
     0
  0
VISUALSTYLE
  5
34
102
{ACAD_XDICTIONARY
360
2F1
102
}
102
{ACAD_REACTORS
330
2A
102
}
330
2A
100
AcDbVisualStyle
  2
Conceptual
 70
     9
 71
     3
 72
     2
 73
     0
 90
        0
 40
-0.6
 41
-30.0
 62
     5
 63
     7
 74
     2
 91
        2
 64
     7
 65
   257
 75
     1
175
     1
 42
40.0
 92
        8
 66
     7
 43
1.0
 76
     1
 77
     6
 78
     2
 67
     7
 79
     3
170
     0
171
     0
290
     0
174
     0
 93
        1
 44
0.0
173
     0
291
     0
 45
0.0
1001
ACAD
1000
AcDbSavedByObjectVersion
1070
     0
  0
VISUALSTYLE
  5
35
102
{ACAD_XDICTIONARY
360
2F3
102
}
102
{ACAD_REACTORS
330
2A
102
}
330
2A
100
AcDbVisualStyle
  2
Dim
 70
    11
 71
     2
 72
     2
 73
     0
 90
        0
 40
-0.6
 41
-30.0
 62
     5
 63
     7
 74
     1
 91
        4
 64
     7
 65
   257
 75
     1
175
     1
 42
1.0
 92
        8
 66
     7
 43
1.0
 76
     1
 77
     6
 78
     2
 67
     7
 79
     5
170
     0
171
     0
290
     0
174
     0
 93
        1
 44
-50.0
173
     0
291
     1
 45
0.0
1001
ACAD
1000
AcDbSavedByObjectVersion
1070
     0
  0
VISUALSTYLE
  5
2BE
102
{ACAD_XDICTIONARY
360
317
102
}
102
{ACAD_REACTORS
330
2A
102
}
330
2A
100
AcDbVisualStyle
  2
EdgeColorOff
 70
    22
 71
     2
 72
     2
 73
     0
 90
        0
 40
-0.6
 41
-30.0
 62
     5
 63
     7
 74
     1
 91
        4
 64
     7
 65
   257
 75
     1
175
     1
 42
1.0
 92
        8
 66
     7
 43
1.0
 76
     1
 77
     6
 78
     2
 67
     7
 79
     5
170
     0
171
     0
290
     0
174
     0
 93
        1
 44
0.0
173
     0
291
     1
 45
0.0
1001
ACAD
1000
AcDbSavedByObjectVersion
1070
     0
  0
VISUALSTYLE
  5
39
102
{ACAD_XDICTIONARY
360
2FB
102
}
102
{ACAD_REACTORS
330
2A
102
}
330
2A
100
AcDbVisualStyle
  2
Facepattern
 70
    15
 71
     2
 72
     2
 73
     0
 90
        0
 40
-0.6
 41
-30.0
 62
     5
 63
     7
 74
     1
 91
        4
 64
     7
 65
   257
 75
     1
175
     1
 42
1.0
 92
        8
 66
     7
 43
1.0
 76
     1
 77
     6
 78
     2
 67
     7
 79
     5
170
     0
171
     0
290
     0
174
     0
 93
        1
 44
0.0
173
     0
291
     1
 45
0.0
1001
ACAD
1000
AcDbSavedByObjectVersion
1070
     0
  0
VISUALSTYLE
  5
2B
102
{ACAD_XDICTIONARY
360
2DF
102
}
102
{ACAD_REACTORS
330
2A
102
}
330
2A
100
AcDbVisualStyle
  2
Flat
 70
     0
 71
     2
 72
     1
 73
     1
 90
        2
 40
-0.6
 41
30.0
 62
     5
 63
     7
 74
     0
 91
        4
 64
     7
 65
   257
 75
     1
175
     1
 42
1.0
 92
        8
 66
     7
 43
1.0
 76
     1
 77
     6
 78
     2
 67
     7
 79
     5
170
     0
171
     0
290
     0
174
     0
 93
       13
 44
0.0
173
     0
291
     1
 45
0.0
1001
ACAD
1000
AcDbSavedByObjectVersion
1070
     0
  0
VISUALSTYLE
  5
2C
102
{ACAD_XDICTIONARY
360
2E1
102
}
102
{ACAD_REACTORS
330
2A
102
}
330
2A
100
AcDbVisualStyle
  2
FlatWithEdges
 70
     1
 71
     2
 72
     1
 73
     1
 90
        2
 40
-0.6
 41
30.0
 62
     5
 63
     7
 74
     1
 91
        4
 64
     7
 65
   257
 75
     1
175
     1
 42
1.0
 92
        0
 66
   257
 43
1.0
 76
     1
 77
     6
 78
     2
 67
     7
 79
     5
170
     0
171
     0
290
     0
174
     0
 93
       13
 44
0.0
173
     0
291
     1
 45
0.0
1001
ACAD
1000
AcDbSavedByObjectVersion
1070
     0
  0
VISUALSTYLE
  5
2D
102
{ACAD_XDICTIONARY
360
2E3
102
}
102
{ACAD_REACTORS
330
2A
102
}
330
2A
100
AcDbVisualStyle
  2
Gouraud
 70
     2
 71
     2
 72
     2
 73
     1
 90
        2
 40
-0.6
 41
30.0
 62
     5
 63
     7
 74
     0
 91
        4
 64
     7
 65
   257
 75
     1
175
     1
 42
1.0
 92
        0
 66
     7
 43
1.0
 76
     1
 77
     6
 78
     2
 67
     7
 79
     5
170
     0
171
     0
290
     0
174
     0
 93
       13
 44
0.0
173
     0
291
     1
 45
0.0
1001
ACAD
1000
AcDbSavedByObjectVersion
1070
     0
  0
VISUALSTYLE
  5
2E
102
{ACAD_XDICTIONARY
360
2E5
102
}
102
{ACAD_REACTORS
330
2A
102
}
330
2A
100
AcDbVisualStyle
  2
GouraudWithEdges
 70
     3
 71
     2
 72
     2
 73
     1
 90
        2
 40
-0.6
 41
30.0
 62
     5
 63
     7
 74
     1
 91
        4
 64
     7
 65
   257
 75
     1
175
     1
 42
1.0
 92
        0
 66
   257
 43
1.0
 76
     1
 77
     6
 78
     2
 67
     7
 79
     5
170
     0
171
     0
290
     0
174
     0
 93
       13
 44
0.0
173
     0
291
     1
 45
0.0
1001
ACAD
1000
AcDbSavedByObjectVersion
1070
     0
  0
VISUALSTYLE
  5
2B6
102
{ACAD_XDICTIONARY
360
307
102
}
102
{ACAD_REACTORS
330
2A
102
}
330
2A
100
AcDbVisualStyle
  2
Hidden
 70
     6
 71
     1
 72
     2
 73
     2
 90
        0
 40
-0.6
 41
-30.0
 62
     5
 63
     7
 74
     2
 91
        2
 64
     7
 65
   257
 75
     2
175
     1
 42
40.0
 92
        0
 66
   257
 43
1.0
 76
     1
 77
     6
 78
     2
 67
     7
 79
     3
170
     0
171
     0
290
     0
174
     0
 93
        1
 44
0.0
173
     0
291
     0
 45
0.0
1001
ACAD
1000
AcDbSavedByObjectVersion
1070
     0
  0
VISUALSTYLE
  5
2BC
102
{ACAD_XDICTIONARY
360
313
102
}
102
{ACAD_REACTORS
330
2A
102
}
330
2A
100
AcDbVisualStyle
  2
JitterOff
 70
    20
 71
     2
 72
     2
 73
     0
 90
        0
 40
-0.6
 41
-30.0
 62
     5
 63
     7
 74
     1
 91
        4
 64
     7
 65
   257
 75
     1
175
     1
 42
1.0
 92
       10
 66
     7
 43
1.0
 76
     1
 77
     6
 78
     2
 67
     7
 79
     5
170
     0
171
     0
290
     0
174
     0
 93
        1
 44
0.0
173
     0
291
     1
 45
0.0
1001
ACAD
1000
AcDbSavedByObjectVersion
1070
     0
  0
VISUALSTYLE
  5
38
102
{ACAD_XDICTIONARY
360
2F9
102
}
102
{ACAD_REACTORS
330
2A
102
}
330
2A
100
AcDbVisualStyle
  2
Linepattern
 70
    14
 71
     2
 72
     2
 73
     0
 90
        0
 40
-0.6
 41
-30.0
 62
     5
 63
     7
 74
     1
 91
        4
 64
     7
 65
   257
 75
     7
175
     7
 42
1.0
 92
        8
 66
     7
 43
1.0
 76
     1
 77
     6
 78
     2
 67
     7
 79
     5
170
     0
171
     0
290
     0
174
     0
 93
        1
 44
0.0
173
     0
291
     1
 45
0.0
1001
ACAD
1000
AcDbSavedByObjectVersion
1070
     0
  0
VISUALSTYLE
  5
2BD
102
{ACAD_XDICTIONARY
360
315
102
}
102
{ACAD_REACTORS
330
2A
102
}
330
2A
100
AcDbVisualStyle
  2
OverhangOff
 70
    21
 71
     2
 72
     2
 73
     0
 90
        0
 40
-0.6
 41
-30.0
 62
     5
 63
     7
 74
     1
 91
        4
 64
     7
 65
   257
 75
     1
175
     1
 42
1.0
 92
        9
 66
     7
 43
1.0
 76
     1
 77
     6
 78
     2
 67
     7
 79
     5
170
     0
171
     0
290
     0
174
     0
 93
        1
 44
0.0
173
     0
291
     1
 45
0.0
1001
ACAD
1000
AcDbSavedByObjectVersion
1070
     0
  0
VISUALSTYLE
  5
33
102
{ACAD_XDICTIONARY
360
2EF
102
}
102
{ACAD_REACTORS
330
2A
102
}
330
2A
100
AcDbVisualStyle
  2
Realistic
 70
     8
 71
     2
 72
     2
 73
     0
 90
        0
 40
-0.6
 41
-30.0
 62
     5
 63
     7
 74
     1
 91
        0
 64
     7
 65
   257
 75
     1
175
     1
 42
1.0
 92
        8
 66
     8
 43
1.0
 76
     1
 77
     6
 78
     2
 67
     7
 79
     5
170
     0
171
     0
290
     0
174
     0
 93
       13
 44
0.0
173
     0
291
     0
 45
0.0
1001
ACAD
1000
AcDbSavedByObjectVersion
1070
     0
  0
VISUALSTYLE
  5
2BB
102
{ACAD_XDICTIONARY
360
311
102
}
102
{ACAD_REACTORS
330
2A
102
}
330
2A
100
AcDbVisualStyle
  2
Shaded
 70
    27
 71
     2
 72
     2
 73
     1
 90
        2
 40
-0.6
 41
30.0
 62
     5
 63
     7
 74
     0
 91
        4
 64
     7
 65
   257
 75
     1
175
     1
 42
1.0
 92
        8
 66
   257
 43
1.0
 76
     1
 77
     6
 78
     2
 67
     8
 79
     3
170
     0
171
     0
290
     0
174
     0
 93
        5
 44
0.0
173
     0
291
     0
 45
0.0
1001
ACAD
1000
AcDbSavedByObjectVersion
1070
     0
  0
VISUALSTYLE
  5
2BA
102
{ACAD_XDICTIONARY
360
30F
102
}
102
{ACAD_REACTORS
330
2A
102
}
330
2A
100
AcDbVisualStyle
  2
Shaded with edges
 70
    26
 71
     2
 72
     2
 73
     1
 90
        2
 40
-0.6
 41
30.0
 62
     5
 63
     7
 74
     1
 91
       10
 64
     7
 65
   257
 75
     2
175
     1
 42
1.0
 92
        8
 66
   257
 43
1.0
 76
     1
 77
     6
 78
     2
 67
     7
 79
     3
170
     0
171
     0
290
     0
174
     0
 93
        5
 44
0.0
173
     0
291
     0
 45
0.0
1001
ACAD
1000
AcDbSavedByObjectVersion
1070
     0
  0
VISUALSTYLE
  5
2B7
102
{ACAD_XDICTIONARY
360
309
102
}
102
{ACAD_REACTORS
330
2A
102
}
330
2A
100
AcDbVisualStyle
  2
Shades of Gray
 70
    23
 71
     2
 72
     2
 73
     3
 90
        0
 40
-0.6
 41
-30.0
 62
     5
 63
     7
 74
     2
 91
        2
 64
     7
 65
     7
 75
     1
175
     1
 42
40.0
 92
        8
 66
     7
 43
1.0
 76
     1
 77
     6
 78
     2
 67
     7
 79
     3
170
     0
171
     0
290
     0
174
     0
 93
        1
 44
0.0
173
     0
291
     0
 45
0.0
1001
ACAD
1000
AcDbSavedByObjectVersion
1070
     0
  0
VISUALSTYLE
  5
2B8
102
{ACAD_XDICTIONARY
360
30B
102
}
102
{ACAD_REACTORS
330
2A
102
}
330
2A
100
AcDbVisualStyle
  2
Sketchy
 70
    24
 71
     1
 72
     2
 73
     2
 90
        0
 40
-0.6
 41
-30.0
 62
     5
 63
     7
 74
     2
 91
        2
 64
     7
 65
     7
 75
     1
175
     1
 42
40.0
 92
       11
 66
     7
 43
1.0
 76
     1
 77
     6
 78
     2
 67
     7
 79
     6
170
     0
171
     0
290
     0
174
     0
 93
        1
 44
0.0
173
     0
291
     0
 45
0.0
1001
ACAD
1000
AcDbSavedByObjectVersion
1070
     0
  0
VISUALSTYLE
  5
37
102
{ACAD_XDICTIONARY
360
2F7
102
}
102
{ACAD_REACTORS
330
2A
102
}
330
2A
100
AcDbVisualStyle
  2
Thicken
 70
    13
 71
     2
 72
     2
 73
     0
 90
        0
 40
-0.6
 41
-30.0
 62
     5
 63
     7
 74
     1
 91
        4
 64
     7
 65
   257
 75
     1
175
     1
 42
1.0
 92
       12
 66
     7
 43
1.0
 76
     1
 77
     6
 78
     2
 67
     7
 79
     5
170
     0
171
     0
290
     0
174
     0
 93
        1
 44
0.0
173
     0
291
     1
 45
0.0
1001
ACAD
1000
AcDbSavedByObjectVersion
1070
     0
  0
VISUALSTYLE
  5
2B5
102
{ACAD_XDICTIONARY
360
305
102
}
102
{ACAD_REACTORS
330
2A
102
}
330
2A
100
AcDbVisualStyle
  2
Wireframe
 70
     5
 71
     0
 72
     2
 73
     0
 90
        0
 40
-0.6
 41
-30.0
 62
     5
 63
     7
 74
     1
 91
        4
 64
     7
 65
   257
 75
     1
175
     1
 42
1.0
 92
        0
 66
   257
 43
1.0
 76
     1
 77
     6
 78
     2
 67
     7
 79
     3
170
     0
171
     0
290
     0
174
     0
 93
        1
 44
0.0
173
     0
291
     0
 45
0.0
1001
ACAD
1000
AcDbSavedByObjectVersion
1070
     0
  0
VISUALSTYLE
  5
2B9
102
{ACAD_XDICTIONARY
360
30D
102
}
102
{ACAD_REACTORS
330
2A
102
}
330
2A
100
AcDbVisualStyle
  2
X-Ray
 70
    25
 71
     2
 72
     2
 73
     1
 90
        1
 40
0.5
 41
-30.0
 62
     5
 63
     7
 74
     1
 91
        0
 64
     7
 65
   257
 75
     1
175
     1
 42
1.0
 92
        8
 66
     7
 43
1.0
 76
     1
 77
     6
 78
     2
 67
     7
 79
     3
170
     0
171
     0
290
     0
174
     0
 93
       13
 44
0.0
173
     0
291
     0
 45
0.0
1001
ACAD
1000
AcDbSavedByObjectVersion
1070
     0
  0
DICTIONARYVAR
  5
2B1
102
{ACAD_REACTORS
330
2B0
102
}
330
2B0
100
DictionaryVariables
280
     0
  1
1:1
  0
DICTIONARYVAR
  5
2C6
102
{ACAD_REACTORS
330
2B0
102
}
330
2B0
100
DictionaryVariables
280
     0
  1
STANDARD
  0
DICTIONARYVAR
  5
2C5
102
{ACAD_REACTORS
330
2B0
102
}
330
2B0
100
DictionaryVariables
280
     0
  1
STANDARD
  0
DICTIONARYVAR
  5
2CF
102
{ACAD_REACTORS
330
2B0
102
}
330
2B0
100
DictionaryVariables
280
     0
  1
2
  0
DICTIONARYVAR
  5
2CE
102
{ACAD_REACTORS
330
2B0
102
}
330
2B0
100
DictionaryVariables
280
     0
  1
2
  0
DICTIONARYVAR
  5
2CD
102
{ACAD_REACTORS
330
2B0
102
}
330
2B0
100
DictionaryVariables
280
     0
  1
1
  0
DICTIONARYVAR
  5
2CC
102
{ACAD_REACTORS
330
2B0
102
}
330
2B0
100
DictionaryVariables
280
     0
  1
0
  0
DICTIONARYVAR
  5
2C9
102
{ACAD_REACTORS
330
2B0
102
}
330
2B0
100
DictionaryVariables
280
     0
  1
0
  0
DICTIONARYVAR
  5
2CA
102
{ACAD_REACTORS
330
2B0
102
}
330
2B0
100
DictionaryVariables
280
     0
  1
0
  0
DICTIONARYVAR
  5
2C8
102
{ACAD_REACTORS
330
2B0
102
}
330
2B0
100
DictionaryVariables
280
     0
  1
2
  0
DICTIONARYVAR
  5
2C7
102
{ACAD_REACTORS
330
2B0
102
}
330
2B0
100
DictionaryVariables
280
     0
  1
1
  0
DICTIONARYVAR
  5
2D1
102
{ACAD_REACTORS
330
2B0
102
}
330
2B0
100
DictionaryVariables
280
     0
  1
80.000000
  0
DICTIONARYVAR
  5
2D0
102
{ACAD_REACTORS
330
2B0
102
}
330
2B0
100
DictionaryVariables
280
     0
  1
5.000000
  0
DICTIONARYVAR
  5
2CB
102
{ACAD_REACTORS
330
2B0
102
}
330
2B0
100
DictionaryVariables
280
     0
  1
127
  0
DICTIONARYVAR
  5
2D2
102
{ACAD_REACTORS
330
2B0
102
}
330
2B0
100
DictionaryVariables
280
     0
  1
2
  0
DICTIONARY
  5
2D9
330
1E
100
AcDbDictionary
280
     1
281
     1
  3
ACAD_XREC_ROUNDTRIP
360
2DA
  0
DICTIONARY
  5
2DD
330
26
100
AcDbDictionary
280
     1
281
     1
  3
ACAD_XREC_ROUNDTRIP
360
2DE
  0
DICTIONARY
  5
2DB
330
22
100
AcDbDictionary
280
     1
281
     1
  3
ACAD_XREC_ROUNDTRIP
360
2DC
  0
DICTIONARY
  5
301
330
3D
100
AcDbDictionary
280
     1
281
     1
  3
ACAD_XREC_ROUNDTRIP
360
302
  0
DICTIONARY
  5
2FF
330
3C
100
AcDbDictionary
280
     1
281
     1
  3
ACAD_XREC_ROUNDTRIP
360
300
  0
DICTIONARY
  5
303
330
3E
100
AcDbDictionary
280
     1
281
     1
  3
ACAD_XREC_ROUNDTRIP
360
304
  0
DICTIONARY
  5
2D3
330
2C0
100
AcDbDictionary
280
     1
281
     1
  3
ACAD_ROUNDTRIP_2008_TABLESTYLE_CELLSTYLEMAP
360
2D4
  3
ACAD_XREC_ROUNDTRIP
360
319
  0
DICTIONARY
  5
2E7
330
2F
100
AcDbDictionary
280
     1
281
     1
  3
ACAD_XREC_ROUNDTRIP
360
2E8
  0
DICTIONARY
  5
2EB
330
31
100
AcDbDictionary
280
     1
281
     1
  3
ACAD_XREC_ROUNDTRIP
360
2EC
  0
DICTIONARY
  5
2E9
330
30
100
AcDbDictionary
280
     1
281
     1
  3
ACAD_XREC_ROUNDTRIP
360
2EA
  0
DICTIONARY
  5
2ED
330
32
100
AcDbDictionary
280
     1
281
     1
  3
ACAD_XREC_ROUNDTRIP
360
2EE
  0
DICTIONARY
  5
2F5
330
36
100
AcDbDictionary
280
     1
281
     1
  3
ACAD_XREC_ROUNDTRIP
360
2F6
  0
DICTIONARY
  5
2FD
330
3A
100
AcDbDictionary
280
     1
281
     1
  3
ACAD_XREC_ROUNDTRIP
360
2FE
  0
DICTIONARY
  5
2F1
330
34
100
AcDbDictionary
280
     1
281
     1
  3
ACAD_XREC_ROUNDTRIP
360
2F2
  0
DICTIONARY
  5
2F3
330
35
100
AcDbDictionary
280
     1
281
     1
  3
ACAD_XREC_ROUNDTRIP
360
2F4
  0
DICTIONARY
  5
317
330
2BE
100
AcDbDictionary
280
     1
281
     1
  3
ACAD_XREC_ROUNDTRIP
360
318
  0
DICTIONARY
  5
2FB
330
39
100
AcDbDictionary
280
     1
281
     1
  3
ACAD_XREC_ROUNDTRIP
360
2FC
  0
DICTIONARY
  5
2DF
330
2B
100
AcDbDictionary
280
     1
281
     1
  3
ACAD_XREC_ROUNDTRIP
360
2E0
  0
DICTIONARY
  5
2E1
330
2C
100
AcDbDictionary
280
     1
281
     1
  3
ACAD_XREC_ROUNDTRIP
360
2E2
  0
DICTIONARY
  5
2E3
330
2D
100
AcDbDictionary
280
     1
281
     1
  3
ACAD_XREC_ROUNDTRIP
360
2E4
  0
DICTIONARY
  5
2E5
330
2E
100
AcDbDictionary
280
     1
281
     1
  3
ACAD_XREC_ROUNDTRIP
360
2E6
  0
DICTIONARY
  5
307
330
2B6
100
AcDbDictionary
280
     1
281
     1
  3
ACAD_XREC_ROUNDTRIP
360
308
  0
DICTIONARY
  5
313
330
2BC
100
AcDbDictionary
280
     1
281
     1
  3
ACAD_XREC_ROUNDTRIP
360
314
  0
DICTIONARY
  5
2F9
330
38
100
AcDbDictionary
280
     1
281
     1
  3
ACAD_XREC_ROUNDTRIP
360
2FA
  0
DICTIONARY
  5
315
330
2BD
100
AcDbDictionary
280
     1
281
     1
  3
ACAD_XREC_ROUNDTRIP
360
316
  0
DICTIONARY
  5
2EF
330
33
100
AcDbDictionary
280
     1
281
     1
  3
ACAD_XREC_ROUNDTRIP
360
2F0
  0
DICTIONARY
  5
311
330
2BB
100
AcDbDictionary
280
     1
281
     1
  3
ACAD_XREC_ROUNDTRIP
360
312
  0
DICTIONARY
  5
30F
330
2BA
100
AcDbDictionary
280
     1
281
     1
  3
ACAD_XREC_ROUNDTRIP
360
310
  0
DICTIONARY
  5
309
330
2B7
100
AcDbDictionary
280
     1
281
     1
  3
ACAD_XREC_ROUNDTRIP
360
30A
  0
DICTIONARY
  5
30B
330
2B8
100
AcDbDictionary
280
     1
281
     1
  3
ACAD_XREC_ROUNDTRIP
360
30C
  0
DICTIONARY
  5
2F7
330
37
100
AcDbDictionary
280
     1
281
     1
  3
ACAD_XREC_ROUNDTRIP
360
2F8
  0
DICTIONARY
  5
305
330
2B5
100
AcDbDictionary
280
     1
281
     1
  3
ACAD_XREC_ROUNDTRIP
360
306
  0
DICTIONARY
  5
30D
330
2B9
100
AcDbDictionary
280
     1
281
     1
  3
ACAD_XREC_ROUNDTRIP
360
30E
  0
XRECORD
  5
2DA
102
{ACAD_REACTORS
330
2D9
102
}
330
2D9
100
AcDbXrecord
280
     1
102
SHADEPLOT
 70
     0
102
SHADEPLOTRESLEVEL
 70
     2
102
SHADEPLOTCUSTOMDPI
 70
   300
  0
XRECORD
  5
2DE
102
{ACAD_REACTORS
330
2DD
102
}
330
2DD
100
AcDbXrecord
280
     1
102
SHADEPLOT
 70
     0
102
SHADEPLOTRESLEVEL
 70
     2
102
SHADEPLOTCUSTOMDPI
 70
   300
  0
XRECORD
  5
2DC
102
{ACAD_REACTORS
330
2DB
102
}
330
2DB
100
AcDbXrecord
280
     1
102
SHADEPLOT
 70
     0
102
SHADEPLOTRESLEVEL
 70
     2
102
SHADEPLOTCUSTOMDPI
 70
   300
  0
XRECORD
  5
302
102
{ACAD_REACTORS
330
301
102
}
330
301
100
AcDbXrecord
280
     1
102
MATERIAL
148
0.0
149
0.0
149
0.0
 93
        0
 94
      127
282
     0
 72
     1
 77
     1
171
     1
175
     1
179
     1
273
     0
  0
XRECORD
  5
300
102
{ACAD_REACTORS
330
2FF
102
}
330
2FF
100
AcDbXrecord
280
     1
102
MATERIAL
148
0.0
149
0.0
149
0.0
 93
        0
 94
      127
282
     0
 72
     1
 77
     1
171
     1
175
     1
179
     1
273
     0
  0
XRECORD
  5
304
102
{ACAD_REACTORS
330
303
102
}
330
303
100
AcDbXrecord
280
     1
102
MATERIAL
148
0.0
149
0.0
149
0.0
 93
        0
 94
      127
282
     0
 72
     1
 77
     1
171
     1
175
     1
179
     1
273
     0
  0
CELLSTYLEMAP
  5
2D4
102
{ACAD_REACTORS
330
2D3
102
}
330
2D3
100
AcDbCellStyleMap
 90
        3
300
CELLSTYLE
  1
TABLEFORMAT_BEGIN
 90
        5
170
     1
 91
        0
 92
    32768
 62
   257
 93
        1
300
CONTENTFORMAT
  1
CONTENTFORMAT_BEGIN
 90
        0
 91
        0
 92
      512
 93
        0
300

 40
0.0
140
1.0
 94
        5
 62
     0
340
11
144
6.0
309
CONTENTFORMAT_END
171
     1
301
MARGIN
  1
CELLMARGIN_BEGIN
 40
1.5
 40
1.5
 40
1.5
 40
1.5
 40
4.5
 40
4.5
309
CELLMARGIN_END
 94
        6
 95
        1
302
GRIDFORMAT
  1
GRIDFORMAT_BEGIN
 90
        0
 91
        1
 62
     0
 92
       -2
340
0
 93
        0
 40
1.125
309
GRIDFORMAT_END
 95
        2
302
GRIDFORMAT
  1
GRIDFORMAT_BEGIN
 90
        0
 91
        1
 62
     0
 92
       -2
340
0
 93
        0
 40
1.125
309
GRIDFORMAT_END
 95
        4
302
GRIDFORMAT
  1
GRIDFORMAT_BEGIN
 90
        0
 91
        1
 62
     0
 92
       -2
340
0
 93
        0
 40
1.125
309
GRIDFORMAT_END
 95
        8
302
GRIDFORMAT
  1
GRIDFORMAT_BEGIN
 90
        0
 91
        1
 62
     0
 92
       -2
340
0
 93
        0
 40
1.125
309
GRIDFORMAT_END
 95
       16
302
GRIDFORMAT
  1
GRIDFORMAT_BEGIN
 90
        0
 91
        1
 62
     0
 92
       -2
340
0
 93
        0
 40
1.125
309
GRIDFORMAT_END
 95
       32
302
GRIDFORMAT
  1
GRIDFORMAT_BEGIN
 90
        0
 91
        1
 62
     0
 92
       -2
340
0
 93
        0
 40
1.125
309
GRIDFORMAT_END
309
TABLEFORMAT_END
  1
CELLSTYLE_BEGIN
 90
        1
 91
        1
300
_TITLE
309
CELLSTYLE_END
300
CELLSTYLE
  1
TABLEFORMAT_BEGIN
 90
        5
170
     1
 91
        0
 92
        0
 62
   257
 93
        1
300
CONTENTFORMAT
  1
CONTENTFORMAT_BEGIN
 90
        0
 91
        0
 92
      512
 93
        0
300

 40
0.0
140
1.0
 94
        5
 62
     0
340
11
144
4.5
309
CONTENTFORMAT_END
171
     1
301
MARGIN
  1
CELLMARGIN_BEGIN
 40
1.5
 40
1.5
 40
1.5
 40
1.5
 40
4.5
 40
4.5
309
CELLMARGIN_END
 94
        6
 95
        1
302
GRIDFORMAT
  1
GRIDFORMAT_BEGIN
 90
        0
 91
        1
 62
     0
 92
       -2
340
0
 93
        0
 40
1.125
309
GRIDFORMAT_END
 95
        2
302
GRIDFORMAT
  1
GRIDFORMAT_BEGIN
 90
        0
 91
        1
 62
     0
 92
       -2
340
0
 93
        0
 40
1.125
309
GRIDFORMAT_END
 95
        4
302
GRIDFORMAT
  1
GRIDFORMAT_BEGIN
 90
        0
 91
        1
 62
     0
 92
       -2
340
0
 93
        0
 40
1.125
309
GRIDFORMAT_END
 95
        8
302
GRIDFORMAT
  1
GRIDFORMAT_BEGIN
 90
        0
 91
        1
 62
     0
 92
       -2
340
0
 93
        0
 40
1.125
309
GRIDFORMAT_END
 95
       16
302
GRIDFORMAT
  1
GRIDFORMAT_BEGIN
 90
        0
 91
        1
 62
     0
 92
       -2
340
0
 93
        0
 40
1.125
309
GRIDFORMAT_END
 95
       32
302
GRIDFORMAT
  1
GRIDFORMAT_BEGIN
 90
        0
 91
        1
 62
     0
 92
       -2
340
0
 93
        0
 40
1.125
309
GRIDFORMAT_END
309
TABLEFORMAT_END
  1
CELLSTYLE_BEGIN
 90
        2
 91
        1
300
_HEADER
309
CELLSTYLE_END
300
CELLSTYLE
  1
TABLEFORMAT_BEGIN
 90
        5
170
     1
 91
        0
 92
        0
 62
   257
 93
        1
300
CONTENTFORMAT
  1
CONTENTFORMAT_BEGIN
 90
        0
 91
        0
 92
      512
 93
        0
300

 40
0.0
140
1.0
 94
        2
 62
     0
340
11
144
4.5
309
CONTENTFORMAT_END
171
     1
301
MARGIN
  1
CELLMARGIN_BEGIN
 40
1.5
 40
1.5
 40
1.5
 40
1.5
 40
4.5
 40
4.5
309
CELLMARGIN_END
 94
        6
 95
        1
302
GRIDFORMAT
  1
GRIDFORMAT_BEGIN
 90
        0
 91
        1
 62
     0
 92
       -2
340
0
 93
        0
 40
1.125
309
GRIDFORMAT_END
 95
        2
302
GRIDFORMAT
  1
GRIDFORMAT_BEGIN
 90
        0
 91
        1
 62
     0
 92
       -2
340
0
 93
        0
 40
1.125
309
GRIDFORMAT_END
 95
        4
302
GRIDFORMAT
  1
GRIDFORMAT_BEGIN
 90
        0
 91
        1
 62
     0
 92
       -2
340
0
 93
        0
 40
1.125
309
GRIDFORMAT_END
 95
        8
302
GRIDFORMAT
  1
GRIDFORMAT_BEGIN
 90
        0
 91
        1
 62
     0
 92
       -2
340
0
 93
        0
 40
1.125
309
GRIDFORMAT_END
 95
       16
302
GRIDFORMAT
  1
GRIDFORMAT_BEGIN
 90
        0
 91
        1
 62
     0
 92
       -2
340
0
 93
        0
 40
1.125
309
GRIDFORMAT_END
 95
       32
302
GRIDFORMAT
  1
GRIDFORMAT_BEGIN
 90
        0
 91
        1
 62
     0
 92
       -2
340
0
 93
        0
 40
1.125
309
GRIDFORMAT_END
309
TABLEFORMAT_END
  1
CELLSTYLE_BEGIN
 90
        3
 91
        2
300
_DATA
309
CELLSTYLE_END
  0
XRECORD
  5
319
102
{ACAD_REACTORS
330
2D3
102
}
330
2D3
100
AcDbXrecord
280
     1
102
ACAD_ROUNDTRIP_PRE2007_TABLESTYLE
 90
      512
 91
        0
  1

 92
      512
 93
        0
  2

 94
      512
 95
        0
  3

  0
XRECORD
  5
2E8
102
{ACAD_REACTORS
330
2E7
102
}
330
2E7
100
AcDbXrecord
280
     1
102
RTVSPropertyOp0
 70
     1
102
RTVSPropertyOp1
 70
     1
102
RTVSPropertyOp2
 70
     1
102
RTVSPropertyOp3
 70
     1
102
RTVSPropertyOp4
 70
     1
102
RTVSPropertyOp5
 70
     1
102
RTVSPropertyOp6
 70
     1
102
RTVSPropertyOp7
 70
     1
102
RTVSPropertyOp8
 70
     1
102
RTVSPropertyOp9
 70
     1
102
RTVSPropertyOp10
 70
     1
102
RTVSPropertyOp11
 70
     1
102
RTVSPropertyOp12
 70
     1
102
RTVSPropertyOp13
 70
     1
102
RTVSPropertyOp14
 70
     1
102
RTVSPropertyOp15
 70
     1
102
RTVSPropertyOp16
 70
     1
102
RTVSPropertyOp17
 70
     1
102
RTVSPropertyOp18
 70
     1
102
RTVSPropertyOp19
 70
     1
102
RTVSPropertyOp20
 70
     1
102
RTVSPropertyOp21
 70
     1
102
RTVSPropertyOp22
 70
     1
102
RTVSPropertyOp23
 70
     1
102
RTVSPropertyOp24
 70
     1
102
RTVSPropertyOp25
 70
     1
102
RTVSPropertyOp26
 70
     1
102
RTVSPropertyOp27
 70
     1
102
RTVSPropertyOp28
 70
     1
102
RTVSPropertyOp29
 70
     1
102
RTVSPropertyOp30
 70
     1
102
RTVSPropertyOp31
 70
     1
102
RTVSPropertyOp32
 70
     1
  0
XRECORD
  5
2EC
102
{ACAD_REACTORS
330
2EB
102
}
330
2EB
100
AcDbXrecord
280
     1
102
RTVSPropertyOp0
 70
     1
102
RTVSPropertyOp1
 70
     1
102
RTVSPropertyOp2
 70
     1
102
RTVSPropertyOp3
 70
     1
102
RTVSPropertyOp4
 70
     1
102
RTVSPropertyOp5
 70
     1
102
RTVSPropertyOp6
 70
     1
102
RTVSPropertyOp7
 70
     1
102
RTVSPropertyOp8
 70
     1
102
RTVSPropertyOp9
 70
     1
102
RTVSPropertyOp10
 70
     1
102
RTVSPropertyOp11
 70
     1
102
RTVSPropertyOp12
 70
     1
102
RTVSPropertyOp13
 70
     1
102
RTVSPropertyOp14
 70
     1
102
RTVSPropertyOp15
 70
     1
102
RTVSPropertyOp16
 70
     1
102
RTVSPropertyOp17
 70
     1
102
RTVSPropertyOp18
 70
     1
102
RTVSPropertyOp19
 70
     1
102
RTVSPropertyOp20
 70
     1
102
RTVSPropertyOp21
 70
     1
102
RTVSPropertyOp22
 70
     1
102
RTVSPropertyOp23
 70
     1
102
RTVSPropertyOp24
 70
     1
102
RTVSPropertyOp25
 70
     1
102
RTVSPropertyOp26
 70
     1
102
RTVSPropertyOp27
 70
     1
102
RTVSPropertyOp28
 70
     1
102
RTVSPropertyOp29
 70
     1
102
RTVSPropertyOp30
 70
     1
102
RTVSPropertyOp31
 70
     1
102
RTVSPropertyOp32
 70
     1
  0
XRECORD
  5
2EA
102
{ACAD_REACTORS
330
2E9
102
}
330
2E9
100
AcDbXrecord
280
     1
102
RTVSPropertyOp0
 70
     1
102
RTVSPropertyOp1
 70
     1
102
RTVSPropertyOp2
 70
     1
102
RTVSPropertyOp3
 70
     1
102
RTVSPropertyOp4
 70
     1
102
RTVSPropertyOp5
 70
     1
102
RTVSPropertyOp6
 70
     1
102
RTVSPropertyOp7
 70
     1
102
RTVSPropertyOp8
 70
     1
102
RTVSPropertyOp9
 70
     1
102
RTVSPropertyOp10
 70
     1
102
RTVSPropertyOp11
 70
     1
102
RTVSPropertyOp12
 70
     1
102
RTVSPropertyOp13
 70
     1
102
RTVSPropertyOp14
 70
     1
102
RTVSPropertyOp15
 70
     1
102
RTVSPropertyOp16
 70
     1
102
RTVSPropertyOp17
 70
     1
102
RTVSPropertyOp18
 70
     1
102
RTVSPropertyOp19
 70
     1
102
RTVSPropertyOp20
 70
     1
102
RTVSPropertyOp21
 70
     1
102
RTVSPropertyOp22
 70
     1
102
RTVSPropertyOp23
 70
     1
102
RTVSPropertyOp24
 70
     1
102
RTVSPropertyOp25
 70
     1
102
RTVSPropertyOp26
 70
     1
102
RTVSPropertyOp27
 70
     1
102
RTVSPropertyOp28
 70
     1
102
RTVSPropertyOp29
 70
     1
102
RTVSPropertyOp30
 70
     1
102
RTVSPropertyOp31
 70
     1
102
RTVSPropertyOp32
 70
     1
  0
XRECORD
  5
2EE
102
{ACAD_REACTORS
330
2ED
102
}
330
2ED
100
AcDbXrecord
280
     1
102
RTVSPropertyOp0
 70
     1
102
RTVSPropertyOp1
 70
     1
102
RTVSPropertyOp2
 70
     1
102
RTVSPropertyOp3
 70
     1
102
RTVSPropertyOp4
 70
     1
102
RTVSPropertyOp5
 70
     1
102
RTVSPropertyOp6
 70
     1
102
RTVSPropertyOp7
 70
     1
102
RTVSPropertyOp8
 70
     1
102
RTVSPropertyOp9
 70
     1
102
RTVSPropertyOp10
 70
     1
102
RTVSPropertyOp11
 70
     1
102
RTVSPropertyOp12
 70
     1
102
RTVSPropertyOp13
 70
     1
102
RTVSPropertyOp14
 70
     1
102
RTVSPropertyOp15
 70
     1
102
RTVSPropertyOp16
 70
     1
102
RTVSPropertyOp17
 70
     1
102
RTVSPropertyOp18
 70
     1
102
RTVSPropertyOp19
 70
     1
102
RTVSPropertyOp20
 70
     1
102
RTVSPropertyOp21
 70
     1
102
RTVSPropertyOp22
 70
     1
102
RTVSPropertyOp23
 70
     1
102
RTVSPropertyOp24
 70
     1
102
RTVSPropertyOp25
 70
     1
102
RTVSPropertyOp26
 70
     1
102
RTVSPropertyOp27
 70
     1
102
RTVSPropertyOp28
 70
     1
102
RTVSPropertyOp29
 70
     1
102
RTVSPropertyOp30
 70
     1
102
RTVSPropertyOp31
 70
     1
102
RTVSPropertyOp32
 70
     1
  0
XRECORD
  5
2F6
102
{ACAD_REACTORS
330
2F5
102
}
330
2F5
100
AcDbXrecord
280
     1
102
RTVSPropertyOp0
 70
     1
102
RTVSPropertyOp1
 70
     1
102
RTVSPropertyOp2
 70
     1
102
RTVSPropertyOp3
 70
     1
102
RTVSPropertyOp4
 70
     1
102
RTVSPropertyOp5
 70
     1
102
RTVSPropertyOp6
 70
     1
102
RTVSPropertyOp7
 70
     1
102
RTVSPropertyOp8
 70
     1
102
RTVSPropertyOp9
 70
     1
102
RTVSPropertyOp10
 70
     1
102
RTVSPropertyOp11
 70
     1
102
RTVSPropertyOp12
 70
     1
102
RTVSPropertyOp13
 70
     1
102
RTVSPropertyOp14
 70
     1
102
RTVSPropertyOp15
 70
     1
102
RTVSPropertyOp16
 70
     1
102
RTVSPropertyOp17
 70
     1
102
RTVSPropertyOp18
 70
     1
102
RTVSPropertyOp19
 70
     1
102
RTVSPropertyOp20
 70
     1
102
RTVSPropertyOp21
 70
     1
102
RTVSPropertyOp22
 70
     1
102
RTVSPropertyOp23
 70
     1
102
RTVSPropertyOp24
 70
     1
102
RTVSPropertyOp25
 70
     1
102
RTVSPropertyOp26
 70
     1
102
RTVSPropertyOp27
 70
     1
102
RTVSPropertyOp28
 70
     1
102
RTVSPropertyOp29
 70
     1
102
RTVSPropertyOp30
 70
     1
102
RTVSPropertyOp31
 70
     1
102
RTVSPropertyOp32
 70
     1
  0
XRECORD
  5
2FE
102
{ACAD_REACTORS
330
2FD
102
}
330
2FD
100
AcDbXrecord
280
     1
102
RTVSPropertyOp0
 70
     1
102
RTVSPropertyOp1
 70
     1
102
RTVSPropertyOp2
 70
     1
102
RTVSPropertyOp3
 70
     1
102
RTVSPropertyOp4
 70
     1
102
RTVSPropertyOp5
 70
     1
102
RTVSPropertyOp6
 70
     1
102
RTVSPropertyOp7
 70
     1
102
RTVSPropertyOp8
 70
     1
102
RTVSPropertyOp9
 70
     1
102
RTVSPropertyOp10
 70
     1
102
RTVSPropertyOp11
 70
     1
102
RTVSPropertyOp12
 70
     1
102
RTVSPropertyOp13
 70
     1
102
RTVSPropertyOp14
 70
     1
102
RTVSPropertyOp15
 70
     1
102
RTVSPropertyOp16
 70
     1
102
RTVSPropertyOp17
 70
     1
102
RTVSPropertyOp18
 70
     1
102
RTVSPropertyOp19
 70
     1
102
RTVSPropertyOp20
 70
     1
102
RTVSPropertyOp21
 70
     1
102
RTVSPropertyOp22
 70
     1
102
RTVSPropertyOp23
 70
     1
102
RTVSPropertyOp24
 70
     1
102
RTVSPropertyOp25
 70
     1
102
RTVSPropertyOp26
 70
     1
102
RTVSPropertyOp27
 70
     1
102
RTVSPropertyOp28
 70
     1
102
RTVSPropertyOp29
 70
     1
102
RTVSPropertyOp30
 70
     1
102
RTVSPropertyOp31
 70
     1
102
RTVSPropertyOp32
 70
     1
  0
XRECORD
  5
2F2
102
{ACAD_REACTORS
330
2F1
102
}
330
2F1
100
AcDbXrecord
280
     1
102
RTVSPropertyOp0
 70
     1
102
RTVSPropertyOp1
 70
     1
102
RTVSPropertyOp2
 70
     1
102
RTVSPropertyOp3
 70
     1
102
RTVSPropertyOp4
 70
     1
102
RTVSPropertyOp5
 70
     1
102
RTVSPropertyOp6
 70
     1
102
RTVSPropertyOp7
 70
     1
102
RTVSPropertyOp8
 70
     1
102
RTVSPropertyOp9
 70
     1
102
RTVSPropertyOp10
 70
     1
102
RTVSPropertyOp11
 70
     1
102
RTVSPropertyOp12
 70
     1
102
RTVSPropertyOp13
 70
     1
102
RTVSPropertyOp14
 70
     1
102
RTVSPropertyOp15
 70
     1
102
RTVSPropertyOp16
 70
     1
102
RTVSPropertyOp17
 70
     1
102
RTVSPropertyOp18
 70
     1
102
RTVSPropertyOp19
 70
     1
102
RTVSPropertyOp20
 70
     1
102
RTVSPropertyOp21
 70
     1
102
RTVSPropertyOp22
 70
     1
102
RTVSPropertyOp23
 70
     1
102
RTVSPropertyOp24
 70
     1
102
RTVSPropertyOp25
 70
     1
102
RTVSPropertyOp26
 70
     1
102
RTVSPropertyOp27
 70
     1
102
RTVSPropertyOp28
 70
     1
102
RTVSPropertyOp29
 70
     1
102
RTVSPropertyOp30
 70
     1
102
RTVSPropertyOp31
 70
     1
102
RTVSPropertyOp32
 70
     1
  0
XRECORD
  5
2F4
102
{ACAD_REACTORS
330
2F3
102
}
330
2F3
100
AcDbXrecord
280
     1
102
RTVSPropertyOp0
 70
     1
102
RTVSPropertyOp1
 70
     1
102
RTVSPropertyOp2
 70
     1
102
RTVSPropertyOp3
 70
     1
102
RTVSPropertyOp4
 70
     1
102
RTVSPropertyOp5
 70
     1
102
RTVSPropertyOp6
 70
     1
102
RTVSPropertyOp7
 70
     1
102
RTVSPropertyOp8
 70
     1
102
RTVSPropertyOp9
 70
     1
102
RTVSPropertyOp10
 70
     1
102
RTVSPropertyOp11
 70
     1
102
RTVSPropertyOp12
 70
     1
102
RTVSPropertyOp13
 70
     1
102
RTVSPropertyOp14
 70
     1
102
RTVSPropertyOp15
 70
     1
102
RTVSPropertyOp16
 70
     1
102
RTVSPropertyOp17
 70
     1
102
RTVSPropertyOp18
 70
     1
102
RTVSPropertyOp19
 70
     1
102
RTVSPropertyOp20
 70
     1
102
RTVSPropertyOp21
 70
     1
102
RTVSPropertyOp22
 70
     1
102
RTVSPropertyOp23
 70
     1
102
RTVSPropertyOp24
 70
     1
102
RTVSPropertyOp25
 70
     1
102
RTVSPropertyOp26
 70
     1
102
RTVSPropertyOp27
 70
     1
102
RTVSPropertyOp28
 70
     1
102
RTVSPropertyOp29
 70
     1
102
RTVSPropertyOp30
 70
     1
102
RTVSPropertyOp31
 70
     1
102
RTVSPropertyOp32
 70
     1
  0
XRECORD
  5
318
102
{ACAD_REACTORS
330
317
102
}
330
317
100
AcDbXrecord
280
     1
102
RTVSPropertyOp0
 70
     0
102
RTVSPropertyOp1
 70
     0
102
RTVSPropertyOp2
 70
     0
102
RTVSPropertyOp3
 70
     0
102
RTVSPropertyOp4
 70
     0
102
RTVSPropertyOp5
 70
     0
102
RTVSPropertyOp6
 70
     0
102
RTVSPropertyOp7
 70
     0
102
RTVSPropertyOp8
 70
     0
102
RTVSPropertyOp9
 70
     0
102
RTVSPropertyOp10
 70
     0
102
RTVSPropertyOp11
 70
     0
102
RTVSPropertyOp12
 70
     0
102
RTVSPropertyOp13
 70
     0
102
RTVSPropertyOp14
 70
     2
102
RTVSPropertyOp15
 70
     0
102
RTVSPropertyOp16
 70
     0
102
RTVSPropertyOp17
 70
     0
102
RTVSPropertyOp18
 70
     0
102
RTVSPropertyOp19
 70
     0
102
RTVSPropertyOp20
 70
     0
102
RTVSPropertyOp21
 70
     0
102
RTVSPropertyOp22
 70
     0
102
RTVSPropertyOp23
 70
     0
102
RTVSPropertyOp24
 70
     0
102
RTVSPropertyOp25
 70
     0
102
RTVSPropertyOp26
 70
     0
102
RTVSPropertyOp27
 70
     0
102
RTVSPropertyOp28
 70
     0
102
RTVSPropertyOp29
 70
     0
102
RTVSPropertyOp30
 70
     0
102
RTVSPropertyOp31
 70
     0
102
RTVSPropertyOp32
 70
     0
  0
XRECORD
  5
2FC
102
{ACAD_REACTORS
330
2FB
102
}
330
2FB
100
AcDbXrecord
280
     1
102
RTVSPropertyOp0
 70
     1
102
RTVSPropertyOp1
 70
     1
102
RTVSPropertyOp2
 70
     1
102
RTVSPropertyOp3
 70
     1
102
RTVSPropertyOp4
 70
     1
102
RTVSPropertyOp5
 70
     1
102
RTVSPropertyOp6
 70
     1
102
RTVSPropertyOp7
 70
     1
102
RTVSPropertyOp8
 70
     1
102
RTVSPropertyOp9
 70
     1
102
RTVSPropertyOp10
 70
     1
102
RTVSPropertyOp11
 70
     1
102
RTVSPropertyOp12
 70
     1
102
RTVSPropertyOp13
 70
     1
102
RTVSPropertyOp14
 70
     1
102
RTVSPropertyOp15
 70
     1
102
RTVSPropertyOp16
 70
     1
102
RTVSPropertyOp17
 70
     1
102
RTVSPropertyOp18
 70
     1
102
RTVSPropertyOp19
 70
     1
102
RTVSPropertyOp20
 70
     1
102
RTVSPropertyOp21
 70
     1
102
RTVSPropertyOp22
 70
     1
102
RTVSPropertyOp23
 70
     1
102
RTVSPropertyOp24
 70
     1
102
RTVSPropertyOp25
 70
     1
102
RTVSPropertyOp26
 70
     1
102
RTVSPropertyOp27
 70
     1
102
RTVSPropertyOp28
 70
     1
102
RTVSPropertyOp29
 70
     1
102
RTVSPropertyOp30
 70
     1
102
RTVSPropertyOp31
 70
     1
102
RTVSPropertyOp32
 70
     1
  0
XRECORD
  5
2E0
102
{ACAD_REACTORS
330
2DF
102
}
330
2DF
100
AcDbXrecord
280
     1
102
RTVSPropertyOp0
 70
     1
102
RTVSPropertyOp1
 70
     1
102
RTVSPropertyOp2
 70
     1
102
RTVSPropertyOp3
 70
     1
102
RTVSPropertyOp4
 70
     1
102
RTVSPropertyOp5
 70
     1
102
RTVSPropertyOp6
 70
     1
102
RTVSPropertyOp7
 70
     1
102
RTVSPropertyOp8
 70
     1
102
RTVSPropertyOp9
 70
     1
102
RTVSPropertyOp10
 70
     1
102
RTVSPropertyOp11
 70
     1
102
RTVSPropertyOp12
 70
     1
102
RTVSPropertyOp13
 70
     1
102
RTVSPropertyOp14
 70
     1
102
RTVSPropertyOp15
 70
     1
102
RTVSPropertyOp16
 70
     1
102
RTVSPropertyOp17
 70
     1
102
RTVSPropertyOp18
 70
     1
102
RTVSPropertyOp19
 70
     1
102
RTVSPropertyOp20
 70
     1
102
RTVSPropertyOp21
 70
     1
102
RTVSPropertyOp22
 70
     1
102
RTVSPropertyOp23
 70
     1
102
RTVSPropertyOp24
 70
     1
102
RTVSPropertyOp25
 70
     1
102
RTVSPropertyOp26
 70
     1
102
RTVSPropertyOp27
 70
     1
102
RTVSPropertyOp28
 70
     1
102
RTVSPropertyOp29
 70
     1
102
RTVSPropertyOp30
 70
     1
102
RTVSPropertyOp31
 70
     1
102
RTVSPropertyOp32
 70
     1
  0
XRECORD
  5
2E2
102
{ACAD_REACTORS
330
2E1
102
}
330
2E1
100
AcDbXrecord
280
     1
102
RTVSPropertyOp0
 70
     1
102
RTVSPropertyOp1
 70
     1
102
RTVSPropertyOp2
 70
     1
102
RTVSPropertyOp3
 70
     1
102
RTVSPropertyOp4
 70
     1
102
RTVSPropertyOp5
 70
     1
102
RTVSPropertyOp6
 70
     1
102
RTVSPropertyOp7
 70
     1
102
RTVSPropertyOp8
 70
     1
102
RTVSPropertyOp9
 70
     1
102
RTVSPropertyOp10
 70
     1
102
RTVSPropertyOp11
 70
     1
102
RTVSPropertyOp12
 70
     1
102
RTVSPropertyOp13
 70
     1
102
RTVSPropertyOp14
 70
     1
102
RTVSPropertyOp15
 70
     1
102
RTVSPropertyOp16
 70
     1
102
RTVSPropertyOp17
 70
     1
102
RTVSPropertyOp18
 70
     1
102
RTVSPropertyOp19
 70
     1
102
RTVSPropertyOp20
 70
     1
102
RTVSPropertyOp21
 70
     1
102
RTVSPropertyOp22
 70
     1
102
RTVSPropertyOp23
 70
     1
102
RTVSPropertyOp24
 70
     1
102
RTVSPropertyOp25
 70
     1
102
RTVSPropertyOp26
 70
     1
102
RTVSPropertyOp27
 70
     1
102
RTVSPropertyOp28
 70
     1
102
RTVSPropertyOp29
 70
     1
102
RTVSPropertyOp30
 70
     1
102
RTVSPropertyOp31
 70
     1
102
RTVSPropertyOp32
 70
     1
  0
XRECORD
  5
2E4
102
{ACAD_REACTORS
330
2E3
102
}
330
2E3
100
AcDbXrecord
280
     1
102
RTVSPropertyOp0
 70
     1
102
RTVSPropertyOp1
 70
     1
102
RTVSPropertyOp2
 70
     1
102
RTVSPropertyOp3
 70
     1
102
RTVSPropertyOp4
 70
     1
102
RTVSPropertyOp5
 70
     1
102
RTVSPropertyOp6
 70
     1
102
RTVSPropertyOp7
 70
     1
102
RTVSPropertyOp8
 70
     1
102
RTVSPropertyOp9
 70
     1
102
RTVSPropertyOp10
 70
     1
102
RTVSPropertyOp11
 70
     1
102
RTVSPropertyOp12
 70
     1
102
RTVSPropertyOp13
 70
     1
102
RTVSPropertyOp14
 70
     1
102
RTVSPropertyOp15
 70
     1
102
RTVSPropertyOp16
 70
     1
102
RTVSPropertyOp17
 70
     1
102
RTVSPropertyOp18
 70
     1
102
RTVSPropertyOp19
 70
     1
102
RTVSPropertyOp20
 70
     1
102
RTVSPropertyOp21
 70
     1
102
RTVSPropertyOp22
 70
     1
102
RTVSPropertyOp23
 70
     1
102
RTVSPropertyOp24
 70
     1
102
RTVSPropertyOp25
 70
     1
102
RTVSPropertyOp26
 70
     1
102
RTVSPropertyOp27
 70
     1
102
RTVSPropertyOp28
 70
     1
102
RTVSPropertyOp29
 70
     1
102
RTVSPropertyOp30
 70
     1
102
RTVSPropertyOp31
 70
     1
102
RTVSPropertyOp32
 70
     1
  0
XRECORD
  5
2E6
102
{ACAD_REACTORS
330
2E5
102
}
330
2E5
100
AcDbXrecord
280
     1
102
RTVSPropertyOp0
 70
     1
102
RTVSPropertyOp1
 70
     1
102
RTVSPropertyOp2
 70
     1
102
RTVSPropertyOp3
 70
     1
102
RTVSPropertyOp4
 70
     1
102
RTVSPropertyOp5
 70
     1
102
RTVSPropertyOp6
 70
     1
102
RTVSPropertyOp7
 70
     1
102
RTVSPropertyOp8
 70
     1
102
RTVSPropertyOp9
 70
     1
102
RTVSPropertyOp10
 70
     1
102
RTVSPropertyOp11
 70
     1
102
RTVSPropertyOp12
 70
     1
102
RTVSPropertyOp13
 70
     1
102
RTVSPropertyOp14
 70
     1
102
RTVSPropertyOp15
 70
     1
102
RTVSPropertyOp16
 70
     1
102
RTVSPropertyOp17
 70
     1
102
RTVSPropertyOp18
 70
     1
102
RTVSPropertyOp19
 70
     1
102
RTVSPropertyOp20
 70
     1
102
RTVSPropertyOp21
 70
     1
102
RTVSPropertyOp22
 70
     1
102
RTVSPropertyOp23
 70
     1
102
RTVSPropertyOp24
 70
     1
102
RTVSPropertyOp25
 70
     1
102
RTVSPropertyOp26
 70
     1
102
RTVSPropertyOp27
 70
     1
102
RTVSPropertyOp28
 70
     1
102
RTVSPropertyOp29
 70
     1
102
RTVSPropertyOp30
 70
     1
102
RTVSPropertyOp31
 70
     1
102
RTVSPropertyOp32
 70
     1
  0
XRECORD
  5
308
102
{ACAD_REACTORS
330
307
102
}
330
307
100
AcDbXrecord
280
     1
102
RTVSPropertyOp0
 70
     1
102
RTVSPropertyOp1
 70
     1
102
RTVSPropertyOp2
 70
     1
102
RTVSPropertyOp3
 70
     1
102
RTVSPropertyOp4
 70
     1
102
RTVSPropertyOp5
 70
     1
102
RTVSPropertyOp6
 70
     1
102
RTVSPropertyOp7
 70
     1
102
RTVSPropertyOp8
 70
     1
102
RTVSPropertyOp9
 70
     1
102
RTVSPropertyOp10
 70
     1
102
RTVSPropertyOp11
 70
     1
102
RTVSPropertyOp12
 70
     1
102
RTVSPropertyOp13
 70
     1
102
RTVSPropertyOp14
 70
     1
102
RTVSPropertyOp15
 70
     1
102
RTVSPropertyOp16
 70
     1
102
RTVSPropertyOp17
 70
     1
102
RTVSPropertyOp18
 70
     1
102
RTVSPropertyOp19
 70
     1
102
RTVSPropertyOp20
 70
     1
102
RTVSPropertyOp21
 70
     1
102
RTVSPropertyOp22
 70
     1
102
RTVSPropertyOp23
 70
     1
102
RTVSPropertyOp24
 70
     1
102
RTVSPropertyOp25
 70
     1
102
RTVSPropertyOp26
 70
     1
102
RTVSPropertyOp27
 70
     1
102
RTVSPropertyOp28
 70
     1
102
RTVSPropertyOp29
 70
     1
102
RTVSPropertyOp30
 70
     1
102
RTVSPropertyOp31
 70
     1
102
RTVSPropertyOp32
 70
     1
  0
XRECORD
  5
314
102
{ACAD_REACTORS
330
313
102
}
330
313
100
AcDbXrecord
280
     1
102
RTVSPropertyOp0
 70
     0
102
RTVSPropertyOp1
 70
     0
102
RTVSPropertyOp2
 70
     0
102
RTVSPropertyOp3
 70
     0
102
RTVSPropertyOp4
 70
     0
102
RTVSPropertyOp5
 70
     0
102
RTVSPropertyOp6
 70
     0
102
RTVSPropertyOp7
 70
     0
102
RTVSPropertyOp8
 70
     0
102
RTVSPropertyOp9
 70
     0
102
RTVSPropertyOp10
 70
     0
102
RTVSPropertyOp11
 70
     0
102
RTVSPropertyOp12
 70
     0
102
RTVSPropertyOp13
 70
     0
102
RTVSPropertyOp14
 70
     2
102
RTVSPropertyOp15
 70
     0
102
RTVSPropertyOp16
 70
     0
102
RTVSPropertyOp17
 70
     0
102
RTVSPropertyOp18
 70
     0
102
RTVSPropertyOp19
 70
     0
102
RTVSPropertyOp20
 70
     0
102
RTVSPropertyOp21
 70
     0
102
RTVSPropertyOp22
 70
     0
102
RTVSPropertyOp23
 70
     0
102
RTVSPropertyOp24
 70
     0
102
RTVSPropertyOp25
 70
     0
102
RTVSPropertyOp26
 70
     0
102
RTVSPropertyOp27
 70
     0
102
RTVSPropertyOp28
 70
     0
102
RTVSPropertyOp29
 70
     0
102
RTVSPropertyOp30
 70
     0
102
RTVSPropertyOp31
 70
     0
102
RTVSPropertyOp32
 70
     0
  0
XRECORD
  5
2FA
102
{ACAD_REACTORS
330
2F9
102
}
330
2F9
100
AcDbXrecord
280
     1
102
RTVSPropertyOp0
 70
     1
102
RTVSPropertyOp1
 70
     1
102
RTVSPropertyOp2
 70
     1
102
RTVSPropertyOp3
 70
     1
102
RTVSPropertyOp4
 70
     1
102
RTVSPropertyOp5
 70
     1
102
RTVSPropertyOp6
 70
     1
102
RTVSPropertyOp7
 70
     1
102
RTVSPropertyOp8
 70
     1
102
RTVSPropertyOp9
 70
     1
102
RTVSPropertyOp10
 70
     1
102
RTVSPropertyOp11
 70
     1
102
RTVSPropertyOp12
 70
     1
102
RTVSPropertyOp13
 70
     1
102
RTVSPropertyOp14
 70
     1
102
RTVSPropertyOp15
 70
     1
102
RTVSPropertyOp16
 70
     1
102
RTVSPropertyOp17
 70
     1
102
RTVSPropertyOp18
 70
     1
102
RTVSPropertyOp19
 70
     1
102
RTVSPropertyOp20
 70
     1
102
RTVSPropertyOp21
 70
     1
102
RTVSPropertyOp22
 70
     1
102
RTVSPropertyOp23
 70
     1
102
RTVSPropertyOp24
 70
     1
102
RTVSPropertyOp25
 70
     1
102
RTVSPropertyOp26
 70
     1
102
RTVSPropertyOp27
 70
     1
102
RTVSPropertyOp28
 70
     1
102
RTVSPropertyOp29
 70
     1
102
RTVSPropertyOp30
 70
     1
102
RTVSPropertyOp31
 70
     1
102
RTVSPropertyOp32
 70
     1
  0
XRECORD
  5
316
102
{ACAD_REACTORS
330
315
102
}
330
315
100
AcDbXrecord
280
     1
102
RTVSPropertyOp0
 70
     0
102
RTVSPropertyOp1
 70
     0
102
RTVSPropertyOp2
 70
     0
102
RTVSPropertyOp3
 70
     0
102
RTVSPropertyOp4
 70
     0
102
RTVSPropertyOp5
 70
     0
102
RTVSPropertyOp6
 70
     0
102
RTVSPropertyOp7
 70
     0
102
RTVSPropertyOp8
 70
     0
102
RTVSPropertyOp9
 70
     0
102
RTVSPropertyOp10
 70
     0
102
RTVSPropertyOp11
 70
     0
102
RTVSPropertyOp12
 70
     0
102
RTVSPropertyOp13
 70
     0
102
RTVSPropertyOp14
 70
     2
102
RTVSPropertyOp15
 70
     0
102
RTVSPropertyOp16
 70
     0
102
RTVSPropertyOp17
 70
     0
102
RTVSPropertyOp18
 70
     0
102
RTVSPropertyOp19
 70
     0
102
RTVSPropertyOp20
 70
     0
102
RTVSPropertyOp21
 70
     0
102
RTVSPropertyOp22
 70
     0
102
RTVSPropertyOp23
 70
     0
102
RTVSPropertyOp24
 70
     0
102
RTVSPropertyOp25
 70
     0
102
RTVSPropertyOp26
 70
     0
102
RTVSPropertyOp27
 70
     0
102
RTVSPropertyOp28
 70
     0
102
RTVSPropertyOp29
 70
     0
102
RTVSPropertyOp30
 70
     0
102
RTVSPropertyOp31
 70
     0
102
RTVSPropertyOp32
 70
     0
  0
XRECORD
  5
2F0
102
{ACAD_REACTORS
330
2EF
102
}
330
2EF
100
AcDbXrecord
280
     1
102
RTVSPropertyOp0
 70
     1
102
RTVSPropertyOp1
 70
     1
102
RTVSPropertyOp2
 70
     1
102
RTVSPropertyOp3
 70
     1
102
RTVSPropertyOp4
 70
     1
102
RTVSPropertyOp5
 70
     1
102
RTVSPropertyOp6
 70
     1
102
RTVSPropertyOp7
 70
     1
102
RTVSPropertyOp8
 70
     1
102
RTVSPropertyOp9
 70
     1
102
RTVSPropertyOp10
 70
     1
102
RTVSPropertyOp11
 70
     1
102
RTVSPropertyOp12
 70
     1
102
RTVSPropertyOp13
 70
     1
102
RTVSPropertyOp14
 70
     1
102
RTVSPropertyOp15
 70
     1
102
RTVSPropertyOp16
 70
     1
102
RTVSPropertyOp17
 70
     1
102
RTVSPropertyOp18
 70
     1
102
RTVSPropertyOp19
 70
     1
102
RTVSPropertyOp20
 70
     1
102
RTVSPropertyOp21
 70
     1
102
RTVSPropertyOp22
 70
     1
102
RTVSPropertyOp23
 70
     1
102
RTVSPropertyOp24
 70
     1
102
RTVSPropertyOp25
 70
     1
102
RTVSPropertyOp26
 70
     1
102
RTVSPropertyOp27
 70
     1
102
RTVSPropertyOp28
 70
     1
102
RTVSPropertyOp29
 70
     1
102
RTVSPropertyOp30
 70
     1
102
RTVSPropertyOp31
 70
     1
102
RTVSPropertyOp32
 70
     1
  0
XRECORD
  5
312
102
{ACAD_REACTORS
330
311
102
}
330
311
100
AcDbXrecord
280
     1
102
RTVSPropertyOp0
 70
     1
102
RTVSPropertyOp1
 70
     1
102
RTVSPropertyOp2
 70
     1
102
RTVSPropertyOp3
 70
     1
102
RTVSPropertyOp4
 70
     1
102
RTVSPropertyOp5
 70
     1
102
RTVSPropertyOp6
 70
     1
102
RTVSPropertyOp7
 70
     1
102
RTVSPropertyOp8
 70
     1
102
RTVSPropertyOp9
 70
     1
102
RTVSPropertyOp10
 70
     1
102
RTVSPropertyOp11
 70
     1
102
RTVSPropertyOp12
 70
     1
102
RTVSPropertyOp13
 70
     1
102
RTVSPropertyOp14
 70
     1
102
RTVSPropertyOp15
 70
     1
102
RTVSPropertyOp16
 70
     1
102
RTVSPropertyOp17
 70
     1
102
RTVSPropertyOp18
 70
     1
102
RTVSPropertyOp19
 70
     1
102
RTVSPropertyOp20
 70
     1
102
RTVSPropertyOp21
 70
     1
102
RTVSPropertyOp22
 70
     1
102
RTVSPropertyOp23
 70
     1
102
RTVSPropertyOp24
 70
     1
102
RTVSPropertyOp25
 70
     1
102
RTVSPropertyOp26
 70
     1
102
RTVSPropertyOp27
 70
     1
102
RTVSPropertyOp28
 70
     1
102
RTVSPropertyOp29
 70
     1
102
RTVSPropertyOp30
 70
     1
102
RTVSPropertyOp31
 70
     1
102
RTVSPropertyOp32
 70
     1
  0
XRECORD
  5
310
102
{ACAD_REACTORS
330
30F
102
}
330
30F
100
AcDbXrecord
280
     1
102
RTVSPropertyOp0
 70
     1
102
RTVSPropertyOp1
 70
     1
102
RTVSPropertyOp2
 70
     1
102
RTVSPropertyOp3
 70
     1
102
RTVSPropertyOp4
 70
     1
102
RTVSPropertyOp5
 70
     1
102
RTVSPropertyOp6
 70
     1
102
RTVSPropertyOp7
 70
     1
102
RTVSPropertyOp8
 70
     1
102
RTVSPropertyOp9
 70
     1
102
RTVSPropertyOp10
 70
     1
102
RTVSPropertyOp11
 70
     1
102
RTVSPropertyOp12
 70
     1
102
RTVSPropertyOp13
 70
     1
102
RTVSPropertyOp14
 70
     1
102
RTVSPropertyOp15
 70
     1
102
RTVSPropertyOp16
 70
     1
102
RTVSPropertyOp17
 70
     1
102
RTVSPropertyOp18
 70
     1
102
RTVSPropertyOp19
 70
     1
102
RTVSPropertyOp20
 70
     1
102
RTVSPropertyOp21
 70
     1
102
RTVSPropertyOp22
 70
     1
102
RTVSPropertyOp23
 70
     1
102
RTVSPropertyOp24
 70
     1
102
RTVSPropertyOp25
 70
     1
102
RTVSPropertyOp26
 70
     1
102
RTVSPropertyOp27
 70
     1
102
RTVSPropertyOp28
 70
     1
102
RTVSPropertyOp29
 70
     1
102
RTVSPropertyOp30
 70
     1
102
RTVSPropertyOp31
 70
     1
102
RTVSPropertyOp32
 70
     1
  0
XRECORD
  5
30A
102
{ACAD_REACTORS
330
309
102
}
330
309
100
AcDbXrecord
280
     1
102
RTVSPropertyOp0
 70
     1
102
RTVSPropertyOp1
 70
     1
102
RTVSPropertyOp2
 70
     1
102
RTVSPropertyOp3
 70
     1
102
RTVSPropertyOp4
 70
     1
102
RTVSPropertyOp5
 70
     1
102
RTVSPropertyOp6
 70
     1
102
RTVSPropertyOp7
 70
     1
102
RTVSPropertyOp8
 70
     1
102
RTVSPropertyOp9
 70
     1
102
RTVSPropertyOp10
 70
     1
102
RTVSPropertyOp11
 70
     1
102
RTVSPropertyOp12
 70
     1
102
RTVSPropertyOp13
 70
     1
102
RTVSPropertyOp14
 70
     1
102
RTVSPropertyOp15
 70
     1
102
RTVSPropertyOp16
 70
     1
102
RTVSPropertyOp17
 70
     1
102
RTVSPropertyOp18
 70
     1
102
RTVSPropertyOp19
 70
     1
102
RTVSPropertyOp20
 70
     1
102
RTVSPropertyOp21
 70
     1
102
RTVSPropertyOp22
 70
     1
102
RTVSPropertyOp23
 70
     1
102
RTVSPropertyOp24
 70
     1
102
RTVSPropertyOp25
 70
     1
102
RTVSPropertyOp26
 70
     1
102
RTVSPropertyOp27
 70
     1
102
RTVSPropertyOp28
 70
     1
102
RTVSPropertyOp29
 70
     1
102
RTVSPropertyOp30
 70
     1
102
RTVSPropertyOp31
 70
     1
102
RTVSPropertyOp32
 70
     1
  0
XRECORD
  5
30C
102
{ACAD_REACTORS
330
30B
102
}
330
30B
100
AcDbXrecord
280
     1
102
RTVSPropertyOp0
 70
     1
102
RTVSPropertyOp1
 70
     1
102
RTVSPropertyOp2
 70
     1
102
RTVSPropertyOp3
 70
     1
102
RTVSPropertyOp4
 70
     1
102
RTVSPropertyOp5
 70
     1
102
RTVSPropertyOp6
 70
     1
102
RTVSPropertyOp7
 70
     1
102
RTVSPropertyOp8
 70
     1
102
RTVSPropertyOp9
 70
     1
102
RTVSPropertyOp10
 70
     1
102
RTVSPropertyOp11
 70
     1
102
RTVSPropertyOp12
 70
     1
102
RTVSPropertyOp13
 70
     1
102
RTVSPropertyOp14
 70
     1
102
RTVSPropertyOp15
 70
     1
102
RTVSPropertyOp16
 70
     1
102
RTVSPropertyOp17
 70
     1
102
RTVSPropertyOp18
 70
     1
102
RTVSPropertyOp19
 70
     1
102
RTVSPropertyOp20
 70
     1
102
RTVSPropertyOp21
 70
     1
102
RTVSPropertyOp22
 70
     1
102
RTVSPropertyOp23
 70
     1
102
RTVSPropertyOp24
 70
     1
102
RTVSPropertyOp25
 70
     1
102
RTVSPropertyOp26
 70
     1
102
RTVSPropertyOp27
 70
     1
102
RTVSPropertyOp28
 70
     1
102
RTVSPropertyOp29
 70
     1
102
RTVSPropertyOp30
 70
     1
102
RTVSPropertyOp31
 70
     1
102
RTVSPropertyOp32
 70
     1
  0
XRECORD
  5
2F8
102
{ACAD_REACTORS
330
2F7
102
}
330
2F7
100
AcDbXrecord
280
     1
102
RTVSPropertyOp0
 70
     1
102
RTVSPropertyOp1
 70
     1
102
RTVSPropertyOp2
 70
     1
102
RTVSPropertyOp3
 70
     1
102
RTVSPropertyOp4
 70
     1
102
RTVSPropertyOp5
 70
     1
102
RTVSPropertyOp6
 70
     1
102
RTVSPropertyOp7
 70
     1
102
RTVSPropertyOp8
 70
     1
102
RTVSPropertyOp9
 70
     1
102
RTVSPropertyOp10
 70
     1
102
RTVSPropertyOp11
 70
     1
102
RTVSPropertyOp12
 70
     1
102
RTVSPropertyOp13
 70
     1
102
RTVSPropertyOp14
 70
     1
102
RTVSPropertyOp15
 70
     1
102
RTVSPropertyOp16
 70
     1
102
RTVSPropertyOp17
 70
     1
102
RTVSPropertyOp18
 70
     1
102
RTVSPropertyOp19
 70
     1
102
RTVSPropertyOp20
 70
     1
102
RTVSPropertyOp21
 70
     1
102
RTVSPropertyOp22
 70
     1
102
RTVSPropertyOp23
 70
     1
102
RTVSPropertyOp24
 70
     1
102
RTVSPropertyOp25
 70
     1
102
RTVSPropertyOp26
 70
     1
102
RTVSPropertyOp27
 70
     1
102
RTVSPropertyOp28
 70
     1
102
RTVSPropertyOp29
 70
     1
102
RTVSPropertyOp30
 70
     1
102
RTVSPropertyOp31
 70
     1
102
RTVSPropertyOp32
 70
     1
  0
XRECORD
  5
306
102
{ACAD_REACTORS
330
305
102
}
330
305
100
AcDbXrecord
280
     1
102
RTVSPropertyOp0
 70
     1
102
RTVSPropertyOp1
 70
     1
102
RTVSPropertyOp2
 70
     1
102
RTVSPropertyOp3
 70
     1
102
RTVSPropertyOp4
 70
     1
102
RTVSPropertyOp5
 70
     1
102
RTVSPropertyOp6
 70
     1
102
RTVSPropertyOp7
 70
     1
102
RTVSPropertyOp8
 70
     1
102
RTVSPropertyOp9
 70
     1
102
RTVSPropertyOp10
 70
     1
102
RTVSPropertyOp11
 70
     1
102
RTVSPropertyOp12
 70
     1
102
RTVSPropertyOp13
 70
     1
102
RTVSPropertyOp14
 70
     1
102
RTVSPropertyOp15
 70
     1
102
RTVSPropertyOp16
 70
     1
102
RTVSPropertyOp17
 70
     1
102
RTVSPropertyOp18
 70
     1
102
RTVSPropertyOp19
 70
     1
102
RTVSPropertyOp20
 70
     1
102
RTVSPropertyOp21
 70
     1
102
RTVSPropertyOp22
 70
     1
102
RTVSPropertyOp23
 70
     1
102
RTVSPropertyOp24
 70
     1
102
RTVSPropertyOp25
 70
     1
102
RTVSPropertyOp26
 70
     1
102
RTVSPropertyOp27
 70
     1
102
RTVSPropertyOp28
 70
     1
102
RTVSPropertyOp29
 70
     1
102
RTVSPropertyOp30
 70
     1
102
RTVSPropertyOp31
 70
     1
102
RTVSPropertyOp32
 70
     1
  0
XRECORD
  5
30E
102
{ACAD_REACTORS
330
30D
102
}
330
30D
100
AcDbXrecord
280
     1
102
RTVSPropertyOp0
 70
     1
102
RTVSPropertyOp1
 70
     1
102
RTVSPropertyOp2
 70
     1
102
RTVSPropertyOp3
 70
     1
102
RTVSPropertyOp4
 70
     1
102
RTVSPropertyOp5
 70
     1
102
RTVSPropertyOp6
 70
     1
102
RTVSPropertyOp7
 70
     1
102
RTVSPropertyOp8
 70
     1
102
RTVSPropertyOp9
 70
     1
102
RTVSPropertyOp10
 70
     1
102
RTVSPropertyOp11
 70
     1
102
RTVSPropertyOp12
 70
     1
102
RTVSPropertyOp13
 70
     1
102
RTVSPropertyOp14
 70
     1
102
RTVSPropertyOp15
 70
     1
102
RTVSPropertyOp16
 70
     1
102
RTVSPropertyOp17
 70
     1
102
RTVSPropertyOp18
 70
     1
102
RTVSPropertyOp19
 70
     1
102
RTVSPropertyOp20
 70
     1
102
RTVSPropertyOp21
 70
     1
102
RTVSPropertyOp22
 70
     1
102
RTVSPropertyOp23
 70
     1
102
RTVSPropertyOp24
 70
     1
102
RTVSPropertyOp25
 70
     1
102
RTVSPropertyOp26
 70
     1
102
RTVSPropertyOp27
 70
     1
102
RTVSPropertyOp28
 70
     1
102
RTVSPropertyOp29
 70
     1
102
RTVSPropertyOp30
 70
     1
102
RTVSPropertyOp31
 70
     1
102
RTVSPropertyOp32
 70
     1
  0
ENDSEC
  0
EOF
