  0
SECTION
  2
HEADER
  9
$ACADVER
  1
AC1015
  9
$ACADMAINTVER
 70
    20
  9
$DWGCODEPAGE
  3
ANSI_1252
  9
$INSBASE
 10
0.0
 20
0.0
 30
0.0
  9
$EXTMIN
 10
0.3223132999999975
 20
0.3830253283302021
 30
-0.0000000000000522
  9
$EXTMAX
 10
10.38462099230769
 20
8.003025328330203
 30
0.1630769230769231
  9
$LIMMIN
 10
0.0
 20
0.0
  9
$LIMMAX
 10
10.74615384615384
 20
8.303846153846151
  9
$ORTHOMODE
 70
     0
  9
$REGENMODE
 70
     1
  9
$FILLMODE
 70
     1
  9
$QTEXTMODE
 70
     0
  9
$MIRRTEXT
 70
     1
  9
$LTSCALE
 40
0.0384615384615385
  9
$ATTMODE
 70
     1
  9
$TEXTSIZE
 40
0.1492521367521367
  9
$TRACEWID
 40
1.0
  9
$TEXTSTYLE
  7
STANDARD
  9
$CLAYER
  8
0
  9
$CELTYPE
  6
ByLayer
  9
$CECOLOR
 62
   256
  9
$CELTSCALE
 40
1.0
  9
$DISPSILH
 70
     0
  9
$DIMSCALE
 40
1.0
  9
$DIMASZ
 40
0.0769230769230769
  9
$DIMEXO
 40
0.0576923076923077
  9
$DIMDLI
 40
3.75
  9
$DIMRND
 40
0.0
  9
$DIMDLE
 40
0.0
  9
$DIMEXE
 40
0.0769230769230769
  9
$DIMTP
 40
0.0
  9
$DIMTM
 40
0.0
  9
$DIMTXT
 40
0.1356837606837607
  9
$DIMCEN
 40
2.5
  9
$DIMTSZ
 40
0.0
  9
$DIMTOL
 70
     0
  9
$DIMLIM
 70
     0
  9
$DIMTIH
 70
     1
  9
$DIMTOH
 70
     1
  9
$DIMSE1
 70
     0
  9
$DIMSE2
 70
     0
  9
$DIMTAD
 70
     0
  9
$DIMZIN
 70
     0
  9
$DIMBLK
  1

  9
$DIMASO
 70
     1
  9
$DIMSHO
 70
     1
  9
$DIMPOST
  1

  9
$DIMAPOST
  1

  9
$DIMALT
 70
     0
  9
$DIMALTD
 70
     3
  9
$DIMALTF
 40
0.0393700787401575
  9
$DIMLFAC
 40
1.0
  9
$DIMTOFL
 70
     1
  9
$DIMTVP
 40
0.0
  9
$DIMTIX
 70
     0
  9
$DIMSOXD
 70
     0
  9
$DIMSAH
 70
     0
  9
$DIMBLK1
  1

  9
$DIMBLK2
  1

  9
$DIMSTYLE
  2
ISO-25
  9
$DIMCLRD
 70
     0
  9
$DIMCLRE
 70
     0
  9
$DIMCLRT
 70
     0
  9
$DIMTFAC
 40
1.0
  9
$DIMGAP
 40
0.0384615384615385
  9
$DIMJUST
 70
     0
  9
$DIMSD1
 70
     0
  9
$DIMSD2
 70
     0
  9
$DIMTOLJ
 70
     0
  9
$DIMTZIN
 70
     0
  9
$DIMALTZ
 70
     0
  9
$DIMALTTZ
 70
     0
  9
$DIMUPT
 70
     0
  9
$DIMDEC
 70
     2
  9
$DIMTDEC
 70
     2
  9
$DIMALTU
 70
     2
  9
$DIMALTTD
 70
     3
  9
$DIMTXSTY
  7
STANDARD
  9
$DIMAUNIT
 70
     0
  9
$DIMADEC
 70
     0
  9
$DIMALTRND
 40
0.0
  9
$DIMAZIN
 70
     0
  9
$DIMDSEP
 70
    44
  9
$DIMATFIT
 70
     3
  9
$DIMFRAC
 70
     0
  9
$DIMLDRBLK
  1

  9
$DIMLUNIT
 70
     2
  9
$DIMLWD
 70
    -2
  9
$DIMLWE
 70
    -2
  9
$DIMTMOVE
 70
     0
  9
$LUNITS
 70
     2
  9
$LUPREC
 70
     2
  9
$SKETCHINC
 40
1.0
  9
$FILLETRAD
 40
10.0
  9
$AUNITS
 70
     0
  9
$AUPREC
 70
     0
  9
$MENU
  1
.
  9
$ELEVATION
 40
0.0
  9
$PELEVATION
 40
0.0
  9
$THICKNESS
 40
0.0
  9
$LIMCHECK
 70
     0
  9
$CHAMFERA
 40
10.0
  9
$CHAMFERB
 40
10.0
  9
$CHAMFERC
 40
20.0
  9
$CHAMFERD
 40
0.0
  9
$SKPOLY
 70
     0
  9
$TDCREATE
 40
2456181.624287049
  9
$TDUCREATE
 40
2456181.957620382
  9
$TDUPDATE
 40
2456272.503957511
  9
$TDUUPDATE
 40
2456272.837290845
  9
$TDINDWG
 40
0.0000883565
  9
$TDUSRTIMER
 40
0.0000883565
  9
$USRTIMER
 70
     1
  9
$ANGBASE
 50
0.0
  9
$ANGDIR
 70
     0
  9
$PDMODE
 70
     0
  9
$PDSIZE
 40
-1.0
  9
$PLINEWID
 40
0.0
  9
$SPLFRAME
 70
     0
  9
$SPLINETYPE
 70
     6
  9
$SPLINESEGS
 70
     8
  9
$HANDSEED
  5
330
  9
$SURFTAB1
 70
     6
  9
$SURFTAB2
 70
     6
  9
$SURFTYPE
 70
     6
  9
$SURFU
 70
     6
  9
$SURFV
 70
     6
  9
$UCSBASE
  2

  9
$UCSNAME
  2

  9
$UCSORG
 10
0.0
 20
0.0
 30
0.0
  9
$UCSXDIR
 10
1.0
 20
0.0
 30
0.0
  9
$UCSYDIR
 10
0.0
 20
1.0
 30
0.0
  9
$UCSORTHOREF
  2

  9
$UCSORTHOVIEW
 70
     0
  9
$UCSORGTOP
 10
0.0
 20
0.0
 30
0.0
  9
$UCSORGBOTTOM
 10
0.0
 20
0.0
 30
0.0
  9
$UCSORGLEFT
 10
0.0
 20
0.0
 30
0.0
  9
$UCSORGRIGHT
 10
0.0
 20
0.0
 30
0.0
  9
$UCSORGFRONT
 10
0.0
 20
0.0
 30
0.0
  9
$UCSORGBACK
 10
0.0
 20
0.0
 30
0.0
  9
$PUCSBASE
  2

  9
$PUCSNAME
  2

  9
$PUCSORG
 10
0.0
 20
0.0
 30
0.0
  9
$PUCSXDIR
 10
1.0
 20
0.0
 30
0.0
  9
$PUCSYDIR
 10
0.0
 20
1.0
 30
0.0
  9
$PUCSORTHOREF
  2

  9
$PUCSORTHOVIEW
 70
     0
  9
$PUCSORGTOP
 10
0.0
 20
0.0
 30
0.0
  9
$PUCSORGBOTTOM
 10
0.0
 20
0.0
 30
0.0
  9
$PUCSORGLEFT
 10
0.0
 20
0.0
 30
0.0
  9
$PUCSORGRIGHT
 10
0.0
 20
0.0
 30
0.0
  9
$PUCSORGFRONT
 10
0.0
 20
0.0
 30
0.0
  9
$PUCSORGBACK
 10
0.0
 20
0.0
 30
0.0
  9
$USERI1
 70
     0
  9
$USERI2
 70
     0
  9
$USERI3
 70
     0
  9
$USERI4
 70
     0
  9
$USERI5
 70
     0
  9
$USERR1
 40
0.0
  9
$USERR2
 40
0.0
  9
$USERR3
 40
0.0
  9
$USERR4
 40
0.0
  9
$USERR5
 40
0.0
  9
$WORLDVIEW
 70
     1
  9
$SHADEDGE
 70
     3
  9
$SHADEDIF
 70
    70
  9
$TILEMODE
 70
     1
  9
$MAXACTVP
 70
    64
  9
$PINSBASE
 10
0.0
 20
0.0
 30
0.0
  9
$PLIMCHECK
 70
     0
  9
$PEXTMIN
 10
1.000000000000000E+20
 20
1.000000000000000E+20
 30
1.000000000000000E+20
  9
$PEXTMAX
 10
-1.000000000000000E+20
 20
-1.000000000000000E+20
 30
-1.000000000000000E+20
  9
$PLIMMIN
 10
0.0
 20
0.0
  9
$PLIMMAX
 10
420.0
 20
297.0
  9
$UNITMODE
 70
     0
  9
$VISRETAIN
 70
     1
  9
$PLINEGEN
 70
     0
  9
$PSLTSCALE
 70
     1
  9
$TREEDEPTH
 70
  3020
  9
$CMLSTYLE
  2
Standard
  9
$CMLJUST
 70
     0
  9
$CMLSCALE
 40
20.0
  9
$PROXYGRAPHICS
 70
     1
  9
$MEASUREMENT
 70
     1
  9
$CELWEIGHT
370
    -1
  9
$ENDCAPS
280
     0
  9
$JOINSTYLE
280
     0
  9
$LWDISPLAY
290
     1
  9
$INSUNITS
 70
     4
  9
$HYPERLINKBASE
  1

  9
$STYLESHEET
  1

  9
$XEDIT
290
     1
  9
$CEPSNTYPE
380
     0
  9
$PSTYLEMODE
290
     1
  9
$FINGERPRINTGUID
  2
{E240545B-5CD7-4073-B6A9-AC8ACC1A5547}
  9
$VERSIONGUID
  2
{FAEB1C32-E019-11D5-929B-00C0DF256EC4}
  9
$EXTNAMES
290
     1
  9
$PSVPSCALE
 40
0.0
  9
$OLESTARTUP
290
     0
  0
ENDSEC
  0
SECTION
  2
CLASSES
  0
CLASS
  1
ACDBDICTIONARYWDFLT
  2
AcDbDictionaryWithDefault
  3
ObjectDBX Classes
 90
        0
280
     0
281
     0
  0
CLASS
  1
VISUALSTYLE
  2
AcDbVisualStyle
  3
ObjectDBX Classes
 90
     4095
280
     0
281
     0
  0
CLASS
  1
MATERIAL
  2
AcDbMaterial
  3
ObjectDBX Classes
 90
     1153
280
     0
281
     0
  0
CLASS
  1
SCALE
  2
AcDbScale
  3
ObjectDBX Classes
 90
     1153
280
     0
281
     0
  0
CLASS
  1
DICTIONARYVAR
  2
AcDbDictionaryVar
  3
ObjectDBX Classes
 90
        0
280
     0
281
     0
  0
CLASS
  1
TABLESTYLE
  2
AcDbTableStyle
  3
ObjectDBX Classes
 90
     4095
280
     0
281
     0
  0
CLASS
  1
MLEADERSTYLE
  2
AcDbMLeaderStyle
  3
ACDB_MLEADERSTYLE_CLASS
 90
     4095
280
     0
281
     0
  0
CLASS
  1
CELLSTYLEMAP
  2
AcDbCellStyleMap
  3
ObjectDBX Classes
 90
     1152
280
     0
281
     0
  0
CLASS
  1
ACDBPLACEHOLDER
  2
AcDbPlaceHolder
  3
ObjectDBX Classes
 90
        0
280
     0
281
     0
  0
CLASS
  1
LAYOUT
  2
AcDbLayout
  3
ObjectDBX Classes
 90
        0
280
     0
281
     0
  0
ENDSEC
  0
SECTION
  2
TABLES
  0
TABLE
  2
VPORT
  5
8
330
0
100
AcDbSymbolTable
 70
     1
  0
VPORT
  5
29
330
8
100
AcDbSymbolTableRecord
100
AcDbViewportTableRecord
  2
*Active
 70
     0
 10
0.0
 20
0.0
 11
1.0
 21
1.0
 12
6.836543495771242
 22
4.151923076923075
 13
0.0
 23
0.0
 14
10.0
 24
10.0
 15
10.0
 25
10.0
 16
0.0
 26
0.0
 36
1.0
 17
0.0
 27
0.0
 37
0.0
 40
8.303846153846151
 41
1.646596858638743
 42
50.0
 43
0.0
 44
0.0
 50
0.0
 51
0.0
 71
     0
 72
  2000
 73
     1
 74
     3
 75
     0
 76
     0
 77
     0
 78
     0
281
     0
 65
     1
110
0.0
120
0.0
130
0.0
111
1.0
121
0.0
131
0.0
112
0.0
122
1.0
132
0.0
 79
     0
146
0.0
  0
ENDTAB
  0
TABLE
  2
LTYPE
  5
5
330
0
100
AcDbSymbolTable
 70
     6
  0
LTYPE
  5
14
330
5
100
AcDbSymbolTableRecord
100
AcDbLinetypeTableRecord
  2
ByBlock
 70
     0
  3

 72
    65
 73
     0
 40
0.0
  0
LTYPE
  5
15
330
5
100
AcDbSymbolTableRecord
100
AcDbLinetypeTableRecord
  2
ByLayer
 70
     0
  3

 72
    65
 73
     0
 40
0.0
  0
LTYPE
  5
16
330
5
100
AcDbSymbolTableRecord
100
AcDbLinetypeTableRecord
  2
Continuous
 70
     0
  3
Solid line
 72
    65
 73
     0
 40
0.0
  0
LTYPE
  5
3F
330
5
100
AcDbSymbolTableRecord
100
AcDbLinetypeTableRecord
  2
HIDDEN
 70
     0
  3
Hidden __ __ __ __ __ __ __ __ __ __ __ __ __ __
 72
    65
 73
     2
 40
1.905
 49
1.27
 74
     0
 49
-0.635
 74
     0
  0
LTYPE
  5
40
330
5
100
AcDbSymbolTableRecord
100
AcDbLinetypeTableRecord
  2
PHANTOM
 70
     0
  3
Phantom ______  __  __  ______  __  __  ______
 72
    65
 73
     6
 40
12.7
 49
6.349999999999999
 74
     0
 49
-1.27
 74
     0
 49
1.27
 74
     0
 49
-1.27
 74
     0
 49
1.27
 74
     0
 49
-1.27
 74
     0
  0
LTYPE
  5
41
330
5
100
AcDbSymbolTableRecord
100
AcDbLinetypeTableRecord
  2
CENTER
 70
     0
  3
Center ____ _ ____ _ ____ _ ____ _ ____ _ ____
 72
    65
 73
     4
 40
10.16
 49
6.349999999999999
 74
     0
 49
-1.27
 74
     0
 49
1.27
 74
     0
 49
-1.27
 74
     0
  0
LTYPE
  5
42
330
5
100
AcDbSymbolTableRecord
100
AcDbLinetypeTableRecord
  2
CENTERX2
 70
     0
  3
Center (2x) ________  __  ________  __  _____
 72
    65
 73
     4
 40
20.32
 49
12.7
 74
     0
 49
-2.54
 74
     0
 49
2.54
 74
     0
 49
-2.54
 74
     0
  0
LTYPE
  5
43
330
5
100
AcDbSymbolTableRecord
100
AcDbLinetypeTableRecord
  2
DOT2
 70
     0
  3
Dot (.5x) ........................................
 72
    65
 73
     2
 40
0.635
 49
0.0
 74
     0
 49
-0.635
 74
     0
  0
ENDTAB
  0
TABLE
  2
LAYER
  5
2
330
0
100
AcDbSymbolTable
 70
     2
  0
LAYER
  5
10
330
2
100
AcDbSymbolTableRecord
100
AcDbLayerTableRecord
  2
0
 70
     0
 62
     7
  6
Continuous
370
    -3
390
F
  0
LAYER
  5
44
330
2
100
AcDbSymbolTableRecord
100
AcDbLayerTableRecord
  2
FORMAT
 70
     0
 62
     7
  6
Continuous
370
    -3
390
F
  0
ENDTAB
  0
TABLE
  2
STYLE
  5
3
330
0
100
AcDbSymbolTable
 70
     4
  0
STYLE
  5
11
330
3
100
AcDbSymbolTableRecord
100
AcDbTextStyleTableRecord
  2
STANDARD
 70
     0
 40
0.0
 41
1.0
 50
0.0
 71
     0
 42
0.1492521367521367
  3
GOTHIC.TTF
  4

1001
ACAD
1000
CENTURY GOTHIC
1071
       34
  0
STYLE
  5
65
330
3
100
AcDbSymbolTableRecord
100
AcDbTextStyleTableRecord
  2
SLDTEXTSTYLE0
 70
     0
 40
0.0
 41
0.913
 50
0.0
 71
     0
 42
0.2
  3
GOTHIC.TTF
  4

1001
ACAD
1000
Century Gothic
1071
      290
  0
STYLE
  5
9E
330
3
100
AcDbSymbolTableRecord
100
AcDbTextStyleTableRecord
  2
SLDTEXTSTYLE1
 70
     0
 40
0.0
 41
0.913
 50
0.0
 71
     0
 42
0.2
  3
GOTHIC.TTF
  4

1001
ACAD
1000
Century Gothic
1071
 33554722
  0
STYLE
  5
AE
330
3
100
AcDbSymbolTableRecord
100
AcDbTextStyleTableRecord
  2
SLDTEXTSTYLE2
 70
     0
 40
0.0
 41
0.948
 50
0.0
 71
     0
 42
0.2
  3
ARIAL.TTF
  4

1001
ACAD
1000
Arial
1071
      290
  0
ENDTAB
  0
TABLE
  2
VIEW
  5
6
330
0
100
AcDbSymbolTable
 70
     0
  0
ENDTAB
  0
TABLE
  2
UCS
  5
7
330
0
100
AcDbSymbolTable
 70
     0
  0
ENDTAB
  0
TABLE
  2
APPID
  5
9
330
0
100
AcDbSymbolTable
 70
     2
  0
APPID
  5
12
330
9
100
AcDbSymbolTableRecord
100
AcDbRegAppTableRecord
  2
ACAD
 70
     0
  0
APPID
  5
32F
330
9
100
AcDbSymbolTableRecord
100
AcDbRegAppTableRecord
  2
ACAD_MLEADERVER
 70
     0
  0
ENDTAB
  0
TABLE
  2
DIMSTYLE
  5
A
330
0
100
AcDbSymbolTable
 70
     9
100
AcDbDimStyleTable
 71
     0
  0
DIMSTYLE
105
27
330
A
100
AcDbSymbolTableRecord
100
AcDbDimStyleTableRecord
  2
ISO-25
 70
     0
 41
2.5
 42
0.625
 43
3.75
 44
1.25
 73
     0
 74
     0
 77
     1
 78
     8
140
2.5
141
2.5
143
0.03937007874016
147
0.625
171
     3
172
     1
271
     2
272
     2
274
     3
278
    44
283
     0
284
     8
340
11
  0
DIMSTYLE
105
95
330
A
100
AcDbSymbolTableRecord
100
AcDbDimStyleTableRecord
  2
SLDDIMSTYLE0
 70
     0
 41
0.0769230769230769
 44
0.0
 45
0.000000001
140
0.0
146
0.0769230769230769
147
0.0
173
     1
271
     0
272
     0
276
     2
340
11
  0
DIMSTYLE
105
166
102
{ACAD_REACTORS
330
165
330
171
330
188
330
19F
330
1B5
330
1C0
102
}
330
A
100
AcDbSymbolTableRecord
100
AcDbDimStyleTableRecord
  2
SLDDIMSTYLE1
 70
     0
 41
0.0769230769230769
 44
0.0
 45
0.000000001
 78
     4
 79
     1
140
0.1017628205128205
144
0.7692307692307693
147
0.0254407051282051
173
     1
271
     2
272
     2
276
     2
284
    12
340
65
  0
DIMSTYLE
105
17D
102
{ACAD_REACTORS
330
17C
330
194
330
1AA
330
1CB
102
}
330
A
100
AcDbSymbolTableRecord
100
AcDbDimStyleTableRecord
  2
SLDDIMSTYLE2
 70
     0
 41
0.0769230769230769
 44
0.0
 45
0.000000001
 78
    12
 79
     3
140
0.1017628205128205
144
0.7692307692307693
147
0.0254407051282051
173
     1
271
     2
272
     2
276
     2
284
    12
340
65
  0
DIMSTYLE
105
247
102
{ACAD_REACTORS
330
246
102
}
330
A
100
AcDbSymbolTableRecord
100
AcDbDimStyleTableRecord
  2
SLDDIMSTYLE3
 70
     0
 41
0.0769230769230769
 44
0.0
 45
0.000000001
 78
    12
 79
     3
140
0.1017628205128205
144
0.5
147
0.0254407051282051
173
     1
271
     2
272
     2
276
     2
284
    12
340
65
  0
DIMSTYLE
105
253
102
{ACAD_REACTORS
330
252
102
}
330
A
100
AcDbSymbolTableRecord
100
AcDbDimStyleTableRecord
  2
SLDDIMSTYLE4
 70
     0
 41
0.0769230769230769
 44
0.0
 45
0.000000001
 78
    12
 79
     3
140
0.1017628205128205
141
0.0
144
0.5
147
0.0254407051282051
173
     1
271
     2
272
     2
276
     2
284
    12
340
65
  0
DIMSTYLE
105
25C
102
{ACAD_REACTORS
330
25B
330
275
330
280
102
}
330
A
100
AcDbSymbolTableRecord
100
AcDbDimStyleTableRecord
  2
SLDDIMSTYLE5
 70
     0
 41
0.0769230769230769
 44
0.0
 45
0.000000001
 78
     4
 79
     1
140
0.1017628205128205
144
0.5
147
0.0254407051282051
173
     1
271
     2
272
     2
276
     2
284
    12
340
65
  0
DIMSTYLE
105
26A
102
{ACAD_REACTORS
330
269
102
}
330
A
100
AcDbSymbolTableRecord
100
AcDbDimStyleTableRecord
  2
SLDDIMSTYLE6
 70
     0
 41
0.0769230769230769
 44
0.0
 45
0.000000001
 78
     4
 79
     1
140
0.1017628205128205
144
0.5
147
0.0254407051282051
172
     1
173
     1
271
     2
272
     2
276
     2
284
    12
289
     0
340
65
  0
DIMSTYLE
105
28C
102
{ACAD_REACTORS
330
28B
102
}
330
A
100
AcDbSymbolTableRecord
100
AcDbDimStyleTableRecord
  2
SLDDIMSTYLE7
 70
     0
 41
0.0769230769230769
 44
0.0
 45
0.000000001
 78
    12
 79
     3
140
0.1017628205128205
144
0.5
147
0.0254407051282051
172
     1
173
     1
271
     3
272
     3
276
     2
284
    12
289
     0
340
65
  0
ENDTAB
  0
TABLE
  2
BLOCK_RECORD
  5
1
330
0
100
AcDbSymbolTable
 70
    26
  0
BLOCK_RECORD
  5
1F
330
1
100
AcDbSymbolTableRecord
100
AcDbBlockTableRecord
  2
*Model_Space
340
22
  0
BLOCK_RECORD
  5
1B
330
1
100
AcDbSymbolTableRecord
100
AcDbBlockTableRecord
  2
*Paper_Space
340
1E
  0
BLOCK_RECORD
  5
23
330
1
100
AcDbSymbolTableRecord
100
AcDbBlockTableRecord
  2
*Paper_Space0
340
26
  0
BLOCK_RECORD
  5
45
330
1
100
AcDbSymbolTableRecord
100
AcDbBlockTableRecord
  2
Block1
340
0
  0
BLOCK_RECORD
  5
62
330
1
100
AcDbSymbolTableRecord
100
AcDbBlockTableRecord
  2
SW_NOTE_18
340
0
102
{BLKREFS
331
68
102
}
  0
BLOCK_RECORD
  5
69
330
1
100
AcDbSymbolTableRecord
100
AcDbBlockTableRecord
  2
SW_NOTE_19
340
0
102
{BLKREFS
331
8E
102
}
  0
BLOCK_RECORD
  5
8F
330
1
100
AcDbSymbolTableRecord
100
AcDbBlockTableRecord
  2
SW_NOTE_20
340
0
102
{BLKREFS
331
94
102
}
  0
BLOCK_RECORD
  5
97
330
1
100
AcDbSymbolTableRecord
100
AcDbBlockTableRecord
  2
SW_NOTE_21
340
0
102
{BLKREFS
331
9C
102
}
  0
BLOCK_RECORD
  5
A8
330
1
100
AcDbSymbolTableRecord
100
AcDbBlockTableRecord
  2
SW_NOTE_22
340
0
102
{BLKREFS
331
AD
102
}
  0
BLOCK_RECORD
  5
167
330
1
100
AcDbSymbolTableRecord
100
AcDbBlockTableRecord
  2
_D
340
0
  0
BLOCK_RECORD
  5
172
330
1
100
AcDbSymbolTableRecord
100
AcDbBlockTableRecord
  2
_D_1
340
0
  0
BLOCK_RECORD
  5
17E
330
1
100
AcDbSymbolTableRecord
100
AcDbBlockTableRecord
  2
_D_2
340
0
  0
BLOCK_RECORD
  5
189
330
1
100
AcDbSymbolTableRecord
100
AcDbBlockTableRecord
  2
_D_3
340
0
  0
BLOCK_RECORD
  5
195
330
1
100
AcDbSymbolTableRecord
100
AcDbBlockTableRecord
  2
_D_4
340
0
  0
BLOCK_RECORD
  5
1A0
330
1
100
AcDbSymbolTableRecord
100
AcDbBlockTableRecord
  2
_D_5
340
0
  0
BLOCK_RECORD
  5
1AB
330
1
100
AcDbSymbolTableRecord
100
AcDbBlockTableRecord
  2
_D_6
340
0
  0
BLOCK_RECORD
  5
1B6
330
1
100
AcDbSymbolTableRecord
100
AcDbBlockTableRecord
  2
_D_7
340
0
  0
BLOCK_RECORD
  5
1C1
330
1
100
AcDbSymbolTableRecord
100
AcDbBlockTableRecord
  2
_D_8
340
0
  0
BLOCK_RECORD
  5
1CC
330
1
100
AcDbSymbolTableRecord
100
AcDbBlockTableRecord
  2
_D_9
340
0
  0
BLOCK_RECORD
  5
1DC
330
1
100
AcDbSymbolTableRecord
100
AcDbBlockTableRecord
  2
SW_NOTE_23
340
0
102
{BLKREFS
331
1E2
102
}
  0
BLOCK_RECORD
  5
248
330
1
100
AcDbSymbolTableRecord
100
AcDbBlockTableRecord
  2
_D_10
340
0
  0
BLOCK_RECORD
  5
254
330
1
100
AcDbSymbolTableRecord
100
AcDbBlockTableRecord
  2
_D_11
340
0
  0
BLOCK_RECORD
  5
25D
330
1
100
AcDbSymbolTableRecord
100
AcDbBlockTableRecord
  2
_D_12
340
0
  0
BLOCK_RECORD
  5
26B
330
1
100
AcDbSymbolTableRecord
100
AcDbBlockTableRecord
  2
_D_13
340
0
  0
BLOCK_RECORD
  5
276
330
1
100
AcDbSymbolTableRecord
100
AcDbBlockTableRecord
  2
_D_14
340
0
  0
BLOCK_RECORD
  5
281
330
1
100
AcDbSymbolTableRecord
100
AcDbBlockTableRecord
  2
_D_15
340
0
  0
BLOCK_RECORD
  5
28D
330
1
100
AcDbSymbolTableRecord
100
AcDbBlockTableRecord
  2
_D_16
340
0
  0
BLOCK_RECORD
  5
29A
330
1
100
AcDbSymbolTableRecord
100
AcDbBlockTableRecord
  2
SW_NOTE_24
340
0
102
{BLKREFS
331
29F
102
}
  0
ENDTAB
  0
ENDSEC
  0
SECTION
  2
BLOCKS
  0
BLOCK
  5
20
330
1F
100
AcDbEntity
  8
0
100
AcDbBlockBegin
  2
*Model_Space
 70
     0
 10
0.0
 20
0.0
 30
0.0
  3
*Model_Space
  1

  0
ENDBLK
  5
21
330
1F
100
AcDbEntity
  8
0
100
AcDbBlockEnd
  0
BLOCK
  5
1C
330
1B
100
AcDbEntity
 67
     1
  8
0
100
AcDbBlockBegin
  2
*Paper_Space
 70
     0
 10
0.0
 20
0.0
 30
0.0
  3
*Paper_Space
  1

  0
ENDBLK
  5
1D
330
1B
100
AcDbEntity
 67
     1
  8
0
100
AcDbBlockEnd
  0
BLOCK
  5
24
330
23
100
AcDbEntity
 67
     1
  8
0
100
AcDbBlockBegin
  2
*Paper_Space0
 70
     0
 10
0.0
 20
0.0
 30
0.0
  3
*Paper_Space0
  1

  0
ENDBLK
  5
25
330
23
100
AcDbEntity
 67
     1
  8
0
100
AcDbBlockEnd
  0
BLOCK
  5
46
330
45
100
AcDbEntity
  8
0
100
AcDbBlockBegin
  2
Block1
 70
     0
 10
0.0
 20
0.0
 30
0.0
  3
Block1
  1

  0
CIRCLE
  5
48
330
45
100
AcDbEntity
  8
0
  6
Continuous
 62
     7
370
     0
100
AcDbCircle
 10
5.347143664468966
 20
0.5783493933388649
 30
0.0
 40
0.1039017338389167
  0
CIRCLE
  5
49
330
45
100
AcDbEntity
  8
0
  6
Continuous
 62
     7
370
     0
100
AcDbCircle
 10
5.347143664468966
 20
0.5783493933388649
 30
0.0
 40
0.0505589218269315
  0
LINE
  5
4A
330
45
100
AcDbEntity
  8
0
  6
Continuous
 62
     7
370
     0
100
AcDbLine
 10
5.484027167910511
 20
0.5783493933388649
 30
0.0
 11
5.080760288458034
 21
0.5783493933388649
 31
0.0
  0
LINE
  5
4B
330
45
100
AcDbEntity
  8
0
  6
Continuous
 62
     7
370
     0
100
AcDbLine
 10
5.516548690447002
 20
0.5783493933388649
 30
0.0
 11
5.571835278759034
 21
0.5783493933388649
 31
0.0
  0
LINE
  5
4C
330
45
100
AcDbEntity
  8
0
  6
Continuous
 62
     7
370
     0
100
AcDbLine
 10
5.638504399958838
 20
0.5790806958786796
 30
0.0
 11
6.035266974904017
 21
0.5790806958786796
 31
0.0
  0
LINE
  5
4D
330
45
100
AcDbEntity
  8
0
  6
Continuous
 62
     7
370
     0
100
AcDbLine
 10
5.692602736680625
 20
0.6289083151657965
 30
0.0
 11
5.692602736680625
 21
0.5277904715119335
 31
0.0
  0
LINE
  5
4E
330
45
100
AcDbEntity
  8
0
  6
Continuous
 62
     7
370
     0
100
AcDbLine
 10
5.692602736680625
 20
0.5277904715119335
 30
0.0
 11
5.971212088960847
 21
0.4744476594999476
 31
0.0
  0
LINE
  5
4F
330
45
100
AcDbEntity
  8
0
  6
Continuous
 62
     7
370
     0
100
AcDbLine
 10
5.971212088960847
 20
0.4744476594999476
 30
0.0
 11
5.971212088960847
 21
0.6822511271777822
 31
0.0
  0
LINE
  5
50
330
45
100
AcDbEntity
  8
0
  6
Continuous
 62
     7
370
     0
100
AcDbLine
 10
5.971212088960847
 20
0.6822511271777822
 30
0.0
 11
5.692602736680625
 21
0.6289083151657965
 31
0.0
  0
LINE
  5
51
330
45
100
AcDbEntity
  8
0
  6
Continuous
 62
     7
370
     0
100
AcDbLine
 10
5.347143664468966
 20
0.6822511271777822
 30
0.0
 11
5.347143664468966
 21
0.7278630306753195
 31
0.0
  0
LINE
  5
52
330
45
100
AcDbEntity
  8
0
  6
Continuous
 62
     7
370
     0
100
AcDbLine
 10
5.347143664468966
 20
0.4744476594999476
 30
0.0
 11
5.347143664468966
 21
0.4288357560024104
 31
0.0
  0
LINE
  5
53
330
45
100
AcDbEntity
  8
0
  6
Continuous
 62
     7
370
     0
100
AcDbLine
 10
5.347143664468966
 20
0.603878775402772
 30
0.0
 11
5.347143664468966
 21
0.5528200112749579
 31
0.0
  0
ENDBLK
  5
47
330
45
100
AcDbEntity
  8
0
100
AcDbBlockEnd
  0
BLOCK
  5
63
330
62
100
AcDbEntity
  8
0
100
AcDbBlockBegin
  2
SW_NOTE_18
 70
     0
 10
0.0
 20
0.0
 30
0.0
  3
SW_NOTE_18
  1

  0
MTEXT
  5
66
330
62
100
AcDbEntity
  8
0
  6
Continuous
 62
     0
370
     0
100
AcDbMText
 10
0.9772410857371795
 20
0.1819805438701923
 30
0.0
 40
0.1424679487179487
 41
0.0
 71
     2
 72
     1
  1
RECOMMENDED PCB 
  7
SLDTEXTSTYLE0
 73
     1
 44
1.0
1001
ACAD
1000
MTEXTBEGIN
1070
    73
1070
     1
1070
    44
1040
1.0
1070
    74
1070
     0
1000
MTEXTEND
  0
MTEXT
  5
67
330
62
100
AcDbEntity
  8
0
  6
Continuous
 62
     0
370
     0
100
AcDbMText
 10
0.94714808297845
 20
-0.0079767187914023
 30
0.0
 40
0.1424679487179487
 41
0.0
 71
     2
 72
     1
  1
LAYOUT
  7
SLDTEXTSTYLE0
 73
     1
 44
1.0
1001
ACAD
1000
MTEXTBEGIN
1070
    73
1070
     1
1070
    44
1040
1.0
1070
    74
1070
     0
1000
MTEXTEND
  0
ENDBLK
  5
64
330
62
100
AcDbEntity
  8
0
100
AcDbBlockEnd
  0
BLOCK
  5
6A
330
69
100
AcDbEntity
  8
0
100
AcDbBlockBegin
  2
SW_NOTE_19
 70
     0
 10
0.0
 20
0.0
 30
0.0
  3
SW_NOTE_19
  1

  0
MTEXT
  5
6C
330
69
100
AcDbEntity
  8
0
  6
Continuous
 62
     0
370
     0
100
AcDbMText
 10
0.0
 20
0.1299861027644232
 30
0.0
 40
0.1017628205128205
 41
0.0
 71
     1
 72
     1
  1
Notes: (Unless Otherwise Specified).
  7
SLDTEXTSTYLE0
 73
     1
 44
1.0
1001
ACAD
1000
MTEXTBEGIN
1070
    73
1070
     1
1070
    44
1040
1.0
1070
    74
1070
     0
1000
MTEXTEND
  0
MTEXT
  5
6D
330
69
100
AcDbEntity
  8
0
  6
Continuous
 62
     0
370
     0
100
AcDbMText
 10
0.3846153760185608
 20
-0.0056976562795729
 30
0.0
 40
0.1017628205128205
 41
0.0
 71
     1
 72
     1
  1
DIMENSIONS ARE PRESENTED ONLY AS A GUIDELINE. DESIGNERS  SHOULD USE THEIR OWN KNOWLEDGE 
  7
SLDTEXTSTYLE0
 73
     1
 44
1.0
1001
ACAD
1000
MTEXTBEGIN
1070
    73
1070
     1
1070
    44
1040
1.0
1070
    74
1070
     0
1000
MTEXTEND
  0
MTEXT
  5
6E
330
69
100
AcDbEntity
  8
0
  6
Continuous
 62
     0
370
     0
100
AcDbMText
 10
0.0
 20
-0.0056976562795729
 30
0.0
 40
0.1017628205128205
 41
0.0
 71
     1
 72
     1
  1
1.
  7
SLDTEXTSTYLE0
 73
     1
 44
1.0
1001
ACAD
1000
MTEXTBEGIN
1070
    73
1070
     1
1070
    44
1040
1.0
1070
    74
1070
     0
1000
MTEXTEND
  0
MTEXT
  5
6F
330
69
100
AcDbEntity
  8
0
  6
Continuous
 62
     0
370
     0
100
AcDbMText
 10
0.3846153760185608
 20
-0.141381415323569
 30
0.0
 40
0.1017628205128205
 41
0.0
 71
     1
 72
     1
  1
BASE WHEN DESIGNING THE PCB.
  7
SLDTEXTSTYLE0
 73
     1
 44
1.0
1001
ACAD
1000
MTEXTBEGIN
1070
    73
1070
     1
1070
    44
1040
1.0
1070
    74
1070
     0
1000
MTEXTEND
  0
MTEXT
  5
70
330
69
100
AcDbEntity
  8
0
  6
Continuous
 62
     0
370
     0
100
AcDbMText
 10
0.3846153760185608
 20
-0.2770651743675652
 30
0.0
 40
0.1017628205128205
 41
0.0
 71
     1
 72
     1
  1
SURROUND EACH SIDE OF I/O PERIMETER PADS WITH 0.060~0.075 mm (2.4~3.0mils) NSMD SOLDER MASK 
  7
SLDTEXTSTYLE0
 73
     1
 44
1.0
1001
ACAD
1000
MTEXTBEGIN
1070
    73
1070
     1
1070
    44
1040
1.0
1070
    74
1070
     0
1000
MTEXTEND
  0
MTEXT
  5
71
330
69
100
AcDbEntity
  8
0
  6
Continuous
 62
     0
370
     0
100
AcDbMText
 10
0.0
 20
-0.2770651743675652
 30
0.0
 40
0.1017628205128205
 41
0.0
 71
     1
 72
     1
  1
2.
  7
SLDTEXTSTYLE0
 73
     1
 44
1.0
1001
ACAD
1000
MTEXTBEGIN
1070
    73
1070
     1
1070
    44
1040
1.0
1070
    74
1070
     0
1000
MTEXTEND
  0
MTEXT
  5
72
330
69
100
AcDbEntity
  8
0
  6
Continuous
 62
     0
370
     0
100
AcDbMText
 10
0.3846153760185608
 20
-0.4127489334115614
 30
0.0
 40
0.1017628205128205
 41
0.0
 71
     1
 72
     1
  1
OPENING.  OPTIONALLY OK TO USE RECTANGLE (NSMD) MASK OPENING AROUND I/O PADS.
  7
SLDTEXTSTYLE0
 73
     1
 44
1.0
1001
ACAD
1000
MTEXTBEGIN
1070
    73
1070
     1
1070
    44
1040
1.0
1070
    74
1070
     0
1000
MTEXTEND
  0
MTEXT
  5
73
330
69
100
AcDbEntity
  8
0
  6
Continuous
 62
     0
370
     0
100
AcDbMText
 10
0.3846153760185608
 20
-0.5484326924555578
 30
0.0
 40
0.1017628205128205
 41
0.0
 71
     1
 72
     1
  1
ROUNDED PCB LAND PADS REDUCE SOLDER BRIDGING.  PAD CHAMFER ANGLE MAY VARY.
  7
SLDTEXTSTYLE0
 73
     1
 44
1.0
1001
ACAD
1000
MTEXTBEGIN
1070
    73
1070
     1
1070
    44
1040
1.0
1070
    74
1070
     0
1000
MTEXTEND
  0
MTEXT
  5
74
330
69
100
AcDbEntity
  8
0
  6
Continuous
 62
     0
370
     0
100
AcDbMText
 10
0.0
 20
-0.5484326924555578
 30
0.0
 40
0.1017628205128205
 41
0.0
 71
     1
 72
     1
  1
3.
  7
SLDTEXTSTYLE0
 73
     1
 44
1.0
1001
ACAD
1000
MTEXTBEGIN
1070
    73
1070
     1
1070
    44
1040
1.0
1070
    74
1070
     0
1000
MTEXTEND
  0
MTEXT
  5
75
330
69
100
AcDbEntity
  8
0
  6
Continuous
 62
     0
370
     0
100
AcDbMText
 10
0.3846153760185608
 20
-0.6841164514995539
 30
0.0
 40
0.1017628205128205
 41
0.0
 71
     1
 72
     1
  1
PCB LANDS SHOULD BE 0.2mm LONGER THAN THE PACKAGE I/O PADS.
  7
SLDTEXTSTYLE0
 73
     1
 44
1.0
1001
ACAD
1000
MTEXTBEGIN
1070
    73
1070
     1
1070
    44
1040
1.0
1070
    74
1070
     0
1000
MTEXTEND
  0
MTEXT
  5
76
330
69
100
AcDbEntity
  8
0
  6
Continuous
 62
     0
370
     0
100
AcDbMText
 10
0.0
 20
-0.6841164514995539
 30
0.0
 40
0.1017628205128205
 41
0.0
 71
     1
 72
     1
  1
4.
  7
SLDTEXTSTYLE0
 73
     1
 44
1.0
1001
ACAD
1000
MTEXTBEGIN
1070
    73
1070
     1
1070
    44
1040
1.0
1070
    74
1070
     0
1000
MTEXTEND
  0
MTEXT
  5
77
330
69
100
AcDbEntity
  8
0
  6
Continuous
 62
     0
370
     0
100
AcDbMText
 10
0.3846153760185608
 20
-0.8198002105435499
 30
0.0
 40
0.1017628205128205
 41
0.0
 71
     1
 72
     1
  1
THE WIDTH OF PERIMETER PCB PADS SHOULD MATCH (1:1) THE WIDTH OF THE PACKAGE PADS.
  7
SLDTEXTSTYLE0
 73
     1
 44
1.0
1001
ACAD
1000
MTEXTBEGIN
1070
    73
1070
     1
1070
    44
1040
1.0
1070
    74
1070
     0
1000
MTEXTEND
  0
MTEXT
  5
78
330
69
100
AcDbEntity
  8
0
  6
Continuous
 62
     0
370
     0
100
AcDbMText
 10
0.0
 20
-0.8198002105435499
 30
0.0
 40
0.1017628205128205
 41
0.0
 71
     1
 72
     1
  1
5.
  7
SLDTEXTSTYLE0
 73
     1
 44
1.0
1001
ACAD
1000
MTEXTBEGIN
1070
    73
1070
     1
1070
    44
1040
1.0
1070
    74
1070
     0
1000
MTEXTEND
  0
MTEXT
  5
79
330
69
100
AcDbEntity
  8
0
  6
Continuous
 62
     0
370
     0
100
AcDbMText
 10
0.3846153760185608
 20
-0.9554839695875461
 30
0.0
 40
0.1017628205128205
 41
0.0
 71
     1
 72
     1
  1
REFER TO INDUSTRY REFERENCES SUCH AS IPC-SM-782 FOR PCB LAND PATTERN DESIGN.
  7
SLDTEXTSTYLE0
 73
     1
 44
1.0
1001
ACAD
1000
MTEXTBEGIN
1070
    73
1070
     1
1070
    44
1040
1.0
1070
    74
1070
     0
1000
MTEXTEND
  0
MTEXT
  5
7A
330
69
100
AcDbEntity
  8
0
  6
Continuous
 62
     0
370
     0
100
AcDbMText
 10
0.0
 20
-0.9554839695875461
 30
0.0
 40
0.1017628205128205
 41
0.0
 71
     1
 72
     1
  1
6.
  7
SLDTEXTSTYLE0
 73
     1
 44
1.0
1001
ACAD
1000
MTEXTBEGIN
1070
    73
1070
     1
1070
    44
1040
1.0
1070
    74
1070
     0
1000
MTEXTEND
  0
MTEXT
  5
7B
330
69
100
AcDbEntity
  8
0
  6
Continuous
 62
     0
370
     0
100
AcDbMText
 10
0.3846153760185608
 20
-1.091167728631542
 30
0.0
 40
0.1017628205128205
 41
0.0
 71
     1
 72
     1
  1
THERMAL GROUND PADS MAY BE CHANGED TO SUITE REQUIREMENTS OF THE DESIGNER.
  7
SLDTEXTSTYLE0
 73
     1
 44
1.0
1001
ACAD
1000
MTEXTBEGIN
1070
    73
1070
     1
1070
    44
1040
1.0
1070
    74
1070
     0
1000
MTEXTEND
  0
MTEXT
  5
7C
330
69
100
AcDbEntity
  8
0
  6
Continuous
 62
     0
370
     0
100
AcDbMText
 10
0.0
 20
-1.091167728631542
 30
0.0
 40
0.1017628205128205
 41
0.0
 71
     1
 72
     1
  1
7.
  7
SLDTEXTSTYLE0
 73
     1
 44
1.0
1001
ACAD
1000
MTEXTBEGIN
1070
    73
1070
     1
1070
    44
1040
1.0
1070
    74
1070
     0
1000
MTEXTEND
  0
MTEXT
  5
7D
330
69
100
AcDbEntity
  8
0
  6
Continuous
 62
     0
370
     0
100
AcDbMText
 10
0.7692307520371217
 20
-1.226851487675538
 30
0.0
 40
0.1017628205128205
 41
0.0
 71
     1
 72
     1
  1
MAKE COPPER THERMAL PAD AS LARGE AS POSSIBLE.
  7
SLDTEXTSTYLE0
 73
     1
 44
1.0
1001
ACAD
1000
MTEXTBEGIN
1070
    73
1070
     1
1070
    44
1040
1.0
1070
    74
1070
     0
1000
MTEXTEND
  0
MTEXT
  5
7E
330
69
100
AcDbEntity
  8
0
  6
Continuous
 62
     0
370
     0
100
AcDbMText
 10
0.3846153846153847
 20
-1.226851487675538
 30
0.0
 40
0.1017628205128205
 41
0.0
 71
     1
 72
     1
  1
A.
  7
SLDTEXTSTYLE0
 73
     1
 44
1.0
1001
ACAD
1000
MTEXTBEGIN
1070
    73
1070
     1
1070
    44
1040
1.0
1070
    74
1070
     0
1000
MTEXTEND
  0
MTEXT
  5
7F
330
69
100
AcDbEntity
  8
0
  6
Continuous
 62
     0
370
     0
100
AcDbMText
 10
0.7692307520371217
 20
-1.362535246719534
 30
0.0
 40
0.1017628205128205
 41
0.0
 71
     1
 72
     1
  1
DRILL MULTIPLE THERMAL VIAS 0.25~0.33mm DIAMETER USING 0.8~1.2mm PITCH GRID.
  7
SLDTEXTSTYLE0
 73
     1
 44
1.0
1001
ACAD
1000
MTEXTBEGIN
1070
    73
1070
     1
1070
    44
1040
1.0
1070
    74
1070
     0
1000
MTEXTEND
  0
MTEXT
  5
80
330
69
100
AcDbEntity
  8
0
  6
Continuous
 62
     0
370
     0
100
AcDbMText
 10
0.3846153846153847
 20
-1.362535246719534
 30
0.0
 40
0.1017628205128205
 41
0.0
 71
     1
 72
     1
  1
B.
  7
SLDTEXTSTYLE0
 73
     1
 44
1.0
1001
ACAD
1000
MTEXTBEGIN
1070
    73
1070
     1
1070
    44
1040
1.0
1070
    74
1070
     0
1000
MTEXTEND
  0
MTEXT
  5
81
330
69
100
AcDbEntity
  8
0
  6
Continuous
 62
     0
370
     0
100
AcDbMText
 10
0.7692307520371217
 20
-1.49821900576353
 30
0.0
 40
0.1017628205128205
 41
0.0
 71
     1
 72
     1
  1
PLATE THERMAL VIA BARRELS WITH 1-OUNCE COPPER (18µm).
  7
SLDTEXTSTYLE0
 73
     1
 44
1.0
1001
ACAD
1000
MTEXTBEGIN
1070
    73
1070
     1
1070
    44
1040
1.0
1070
    74
1070
     0
1000
MTEXTEND
  0
MTEXT
  5
82
330
69
100
AcDbEntity
  8
0
  6
Continuous
 62
     0
370
     0
100
AcDbMText
 10
0.3846153846153847
 20
-1.49821900576353
 30
0.0
 40
0.1017628205128205
 41
0.0
 71
     1
 72
     1
  1
C.
  7
SLDTEXTSTYLE0
 73
     1
 44
1.0
1001
ACAD
1000
MTEXTBEGIN
1070
    73
1070
     1
1070
    44
1040
1.0
1070
    74
1070
     0
1000
MTEXTEND
  0
MTEXT
  5
83
330
69
100
AcDbEntity
  8
0
  6
Continuous
 62
     0
370
     0
100
AcDbMText
 10
0.7692307520371217
 20
-1.633902764807526
 30
0.0
 40
0.1017628205128205
 41
0.0
 71
     1
 72
     1
  1
TENT (COVER) THERMAL VIAS WITH SOLDER MASK 0.1mm LARGER THAN THE VIA DIAMETER.
  7
SLDTEXTSTYLE0
 73
     1
 44
1.0
1001
ACAD
1000
MTEXTBEGIN
1070
    73
1070
     1
1070
    44
1040
1.0
1070
    74
1070
     0
1000
MTEXTEND
  0
MTEXT
  5
84
330
69
100
AcDbEntity
  8
0
  6
Continuous
 62
     0
370
     0
100
AcDbMText
 10
0.3846153846153847
 20
-1.633902764807526
 30
0.0
 40
0.1017628205128205
 41
0.0
 71
     1
 72
     1
  1
D.
  7
SLDTEXTSTYLE0
 73
     1
 44
1.0
1001
ACAD
1000
MTEXTBEGIN
1070
    73
1070
     1
1070
    44
1040
1.0
1070
    74
1070
     0
1000
MTEXTEND
  0
MTEXT
  5
85
330
69
100
AcDbEntity
  8
0
  6
Continuous
 62
     0
370
     0
100
AcDbMText
 10
0.3846153760185608
 20
-1.769586523851522
 30
0.0
 40
0.1017628205128205
 41
0.0
 71
     1
 72
     1
  1
STENCIL DESIGN MAY BE CHANGED TO SUITE REQUIREMENTS OF THE DESIGNER.
  7
SLDTEXTSTYLE0
 73
     1
 44
1.0
1001
ACAD
1000
MTEXTBEGIN
1070
    73
1070
     1
1070
    44
1040
1.0
1070
    74
1070
     0
1000
MTEXTEND
  0
MTEXT
  5
86
330
69
100
AcDbEntity
  8
0
  6
Continuous
 62
     0
370
     0
100
AcDbMText
 10
0.0
 20
-1.769586523851522
 30
0.0
 40
0.1017628205128205
 41
0.0
 71
     1
 72
     1
  1
8.
  7
SLDTEXTSTYLE0
 73
     1
 44
1.0
1001
ACAD
1000
MTEXTBEGIN
1070
    73
1070
     1
1070
    44
1040
1.0
1070
    74
1070
     0
1000
MTEXTEND
  0
MTEXT
  5
87
330
69
100
AcDbEntity
  8
0
  6
Continuous
 62
     0
370
     0
100
AcDbMText
 10
0.7692307520371217
 20
-1.905270282895519
 30
0.0
 40
0.1017628205128205
 41
0.0
 71
     1
 72
     1
  1
LASER CUT STENCIL 0.125mm (5mil) THICK.  APERTURE SIZE-TO-LAND RATIO OF 1:1.
  7
SLDTEXTSTYLE0
 73
     1
 44
1.0
1001
ACAD
1000
MTEXTBEGIN
1070
    73
1070
     1
1070
    44
1040
1.0
1070
    74
1070
     0
1000
MTEXTEND
  0
MTEXT
  5
88
330
69
100
AcDbEntity
  8
0
  6
Continuous
 62
     0
370
     0
100
AcDbMText
 10
0.3846153846153847
 20
-1.905270282895519
 30
0.0
 40
0.1017628205128205
 41
0.0
 71
     1
 72
     1
  1
A.
  7
SLDTEXTSTYLE0
 73
     1
 44
1.0
1001
ACAD
1000
MTEXTBEGIN
1070
    73
1070
     1
1070
    44
1040
1.0
1070
    74
1070
     0
1000
MTEXTEND
  0
MTEXT
  5
89
330
69
100
AcDbEntity
  8
0
  6
Continuous
 62
     0
370
     0
100
AcDbMText
 10
0.7692307520371217
 20
-2.040954041939515
 30
0.0
 40
0.1017628205128205
 41
0.0
 71
     1
 72
     1
  1
THE SOLDER PASTE OPENING IN THE THERMAL PAD AREA SHOULD BE A MATRIX ARRAY OF 
  7
SLDTEXTSTYLE0
 73
     1
 44
1.0
1001
ACAD
1000
MTEXTBEGIN
1070
    73
1070
     1
1070
    44
1040
1.0
1070
    74
1070
     0
1000
MTEXTEND
  0
MTEXT
  5
8A
330
69
100
AcDbEntity
  8
0
  6
Continuous
 62
     0
370
     0
100
AcDbMText
 10
0.3846153846153847
 20
-2.040954041939515
 30
0.0
 40
0.1017628205128205
 41
0.0
 71
     1
 72
     1
  1
B.
  7
SLDTEXTSTYLE0
 73
     1
 44
1.0
1001
ACAD
1000
MTEXTBEGIN
1070
    73
1070
     1
1070
    44
1040
1.0
1070
    74
1070
     0
1000
MTEXTEND
  0
MTEXT
  5
8B
330
69
100
AcDbEntity
  8
0
  6
Continuous
 62
     0
370
     0
100
AcDbMText
 10
0.7692307520371217
 20
-2.176637800983511
 30
0.0
 40
0.1017628205128205
 41
0.0
 71
     1
 72
     1
  1
SMALLER APERATURES INSTEAD OF ONE LARGE APERATURE TO CONTROL PASTE AMOUNTS.
  7
SLDTEXTSTYLE0
 73
     1
 44
1.0
1001
ACAD
1000
MTEXTBEGIN
1070
    73
1070
     1
1070
    44
1040
1.0
1070
    74
1070
     0
1000
MTEXTEND
  0
MTEXT
  5
8C
330
69
100
AcDbEntity
  8
0
  6
Continuous
 62
     0
370
     0
100
AcDbMText
 10
0.7692307520371217
 20
-2.312321560027507
 30
0.0
 40
0.1017628205128205
 41
0.0
 71
     1
 72
     1
  1
APPLY 50% TO 80% SOLDER PASTE COVERAGE IN THE PAD AREA.
  7
SLDTEXTSTYLE0
 73
     1
 44
1.0
1001
ACAD
1000
MTEXTBEGIN
1070
    73
1070
     1
1070
    44
1040
1.0
1070
    74
1070
     0
1000
MTEXTEND
  0
MTEXT
  5
8D
330
69
100
AcDbEntity
  8
0
  6
Continuous
 62
     0
370
     0
100
AcDbMText
 10
0.3846153846153847
 20
-2.312321560027507
 30
0.0
 40
0.1017628205128205
 41
0.0
 71
     1
 72
     1
  1
C.
  7
SLDTEXTSTYLE0
 73
     1
 44
1.0
1001
ACAD
1000
MTEXTBEGIN
1070
    73
1070
     1
1070
    44
1040
1.0
1070
    74
1070
     0
1000
MTEXTEND
  0
ENDBLK
  5
6B
330
69
100
AcDbEntity
  8
0
100
AcDbBlockEnd
  0
BLOCK
  5
90
330
8F
100
AcDbEntity
  8
0
100
AcDbBlockBegin
  2
SW_NOTE_20
 70
     0
 10
0.0
 20
0.0
 30
0.0
  3
SW_NOTE_20
  1

  0
MTEXT
  5
92
330
8F
100
AcDbEntity
  8
0
  6
Continuous
 62
     0
370
     0
100
AcDbMText
 10
0.0220118378404778
 20
0.0665603087089726
 30
0.0
 40
0.1221153846153846
 41
0.0
 71
     1
 72
     1
  1
COMPONENT 
  7
SLDTEXTSTYLE0
 73
     1
 44
1.0
1001
ACAD
1000
MTEXTBEGIN
1070
    73
1070
     1
1070
    44
1040
1.0
1070
    74
1070
     0
1000
MTEXTEND
  0
MTEXT
  5
93
330
8F
100
AcDbEntity
  8
0
  6
Continuous
 62
     0
370
     0
100
AcDbMText
 10
0.0220118378404778
 20
-0.0940166102414751
 30
0.0
 40
0.1221153846153846
 41
0.0
 71
     1
 72
     1
  1
PAD
  7
SLDTEXTSTYLE0
 73
     1
 44
1.0
1001
ACAD
1000
MTEXTBEGIN
1070
    73
1070
     1
1070
    44
1040
1.0
1070
    74
1070
     0
1000
MTEXTEND
  0
ENDBLK
  5
91
330
8F
100
AcDbEntity
  8
0
100
AcDbBlockEnd
  0
BLOCK
  5
98
330
97
100
AcDbEntity
  8
0
100
AcDbBlockBegin
  2
SW_NOTE_21
 70
     0
 10
0.0
 20
0.0
 30
0.0
  3
SW_NOTE_21
  1

  0
MTEXT
  5
9A
330
97
100
AcDbEntity
  8
0
  6
Continuous
 62
     0
370
     0
100
AcDbMText
 10
1.12861328125
 20
0.1819805438701923
 30
0.0
 40
0.1424679487179487
 41
0.0
 71
     2
 72
     1
  1
12-LEAD 3mm P=0.65mm 
  7
SLDTEXTSTYLE0
 73
     1
 44
1.0
1001
ACAD
1000
MTEXTBEGIN
1070
    73
1070
     1
1070
    44
1040
1.0
1070
    74
1070
     0
1000
MTEXTEND
  0
MTEXT
  5
9B
330
97
100
AcDbEntity
  8
0
  6
Continuous
 62
     0
370
     0
100
AcDbMText
 10
1.100136109078541
 20
-0.0079767187914023
 30
0.0
 40
0.1424679487179487
 41
0.0
 71
     2
 72
     1
  1
QFN CAVITY PACKAGE
  7
SLDTEXTSTYLE0
 73
     1
 44
1.0
1001
ACAD
1000
MTEXTBEGIN
1070
    73
1070
     1
1070
    44
1040
1.0
1070
    74
1070
     0
1000
MTEXTEND
  0
ENDBLK
  5
99
330
97
100
AcDbEntity
  8
0
100
AcDbBlockEnd
  0
BLOCK
  5
A9
330
A8
100
AcDbEntity
  8
0
100
AcDbBlockBegin
  2
SW_NOTE_22
 70
     0
 10
0.0
 20
0.0
 30
0.0
  3
SW_NOTE_22
  1

  0
MTEXT
  5
AB
330
A8
100
AcDbEntity
  8
0
  6
Continuous
 62
     0
370
     0
100
AcDbMText
 10
0.2747596153846155
 20
0.1559833233173076
 30
0.0
 40
0.1221153846153846
 41
0.0
 71
     2
 72
     1
  1
461370
  7
SLDTEXTSTYLE1
 73
     1
 44
1.0
1001
ACAD
1000
MTEXTBEGIN
1070
    73
1070
     1
1070
    44
1040
1.0
1070
    74
1070
     0
1000
MTEXTEND
  0
MTEXT
  5
AC
330
A8
100
AcDbEntity
  8
0
  6
Continuous
 62
     0
370
     0
100
AcDbMText
 10
0.2756641629510204
 20
-0.0068371875354877
 30
0.0
 40
0.1221153846153846
 41
0.0
 71
     2
 72
     1
  1
M-QFN12W.65B
  7
SLDTEXTSTYLE1
 73
     1
 44
1.0
1001
ACAD
1000
MTEXTBEGIN
1070
    73
1070
     1
1070
    44
1040
1.0
1070
    74
1070
     0
1000
MTEXTEND
  0
ENDBLK
  5
AA
330
A8
100
AcDbEntity
  8
0
100
AcDbBlockEnd
  0
BLOCK
  5
168
330
167
100
AcDbEntity
  8
0
100
AcDbBlockBegin
  2
_D
 70
     0
 10
0.0
 20
0.0
 30
0.0
  3
_D
  1

  0
SOLID
  5
16A
330
167
100
AcDbEntity
  8
0
  6
Continuous
 62
     7
370
     0
100
AcDbTrace
 10
2.746718687794943
 20
7.472088030663142
 30
0.0
 11
2.82364176471802
 21
7.462472646047757
 31
0.0
 12
2.82364176471802
 22
7.481703415278527
 32
0.0
 13
2.82364176471802
 23
7.481703415278527
 33
0.0
  0
SOLID
  5
16B
330
167
100
AcDbEntity
  8
0
  6
Continuous
 62
     7
370
     0
100
AcDbTrace
 10
4.046718687794943
 20
7.472088030663146
 30
0.0
 11
3.969795610871866
 21
7.481703415278531
 31
0.0
 12
3.969795610871866
 22
7.462472646047761
 32
0.0
 13
3.969795610871866
 23
7.462472646047761
 33
0.0
  0
LINE
  5
16C
330
167
100
AcDbEntity
  8
0
  6
Continuous
 62
     7
370
     0
100
AcDbLine
 10
2.746718687794943
 20
7.330708222811683
 30
0.0
 11
2.746718687794942
 21
7.549011107586219
 31
0.0
  0
LINE
  5
16D
330
167
100
AcDbEntity
  8
0
  6
Continuous
 62
     7
370
     0
100
AcDbLine
 10
4.046718687794943
 20
7.330708222811687
 30
0.0
 11
4.046718687794942
 21
7.549011107586223
 31
0.0
  0
LINE
  5
16E
330
167
100
AcDbEntity
  8
0
  6
Continuous
 62
     7
370
     0
100
AcDbLine
 10
2.746718687794943
 20
7.472088030663142
 30
0.0
 11
3.206808210341361
 21
7.472088030663143
 31
0.0
  0
LINE
  5
16F
330
167
100
AcDbEntity
  8
0
  6
Continuous
 62
     7
370
     0
100
AcDbLine
 10
4.046718687794943
 20
7.472088030663146
 30
0.0
 11
3.586629165248524
 21
7.472088030663145
 31
0.0
  0
MTEXT
  5
170
330
167
100
AcDbEntity
  8
0
  6
Continuous
 62
     7
370
     0
100
AcDbMText
 10
3.267865902649053
 20
7.524762460101276
 30
-0.0000000000000522
 40
0.1017628205128205
 41
0.0
 71
     1
 72
     1
  1
1.30
  7
SLDTEXTSTYLE0
 73
     1
 44
1.0
1001
ACAD
1000
MTEXTBEGIN
1070
    73
1070
     1
1070
    44
1040
1.0
1070
    74
1070
     0
1000
MTEXTEND
  0
ENDBLK
  5
169
330
167
100
AcDbEntity
  8
0
100
AcDbBlockEnd
  0
BLOCK
  5
173
330
172
100
AcDbEntity
  8
0
100
AcDbBlockBegin
  2
_D_1
 70
     0
 10
0.0
 20
0.0
 30
0.0
  3
_D_1
  1

  0
SOLID
  5
175
330
172
100
AcDbEntity
  8
0
  6
Continuous
 62
     7
370
     0
100
AcDbTrace
 10
1.072006371566978
 20
6.107631299734745
 30
0.0
 11
1.062390986951594
 21
6.030708222811668
 31
0.0
 12
1.081621756182363
 22
6.030708222811668
 32
0.0
 13
1.081621756182363
 23
6.030708222811668
 33
0.0
  0
SOLID
  5
176
330
172
100
AcDbEntity
  8
0
  6
Continuous
 62
     7
370
     0
100
AcDbTrace
 10
1.072006371566988
 20
4.807631299734746
 30
0.0
 11
1.081621756182372
 21
4.884554376657822
 31
0.0
 12
1.062390986951603
 22
4.884554376657822
 32
0.0
 13
1.062390986951603
 23
4.884554376657822
 33
0.0
  0
LINE
  5
177
330
172
100
AcDbEntity
  8
0
  6
Continuous
 62
     7
370
     0
100
AcDbLine
 10
1.523641764718023
 20
6.107631299734748
 30
0.0
 11
0.995083294643901
 21
6.107631299734744
 31
0.0
  0
LINE
  5
178
330
172
100
AcDbEntity
  8
0
  6
Continuous
 62
     7
370
     0
100
AcDbLine
 10
1.523641764718031
 20
4.807631299734749
 30
0.0
 11
0.9950832946439112
 21
4.807631299734745
 31
0.0
  0
LINE
  5
179
330
172
100
AcDbEntity
  8
0
  6
Continuous
 62
     7
370
     0
100
AcDbLine
 10
1.072006371566978
 20
6.107631299734745
 30
0.0
 11
1.072006371566982
 21
5.53494297082228
 31
0.0
  0
LINE
  5
17A
330
172
100
AcDbEntity
  8
0
  6
Continuous
 62
     7
370
     0
100
AcDbLine
 10
1.072006371566988
 20
4.807631299734746
 30
0.0
 11
1.072006371566983
 21
5.380319628647212
 31
0.0
  0
MTEXT
  5
17B
330
172
100
AcDbEntity
  8
0
  6
Continuous
 62
     7
370
     0
100
AcDbMText
 10
0.9431535864210943
 20
5.510305729172878
 30
-0.0000000000000382
 40
0.1017628205128205
 41
0.0
 71
     1
 72
     1
  1
1.30
  7
SLDTEXTSTYLE0
 73
     1
 44
1.0
1001
ACAD
1000
MTEXTBEGIN
1070
    73
1070
     1
1070
    44
1040
1.0
1070
    74
1070
     0
1000
MTEXTEND
  0
ENDBLK
  5
174
330
172
100
AcDbEntity
  8
0
100
AcDbBlockEnd
  0
BLOCK
  5
17F
330
17E
100
AcDbEntity
  8
0
100
AcDbBlockBegin
  2
_D_2
 70
     0
 10
0.0
 20
0.0
 30
0.0
  3
_D_2
  1

  0
SOLID
  5
181
330
17E
100
AcDbEntity
  8
0
  6
Continuous
 62
     7
370
     0
100
AcDbTrace
 10
1.393334150826393
 20
5.457631299734767
 30
0.0
 11
1.402949535441776
 21
5.534554376657844
 31
0.0
 12
1.383718766211007
 22
5.534554376657844
 32
0.0
 13
1.383718766211007
 23
5.534554376657844
 33
0.0
  0
SOLID
  5
182
330
17E
100
AcDbEntity
  8
0
  6
Continuous
 62
     7
370
     0
100
AcDbTrace
 10
1.393334150826388
 20
6.107631299734748
 30
0.0
 11
1.383718766211004
 21
6.030708222811671
 31
0.0
 12
1.402949535441773
 22
6.030708222811671
 32
0.0
 13
1.402949535441773
 23
6.030708222811671
 33
0.0
  0
LINE
  5
183
330
17E
100
AcDbEntity
  8
0
  6
Continuous
 62
     7
370
     0
100
AcDbLine
 10
1.523641764718018
 20
5.457631299734767
 30
0.0
 11
1.316411073903316
 21
5.457631299734766
 31
0.0
  0
LINE
  5
184
330
17E
100
AcDbEntity
  8
0
  6
Continuous
 62
     7
370
     0
100
AcDbLine
 10
1.523641764718023
 20
6.107631299734748
 30
0.0
 11
1.316411073903311
 21
6.107631299734747
 31
0.0
  0
LINE
  5
185
330
17E
100
AcDbEntity
  8
0
  6
Continuous
 62
     7
370
     0
100
AcDbLine
 10
1.393334150826393
 20
5.457631299734767
 30
0.0
 11
1.393334150826391
 21
5.705319628647223
 31
0.0
  0
LINE
  5
186
330
17E
100
AcDbEntity
  8
0
  6
Continuous
 62
     7
370
     0
100
AcDbLine
 10
1.393334150826388
 20
6.107631299734748
 30
0.0
 11
1.39333415082639
 21
5.859942970822291
 31
0.0
  0
MTEXT
  5
187
330
17E
100
AcDbEntity
  8
0
  6
Continuous
 62
     7
370
     0
100
AcDbMText
 10
1.264481365680502
 20
5.835305729172889
 30
-0.0000000000000404
 40
0.1017628205128205
 41
0.0
 71
     1
 72
     1
  1
0.65
  7
SLDTEXTSTYLE0
 73
     1
 44
1.0
1001
ACAD
1000
MTEXTBEGIN
1070
    73
1070
     1
1070
    44
1040
1.0
1070
    74
1070
     0
1000
MTEXTEND
  0
ENDBLK
  5
180
330
17E
100
AcDbEntity
  8
0
100
AcDbBlockEnd
  0
BLOCK
  5
18A
330
189
100
AcDbEntity
  8
0
100
AcDbBlockBegin
  2
_D_3
 70
     0
 10
0.0
 20
0.0
 30
0.0
  3
_D_3
  1

  0
SOLID
  5
18C
330
189
100
AcDbEntity
  8
0
  6
Continuous
 62
     7
370
     0
100
AcDbTrace
 10
1.393334150826386
 20
4.957631299734749
 30
0.0
 11
1.383718766211002
 21
4.880708222811672
 31
0.0
 12
1.402949535441771
 22
4.880708222811672
 32
0.0
 13
1.402949535441771
 23
4.880708222811672
 33
0.0
  0
SOLID
  5
18D
330
189
100
AcDbEntity
  8
0
  6
Continuous
 62
     7
370
     0
100
AcDbTrace
 10
1.393334150826388
 20
4.657631299734748
 30
0.0
 11
1.402949535441772
 21
4.734554376657825
 31
0.0
 12
1.383718766211003
 22
4.734554376657825
 32
0.0
 13
1.383718766211003
 23
4.734554376657825
 33
0.0
  0
LINE
  5
18E
330
189
100
AcDbEntity
  8
0
  6
Continuous
 62
     7
370
     0
100
AcDbLine
 10
1.639026380102646
 20
4.95763129973475
 30
0.0
 11
1.316411073903309
 21
4.957631299734748
 31
0.0
  0
LINE
  5
18F
330
189
100
AcDbEntity
  8
0
  6
Continuous
 62
     7
370
     0
100
AcDbLine
 10
1.639026380102648
 20
4.65763129973475
 30
0.0
 11
1.316411073903311
 21
4.657631299734748
 31
0.0
  0
LINE
  5
190
330
189
100
AcDbEntity
  8
0
  6
Continuous
 62
     7
370
     0
100
AcDbLine
 10
1.27794953544177
 20
4.355585876508067
 30
0.0
 11
1.393334150826386
 21
4.355585876508067
 31
0.0
  0
LINE
  5
191
330
189
100
AcDbEntity
  8
0
  6
Continuous
 62
     7
370
     0
100
AcDbLine
 10
1.393334150826386
 20
4.355585876508067
 30
0.0
 11
1.393334150826388
 21
4.657631299734748
 31
0.0
  0
LINE
  5
192
330
189
100
AcDbEntity
  8
0
  6
Continuous
 62
     7
370
     0
100
AcDbLine
 10
1.393334150826386
 20
4.957631299734749
 30
0.0
 11
1.393334150826388
 21
4.657631299734748
 31
0.0
  0
MTEXT
  5
193
330
189
100
AcDbEntity
  8
0
  6
Continuous
 62
     7
370
     0
100
AcDbMText
 10
0.9323328265739442
 20
4.404727070230229
 30
0.106
 40
0.1017628205128205
 41
0.0
 71
     1
 72
     1
  1
0.30
  7
SLDTEXTSTYLE0
 73
     1
 44
1.0
1001
ACAD
1000
MTEXTBEGIN
1070
    73
1070
     1
1070
    44
1040
1.0
1070
    74
1070
     0
1000
MTEXTEND
  0
ENDBLK
  5
18B
330
189
100
AcDbEntity
  8
0
100
AcDbBlockEnd
  0
BLOCK
  5
196
330
195
100
AcDbEntity
  8
0
100
AcDbBlockBegin
  2
_D_4
 70
     0
 10
0.0
 20
0.0
 30
0.0
  3
_D_4
  1

  0
SOLID
  5
198
330
195
100
AcDbEntity
  8
0
  6
Continuous
 62
     7
370
     0
100
AcDbTrace
 10
0.8505648416410881
 20
6.957631299734754
 30
0.0
 11
0.8409494570257038
 21
6.880708222811677
 31
0.0
 12
0.860180226256473
 22
6.880708222811677
 32
0.0
 13
0.860180226256473
 23
6.880708222811677
 33
0.0
  0
SOLID
  5
199
330
195
100
AcDbEntity
  8
0
  6
Continuous
 62
     7
370
     0
100
AcDbTrace
 10
0.8505648416410988
 20
3.957631299734753
 30
0.0
 11
0.8601802262564833
 21
4.03455437665783
 31
0.0
 12
0.8409494570257141
 22
4.03455437665783
 32
0.0
 13
0.8409494570257141
 23
4.03455437665783
 33
0.0
  0
LINE
  5
19A
330
195
100
AcDbEntity
  8
0
  6
Continuous
 62
     7
370
     0
100
AcDbLine
 10
1.839026380102636
 20
6.957631299734757
 30
0.0
 11
0.7736417647180113
 21
6.957631299734754
 31
0.0
  0
LINE
  5
19B
330
195
100
AcDbEntity
  8
0
  6
Continuous
 62
     7
370
     0
100
AcDbLine
 10
1.839026380102647
 20
3.957631299734757
 30
0.0
 11
0.7736417647180219
 21
3.957631299734752
 31
0.0
  0
LINE
  5
19C
330
195
100
AcDbEntity
  8
0
  6
Continuous
 62
     7
370
     0
100
AcDbLine
 10
0.8505648416410881
 20
6.957631299734754
 30
0.0
 11
0.8505648416410933
 21
5.538476206538262
 31
0.0
  0
LINE
  5
19D
330
195
100
AcDbEntity
  8
0
  6
Continuous
 62
     7
370
     0
100
AcDbLine
 10
0.8505648416410988
 20
3.957631299734753
 30
0.0
 11
0.8505648416410938
 21
5.376786392931249
 31
0.0
  0
MTEXT
  5
19E
330
195
100
AcDbEntity
  8
0
  6
Continuous
 62
     7
370
     0
100
AcDbMText
 10
0.7716986550177042
 20
5.506772493456913
 30
0.106
 40
0.1017628205128205
 41
0.0
 71
     1
 72
     1
  1
3
  7
SLDTEXTSTYLE0
 73
     1
 44
1.0
1001
ACAD
1000
MTEXTBEGIN
1070
    73
1070
     1
1070
    44
1040
1.0
1070
    74
1070
     0
1000
MTEXTEND
  0
ENDBLK
  5
197
330
195
100
AcDbEntity
  8
0
100
AcDbBlockEnd
  0
BLOCK
  5
1A1
330
1A0
100
AcDbEntity
  8
0
100
AcDbBlockBegin
  2
_D_5
 70
     0
 10
0.0
 20
0.0
 30
0.0
  3
_D_5
  1

  0
SOLID
  5
1A3
330
1A0
100
AcDbEntity
  8
0
  6
Continuous
 62
     7
370
     0
100
AcDbTrace
 10
0.5635329701077238
 20
7.157631299734751
 30
0.0
 11
0.5539175854923394
 21
7.080708222811674
 31
0.0
 12
0.5731483547231086
 22
7.080708222811674
 32
0.0
 13
0.5731483547231086
 23
7.080708222811674
 33
0.0
  0
SOLID
  5
1A4
330
1A0
100
AcDbEntity
  8
0
  6
Continuous
 62
     7
370
     0
100
AcDbTrace
 10
0.563532970107736
 20
3.757631299734753
 30
0.0
 11
0.5731483547231204
 21
3.83455437665783
 31
0.0
 12
0.5539175854923512
 22
3.83455437665783
 32
0.0
 13
0.5539175854923512
 23
3.83455437665783
 33
0.0
  0
LINE
  5
1A5
330
1A0
100
AcDbEntity
  8
0
  6
Continuous
 62
     7
370
     0
100
AcDbLine
 10
2.539026380102635
 20
7.157631299734759
 30
0.0
 11
0.4866098931846468
 21
7.157631299734751
 31
0.0
  0
LINE
  5
1A6
330
1A0
100
AcDbEntity
  8
0
  6
Continuous
 62
     7
370
     0
100
AcDbLine
 10
2.539026380102647
 20
3.75763129973476
 30
0.0
 11
0.4866098931846591
 21
3.757631299734752
 31
0.0
  0
LINE
  5
1A7
330
1A0
100
AcDbEntity
  8
0
  6
Continuous
 62
     7
370
     0
100
AcDbLine
 10
0.5635329701077238
 20
7.157631299734751
 30
0.0
 11
0.5635329701077296
 21
5.53847620653826
 31
0.0
  0
LINE
  5
1A8
330
1A0
100
AcDbEntity
  8
0
  6
Continuous
 62
     7
370
     0
100
AcDbLine
 10
0.563532970107736
 20
3.757631299734753
 30
0.0
 11
0.5635329701077302
 21
5.376786392931245
 31
0.0
  0
MTEXT
  5
1A9
330
1A0
100
AcDbEntity
  8
0
  6
Continuous
 62
     7
370
     0
100
AcDbMText
 10
0.3907246156738173
 20
5.506772493456912
 30
0.106
 40
0.1017628205128205
 41
0.0
 71
     1
 72
     1
  1
3.40
  7
SLDTEXTSTYLE0
 73
     1
 44
1.0
1001
ACAD
1000
MTEXTBEGIN
1070
    73
1070
     1
1070
    44
1040
1.0
1070
    74
1070
     0
1000
MTEXTEND
  0
ENDBLK
  5
1A2
330
1A0
100
AcDbEntity
  8
0
100
AcDbBlockEnd
  0
BLOCK
  5
1AC
330
1AB
100
AcDbEntity
  8
0
100
AcDbBlockBegin
  2
_D_6
 70
     0
 10
0.0
 20
0.0
 30
0.0
  3
_D_6
  1

  0
SOLID
  5
1AE
330
1AB
100
AcDbEntity
  8
0
  6
Continuous
 62
     7
370
     0
100
AcDbTrace
 10
1.896718687794942
 20
7.6693313810885
 30
0.0
 11
1.973641764718019
 21
7.659715996473115
 31
0.0
 12
1.973641764718019
 22
7.678946765703885
 32
0.0
 13
1.973641764718019
 23
7.678946765703885
 33
0.0
  0
SOLID
  5
1AF
330
1AB
100
AcDbEntity
  8
0
  6
Continuous
 62
     7
370
     0
100
AcDbTrace
 10
4.896718687794942
 20
7.669331381088511
 30
0.0
 11
4.819795610871866
 21
7.678946765703896
 31
0.0
 12
4.819795610871866
 22
7.659715996473126
 32
0.0
 13
4.819795610871866
 23
7.659715996473126
 33
0.0
  0
LINE
  5
1B0
330
1AB
100
AcDbEntity
  8
0
  6
Continuous
 62
     7
370
     0
100
AcDbLine
 10
1.896718687794944
 20
7.015323607427065
 30
0.0
 11
1.896718687794942
 21
7.746254458011577
 31
0.0
  0
LINE
  5
1B1
330
1AB
100
AcDbEntity
  8
0
  6
Continuous
 62
     7
370
     0
100
AcDbLine
 10
4.896718687794944
 20
7.015323607427076
 30
0.0
 11
4.896718687794942
 21
7.746254458011588
 31
0.0
  0
LINE
  5
1B2
330
1AB
100
AcDbEntity
  8
0
  6
Continuous
 62
     7
370
     0
100
AcDbLine
 10
1.896718687794942
 20
7.6693313810885
 30
0.0
 11
3.317852501171552
 21
7.669331381088506
 31
0.0
  0
LINE
  5
1B3
330
1AB
100
AcDbEntity
  8
0
  6
Continuous
 62
     7
370
     0
100
AcDbLine
 10
4.896718687794942
 20
7.669331381088511
 30
0.0
 11
3.475584874418332
 21
7.669331381088507
 31
0.0
  0
MTEXT
  5
1B4
330
1AB
100
AcDbEntity
  8
0
  6
Continuous
 62
     7
370
     0
100
AcDbMText
 10
3.317852501171552
 20
7.718472574810665
 30
0.106
 40
0.1017628205128205
 41
0.0
 71
     1
 72
     1
  1
3
  7
SLDTEXTSTYLE0
 73
     1
 44
1.0
1001
ACAD
1000
MTEXTBEGIN
1070
    73
1070
     1
1070
    44
1040
1.0
1070
    74
1070
     0
1000
MTEXTEND
  0
ENDBLK
  5
1AD
330
1AB
100
AcDbEntity
  8
0
100
AcDbBlockEnd
  0
BLOCK
  5
1B7
330
1B6
100
AcDbEntity
  8
0
100
AcDbBlockBegin
  2
_D_7
 70
     0
 10
0.0
 20
0.0
 30
0.0
  3
_D_7
  1

  0
SOLID
  5
1B9
330
1B6
100
AcDbEntity
  8
0
  6
Continuous
 62
     7
370
     0
100
AcDbTrace
 10
1.696718687794922
 20
7.871322457973937
 30
0.0
 11
1.773641764717999
 21
7.861707073358553
 31
0.0
 12
1.773641764717998
 22
7.880937842589323
 32
0.0
 13
1.773641764717998
 23
7.880937842589323
 33
0.0
  0
SOLID
  5
1BA
330
1B6
100
AcDbEntity
  8
0
  6
Continuous
 62
     7
370
     0
100
AcDbTrace
 10
5.096718687794913
 20
7.871322457973985
 30
0.0
 11
5.019795610871836
 21
7.88093784258937
 31
0.0
 12
5.019795610871836
 22
7.8617070733586
 32
0.0
 13
5.019795610871836
 23
7.8617070733586
 33
0.0
  0
LINE
  5
1BB
330
1B6
100
AcDbEntity
  8
0
  6
Continuous
 62
     7
370
     0
100
AcDbLine
 10
1.696718687794944
 20
6.315323607427059
 30
0.0
 11
1.696718687794921
 21
7.948245534897014
 31
0.0
  0
LINE
  5
1BC
330
1B6
100
AcDbEntity
  8
0
  6
Continuous
 62
     7
370
     0
100
AcDbLine
 10
5.096718687794936
 20
6.315323607427094
 30
0.0
 11
5.096718687794912
 21
7.948245534897063
 31
0.0
  0
LINE
  5
1BD
330
1B6
100
AcDbEntity
  8
0
  6
Continuous
 62
     7
370
     0
100
AcDbLine
 10
1.696718687794922
 20
7.871322457973937
 30
0.0
 11
3.223910333361005
 21
7.871322457973959
 31
0.0
  0
LINE
  5
1BE
330
1B6
100
AcDbEntity
  8
0
  6
Continuous
 62
     7
370
     0
100
AcDbLine
 10
5.096718687794913
 20
7.871322457973985
 30
0.0
 11
3.56952704222883
 21
7.871322457973963
 31
0.0
  0
MTEXT
  5
1BF
330
1B6
100
AcDbEntity
  8
0
  6
Continuous
 62
     7
370
     0
100
AcDbMText
 10
3.223910333361005
 20
7.920463651696121
 30
0.106
 40
0.1017628205128205
 41
0.0
 71
     1
 72
     1
  1
3.40
  7
SLDTEXTSTYLE0
 73
     1
 44
1.0
1001
ACAD
1000
MTEXTBEGIN
1070
    73
1070
     1
1070
    44
1040
1.0
1070
    74
1070
     0
1000
MTEXTEND
  0
ENDBLK
  5
1B8
330
1B6
100
AcDbEntity
  8
0
100
AcDbBlockEnd
  0
BLOCK
  5
1C2
330
1C1
100
AcDbEntity
  8
0
100
AcDbBlockBegin
  2
_D_8
 70
     0
 10
0.0
 20
0.0
 30
0.0
  3
_D_8
  1

  0
SOLID
  5
1C4
330
1C1
100
AcDbEntity
  8
0
  6
Continuous
 62
     7
370
     0
100
AcDbTrace
 10
7.252307359581732
 20
6.107631299734775
 30
0.0
 11
7.242691974966347
 21
6.030708222811698
 31
0.0
 12
7.261922744197117
 22
6.030708222811698
 32
0.0
 13
7.261922744197117
 23
6.030708222811698
 33
0.0
  0
SOLID
  5
1C5
330
1C1
100
AcDbEntity
  8
0
  6
Continuous
 62
     7
370
     0
100
AcDbTrace
 10
7.252307359581736
 20
4.807631299734776
 30
0.0
 11
7.261922744197121
 21
4.884554376657852
 31
0.0
 12
7.24269197496635
 22
4.884554376657852
 32
0.0
 13
7.24269197496635
 23
4.884554376657852
 33
0.0
  0
LINE
  5
1C6
330
1C1
100
AcDbEntity
  8
0
  6
Continuous
 62
     7
370
     0
100
AcDbLine
 10
4.104410995487254
 20
6.107631299734764
 30
0.0
 11
7.329230436504809
 21
6.107631299734775
 31
0.0
  0
LINE
  5
1C7
330
1C1
100
AcDbEntity
  8
0
  6
Continuous
 62
     7
370
     0
100
AcDbLine
 10
4.104410995487259
 20
4.807631299734764
 30
0.0
 11
7.329230436504813
 21
4.807631299734776
 31
0.0
  0
LINE
  5
1C8
330
1C1
100
AcDbEntity
  8
0
  6
Continuous
 62
     7
370
     0
100
AcDbLine
 10
7.252307359581732
 20
6.107631299734775
 30
0.0
 11
7.252307359581734
 21
5.538476206538284
 31
0.0
  0
LINE
  5
1C9
330
1C1
100
AcDbEntity
  8
0
  6
Continuous
 62
     7
370
     0
100
AcDbLine
 10
7.252307359581736
 20
4.807631299734776
 30
0.0
 11
7.252307359581734
 21
5.376786392931269
 31
0.0
  0
MTEXT
  5
1CA
330
1C1
100
AcDbEntity
  8
0
  6
Continuous
 62
     7
370
     0
100
AcDbMText
 10
7.079499005147821
 20
5.506772493456935
 30
0.106
 40
0.1017628205128205
 41
0.0
 71
     1
 72
     1
  1
1.30
  7
SLDTEXTSTYLE0
 73
     1
 44
1.0
1001
ACAD
1000
MTEXTBEGIN
1070
    73
1070
     1
1070
    44
1040
1.0
1070
    74
1070
     0
1000
MTEXTEND
  0
ENDBLK
  5
1C3
330
1C1
100
AcDbEntity
  8
0
100
AcDbBlockEnd
  0
BLOCK
  5
1CD
330
1CC
100
AcDbEntity
  8
0
100
AcDbBlockBegin
  2
_D_9
 70
     0
 10
0.0
 20
0.0
 30
0.0
  3
_D_9
  1

  0
SOLID
  5
1CF
330
1CC
100
AcDbEntity
  8
0
  6
Continuous
 62
     7
370
     0
100
AcDbTrace
 10
7.558257149333427
 20
4.732631299734777
 30
0.0
 11
7.567872533948812
 21
4.809554376657853
 31
0.0
 12
7.548641764718042
 22
4.809554376657853
 32
0.0
 13
7.548641764718042
 23
4.809554376657853
 33
0.0
  0
SOLID
  5
1D0
330
1CC
100
AcDbEntity
  8
0
  6
Continuous
 62
     7
370
     0
100
AcDbTrace
 10
7.558257149333423
 20
6.182631299734776
 30
0.0
 11
7.548641764718038
 21
6.105708222811699
 31
0.0
 12
7.567872533948808
 22
6.105708222811699
 32
0.0
 13
7.567872533948808
 23
6.105708222811699
 33
0.0
  0
LINE
  5
1D1
330
1CC
100
AcDbEntity
  8
0
  6
Continuous
 62
     7
370
     0
100
AcDbLine
 10
4.179410995487259
 20
4.732631299734765
 30
0.0
 11
7.635180226256504
 21
4.732631299734777
 31
0.0
  0
LINE
  5
1D2
330
1CC
100
AcDbEntity
  8
0
  6
Continuous
 62
     7
370
     0
100
AcDbLine
 10
4.179410995487254
 20
6.182631299734764
 30
0.0
 11
7.6351802262565
 21
6.182631299734776
 31
0.0
  0
LINE
  5
1D3
330
1CC
100
AcDbEntity
  8
0
  6
Continuous
 62
     7
370
     0
100
AcDbLine
 10
7.558257149333427
 20
4.732631299734777
 30
0.0
 11
7.558257149333425
 21
5.37678639293127
 31
0.0
  0
LINE
  5
1D4
330
1CC
100
AcDbEntity
  8
0
  6
Continuous
 62
     7
370
     0
100
AcDbLine
 10
7.558257149333423
 20
6.182631299734776
 30
0.0
 11
7.558257149333425
 21
5.538476206538283
 31
0.0
  0
MTEXT
  5
1D5
330
1CC
100
AcDbEntity
  8
0
  6
Continuous
 62
     7
370
     0
100
AcDbMText
 10
7.385448794899515
 20
5.506772493456935
 30
0.106
 40
0.1017628205128205
 41
0.0
 71
     1
 72
     1
  1
1.45
  7
SLDTEXTSTYLE0
 73
     1
 44
1.0
1001
ACAD
1000
MTEXTBEGIN
1070
    73
1070
     1
1070
    44
1040
1.0
1070
    74
1070
     0
1000
MTEXTEND
  0
ENDBLK
  5
1CE
330
1CC
100
AcDbEntity
  8
0
100
AcDbBlockEnd
  0
BLOCK
  5
1DD
330
1DC
100
AcDbEntity
  8
0
100
AcDbBlockBegin
  2
SW_NOTE_23
 70
     0
 10
0.0
 20
0.0
 30
0.0
  3
SW_NOTE_23
  1

  0
MTEXT
  5
1DF
330
1DC
100
AcDbEntity
  8
0
  6
Continuous
 62
     0
370
     0
100
AcDbMText
 10
0.0207005242337799
 20
0.0616153852534861
 30
0.0
 40
0.1221153846153846
 41
0.0
 71
     1
 72
     1
  1
PCB THERMAL PAD 
  7
SLDTEXTSTYLE0
 73
     1
 44
1.0
1001
ACAD
1000
MTEXTBEGIN
1070
    73
1070
     1
1070
    44
1040
1.0
1070
    74
1070
     0
1000
MTEXTEND
  0
MTEXT
  5
1E0
330
1DC
100
AcDbEntity
  8
0
  6
Continuous
 62
     0
370
     0
100
AcDbMText
 10
0.0207005242337799
 20
-0.0989615336969616
 30
0.0
 40
0.1221153846153846
 41
0.0
 71
     1
 72
     1
  1
DESIGN OPTIONAL 
  7
SLDTEXTSTYLE0
 73
     1
 44
1.0
1001
ACAD
1000
MTEXTBEGIN
1070
    73
1070
     1
1070
    44
1040
1.0
1070
    74
1070
     0
1000
MTEXTEND
  0
MTEXT
  5
1E1
330
1DC
100
AcDbEntity
  8
0
  6
Continuous
 62
     0
370
     0
100
AcDbMText
 10
0.0207005242337799
 20
-0.2595384526474093
 30
0.0
 40
0.1221153846153846
 41
0.0
 71
     1
 72
     1
  1
SEE NOTE 7, 8
  7
SLDTEXTSTYLE0
 73
     1
 44
1.0
1001
ACAD
1000
MTEXTBEGIN
1070
    73
1070
     1
1070
    44
1040
1.0
1070
    74
1070
     0
1000
MTEXTEND
  0
ENDBLK
  5
1DE
330
1DC
100
AcDbEntity
  8
0
100
AcDbBlockEnd
  0
BLOCK
  5
249
330
248
100
AcDbEntity
  8
0
100
AcDbBlockBegin
  2
_D_10
 70
     0
 10
0.0
 20
0.0
 30
0.0
  3
_D_10
  1

  0
SOLID
  5
24B
330
248
100
AcDbEntity
  8
0
  6
Continuous
 62
     7
370
     0
100
AcDbTrace
 10
8.440252921760031
 20
5.73741110618802
 30
0.0
 11
8.517175998683107
 21
5.727795721572635
 31
0.0
 12
8.517175998683107
 22
5.747026490803405
 32
0.0
 13
8.517175998683107
 23
5.747026490803405
 33
0.0
  0
SOLID
  5
24C
330
248
100
AcDbEntity
  8
0
  6
Continuous
 62
     7
370
     0
100
AcDbTrace
 10
9.440252921760031
 20
5.737411106188025
 30
0.0
 11
9.363329844836954
 21
5.74702649080341
 31
0.0
 12
9.363329844836954
 22
5.72779572157264
 32
0.0
 13
9.363329844836954
 23
5.72779572157264
 33
0.0
  0
LINE
  5
24D
330
248
100
AcDbEntity
  8
0
  6
Continuous
 62
     7
370
     0
100
AcDbLine
 10
8.440252921760034
 20
5.292002342621725
 30
0.0
 11
8.440252921760031
 21
5.814334183111097
 31
0.0
  0
LINE
  5
24E
330
248
100
AcDbEntity
  8
0
  6
Continuous
 62
     7
370
     0
100
AcDbLine
 10
9.440252921760034
 20
5.292002342621728
 30
0.0
 11
9.440252921760031
 21
5.814334183111101
 31
0.0
  0
LINE
  5
24F
330
248
100
AcDbEntity
  8
0
  6
Continuous
 62
     7
370
     0
100
AcDbLine
 10
8.440252921760031
 20
5.73741110618802
 30
0.0
 11
8.750342444306452
 21
5.737411106188021
 31
0.0
  0
LINE
  5
250
330
248
100
AcDbEntity
  8
0
  6
Continuous
 62
     7
370
     0
100
AcDbLine
 10
9.440252921760031
 20
5.737411106188025
 30
0.0
 11
9.130163399213612
 21
5.737411106188023
 31
0.0
  0
MTEXT
  5
251
330
248
100
AcDbEntity
  8
0
  6
Continuous
 62
     7
370
     0
100
AcDbMText
 10
8.811400136614146
 20
5.790085535626154
 30
-0.0000000000000401
 40
0.1017628205128205
 41
0.0
 71
     1
 72
     1
  1
0.65
  7
SLDTEXTSTYLE0
 73
     1
 44
1.0
1001
ACAD
1000
MTEXTBEGIN
1070
    73
1070
     1
1070
    44
1040
1.0
1070
    74
1070
     0
1000
MTEXTEND
  0
ENDBLK
  5
24A
330
248
100
AcDbEntity
  8
0
100
AcDbBlockEnd
  0
BLOCK
  5
255
330
254
100
AcDbEntity
  8
0
100
AcDbBlockBegin
  2
_D_11
 70
     0
 10
0.0
 20
0.0
 30
0.0
  3
_D_11
  1

  0
SOLID
  5
257
330
254
100
AcDbEntity
  8
0
  6
Continuous
 62
     7
370
     0
100
AcDbTrace
 10
8.381795704943387
 20
5.342167869970051
 30
0.0
 11
8.371611734772219
 21
5.419017737479164
 31
0.0
 12
8.353008197236782
 22
5.414146302744441
 32
0.0
 13
8.353008197236782
 23
5.414146302744441
 33
0.0
  0
LINE
  5
258
330
254
100
AcDbEntity
  8
0
  6
Continuous
 62
     7
370
     0
100
AcDbLine
 10
8.381795704943387
 20
5.342167869970051
 30
0.0
 11
8.278299172313055
 21
5.737411106188021
 31
0.0
  0
LINE
  5
259
330
254
100
AcDbEntity
  8
0
  6
Continuous
 62
     7
370
     0
100
AcDbLine
 10
8.278299172313055
 20
5.737411106188021
 30
0.0
 11
8.162914556928438
 21
5.737411106188021
 31
0.0
  0
MTEXT
  5
25A
330
254
100
AcDbEntity
  8
0
  6
Continuous
 62
     7
370
     0
100
AcDbMText
 10
7.734945327019346
 20
5.786552299910181
 30
0.1630769230769231
 40
0.1017628205128205
 41
0.0
 71
     1
 72
     1
  1
R0.15
  7
SLDTEXTSTYLE0
 73
     1
 44
1.0
1001
ACAD
1000
MTEXTBEGIN
1070
    73
1070
     1
1070
    44
1040
1.0
1070
    74
1070
     0
1000
MTEXTEND
  0
ENDBLK
  5
256
330
254
100
AcDbEntity
  8
0
100
AcDbBlockEnd
  0
BLOCK
  5
25E
330
25D
100
AcDbEntity
  8
0
100
AcDbBlockBegin
  2
_D_12
 70
     0
 10
0.0
 20
0.0
 30
0.0
  3
_D_12
  1

  0
SOLID
  5
260
330
25D
100
AcDbEntity
  8
0
  6
Continuous
 62
     7
370
     0
100
AcDbTrace
 10
8.786406767913897
 20
3.7049351868931
 30
0.0
 11
8.863329844836973
 21
3.695319802277716
 31
0.0
 12
8.863329844836973
 22
3.714550571508485
 32
0.0
 13
8.863329844836973
 23
3.714550571508485
 33
0.0
  0
SOLID
  5
261
330
25D
100
AcDbEntity
  8
0
  6
Continuous
 62
     7
370
     0
100
AcDbTrace
 10
9.094099075606205
 20
3.704935186893101
 30
0.0
 11
9.017175998683129
 21
3.714550571508485
 31
0.0
 12
9.017175998683129
 22
3.695319802277716
 32
0.0
 13
9.017175998683129
 23
3.695319802277716
 33
0.0
  0
LINE
  5
262
330
25D
100
AcDbEntity
  8
0
  6
Continuous
 62
     7
370
     0
100
AcDbLine
 10
8.786406767913895
 20
4.253540804160184
 30
0.0
 11
8.786406767913897
 21
3.628012109970023
 31
0.0
  0
LINE
  5
263
330
25D
100
AcDbEntity
  8
0
  6
Continuous
 62
     7
370
     0
100
AcDbLine
 10
9.094099075606203
 20
4.253540804160185
 30
0.0
 11
9.094099075606205
 21
3.628012109970024
 31
0.0
  0
LINE
  5
264
330
25D
100
AcDbEntity
  8
0
  6
Continuous
 62
     7
370
     0
100
AcDbLine
 10
8.786406767913897
 20
3.7049351868931
 30
0.0
 11
8.497412742879411
 21
3.704935186893099
 31
0.0
  0
LINE
  5
265
330
25D
100
AcDbEntity
  8
0
  6
Continuous
 62
     7
370
     0
100
AcDbLine
 10
9.094099075606205
 20
3.704935186893101
 30
0.0
 11
8.786406767913897
 21
3.7049351868931
 31
0.0
  0
MTEXT
  5
266
330
25D
100
AcDbEntity
  8
0
  6
Continuous
 62
     7
370
     0
100
AcDbMText
 10
7.400447141068372
 20
3.754076380615257
 30
0.1630769230769231
 40
0.1017628205128205
 41
0.0
 71
     1
 72
     1
  1
0.185~
  7
SLDTEXTSTYLE0
 73
     1
 44
1.0
1001
ACAD
1000
MTEXTBEGIN
1070
    73
1070
     1
1070
    44
1040
1.0
1070
    74
1070
     0
1000
MTEXTEND
  0
MTEXT
  5
267
330
25D
100
AcDbEntity
  8
0
  6
Continuous
 62
     7
370
     0
100
AcDbMText
 10
7.820878353518821
 20
3.754076380615257
 30
0.1630769230769231
 40
0.1017628205128205
 41
0.0
 71
     1
 72
     1
  1
0.20
  7
SLDTEXTSTYLE0
 73
     1
 44
1.0
1001
ACAD
1000
MTEXTBEGIN
1070
    73
1070
     1
1070
    44
1040
1.0
1070
    74
1070
     0
1000
MTEXTEND
  0
MTEXT
  5
268
330
25D
100
AcDbEntity
  8
0
  6
Continuous
 62
     7
370
     0
100
AcDbMText
 10
8.166495062386646
 20
3.754076380615257
 30
0.1630769230769231
 40
0.1017628205128205
 41
0.0
 71
     1
 72
     1
  1
 MIN.
  7
SLDTEXTSTYLE0
 73
     1
 44
1.0
1001
ACAD
1000
MTEXTBEGIN
1070
    73
1070
     1
1070
    44
1040
1.0
1070
    74
1070
     0
1000
MTEXTEND
  0
ENDBLK
  5
25F
330
25D
100
AcDbEntity
  8
0
100
AcDbBlockEnd
  0
BLOCK
  5
26C
330
26B
100
AcDbEntity
  8
0
100
AcDbBlockBegin
  2
_D_13
 70
     0
 10
0.0
 20
0.0
 30
0.0
  3
_D_13
  1

  0
SOLID
  5
26E
330
26B
100
AcDbEntity
  8
0
  6
Continuous
 62
     7
370
     0
100
AcDbTrace
 10
9.209483690990818
 20
4.124140661630683
 30
0.0
 11
9.132560614067742
 21
4.133756046246068
 31
0.0
 12
9.132560614067742
 22
4.114525277015298
 32
0.0
 13
9.132560614067742
 23
4.114525277015298
 33
0.0
  0
SOLID
  5
26F
330
26B
100
AcDbEntity
  8
0
  6
Continuous
 62
     7
370
     0
100
AcDbTrace
 10
9.671022152529282
 20
4.124140661630685
 30
0.0
 11
9.747945229452358
 21
4.1145252770153
 31
0.0
 12
9.747945229452358
 22
4.13375604624607
 32
0.0
 13
9.747945229452358
 23
4.13375604624607
 33
0.0
  0
LINE
  5
270
330
26B
100
AcDbEntity
  8
0
  6
Continuous
 62
     7
370
     0
100
AcDbLine
 10
9.209483690990817
 20
4.368925419544802
 30
0.0
 11
9.209483690990818
 21
4.047217584707606
 31
0.0
  0
LINE
  5
271
330
26B
100
AcDbEntity
  8
0
  6
Continuous
 62
     7
370
     0
100
AcDbLine
 10
9.67102215252928
 20
4.368925419544803
 30
0.0
 11
9.671022152529282
 21
4.047217584707608
 31
0.0
  0
LINE
  5
272
330
26B
100
AcDbEntity
  8
0
  6
Continuous
 62
     7
370
     0
100
AcDbLine
 10
9.209483690990818
 20
4.124140661630683
 30
0.0
 11
9.055637537144665
 21
4.124140661630682
 31
0.0
  0
LINE
  5
273
330
26B
100
AcDbEntity
  8
0
  6
Continuous
 62
     7
370
     0
100
AcDbLine
 10
9.671022152529282
 20
4.124140661630685
 30
0.0
 11
9.824868306375437
 21
4.124140661630685
 31
0.0
  0
MTEXT
  5
274
330
26B
100
AcDbEntity
  8
0
  6
Continuous
 62
     7
370
     0
100
AcDbMText
 10
9.267444567326137
 20
4.173281855352843
 30
0.1630769230769231
 40
0.1017628205128205
 41
0.0
 71
     1
 72
     1
  1
0.30
  7
SLDTEXTSTYLE0
 73
     1
 44
1.0
1001
ACAD
1000
MTEXTBEGIN
1070
    73
1070
     1
1070
    44
1040
1.0
1070
    74
1070
     0
1000
MTEXTEND
  0
ENDBLK
  5
26D
330
26B
100
AcDbEntity
  8
0
100
AcDbBlockEnd
  0
BLOCK
  5
277
330
276
100
AcDbEntity
  8
0
100
AcDbBlockBegin
  2
_D_14
 70
     0
 10
0.0
 20
0.0
 30
0.0
  3
_D_14
  1

  0
SOLID
  5
279
330
276
100
AcDbEntity
  8
0
  6
Continuous
 62
     7
370
     0
100
AcDbTrace
 10
9.92501565590868
 20
4.734310034929417
 30
0.0
 11
9.915400271293295
 21
4.65738695800634
 31
0.0
 12
9.934631040524065
 22
4.65738695800634
 32
0.0
 13
9.934631040524065
 23
4.65738695800634
 33
0.0
  0
SOLID
  5
27A
330
276
100
AcDbEntity
  8
0
  6
Continuous
 62
     7
370
     0
100
AcDbTrace
 10
9.925015655908682
 20
4.426617727237112
 30
0.0
 11
9.934631040524067
 21
4.503540804160189
 31
0.0
 12
9.915400271293297
 22
4.503540804160189
 32
0.0
 13
9.915400271293297
 23
4.503540804160189
 33
0.0
  0
LINE
  5
27B
330
276
100
AcDbEntity
  8
0
  6
Continuous
 62
     7
370
     0
100
AcDbLine
 10
9.728714460221588
 20
4.426617727237111
 30
0.0
 11
10.00193873283176
 21
4.426617727237112
 31
0.0
  0
LINE
  5
27C
330
276
100
AcDbEntity
  8
0
  6
Continuous
 62
     7
370
     0
100
AcDbLine
 10
10.04040027129329
 20
4.207981756578202
 30
0.0
 11
9.92501565590868
 21
4.207981756578202
 31
0.0
  0
LINE
  5
27D
330
276
100
AcDbEntity
  8
0
  6
Continuous
 62
     7
370
     0
100
AcDbLine
 10
9.92501565590868
 20
4.207981756578202
 30
0.0
 11
9.925015655908682
 21
4.426617727237112
 31
0.0
  0
LINE
  5
27E
330
276
100
AcDbEntity
  8
0
  6
Continuous
 62
     7
370
     0
100
AcDbLine
 10
9.92501565590868
 20
4.734310034929417
 30
0.0
 11
9.925015655908682
 21
4.426617727237112
 31
0.0
  0
MTEXT
  5
27F
330
276
100
AcDbEntity
  8
0
  6
Continuous
 62
     7
370
     0
100
AcDbMText
 10
10.04040027129329
 20
4.257122950300361
 30
0.1630769230769231
 40
0.1017628205128205
 41
0.0
 71
     1
 72
     1
  1
0.20
  7
SLDTEXTSTYLE0
 73
     1
 44
1.0
1001
ACAD
1000
MTEXTBEGIN
1070
    73
1070
     1
1070
    44
1040
1.0
1070
    74
1070
     0
1000
MTEXTEND
  0
ENDBLK
  5
278
330
276
100
AcDbEntity
  8
0
100
AcDbBlockEnd
  0
BLOCK
  5
282
330
281
100
AcDbEntity
  8
0
100
AcDbBlockBegin
  2
_D_15
 70
     0
 10
0.0
 20
0.0
 30
0.0
  3
_D_15
  1

  0
SOLID
  5
284
330
281
100
AcDbEntity
  8
0
  6
Continuous
 62
     7
370
     0
100
AcDbTrace
 10
10.23850844571244
 20
5.349694650314034
 30
0.0
 11
10.22889306109705
 21
5.272771573390957
 31
0.0
 12
10.24812383032783
 22
5.272771573390957
 32
0.0
 13
10.24812383032783
 23
5.272771573390957
 33
0.0
  0
SOLID
  5
285
330
281
100
AcDbEntity
  8
0
  6
Continuous
 62
     7
370
     0
100
AcDbTrace
 10
10.23850844571244
 20
4.426617727237113
 30
0.0
 11
10.24812383032783
 21
4.50354080416019
 31
0.0
 12
10.22889306109706
 22
4.50354080416019
 32
0.0
 13
10.22889306109706
 23
4.50354080416019
 33
0.0
  0
LINE
  5
286
330
281
100
AcDbEntity
  8
0
  6
Continuous
 62
     7
370
     0
100
AcDbLine
 10
9.700717457861696
 20
5.349694650314032
 30
0.0
 11
10.31543152263552
 21
5.349694650314034
 31
0.0
  0
LINE
  5
287
330
281
100
AcDbEntity
  8
0
  6
Continuous
 62
     7
370
     0
100
AcDbLine
 10
9.728714460221588
 20
4.426617727237111
 30
0.0
 11
10.31543152263552
 21
4.426617727237113
 31
0.0
  0
LINE
  5
288
330
281
100
AcDbEntity
  8
0
  6
Continuous
 62
     7
370
     0
100
AcDbLine
 10
10.23850844571244
 20
5.349694650314034
 30
0.0
 11
10.23850844571244
 21
4.969001095579082
 31
0.0
  0
LINE
  5
289
330
281
100
AcDbEntity
  8
0
  6
Continuous
 62
     7
370
     0
100
AcDbLine
 10
10.23850844571244
 20
4.426617727237113
 30
0.0
 11
10.23850844571244
 21
4.807311281972069
 31
0.0
  0
MTEXT
  5
28A
330
281
100
AcDbEntity
  8
0
  6
Continuous
 62
     7
370
     0
100
AcDbMText
 10
10.06570009127853
 20
4.937297382497733
 30
0.1630769230769231
 40
0.1017628205128205
 41
0.0
 71
     1
 72
     1
  1
0.60
  7
SLDTEXTSTYLE0
 73
     1
 44
1.0
1001
ACAD
1000
MTEXTBEGIN
1070
    73
1070
     1
1070
    44
1040
1.0
1070
    74
1070
     0
1000
MTEXTEND
  0
ENDBLK
  5
283
330
281
100
AcDbEntity
  8
0
100
AcDbBlockEnd
  0
BLOCK
  5
28E
330
28D
100
AcDbEntity
  8
0
100
AcDbBlockBegin
  2
_D_16
 70
     0
 10
0.0
 20
0.0
 30
0.0
  3
_D_16
  1

  0
SOLID
  5
290
330
28D
100
AcDbEntity
  8
0
  6
Continuous
 62
     7
370
     0
100
AcDbTrace
 10
7.800555215238539
 20
4.426617727237104
 30
0.0
 11
7.810170599853924
 21
4.503540804160181
 31
0.0
 12
7.790939830623154
 22
4.503540804160181
 32
0.0
 13
7.790939830623154
 23
4.503540804160181
 33
0.0
  0
SOLID
  5
291
330
28D
100
AcDbEntity
  8
0
  6
Continuous
 62
     7
370
     0
100
AcDbTrace
 10
7.800555215238539
 20
4.311233111852489
 30
0.0
 11
7.790939830623154
 21
4.234310034929412
 31
0.0
 12
7.810170599853924
 22
4.234310034929412
 32
0.0
 13
7.810170599853924
 23
4.234310034929412
 33
0.0
  0
LINE
  5
292
330
28D
100
AcDbEntity
  8
0
  6
Continuous
 62
     7
370
     0
100
AcDbLine
 10
8.15179138329851
 20
4.426617727237105
 30
0.0
 11
7.723632138315461
 21
4.426617727237103
 31
0.0
  0
LINE
  5
293
330
28D
100
AcDbEntity
  8
0
  6
Continuous
 62
     7
370
     0
100
AcDbLine
 10
8.036406767913895
 20
4.311233111852489
 30
0.0
 11
7.723632138315461
 21
4.311233111852488
 31
0.0
  0
LINE
  5
294
330
28D
100
AcDbEntity
  8
0
  6
Continuous
 62
     7
370
     0
100
AcDbLine
 10
7.685170599853923
 20
4.042002342621715
 30
0.0
 11
7.800555215238539
 21
4.042002342621715
 31
0.0
  0
LINE
  5
295
330
28D
100
AcDbEntity
  8
0
  6
Continuous
 62
     7
370
     0
100
AcDbLine
 10
7.800555215238539
 20
4.042002342621715
 30
0.0
 11
7.800555215238539
 21
4.311233111852489
 31
0.0
  0
LINE
  5
296
330
28D
100
AcDbEntity
  8
0
  6
Continuous
 62
     7
370
     0
100
AcDbLine
 10
7.800555215238539
 20
4.426617727237104
 30
0.0
 11
7.800555215238539
 21
4.580463881083258
 31
0.0
  0
MTEXT
  5
297
330
28D
100
AcDbEntity
  8
0
  6
Continuous
 62
     7
370
     0
100
AcDbMText
 10
6.748858392904743
 20
4.171988443147382
 30
0.1630769230769231
 40
0.1017628205128205
 41
0.0
 71
     1
 72
     1
  1
0.060~
  7
SLDTEXTSTYLE0
 73
     1
 44
1.0
1001
ACAD
1000
MTEXTBEGIN
1070
    73
1070
     1
1070
    44
1040
1.0
1070
    74
1070
     0
1000
MTEXTEND
  0
MTEXT
  5
298
330
28D
100
AcDbEntity
  8
0
  6
Continuous
 62
     7
370
     0
100
AcDbMText
 10
7.169289605355192
 20
4.171988443147382
 30
0.1630769230769231
 40
0.1017628205128205
 41
0.0
 71
     1
 72
     1
  1
0.075
  7
SLDTEXTSTYLE0
 73
     1
 44
1.0
1001
ACAD
1000
MTEXTBEGIN
1070
    73
1070
     1
1070
    44
1040
1.0
1070
    74
1070
     0
1000
MTEXTEND
  0
MTEXT
  5
299
330
28D
100
AcDbEntity
  8
0
  6
Continuous
 62
     7
370
     0
100
AcDbMText
 10
6.65378550993839
 20
4.010298629540367
 30
0.1630769230769231
 40
0.1017628205128205
 41
0.0
 71
     1
 72
     1
  1
MASK OPENING
  7
SLDTEXTSTYLE0
 73
     1
 44
1.0
1001
ACAD
1000
MTEXTBEGIN
1070
    73
1070
     1
1070
    44
1040
1.0
1070
    74
1070
     0
1000
MTEXTEND
  0
ENDBLK
  5
28F
330
28D
100
AcDbEntity
  8
0
100
AcDbBlockEnd
  0
BLOCK
  5
29B
330
29A
100
AcDbEntity
  8
0
100
AcDbBlockBegin
  2
SW_NOTE_24
 70
     0
 10
0.0
 20
0.0
 30
0.0
  3
SW_NOTE_24
  1

  0
MTEXT
  5
29D
330
29A
100
AcDbEntity
  8
0
  6
Continuous
 62
     0
370
     0
100
AcDbMText
 10
0.3510817307692303
 20
0.1559833233173078
 30
0.0
 40
0.1221153846153846
 41
0.0
 71
     2
 72
     1
  1
DETAIL A 
  7
SLDTEXTSTYLE0
 73
     1
 44
1.0
1001
ACAD
1000
MTEXTBEGIN
1070
    73
1070
     1
1070
    44
1040
1.0
1070
    74
1070
     0
1000
MTEXTEND
  0
MTEXT
  5
29E
330
29A
100
AcDbEntity
  8
0
  6
Continuous
 62
     0
370
     0
100
AcDbMText
 10
0.3484529053935637
 20
-0.0045935956331399
 30
0.0
 40
0.1221153846153846
 41
0.0
 71
     2
 72
     1
  1
SCALE 40 : 1
  7
SLDTEXTSTYLE0
 73
     1
 44
1.0
1001
ACAD
1000
MTEXTBEGIN
1070
    73
1070
     1
1070
    44
1040
1.0
1070
    74
1070
     0
1000
MTEXTEND
  0
ENDBLK
  5
29C
330
29A
100
AcDbEntity
  8
0
100
AcDbBlockEnd
  0
ENDSEC
  0
SECTION
  2
ENTITIES
  0
OLE2FRAME
  5
54
330
1F
100
AcDbEntity
  8
0
100
AcDbOle2Frame
 70
     2
  3
Paintbrush Picture
 10
7.714249686158206
 20
2.270253863803968
 30
0.0
 11
8.43869190261388
 21
1.965988132892584
 31
0.0
 71
     2
 72
     0
 73
     2
 90
    40576
310
80553AE90C4564DB1E40D63E95DB7A2902400000000000000000477E9D399CE0
310
2040D63E95DB7A2902400000000000000000477E9D399CE020406490F1F8AF74
310
FF3F00000000000000003AE90C4564DB1E406490F1F8AF74FF3F000000000000
310
00000000000001000000000100000100000001000000000001000000009E0000
310
D0CF11E0A1B11AE1000000000000000000000000000000003E000300FEFF0900
310
0600000000000000000000000100000001000000000000000010000002000000
310
01000000FEFFFFFF0000000000000000FFFFFFFFFFFFFFFFFFFFFFFFFFFFFFFF
310
FFFFFFFFFFFFFFFFFFFFFFFFFFFFFFFFFFFFFFFFFFFFFFFFFFFFFFFFFFFFFFFF
310
FFFFFFFFFFFFFFFFFFFFFFFFFFFFFFFFFFFFFFFFFFFFFFFFFFFFFFFFFFFFFFFF
310
FFFFFFFFFFFFFFFFFFFFFFFFFFFFFFFFFFFFFFFFFFFFFFFFFFFFFFFFFFFFFFFF
310
FFFFFFFFFFFFFFFFFFFFFFFFFFFFFFFFFFFFFFFFFFFFFFFFFFFFFFFFFFFFFFFF
310
FFFFFFFFFFFFFFFFFFFFFFFFFFFFFFFFFFFFFFFFFFFFFFFFFFFFFFFFFFFFFFFF
310
FFFFFFFFFFFFFFFFFFFFFFFFFFFFFFFFFFFFFFFFFFFFFFFFFFFFFFFFFFFFFFFF
310
FFFFFFFFFFFFFFFFFFFFFFFFFFFFFFFFFFFFFFFFFFFFFFFFFFFFFFFFFFFFFFFF
310
FFFFFFFFFFFFFFFFFFFFFFFFFFFFFFFFFFFFFFFFFFFFFFFFFFFFFFFFFFFFFFFF
310
FFFFFFFFFFFFFFFFFFFFFFFFFFFFFFFFFFFFFFFFFFFFFFFFFFFFFFFFFFFFFFFF
310
FFFFFFFFFFFFFFFFFFFFFFFFFFFFFFFFFFFFFFFFFFFFFFFFFFFFFFFFFFFFFFFF
310
FFFFFFFFFFFFFFFFFFFFFFFFFFFFFFFFFFFFFFFFFFFFFFFFFFFFFFFFFFFFFFFF
310
FFFFFFFFFFFFFFFFFFFFFFFFFFFFFFFFFFFFFFFFFFFFFFFFFFFFFFFFFFFFFFFF
310
FFFFFFFFFFFFFFFFFFFFFFFFFFFFFFFFFFFFFFFFFFFFFFFFFFFFFFFFFFFFFFFF
310
FDFFFFFFFEFFFFFFFEFFFFFFFEFFFFFF05000000060000000700000008000000
310
090000000A0000000B0000000C0000000D0000000E0000000F00000010000000
310
1100000012000000130000001400000015000000160000001700000018000000
310
190000001A0000001B0000001C0000001D0000001E0000001F00000020000000
310
2100000022000000230000002400000025000000260000002700000028000000
310
290000002A0000002B0000002C0000002D0000002E0000002F00000030000000
310
3100000032000000330000003400000035000000360000003700000038000000
310
390000003A0000003B0000003C0000003D0000003E0000003F00000040000000
310
4100000042000000430000004400000045000000460000004700000048000000
310
490000004A0000004B0000004C0000004D000000FEFFFFFFFFFFFFFFFFFFFFFF
310
FFFFFFFFFFFFFFFFFFFFFFFFFFFFFFFFFFFFFFFFFFFFFFFFFFFFFFFFFFFFFFFF
310
FFFFFFFFFFFFFFFFFFFFFFFFFFFFFFFFFFFFFFFFFFFFFFFFFFFFFFFFFFFFFFFF
310
FFFFFFFFFFFFFFFFFFFFFFFFFFFFFFFFFFFFFFFFFFFFFFFFFFFFFFFFFFFFFFFF
310
FFFFFFFFFFFFFFFFFFFFFFFFFFFFFFFFFFFFFFFFFFFFFFFFFFFFFFFFFFFFFFFF
310
FFFFFFFFFFFFFFFFFFFFFFFFFFFFFFFFFFFFFFFFFFFFFFFFFFFFFFFFFFFFFFFF
310
FFFFFFFFFFFFFFFFFFFFFFFFFFFFFFFFFFFFFFFFFFFFFFFFFFFFFFFFFFFFFFFF
310
52006F006F007400200045006E00740072007900000000000000000000000000
310
0000000000000000000000000000000000000000000000000000000000000000
310
16000500FFFFFFFFFFFFFFFF020000000A00030000000000C000000000000046
310
000000000000000000000000208C44BB11D7CD0103000000C000000000000000
310
01004F006C006500310030004E00610074006900760065000000000000000000
310
0000000000000000000000000000000000000000000000000000000000000000
310
1A000200FFFFFFFFFFFFFFFFFFFFFFFF00000000000000000000000000000000
310
000000000000000000000000000000000000000004000000E493000000000000
310
010043006F006D0070004F0062006A0000000000000000000000000000000000
310
0000000000000000000000000000000000000000000000000000000000000000
310
120002010300000001000000FFFFFFFF00000000000000000000000000000000
310
0000000000000000000000000000000000000000000000004D00000000000000
310
01004F006C006500000000000000000000000000000000000000000000000000
310
0000000000000000000000000000000000000000000000000000000000000000
310
0A000200FFFFFFFFFFFFFFFFFFFFFFFF00000000000000000000000000000000
310
0000000000000000000000000000000000000000020000001400000000000000
310
01000000FEFFFFFFFEFFFFFFFFFFFFFFFFFFFFFFFFFFFFFFFFFFFFFFFFFFFFFF
310
FFFFFFFFFFFFFFFFFFFFFFFFFFFFFFFFFFFFFFFFFFFFFFFFFFFFFFFFFFFFFFFF
310
FFFFFFFFFFFFFFFFFFFFFFFFFFFFFFFFFFFFFFFFFFFFFFFFFFFFFFFFFFFFFFFF
310
FFFFFFFFFFFFFFFFFFFFFFFFFFFFFFFFFFFFFFFFFFFFFFFFFFFFFFFFFFFFFFFF
310
FFFFFFFFFFFFFFFFFFFFFFFFFFFFFFFFFFFFFFFFFFFFFFFFFFFFFFFFFFFFFFFF
310
FFFFFFFFFFFFFFFFFFFFFFFFFFFFFFFFFFFFFFFFFFFFFFFFFFFFFFFFFFFFFFFF
310
FFFFFFFFFFFFFFFFFFFFFFFFFFFFFFFFFFFFFFFFFFFFFFFFFFFFFFFFFFFFFFFF
310
FFFFFFFFFFFFFFFFFFFFFFFFFFFFFFFFFFFFFFFFFFFFFFFFFFFFFFFFFFFFFFFF
310
FFFFFFFFFFFFFFFFFFFFFFFFFFFFFFFFFFFFFFFFFFFFFFFFFFFFFFFFFFFFFFFF
310
FFFFFFFFFFFFFFFFFFFFFFFFFFFFFFFFFFFFFFFFFFFFFFFFFFFFFFFFFFFFFFFF
310
FFFFFFFFFFFFFFFFFFFFFFFFFFFFFFFFFFFFFFFFFFFFFFFFFFFFFFFFFFFFFFFF
310
FFFFFFFFFFFFFFFFFFFFFFFFFFFFFFFFFFFFFFFFFFFFFFFFFFFFFFFFFFFFFFFF
310
FFFFFFFFFFFFFFFFFFFFFFFFFFFFFFFFFFFFFFFFFFFFFFFFFFFFFFFFFFFFFFFF
310
FFFFFFFFFFFFFFFFFFFFFFFFFFFFFFFFFFFFFFFFFFFFFFFFFFFFFFFFFFFFFFFF
310
FFFFFFFFFFFFFFFFFFFFFFFFFFFFFFFFFFFFFFFFFFFFFFFFFFFFFFFFFFFFFFFF
310
FFFFFFFFFFFFFFFFFFFFFFFFFFFFFFFFFFFFFFFFFFFFFFFFFFFFFFFFFFFFFFFF
310
0100FEFF030A0000FFFFFFFF0A00030000000000C00000000000004607000000
310
5042727573680007000000504272757368000700000050427275736800F439B2
310
7100000000000000000000000000000000000000000000000000000000000000
310
0000000000000000000000000000000000000000000000000000000000000000
310
0100000200000000000000000000000000000000000000000000000000000000
310
0000000000000000000000000000000000000000000000000000000000000000
310
0000000000000000000000000000000000000000000000000000000000000000
310
0000000000000000000000000000000000000000000000000000000000000000
310
0000000000000000000000000000000000000000000000000000000000000000
310
0000000000000000000000000000000000000000000000000000000000000000
310
0000000000000000000000000000000000000000000000000000000000000000
310
0000000000000000000000000000000000000000000000000000000000000000
310
0000000000000000000000000000000000000000000000000000000000000000
310
0000000000000000000000000000000000000000000000000000000000000000
310
0000000000000000000000000000000000000000000000000000000000000000
310
0000000000000000000000000000000000000000000000000000000000000000
310
E0930000424DDE930000000000003600000028000000960000003F0000000100
310
20000000000000000000C40E0000C40E00000000000000000000D9D7D6FFBEBC
310
BBFFA09D9CFF8F8D8BFF858381FF82807EFF8A8886FF9A9796FFBCB9B8FFEDEC
310
EBFFFFFFFFFFFFFFFFFFFFFFFFFFF7F7F7FFBDBBBAFF949190FF858381FF7E7C
310
7BFF858381FF989694FFC1BFBDFFFDFDFDFFF7F7F7FFA8A6A4FF989694FFA4A1
310
A0FFF4F3F3FFFFFFFFFFEEEEEDFFA09D9CFF989594FFADAAA9FFF7F7F7FFFFFF
310
FFFFE0DFDEFF9D9A99FF989694FFB8B6B5FFFFFFFFFFFEFDFEFFB6B4B2FF9694
310
92FF9E9C9AFFE5E4E4FFFFFFFFFFFFFFFFFFFFFFFFFFD6D5D4FF9E9C9AFF8684
310
83FF817E7DFF858381FF9B9997FFD6D5D4FFFFFFFFFFFFFFFFFFEEEEEDFFABA8
310
A7FF898685FF7D7A79FF7E7C7BFF908E8CFFBCBAB9FFF6F6F6FFFFFFFFFFFFFF
310
FFFFCDCCCBFF989694FF989694FFCBC9C8FFFFFFFFFFFFFFFFFFD9D7D6FF9A97
310
96FF989594FFC2C0BFFFFFFFFFFFFFFFFFFFFCFCFCFFBAB8B6FF868483FF8280
310
7EFF9B9997FFC7C5C4FFA6A4A2FF989694FFABA8A7FFF8F8F8FFFFFFFFFFFFFF
310
FFFFD0CECDFF8C8A88FF82807EFF8D8B89FFBEBCBBFFC3C1C0FF9B9997FF9895
310
94FFD0CECDFFFFFFFFFFFFFFFFFFFFFFFFFFE8E7E6FFABA8A7FF8C8988FF8280
310
7EFF82807EFF949190FFC6C4C3FFFCFCFCFFFFFFFFFFE5E4E3FF9E9C9AFF8C89
310
88FF8A8886FF898685FFD1CFCEFFFFFFFFFFFFFFFFFFD9D7D6FF9B9997FF8381
310
80FF7B7877FF838180FF9D9A99FFD0CECDFFFFFFFFFFFFFFFFFFFCFBFBFFB2B0
310
AEFF969492FFA09D9CFFEAEAE9FFFFFFFFFFFFFFFFFFFFFFFFFFFFFFFFFFFFFF
310
FFFFFFFFFFFFFFFFFFFFFFFFFFFFFFFFFFFFFFFFFFFFFFFFFFFFFFFFFFFFFFFF
310
FFFFFFFFFFFFFFFFFFFFFFFFFFFFFFFFFFFF868483FF6A6766FF646261FF615F
310
5FFF636160FF676564FF646261FF605E5DFF666463FF7B7877FFD6D5D4FFFFFF
310
FFFFF8F8F8FF969492FF646261FF646261FF666463FF6F6D6CFF6E6C6BFF605E
310
5DFF605E5DFFDBDAD9FFFEFDFEFF8D8B89FF605E5DFF666463FFD9D7D6FFFFFF
310
FFFFF2F2F1FF7D7A79FF5D5B5AFF706E6DFFE6E5E5FFFFFFFFFFE8E7E6FF6F6D
310
6CFF615F5FFF7D7A79FFF5F4F4FFFFFFFFFFA8A6A4FF5D5B5AFF605E5DFFBEBC
310
BBFFFFFFFFFFFFFFFFFFD0CECDFF6D6B6AFF676564FF646261FF6C6A69FF6E6C
310
6BFF5A5858FF858381FFFEFDFEFFF7F7F7FF8D8B89FF636160FF666463FF716F
310
6EFF767473FF636160FF636160FF8D8B89FFEDECEBFFFFFFFFFFCCCAC9FF6462
310
61FF605E5DFF989594FFFFFFFFFFFFFFFFFFD9D7D6FF696766FF5D5B5AFF8986
310
85FFFCFCFCFFFFFFFFFFC8C6C5FF646261FF6A6766FF666463FF676564FF6866
310
65FF666463FF666463FF6C6A69FFE4E3E2FFFFFFFFFFF4F3F3FF7A7776FF6664
310
63FF6B6968FF636160FF605E5DFF686665FF686665FF605E5DFF9B9997FFFFFF
310
FFFFFFFFFFFFE8E7E6FF7E7C7BFF636160FF666463FF696766FF706E6DFF605E
310
5DFF6A6867FFE8E7E6FFFFFFFFFF9E9C9AFF605E5DFF6A6867FF6B6968FF6A67
310
66FF9B9997FFFFFFFFFFDEDDDCFF716F6EFF666463FF686665FF787574FF6E6C
310
6BFF615F5FFF686665FFADAAA9FFFBFBFCFFFEFDFEFFA09D9CFF5D5B5AFF615F
310
5FFFC8C6C5FFFFFFFFFFFFFFFFFFFFFFFFFFFFFFFFFFFFFFFFFFFFFFFFFFFFFF
310
FFFFFFFFFFFFFFFFFFFFFFFFFFFFFFFFFFFFFFFFFFFFFFFFFFFFFFFFFFFFFFFF
310
FFFFFFFFFFFFFFFFFFFFADAAA9FF6B6968FF747170FFA4A1A0FFC7C5C4FFD3D1
310
D0FFCDCCCBFFA29F9EFF6F6D6CFF666463FF817E7DFFF2F2F1FFCDCCCBFF6664
310
63FF6B6968FF7E7C7BFFC9C8C6FFE4E3E2FFE3E2E1FFCECDCBFF8F8D8BFFBEBC
310
BBFFFFFFFFFFB2B0AEFF676564FF686665FFB8B6B5FFFFFFFFFFFDFDFDFFA09D
310
9CFF666463FF6A6766FFCECDCBFFFFFFFFFFFCFCFCFF8D8B89FF676564FF716F
310
6EFFDDDBDAFFFFFFFFFFCDCCCBFF6B6968FF666463FFA09D9CFFFFFFFFFFFDFD
310
FDFF8F8D8BFF666463FF6A6867FF9A9796FFDBDAD9FFE0DFDEFFBCB9B8FF8381
310
80FFE8E7E6FFD5D3D2FF676564FF6B6968FF817E7DFFDDDBDAFFE9E9E8FFA6A4
310
A2FF6A6867FF646261FF989694FFFDFDFDFFEDECEBFF787574FF696766FF8583
310
81FFF5F4F4FFFFFFFFFFF0EFEFFF82807EFF686665FF797776FFEEEEEDFFFFFF
310
FFFF9E9C9AFF666463FF6B6968FF949190FFD6D5D4FFCDCCCBFF868483FF6C6A
310
69FF6A6766FFC8C6C5FFFFFFFFFFEBEAEAFF72706FFF6D6B6AFF706E6DFFAFAC
310
ABFFC8C6C5FF9D9A99FF6F6D6CFF6A6867FF858381FFF9F9F9FFFFFFFFFFB0AD
310
ACFF646261FF6C6A69FF868483FFD4D2D1FFE3E2E1FFCCCAC9FF858381FFCCCA
310
C9FFFFFFFFFF989594FF676564FF696766FFB6B4B2FFE7E6E5FFDEDDDCFFFFFF
310
FFFFA8A6A4FF666463FF6A6867FFA09D9CFFECEBEBFFDDDCDBFF858381FF6967
310
66FF676564FFC3C1C0FFFFFFFFFFC7C5C4FF6A6766FF666463FFA8A6A4FFFFFF
310
FFFFFFFFFFFFFFFFFFFFFFFFFFFFFFFFFFFFFFFFFFFFFFFFFFFFFFFFFFFFFFFF
310
FFFFFFFFFFFFFFFFFFFFFFFFFFFFFFFFFFFFFFFFFFFFFFFFFFFFFFFFFFFFFFFF
310
FFFFD9D7D6FFA6A4A2FFE3E2E1FFFFFFFFFFFFFFFFFFFFFFFFFFFFFFFFFFFCFC
310
FCFF817E7DFF6A6867FF6A6867FFD7D6D5FFB8B6B5FF666463FF6A6766FFB8B6
310
B5FFFFFFFFFFFDFDFDFFFDFDFDFFFFFFFFFFF1F0F0FFEDECEBFFFFFFFFFFCECD
310
CBFF6A6867FF686665FF9E9C9AFFFFFFFFFFFFFFFFFFBDBBBAFF686665FF6664
310
63FFAFACABFFFFFFFFFFFFFFFFFFA8A6A4FF676564FF696766FFC2C0BFFFFFFF
310
FFFFE4E3E2FF767473FF666463FF858381FFFCFBFBFFF1F0F0FF7E7C7BFF6B69
310
68FF706E6DFFDEDDDCFFFFFFFFFFFFFFFFFFFFFFFFFFE9E9E8FFF6F5F5FFC1BF
310
BDFF666463FF686665FFA4A1A0FFFFFFFFFFFFFFFFFFF8F8F8FF868483FF6967
310
66FF6B6968FFD7D6D5FFFEFDFEFF8C8A88FF676564FF737170FFDDDCDBFFFFFF
310
FFFFFEFDFEFF9A9796FF686665FF6B6968FFD1CFCEFFFFFFFFFF9B9997FF6664
310
63FF6A6766FFC6C4C3FFFFFFFFFFFFFFFFFFC1BFBDFF686665FF666463FFA8A6
310
A4FFFFFFFFFFF6F5F5FF817E7DFF676564FF767473FFE8E7E6FFFFFFFFFFF9F9
310
F9FF898685FF696766FF72706FFFE4E3E2FFFFFFFFFF989694FF676564FF6A67
310
66FFC2C0BFFFFFFFFFFFFFFFFFFFFFFFFFFFF1F0F0FFEBEAEAFFFFFFFFFFB2B0
310
AEFF686665FF676564FFC2C0BFFFFFFFFFFFFFFFFFFFFCFCFCFF989694FF6866
310
65FF6A6867FFCDCCCBFFFFFFFFFFFFFFFFFFD7D6D5FF716F6EFF676564FF8381
310
80FFFBFAFAFFE1E0DFFF72706FFF666463FF8C8A88FFFEFDFEFFFFFFFFFFFFFF
310
FFFFFFFFFFFFFFFFFFFFFFFFFFFFFFFFFFFFF5F4F7FFDFDBE4FFFFFFFFFFFFFF
310
FFFFDFDBE4FFF8F7FAFFFFFFFFFFFAF9FBFFDFDCE5FFFCFCFCFFFFFFFFFFFFFF
310
FFFFFFFFFFFFFFFFFFFFFFFFFFFFF8F8F8FFDAD9D8FFAFACABFF72706FFF6D6B
310
6AFF6A6766FFD5D3D2FFBAB8B6FF666463FF716E6DFF838180FF8A8886FF8986
310
85FF898685FF8A8886FF8C8A88FF928F8EFFEAEAE9FFEDEDECFF767473FF6967
310
66FF858381FFF5F4F4FFFFFFFFFFD6D5D4FF6E6C6BFF676564FF928F8EFFFFFF
310
FFFFFFFFFFFFC8C6C5FF696766FF676564FFA4A1A0FFFFFFFFFFF8F8F8FF8A88
310
86FF686665FF737170FFE8E7E6FFF7F7F7FF82807EFF6A6867FF72706FFFE4E3
310
E2FFFFFFFFFFFFFFFFFFFFFFFFFFFFFFFFFFFFFFFFFFC8C6C5FF676564FF6866
310
65FF9B9997FFFFFFFFFFFFFFFFFFFFFFFFFFB2B0AEFF676564FF676564FFB0AD
310
ACFFFFFFFFFFABA8A7FF666463FF6A6867FFC6C4C3FFFFFFFFFFFFFFFFFFB6B4
310
B2FF676564FF676564FFB6B4B2FFFFFFFFFFA4A1A0FF666463FF696766FFC1BF
310
BDFFFFFFFFFFFFFFFFFFDEDDDCFF716E6DFF696766FF8D8B89FFFEFDFEFFFEFD
310
FEFF9A9796FF666463FF6D6A6AFFD3D1D0FFFFFFFFFFFFFFFFFFA4A1A0FF6765
310
64FF6A6867FFC7C5C4FFFFFFFFFF9D9A99FF666463FF6A6867FFC9C8C6FFFFFF
310
FFFFFFFFFFFFFFFFFFFFFFFFFFFFFFFFFFFFFFFFFFFFCDCCCBFF6C6A69FF6765
310
64FF9E9C9AFFFFFFFFFFFFFFFFFFFDFDFDFF9E9C9AFF686665FF696766FFC6C4
310
C3FFFFFFFFFFFFFFFFFFF8F8F8FF8C8988FF6A6766FF6D6B6AFFDEDDDCFFF8F8
310
F8FF838180FF696766FF787574FFEDECEBFFFFFFFFFFFFFFFFFFFFFFFFFFFFFF
310
FFFFFFFFFFFFFFFFFFFFECEAEFFF8A769DFFEAE7EDFFFFFFFFFF9584A7FFD1CA
310
D8FFFFFFFFFFFCFBFBFF8F7CA2FFDFDBE4FFFFFFFFFFFFFFFFFFFFFFFFFFE3E2
310
E1FFAFACABFF898685FF716F6EFF686665FF6B6968FF636160FF82807EFFF2F2
310
F1FFCDCCCBFF676564FF6F6D6CFF737170FF7E7C7BFF7B7978FF7D7A79FF7270
310
6FFF676564FF666463FFCCCAC9FFFFFFFFFF8A8886FF666463FF747170FFE3E2
310
E1FFFFFFFFFFF0EFEFFF7E7C7BFF686665FF7B7978FFF6F5F5FFFFFFFFFFE7E6
310
E5FF747170FF666463FF8A8886FFF6F6F6FFFFFFFFFFA4A1A0FF676564FF6967
310
66FFC8C6C5FFFFFFFFFF969492FF676564FF6A6867FFC7C5C4FFFFFFFFFFFFFF
310
FFFFFFFFFFFFFFFFFFFFFFFFFFFFE1E0DFFF6F6D6CFF6A6766FF82807EFFF1F0
310
F0FFFFFFFFFFFFFFFFFFC7C5C4FF696766FF686665FFA09D9CFFFFFFFFFFC9C8
310
C6FF686665FF666463FFA8A6A4FFFFFFFFFFFFFFFFFFD1CFCEFF6B6968FF6866
310
65FF989694FFFFFFFFFFC7C5C4FF676564FF696766FF9D9A99FFFFFFFFFFFFFF
310
FFFFF6F6F6FF838180FF686665FF7A7776FFEAEAE9FFFFFFFFFFB8B6B5FF6866
310
65FF686665FFB6B4B2FFFFFFFFFFFFFFFFFFC2C0BFFF676564FF686665FFABA8
310
A7FFFFFFFFFFB8B6B5FF646261FF686665FFA6A4A2FFFFFFFFFFFFFFFFFFFFFF
310
FFFFFFFFFFFFFFFFFFFFFFFFFFFFE8E7E6FF787675FF686665FF858381FFF8F8
310
F8FFFFFFFFFFFFFFFFFFB6B4B2FF666463FF676564FFA4A1A0FFFFFFFFFFFFFF
310
FFFFFFFFFFFF989694FF696766FF686665FFC9C8C6FFFFFFFFFF9B9997FF6765
310
64FF6B6968FFCECDCBFFFFFFFFFFFFFFFFFFFFFFFFFFFFFFFFFFFFFFFFFFFFFF
310
FFFFFEFDFEFF9786A8FFC9C1D1FFFFFFFFFFA99BB7FFC0B6CAFFC5BCCEFFC5BC
310
CEFFA99BB7FFC0B6CAFFFFFFFFFFFFFFFFFFC9C8C6FF72706FFF666463FF6866
310
65FF646261FF676564FF747170FF9B9997FFE5E4E3FFFFFFFFFFF3F3F2FF817E
310
7DFF646261FF817E7DFFE5E4E3FFFDFDFDFFFFFFFFFFA6A4A2FF676564FF6866
310
65FFC2C0BFFFFFFFFFFFA8A6A4FF666463FF6C6A69FFB0ADACFFF1F0F0FFEBEA
310
EAFF82807EFF6B6968FF6D6B6AFFBDBBBAFFF5F4F4FFE0DFDEFF767473FF6967
310
66FF767473FFE8E7E6FFFFFFFFFFC2C0BFFF686665FF676564FFA8A6A4FFFFFF
310
FFFFD1CFCEFF6A6766FF6A6867FF82807EFFE0DFDEFFFFFFFFFFFFFFFFFFE1E0
310
DFFFB0ADACFFF1F0F0FF9A9796FF666463FF6B6968FFB4B1B0FFFFFFFFFFFFFF
310
FFFFB4B1B0FF686665FF676564FFA29F9EFFFFFFFFFFE5E4E4FF747170FF6765
310
64FF82807EFFDDDBDAFFF9F9F9FFCBC9C8FF6D6B6AFF6A6867FF838180FFF5F4
310
F4FFF5F4F4FF817E7DFF686665FF6F6D6CFFC4C2C0FFFDFDFDFFFFFFFFFF9B99
310
97FF676564FF6C6A69FFD0CECDFFFFFFFFFFD5D3D2FF6E6C6BFF666463FF9694
310
92FFFDFDFDFFFFFFFFFFE0DFDEFF706E6DFF686665FF8F8D8BFFFCFCFCFFEDED
310
ECFF797776FF676564FF716F6EFFCBC9C8FFFFFFFFFFFFFFFFFFF2F2F1FFB0AD
310
ACFFE3E2E1FFFFFFFFFF8D8B89FF686665FF72706FFFE1E0DFFFFFFFFFFFFFFF
310
FFFFE9E8E7FF767473FF696766FF767473FFDDDBDAFFFFFFFFFFFDFDFDFF8D8B
310
89FF6A6867FF686665FFCBC9C8FFFFFFFFFFBAB8B6FF676564FF6D6B6AFF8986
310
85FFB6B4B2FFBDBBBAFFB6B4B2FFECEBEBFFFFFFFFFFFFFFFFFFFFFFFFFFAEA1
310
BBFFA99BB7FFFFFFFFFFCDC6D5FFA394B2FF9584A7FF88749CFFA191B0FFB0A3
310
BDFFFFFFFFFFF0EFEFFF7D7A79FF676564FF6E6C6BFF747170FF9A9796FFC2C0
310
BFFFE3E2E1FFFDFDFDFFFFFFFFFFFFFFFFFFFFFFFFFFCCCAC9FF6B6968FF6361
310
60FF8C8988FFC4C2C0FFC1BFBDFF7E7C7BFF676564FF6D6B6AFFDBDAD9FFFFFF
310
FFFFC6C4C3FF676564FF6D6B6AFF6A6867FF7D7A79FF82807EFF6F6D6CFF6F6D
310
6CFF6B6968FF6B6968FF817E7DFF7E7C7BFF6F6D6CFF6C6A69FF6E6C6BFFE6E5
310
E5FFFFFFFFFFDDDBDAFF6E6C6BFF666463FF8C8988FFFCFCFCFFFEFDFEFFADAA
310
A9FF676564FF646261FF787675FFA4A1A0FFA6A4A2FF7A7776FF646261FFE1E0
310
DFFFE7E6E5FF7B7877FF636160FF6D6B6AFFA4A1A0FFB1AFADFF797776FF6A68
310
67FF646261FFC3C1C0FFFFFFFFFFF3F3F2FF858381FF676564FF6C6A69FF706E
310
6DFF868483FF7B7877FF6F6D6CFF696766FF7D7A79FFF0EFEFFFFFFFFFFFCBC9
310
C8FF6B6968FF666463FF6F6D6CFF9A9796FFA6A4A2FF7B7978FF6D6B6AFF6765
310
64FFB6B4B2FFFFFFFFFFEAEAE9FF7B7877FF646261FF7B7877FFF4F3F3FFFFFF
310
FFFFF4F3F3FF7E7C7BFF646261FF787675FFE8E7E6FFFFFFFFFFC9C8C6FF6C6A
310
69FF646261FF6E6C6BFF9B9997FFABA8A7FF898685FF605E5DFFBCBAB9FFC3C1
310
C0FF787574FF6D6B6AFF6F6D6CFF8F8D8BFF9D9A99FFA29F9EFFF2F2F1FFC3C1
310
C0FF686665FF646261FF7D7A79FFB0ADACFFA29F9EFF6F6D6CFF676564FF7674
310
73FFECEBEBFFFFFFFFFFD7D6D5FF6B6968FF6E6C6BFF6A6867FF615F5FFF6361
310
60FF5D5B5AFFC4C2C0FFFFFFFFFFFFFFFFFFFFFFFFFFCBC4D3FF9482A6FFFEFD
310
FEFFECEAEFFF7F6994FF9280A4FFD8D3DEFF7E6793FF9280A4FFFFFFFFFFE5E4
310
E3FF716F6EFF6B6968FF6F6D6CFFD7D6D5FFFFFFFFFFFFFFFFFFFFFFFFFFFFFF
310
FFFFFCFCFCFFEDEDECFFFEFDFEFFFFFFFFFFCDCCCBFF82807EFF666463FF605E
310
5DFF605E5DFF646261FF6D6B6AFFB0ADACFFFFFFFFFFFFFFFFFFE1E0DFFF716F
310
6EFF666463FF787675FF8C8A88FF676564FF666463FF646261FF8F8D8BFFCBC9
310
C8FF858381FF646261FF666463FF636160FF928F8EFFF6F5F5FFFFFFFFFFF6F6
310
F6FF7E7C7BFF646261FF767473FFE7E6E5FFFFFFFFFFFEFDFEFFBEBCBBFF817E
310
7DFF666463FF5D5B5AFF5D5B5AFF646261FF6B6968FFCDCCCBFFFFFFFFFFE1E0
310
DFFF8F8D8BFF6B6968FF5D5B5AFF5D5B5AFF646261FF6C6A69FFA4A1A0FFF9F9
310
F9FFFFFFFFFFFFFFFFFFA09D9CFF666463FF6B6968FF8C8A88FF767473FF6361
310
60FF666463FF646261FFA6A4A2FFFEFDFEFFFFFFFFFFFFFFFFFFC8C6C5FF7B78
310
77FF666463FF5D5B5AFF605E5DFF6F6D6CFF716F6EFF686665FF989594FFFDFD
310
FDFFFCFCFCFF928F8EFF646261FF6A6867FFD9D7D6FFFFFFFFFFFDFDFDFF9A97
310
96FF636160FF696766FFD1CFCEFFFFFFFFFFFFFFFFFFD3D1D0FF8A8886FF6A68
310
67FF605E5DFF5D5B5AFF615F5FFF676564FFB4B1B0FFB0ADACFF615F5FFF706E
310
6DFF716E6DFF6A6867FF615F5FFF615F5FFFD3D1D0FFFFFFFFFFC6C4C3FF7E7C
310
7BFF646261FF5D5B5AFF605E5DFF676564FF747170FFC7C5C4FFFFFFFFFFFFFF
310
FFFFF2F2F1FF7B7877FF666463FF7B7978FFB1AFADFF858381FF636160FFA4A1
310
A0FFFFFFFFFFFCFCFCFFB9AEC4FF9280A4FF7A628FFF9A89ABFFB9AEC4FF8C78
310
9FFF9A89ABFFFFFFFFFFB6AAC1FF7D6692FFFFFFFFFFF0EFEFFF7D7A79FF6765
310
64FF6F6D6CFFC3C1C0FFF6F5F5FFFBFAFAFFF3F3F2FFD9D7D6FF9B9997FF8C8A
310
88FFF7F7F7FFFFFFFFFFFFFFFFFFF1F0F0FFCDCCCBFFB6B4B2FFB1AFADFFBCB9
310
B8FFDAD9D8FFFFFFFFFFFFFFFFFFFFFFFFFFF9F9F9FFD7D6D5FFD0CECDFFDBDA
310
D9FFF8F8F8FFD1CFCEFFB4B1B0FFBCBAB9FFEBEAEAFFFFFFFFFFF7F7F7FFCCCA
310
C9FFB4B1B0FFBEBCBBFFF0EFEFFFFFFFFFFFFFFFFFFFFFFFFFFFDEDDDCFFD6D5
310
D4FFD9D7D6FFF7F7F7FFFFFFFFFFFFFFFFFFFFFFFFFFEEEEEDFFCDCCCBFFB8B6
310
B5FFB4B1B0FFC1BFBDFFDBDAD9FFF9F9F9FFFFFFFFFFFFFFFFFFF9F9F9FFD5D3
310
D2FFBAB8B6FFB1AFADFFB8B6B5FFD5D3D2FFFCFCFCFFFFFFFFFFFFFFFFFFFFFF
310
FFFFE8E7E6FFD1CFCEFFD1CFCEFFF0EFEFFFE9E8E7FFBEBCBBFFB2B0AEFFC7C5
310
C4FFF6F6F6FFFFFFFFFFFFFFFFFFFFFFFFFFFFFFFFFFE9E8E7FFC3C1C0FFB2B0
310
AEFFC3C1C0FFD1CFCEFF7D7A79FF666463FF7E7C7BFFF1F0F0FFFFFFFFFFE3E2
310
E1FFD1CFCEFFD1CFCEFFEEEEEDFFFFFFFFFFFFFFFFFFE6E5E5FFD0CECDFFD1CF
310
CEFFECEBEBFFFFFFFFFFFFFFFFFFFFFFFFFFF7F7F7FFD5D3D2FFBCBAB9FFB2B0
310
AEFFBCBAB9FFD3D1D0FFF6F5F5FFEFEEEEFFC1BFBDFF72706FFF6A6867FF8381
310
80FFCCCAC9FFD1CFCEFFEBEAEAFFFFFFFFFFFFFFFFFFEDEDECFFC9C8C6FFB6B4
310
B2FFB2B0AEFFBEBCBBFFE5E4E4FFFFFFFFFFFFFFFFFFFFFFFFFFFDFDFDFFDAD9
310
D8FFD0CECDFFD5D3D2FFFDFDFDFFF1F0F0FFD3D1D0FFDDDCDBFFFFFFFFFFFFFF
310
FFFFDBD6E0FFCFC8D6FFD6D1DDFFCDC6D5FFDBD6E0FFE5E2E9FFEAE7EDFFFFFF
310
FFFFFBFAFAFFDDD9E2FFFFFFFFFFFEFDFEFFBDBBBAFF666463FF676564FF6B69
310
68FF82807EFF8A8886FF82807EFF6F6D6CFF615F5FFF6E6C6BFFE9E9E8FFFFFF
310
FFFFFFFFFFFFFFFFFFFFFFFFFFFFFFFFFFFFFFFFFFFFFFFFFFFFFFFFFFFFFFFF
310
FFFFFFFFFFFFFFFFFFFFFFFFFFFFFFFFFFFFFFFFFFFFFFFFFFFFFFFFFFFFFFFF
310
FFFFFFFFFFFFFFFFFFFFFFFFFFFFFFFFFFFFFFFFFFFFFFFFFFFFFFFFFFFFFFFF
310
FFFFFFFFFFFFFFFFFFFFFFFFFFFFFFFFFFFFDBDAD9FFB4B1B0FFB4B1B0FFD1CF
310
CEFFFFFFFFFFFFFFFFFFFFFFFFFFFFFFFFFFFFFFFFFFFFFFFFFFFFFFFFFFFFFF
310
FFFFFFFFFFFFFFFFFFFFFFFFFFFFFFFFFFFFFFFFFFFFFFFFFFFFFFFFFFFFFFFF
310
FFFFFFFFFFFFFFFFFFFFFFFFFFFFFFFFFFFFFFFFFFFFFFFFFFFFFFFFFFFFFFFF
310
FFFFFFFFFFFFFFFFFFFFFFFFFFFFFFFFFFFFFFFFFFFFFFFFFFFFFFFFFFFFFFFF
310
FFFFFFFFFFFFFFFFFFFFFFFFFFFFFFFFFFFFFFFFFFFFFFFFFFFFFFFFFFFFFFFF
310
FFFF949190FF666463FF6F6D6CFFDDDBDAFFFFFFFFFFFFFFFFFFFFFFFFFFFFFF
310
FFFFFFFFFFFFFFFFFFFFFFFFFFFFFFFFFFFFFFFFFFFFFFFFFFFFFFFFFFFFFFFF
310
FFFFFFFFFFFFFFFFFFFFFFFFFFFFFFFFFFFFFFFFFFFFFFFFFFFFFFFFFFFFFFFF
310
FFFFFFFFFFFFFFFFFFFFFBFAFAFF7E7C7BFF5D5B5AFF747170FFECEBEBFFFFFF
310
FFFFFFFFFFFFFFFFFFFFFFFFFFFFFFFFFFFFFFFFFFFFFFFFFFFFFFFFFFFFFFFF
310
FFFFFFFFFFFFFFFFFFFFFFFFFFFFFFFFFFFFFFFFFFFFFFFFFFFFFFFFFFFFFFFF
310
FFFFFFFFFFFFFFFFFFFFFFFFFFFFFFFFFFFFFFFFFFFFFFFFFFFFFFFFFFFFFFFF
310
FFFFFFFFFFFFFFFFFFFFFFFFFFFFFFFFFFFFFFFFFFFFFFFFFFFFFFFFFFFFFFFF
310
FFFFFFFFFFFFFFFFFFFFFFFFFFFFC8C6C5FF868483FF6C6A69FF636160FF6361
310
60FF646261FF676564FF6F6D6CFF858381FFE9E8E7FFFFFFFFFFFFFFFFFFFFFF
310
FFFFFFFFFFFFFFFFFFFFFFFFFFFFFFFFFFFFFFFFFFFFFFFFFFFFFFFFFFFFFFFF
310
FFFFFFFFFFFFFFFFFFFFFFFFFFFFFFFFFFFFFFFFFFFFFFFFFFFFFFFFFFFFFFFF
310
FFFFFFFFFFFFFFFFFFFFFFFFFFFFFFFFFFFFFFFFFFFFFFFFFFFFFFFFFFFFFFFF
310
FFFFFFFFFFFFFFFFFFFFC6C4C3FF5A5858FF545252FF82807EFFF8F8F8FFFFFF
310
FFFFFFFFFFFFFFFFFFFFFFFFFFFFFFFFFFFFFFFFFFFFFFFFFFFFFFFFFFFFFFFF
310
FFFFFFFFFFFFFFFFFFFFFFFFFFFFFFFFFFFFFFFFFFFFFFFFFFFFFFFFFFFFFFFF
310
FFFFFFFFFFFFFFFFFFFFFFFFFFFFFFFFFFFFFFFFFFFFFFFFFFFFFFFFFFFFFFFF
310
FFFFFFFFFFFFFFFFFFFFFFFFFFFFFFFFFFFFFFFFFFFFFFFFFFFFFFFFFFFFFFFF
310
FFFFFFFFFFFFFFFFFFFFFFFFFFFFFFFFFFFFFFFFFFFFFFFFFFFFB0ADACFF605E
310
5DFF5D5B5AFFB8B6B5FFFFFFFFFFFFFFFFFFFFFFFFFFFFFFFFFFFFFFFFFFFFFF
310
FFFFFFFFFFFFFFFFFFFFFFFFFFFFFFFFFFFFFFFFFFFFFFFFFFFFFFFFFFFFFFFF
310
FFFFFFFFFFFFFFFFFFFFFFFFFFFFFFFFFFFFFFFFFFFFFFFFFFFFFFFFFFFFFFFF
310
FFFFFDFDFDFFB0ADACFF858381FF8C8A88FFDDDBDAFFFFFFFFFFFFFFFFFFFFFF
310
FFFFFFFFFFFFFFFFFFFFFFFFFFFFFFFFFFFFFFFFFFFFFFFFFFFFFFFFFFFFFFFF
310
FFFFFFFFFFFFFFFFFFFFFFFFFFFFFFFFFFFFFFFFFFFFFFFFFFFFFFFFFFFFFFFF
310
FFFFFFFFFFFFFFFFFFFFFFFFFFFFFFFFFFFFFFFFFFFFFFFFFFFFFFFFFFFFFFFF
310
FFFFFFFFFFFFFFFFFFFFFFFFFFFFFFFFFFFFFFFFFFFFFFFFFFFFFFFFFFFFFFFF
310
FFFFFFFFFFFFFFFFFFFFF5F4F4FFDDDBDAFFC9C8C6FFBEBCBBFFC1BFBDFFCDCC
310
CBFFE0DFDEFFF2F2F1FFFFFFFFFFFFFFFFFFFFFFFFFFFFFFFFFFFFFFFFFFFFFF
310
FFFFFFFFFFFFFFFFFFFFFFFFFFFFFFFFFFFFFFFFFFFFFFFFFFFFFFFFFFFFFFFF
310
FFFFFFFFFFFFFFFFFFFFFFFFFFFFFFFFFFFFFFFFFFFFFFFFFFFFFFFFFFFFFFFF
310
FFFFFFFFFFFFFFFFFFFFFFFFFFFFFFFFFFFFFFFFFFFFFFFFFFFFFFFFFFFFFFFF
310
FFFFE9E9E8FF989594FF8F8D8BFF9B9997FFF3F3F2FFFFFFFFFFFFFFFFFFFFFF
310
FFFFFFFFFFFFFFFFFFFFFFFFFFFFFFFFFFFFFFFFFFFFFFFFFFFFFFFFFFFFFFFF
310
FFFFFFFFFFFFFFFFFFFFFFFFFFFFFFFFFFFFFFFFFFFFFFFFFFFFFFFFFFFFFFFF
310
FFFFFFFFFFFFFFFFFFFFFFFFFFFFFFFFFFFFFFFFFFFFFFFFFFFFFFFFFFFFFFFF
310
FFFFFFFFFFFFFFFFFFFFFFFFFFFFFFFFFFFFFFFFFFFFFFFFFFFFFFFFFFFFFFFF
310
FFFFFFFFFFFFFFFFFFFFFFFFFFFFFFFFFFFFDAD9D8FF9B9997FF989594FFC1BF
310
BDFFFFFFFFFFFFFFFFFFFFFFFFFFFFFFFFFFFFFFFFFFFFFFFFFFFFFFFFFFFFFF
310
FFFFFFFFFFFFFFFFFFFFFFFFFFFFFFFFFFFFFFFFFFFFFFFFFFFFFFFFFFFFFFFF
310
FFFFFFFFFFFFFFFFFFFFFFFFFFFFFFFFFFFFFFFFFFFFFFFFFFFFFFFFFFFFFBFA
310
FAFFF6F6F6FFF6F6F6FFFBFAFAFFFFFFFFFFFFFFFFFFFFFFFFFFFFFFFFFFFFFF
310
FFFFFFFFFFFFFFFFFFFFFFFFFFFFFFFFFFFFFFFFFFFFFFFFFFFFFFFFFFFFFFFF
310
FFFFFFFFFFFFFFFFFFFFFFFFFFFFFFFFFFFFFFFFFFFFFFFFFFFFFFFFFFFFFFFF
310
FFFFFFFFFFFFFFFFFFFFFFFFFFFFFFFFFFFFFFFFFFFFFFFFFFFFFFFFFFFFFFFF
310
FFFFFFFFFFFFFFFFFFFFFFFFFFFFFFFFFFFFFFFFFFFFFFFFFFFFFFFFFFFFFFFF
310
FFFFFFFFFFFFFFFFFFFFFFFFFFFFFFFFFFFFFFFFFFFFFFFFFFFFFFFFFFFFFFFF
310
FFFFFFFFFFFFFFFFFFFFFFFFFFFFFFFFFFFFFFFFFFFFFFFFFFFFFFFFFFFFFFFF
310
FFFFFFFFFFFFFFFFFFFFFFFFFFFFFFFFFFFFFFFFFFFFFFFFFFFFFFFFFFFFFFFF
310
FFFFFFFFFFFFFFFFFFFFFFFFFFFFFFFFFFFFFFFFFFFFFFFFFFFFFFFFFFFFFFFF
310
FFFFFFFFFFFFFFFFFFFFFFFFFFFFFFFFFFFFFFFFFFFFFFFFFFFFFFFFFFFFFFFF
310
FFFFFFFFFFFFFFFFFFFFFFFFFFFFFFFFFFFFFFFFFFFFFFFFFFFFFFFFFFFFFFFF
310
FFFFFFFFFFFFFFFFFFFFFFFFFFFFFFFFFFFFFFFFFFFFFFFFFFFFFFFFFFFFFFFF
310
FFFFFFFFFFFFFFFFFFFFFFFFFFFFFFFFFFFFFFFFFFFFFFFFFFFFFFFFFFFFFFFF
310
FFFFFFFFFFFFFFFFFFFFFFFFFFFFFFFFFFFFFFFFFFFFFFFFFFFFFFFFFFFFFFFF
310
FFFFFFFFFFFFFFFFFFFFFFFFFFFFFFFFFFFFFFFFFFFFFFFFFFFFFFFFFFFFFFFF
310
FFFFFFFFFFFFFFFFFFFFFFFFFFFFFFFFFFFFFFFFFFFFFFFFFFFFFFFFFFFFFFFF
310
FFFFFFFFFFFFFFFFFFFFFFFFFFFFFFFFFFFFFFFFFFFFFFFFFFFFFFFFFFFFFFFF
310
FFFFFFFFFFFFFFFFFFFFFFFFFFFFFFFFFFFFFFFFFFFFFFFFFFFFFFFFFFFFFFFF
310
FFFFFFFFFFFFFFFFFFFFFFFFFFFFFFFFFFFFFFFFFFFFFFFFFFFFFFFFFFFFFFFF
310
FFFFFFFFFFFFFFFFFFFFFFFFFFFFFFFFFFFFFFFFFFFFFFFFFFFFFFFFFFFFFFFF
310
FFFFFFFFFFFFFFFFFFFFFFFFFFFFFFFFFFFFFFFFFFFFFFFFFFFFFFFFFFFFFFFF
310
FFFFFFFFFFFFFFFFFFFFFFFFFFFFFFFFFFFFFFFFFFFFFFFFFFFFFFFFFFFFFFFF
310
FFFFFFFFFFFFFFFFFFFFFFFFFFFFFFFFFFFFFFFFFFFFFFFFFFFFFFFFFFFFFFFF
310
FFFFFFFFFFFFFFFFFFFFFFFFFFFFFFFFFFFFFFFFFFFFFFFFFFFFFFFFFFFFFFFF
310
FFFFFFFFFFFFFFFFFFFFFFFFFFFFFFFFFFFFFFFFFFFFFFFFFFFFFFFFFFFFFFFF
310
FFFFFFFFFFFFFFFFFFFFFFFFFFFFFFFFFFFFFFFFFFFFFFFFFFFFFFFFFFFFFFFF
310
FFFFFFFFFFFFFFFFFFFFFFFFFFFFFFFFFFFFFFFFFFFFFFFFFFFFFFFFFFFFFFFF
310
FFFFFFFFFFFFFFFFFFFFFFFFFFFFFFFFFFFFFFFFFFFFFFFFFFFFFFFFFFFFFFFF
310
FFFFFFFFFFFFFFFFFFFFFFFFFFFFFFFFFFFFFFFFFFFFFFFFFFFFFFFFFFFFFFFF
310
FFFFFFFFFFFFFFFFFFFFFFFFFFFFFFFFFFFFFFFFFFFFFFFFFFFFFFFFFFFFFFFF
310
FFFFFFFFFFFFFFFFFFFFFFFFFFFFFFFFFFFFFFFFFFFFFFFFFFFFFFFFFFFFFFFF
310
FFFFFFFFFFFFFFFFFFFFFFFFFFFFFFFFFFFFFFFFFFFFFFFFFFFFFFFFFFFFFFFF
310
FFFFFFFFFFFFFFFFFFFFFFFFFFFFFFFFFFFFFFFFFFFFFFFFFFFFFFFFFFFFFFFF
310
FFFFFFFFFFFFFFFFFFFFFFFFFFFFFFFFFFFFFFFFFFFFFFFFFFFFFFFFFFFFFFFF
310
FFFFFFFFFFFFFFFFFFFFFFFFFFFFFFFFFFFFFFFFFFFFFFFFFFFFFFFFFFFFFFFF
310
FFFFFFFFFFFFFFFFFFFFFFFFFFFFFFFFFFFFFFFFFFFFFFFFFFFFFFFFFFFFFFFF
310
FFFFFFFFFFFFFFFFFFFFFFFFFFFFFFFFFFFFFFFFFFFFFFFFFFFFFFFFFFFFFFFF
310
FFFFFFFFFFFFFFFFFFFFFFFFFFFFFFFFFFFFFFFFFFFFFFFFFFFFFFFFFFFFFFFF
310
FFFFFFFFFFFFFFFFFFFFFFFFFFFFFFFFFFFFFFFFFFFFFFFFFFFFFFFFFFFFFFFF
310
FFFFFFFFFFFFFFFFFFFFFFFFFFFFFFFFFFFFFFFFFFFFFFFFFFFFFFFFFFFFFFFF
310
FFFFFFFFFFFFFFFFFFFFFFFFFFFFFFFFFFFFFFFFFFFFFFFFFFFFFFFFFFFFFFFF
310
FFFFFFFFFFFFFFFFFFFFFFFFFFFFFFFFFFFFFFFFFFFFFFFFFFFFFFFFFFFFFFFF
310
FFFFFFFFFFFFFFFFFFFFFFFFFFFFFFFFFFFFFFFFFFFFFFFFFFFFFFFFFFFFFFFF
310
FFFFFFFFFFFFFFFFFFFFFFFFFFFFFFFFFFFFFFFFFFFFFFFFFFFFFFFFFFFFFFFF
310
FFFFFFFFFFFFFFFFFFFFFFFFFFFFFFFFFFFFFFFFFFFFFFFFFFFFFFFFFFFFFFFF
310
FFFFFFFFFFFFFFFFFFFFFFFFFFFFFFFFFFFFFFFFFFFFFFFFFFFFFFFFFFFFFFFF
310
FFFFFFFFFFFFFFFFFFFFFFFFFFFFFFFFFFFFFFFFFFFFFFFFFFFFFFFFFFFFFFFF
310
FFFFFFFFFFFFFFFFFFFFFFFFFFFFFFFFFFFFFFFFFFFFFFFFFFFFFFFFFFFFFFFF
310
FFFFFFFFFFFFFFFFFFFFFFFFFFFFFFFFFFFFFFFFFFFFFFFFFFFFFFFFFFFFFFFF
310
FFFFFFFFFFFFFFFFFFFFFFFFFFFFFFFFFFFFFFFFFFFFFFFFFFFFFFFFFFFFFFFF
310
FFFFFFFFFFFFFFFFFFFFFFFFFFFFFFFFFFFFFFFFFFFFFFFFFFFFFFFFFFFFFFFF
310
FFFFFFFFFFFFFFFFFFFFFFFFFFFFFFFFFFFFFFFFFFFFFFFFFFFFFFFFFFFFFFFF
310
FFFFFFFFFFFFFFFFFFFFFFFFFFFFFFFFFFFFFFFFFFFFFFFFFFFFFFFFFFFFFFFF
310
FFFFFFFFFFFFFFFFFFFFFFFFFFFFFFFFFFFFFFFFFFFFFFFFFFFFFFFFFFFFFFFF
310
FFFFFFFFFFFFFFFFFFFFFFFFFFFFFFFFFFFFFFFFFFFFFFFFFFFFFFFFFFFFFFFF
310
FFFFFFFFFFFFFFFFFFFFFFFFFFFFFFFFFFFFFFFFFFFFFFFFFFFFFFFFFFFFFFFF
310
FFFFFFFFFFFFFFFFFFFFFFFFFFFFFFFFFFFFFFFFFFFFFFFFFFFFFFFFFFFFFFFF
310
FFFFFFFFFFFFFFFFFFFFFFFFFFFFFFFFFFFFFFFFFFFFFFFFFFFFFFFFFFFFFFFF
310
FFFFFFFFFFFFFFFFFFFFFFFFFFFFFFFFFFFFFFFFFFFFFFFFFFFFFFFFFFFFFFFF
310
FFFFFFFFFFFFFFFFFFFFFFFFFFFFFFFFFFFFFFFFFFFFFFFFFFFFFFFFFFFFFFFF
310
FFFFFFFFFFFFFFFFFFFFFFFFFFFFFFFFFFFFFFFFFFFFFFFFFFFFFFFFFFFFFFFF
310
FFFFFFFFFFFFFFFFFFFFFFFFFFFFFFFFFFFFFFFFFFFFFFFFFFFFFFFFFFFFFFFF
310
FFFFFFFFFFFFFFFFFFFFFFFFFFFFFFFFFFFFFFFFFFFFFFFFFFFFFFFFFFFFFFFF
310
FFFFFFFFFFFFFFFFFFFFFFFFFFFFFFFFFFFFFFFFFFFFFFFFFFFFFFFFFFFFFFFF
310
FFFFFFFFFFFFFFFFFFFFFFFFFFFFFFFFFFFFFFFFFFFFFFFFFFFFFFFFFFFFFFFF
310
FFFFFFFFFFFFFFFFFFFFFFFFFFFFFFFFFFFFFFFFFFFFFFFFFFFFFFFFFFFFFFFF
310
FFFFFFFFFFFFFFFFFFFFFFFFFFFFFFFFFFFFFFFFFFFFFFFFFFFFFFFFFFFFFFFF
310
FFFFFFFFFFFFFFFFFFFFFFFFFFFFFFFFFFFFFFFFFFFFFFFFFFFFFEFDFEFFFCFB
310
FBFFFCFCFCFFFCFCFCFFFCFCFCFFFCFCFCFFFCFCFCFFFDFDFDFFFFFFFFFFFFFF
310
FFFFFFFFFFFFFFFFFFFFFFFFFFFFFCFBFBFFFCFBFBFFFCFCFCFFFCFCFCFFFCFC
310
FCFFFCFCFCFFFCFCFCFFFFFFFFFFFFFFFFFFFFFFFFFFFFFFFFFFFFFFFFFFFFFF
310
FFFFFFFFFFFFFFFFFFFFFFFFFFFFFFFFFFFFFFFFFFFFFCFBFBFFFCFBFBFFFCFC
310
FCFFFCFCFCFFFCFCFCFFFCFCFCFFFDFDFDFFFFFFFFFFFFFFFFFFFFFFFFFFFFFF
310
FFFFFFFFFFFFFFFFFFFFFFFFFFFFFFFFFFFFFFFFFFFFFFFFFFFFFFFFFFFFFFFF
310
FFFFFFFFFFFFFFFFFFFFFFFFFFFFFFFFFFFFFFFFFFFFF9F9F9FFD6D5D4FFB8B6
310
B5FFABA8A7FFA8A6A4FFA8A6A4FFB4B1B0FFCBC9C8FFEDEDECFFFFFFFFFFFFFF
310
FFFFFFFFFFFFFFFFFFFFFFFFFFFFFFFFFFFFFFFFFFFFFFFFFFFFFFFFFFFFFFFF
310
FFFFFCFBFBFFFCFBFBFFFCFCFCFFFCFCFCFFFCFCFCFFFCFCFCFFFDFDFDFFFFFF
310
FFFFFFFFFFFFFFFFFFFFFFFFFFFFFFFFFFFFFFFFFFFFFFFFFFFFFFFFFFFFFFFF
310
FFFFFFFFFFFFFFFFFFFFFFFFFFFFFFFFFFFFFFFFFFFFFFFFFFFFFFFFFFFFFFFF
310
FFFFFFFFFFFFFFFFFFFFE2DEE6FF9D8DAEFF9785A8FF9D8DAEFF9D8DAEFF9F8F
310
AFFF9F8FAFFF9D8DAEFF9D8DAEFFE5E2E9FFFFFFFFFFFFFFFFFFFFFFFFFFFFFF
310
FFFFFFFFFFFFFFFFFFFFFFFFFFFFFFFFFFFFFFFFFFFFFFFFFFFFFFFFFFFFFFFF
310
FFFFFFFFFFFFFFFFFFFFFFFFFFFFFFFFFFFFFFFFFFFFFFFFFFFFFFFFFFFFFFFF
310
FFFFFFFFFFFFFFFFFFFFFFFFFFFFD1CAD8FF9786A8FF9F8FAFFF9F8FAFFF9F8F
310
AFFF9F8FAFFF9F8FAFFF9F8FAFFF9F8FAFFF9F8FAFFF9F8FAFFF9786A8FFD1CA
310
D8FFFFFFFFFFFFFFFFFFFFFFFFFFFFFFFFFFFCFCFCFF868483FF525050FF5755
310
55FF5A5858FF5A5858FF4E4C4CFF858381FFFBFAFAFFFFFFFFFFFFFFFFFFFFFF
310
FFFFFFFFFFFFC4C2C0FF565454FF5A5858FF575555FF575555FF565454FF5755
310
55FFD5D3D2FFFFFFFFFFFFFFFFFFFFFFFFFFFFFFFFFFFFFFFFFFFFFFFFFFFFFF
310
FFFFFFFFFFFFFFFFFFFFFFFFFFFFCDCCCBFF5A5858FF5A5858FF575555FF5755
310
55FF565454FF504E4EFFC9C8C6FFFFFFFFFFFFFFFFFFFFFFFFFFFFFFFFFFFFFF
310
FFFFFFFFFFFFFFFFFFFFFFFFFFFFFFFFFFFFFFFFFFFFFFFFFFFFFFFFFFFFFFFF
310
FFFFFFFFFFFFF1F0F0FF9B9997FF4E4C4CFF2F2E30FF252427FF252427FF2524
310
27FF252427FF252427FF252427FF3D3B3CFF72706FFFC1BFBDFFFBFAFAFFFFFF
310
FFFFFFFFFFFFFFFFFFFFFFFFFFFFFFFFFFFFFFFFFFFFFFFFFFFFD0CECDFF5A58
310
58FF5A5858FF565454FF575555FF575555FF525050FFC8C6C5FFFFFFFFFFFFFF
310
FFFFFFFFFFFFFFFFFFFFFFFFFFFFFFFFFFFFFFFFFFFFFFFFFFFFFFFFFFFFFFFF
310
FFFFFFFFFFFFFFFFFFFFFFFFFFFFFFFFFFFFFFFFFFFFFFFFFFFFFFFFFFFFFFFF
310
FFFFFBFBFCFFC5BCCEFF6F5486FF5F3C78FF5F3C78FF62407BFF63427BFF5F3C
310
78FF5F3C78FFBEB4C8FFFFFFFFFFFFFFFFFFFFFFFFFFFFFFFFFFFFFFFFFFFFFF
310
FFFFFFFFFFFFFFFFFFFFFFFFFFFFFFFFFFFFFFFFFFFFFFFFFFFFFFFFFFFFFFFF
310
FFFFFFFFFFFFFFFFFFFFFFFFFFFFFFFFFFFFFFFFFFFFFFFFFFFFFFFFFFFFFFFF
310
FFFFFFFFFFFFC7BFD0FF5F3C78FF62407BFF62407BFF62407BFF62407BFF6240
310
7BFF62407BFF62407BFF62407BFF5F3C78FF5F3C78FF9B8AACFFFFFFFFFFFFFF
310
FFFFFFFFFFFFFFFFFFFFFFFFFFFF7B7978FF252427FF252427FF252427FF2524
310
27FF252427FF434242FFE9E9E8FFFFFFFFFFFFFFFFFFFFFFFFFFFFFFFFFFD4D2
310
D1FF252427FF252427FF252427FF252427FF252427FF252427FFA8A6A4FFFFFF
310
FFFFFFFFFFFFFFFFFFFFFFFFFFFFFFFFFFFFFFFFFFFFFFFFFFFFFFFFFFFFFFFF
310
FFFFFFFFFFFFE3E2E1FF252427FF252427FF252427FF252427FF252427FF2524
310
27FF989694FFFFFFFFFFFFFFFFFFFFFFFFFFFFFFFFFFFFFFFFFFFFFFFFFFFFFF
310
FFFFFFFFFFFFFFFFFFFFFFFFFFFFFFFFFFFFFFFFFFFFFFFFFFFFD1CFCEFF4C4A
310
4AFF252427FF252427FF252427FF252427FF252427FF252427FF252427FF2524
310
27FF252427FF252427FF252427FF252427FF6A6867FFD9D7D6FFFFFFFFFFFFFF
310
FFFFFFFFFFFFFFFFFFFFFFFFFFFFFFFFFFFFE3E2E1FF2A292BFF252427FF2524
310
27FF252427FF252427FF252427FF969492FFFFFFFFFFFFFFFFFFFFFFFFFFFFFF
310
FFFFFFFFFFFFFFFFFFFFFFFFFFFFFFFFFFFFFFFFFFFFFFFFFFFFFFFFFFFFFFFF
310
FFFFFFFFFFFFFFFFFFFFFFFFFFFFFEFDFEFFE2DEE6FFF4F2F5FFFFFFFFFFFFFF
310
FFFFEDEBF0FF9D8DAEFF64457DFF63437CFF684A80FF684A80FF62407BFFA394
310
B2FFFFFFFFFFFFFFFFFFFFFFFFFFFFFFFFFFFFFFFFFFFFFFFFFFFFFFFFFFFFFF
310
FFFFFFFFFFFFFFFFFFFFFFFFFFFFFFFFFFFFFFFFFFFFFFFFFFFFFFFFFFFFFFFF
310
FFFFFFFFFFFFFFFFFFFFFFFFFFFFFFFFFFFFFFFFFFFFFFFFFFFFFFFFFFFFF1EF
310
F3FF715788FF66477EFF684A80FF684A80FF684A80FF684A80FF684A80FF684A
310
80FF684A80FF684A80FF63437CFF846E98FFF5F4F7FFFFFFFFFFFFFFFFFFFFFF
310
FFFFFFFFFFFFB4B1B0FF252427FF252427FF252427FF252427FF252427FF2524
310
27FFCBC9C8FFFFFFFFFFFFFFFFFFFFFFFFFFFFFFFFFFF1F0F0FF504E4EFF2524
310
27FF252427FF252427FF252427FF252427FF797776FFFFFFFFFFFFFFFFFFFFFF
310
FFFFFFFFFFFFFFFFFFFFFFFFFFFFFFFFFFFFFFFFFFFFFFFFFFFFFFFFFFFFF7F7
310
F7FF5A5858FF252427FF252427FF252427FF252427FF252427FF686665FFFFFF
310
FFFFFFFFFFFFFFFFFFFFFFFFFFFFFFFFFFFFFFFFFFFFFFFFFFFFFFFFFFFFFFFF
310
FFFFFFFFFFFFFFFFFFFFFFFFFFFFE0DFDEFF434242FF252427FF252427FF2524
310
27FF252427FF252427FF252427FF252427FF252427FF252427FF252427FF2524
310
27FF252427FF252427FF252427FF2F2E30FFBAB8B6FFFFFFFFFFFFFFFFFFFFFF
310
FFFFFFFFFFFFFFFFFFFFFBFAFAFF5D5B5AFF252427FF252427FF252427FF2524
310
27FF252427FF676564FFFFFFFFFFFFFFFFFFFFFFFFFFFFFFFFFFFFFFFFFFFFFF
310
FFFFFFFFFFFFFFFFFFFFFFFFFFFFFFFFFFFFFFFFFFFFFFFFFFFFFFFFFFFFFFFF
310
FFFFFFFFFFFFFFFFFFFFB9AEC4FF846E98FFDFDCE5FFFFFFFFFFFFFFFFFFFFFF
310
FFFFC5BCCEFF745A8AFF62407BFF67497FFF63427BFF846E98FFF5F4F7FFFFFF
310
FFFFFFFFFFFFFFFFFFFFFFFFFFFFFFFFFFFFFFFFFFFFFFFFFFFFFFFFFFFFFFFF
310
FFFFFFFFFFFFFFFFFFFFFFFFFFFFFFFFFFFFFFFFFFFFFFFFFFFFFFFFFFFFFFFF
310
FFFFFFFFFFFFFFFFFFFFFFFFFFFFFFFFFFFFFFFFFFFFFCFCFCFF86719AFF6342
310
7BFF684A80FF684A80FF684A80FF684A80FF684A80FF684A80FF684A80FF684A
310
80FF64457DFF6F5486FFDFDBE4FFFFFFFFFFFFFFFFFFFFFFFFFFFFFFFFFFDAD9
310
D8FF2A292BFF252427FF252427FF252427FF252427FF252427FFA09D9CFFFFFF
310
FFFFFFFFFFFFFFFFFFFFFFFFFFFFFEFDFEFF6F6D6CFF252427FF252427FF2524
310
27FF252427FF252427FF545252FFF5F4F4FFFFFFFFFFFFFFFFFFFFFFFFFFFFFF
310
FFFFFFFFFFFFFFFFFFFFFFFFFFFFFFFFFFFFFFFFFFFFFFFFFFFF7D7A79FF2524
310
27FF252427FF252427FF252427FF252427FF484747FFEDEDECFFFFFFFFFFFFFF
310
FFFFFFFFFFFFFFFFFFFFFFFFFFFFFFFFFFFFFFFFFFFFFFFFFFFFFFFFFFFFFFFF
310
FFFFFBFAFAFF6A6867FF252427FF252427FF252427FF252427FF252427FF2524
310
27FF252427FF383738FF434242FF2A292BFF252427FF252427FF252427FF2524
310
27FF252427FF252427FF2A292BFFB6B4B2FFFFFFFFFFFFFFFFFFFFFFFFFFFFFF
310
FFFFFFFFFFFF817E7DFF252427FF252427FF252427FF252427FF252427FF4342
310
42FFEDEDECFFFFFFFFFFFFFFFFFFFFFFFFFFFFFFFFFFFFFFFFFFFFFFFFFFFFFF
310
FFFFFFFFFFFFFFFFFFFFFFFFFFFFFFFFFFFFFFFFFFFFFFFFFFFFFFFFFFFFFFFF
310
FFFFD8D3DEFF63427BFF6D5285FFBEB4C8FFFFFFFFFFFFFFFFFFFFFFFFFFE8E5
310
ECFF9785A8FF62407BFF5F3C78FF6F5486FFE2DFE7FFFFFFFFFFFFFFFFFFFFFF
310
FFFFFFFFFFFFFFFFFFFFFFFFFFFFFFFFFFFFFFFFFFFFFFFFFFFFFFFFFFFFFFFF
310
FFFFFFFFFFFFFFFFFFFFFFFFFFFFFFFFFFFFFFFFFFFFFFFFFFFFFFFFFFFFFFFF
310
FFFFFFFFFFFFFFFFFFFFFFFFFFFFFFFFFFFFA394B2FF62407BFF684A80FF684A
310
80FF684A80FF684A80FF684A80FF684A80FF684A80FF684A80FF67487FFF6444
310
7CFFCBC4D3FFFFFFFFFFFFFFFFFFFFFFFFFFFFFFFFFFF9F9F9FF525050FF2524
310
27FF252427FF252427FF252427FF252427FF737170FFFFFFFFFFFFFFFFFFFFFF
310
FFFFFFFFFFFFFFFFFFFFA4A1A0FF252427FF252427FF252427FF252427FF2524
310
27FF343334FFD9D7D6FFFFFFFFFFFFFFFFFFFFFFFFFFFFFFFFFFFFFFFFFFFFFF
310
FFFFFFFFFFFFFFFFFFFFFFFFFFFFFFFFFFFFB1AFADFF252427FF252427FF2524
310
27FF252427FF252427FF2A292BFFCECDCBFFFFFFFFFFFFFFFFFFFFFFFFFFFFFF
310
FFFFFFFFFFFFFFFFFFFFFFFFFFFFFFFFFFFFFFFFFFFFFFFFFFFFD4D2D1FF2F2E
310
30FF252427FF252427FF252427FF252427FF252427FF2A292BFF908E8CFFD6D5
310
D4FFE1E0DFFFCECDCBFF82807EFF252427FF252427FF252427FF252427FF2524
310
27FF252427FF2A292BFFD1CFCEFFFFFFFFFFFFFFFFFFFFFFFFFFFFFFFFFFB4B1
310
B0FF252427FF252427FF252427FF252427FF252427FF2A292BFFCCCAC9FFFFFF
310
FFFFFFFFFFFFFFFFFFFFFFFFFFFFFFFFFFFFFFFFFFFFFFFFFFFFFFFFFFFFFFFF
310
FFFFFFFFFFFFFFFFFFFFFFFFFFFFFFFFFFFFFFFFFFFFFFFFFFFFF4F2F5FF7B64
310
91FF5F3C78FF62407BFF9584A7FFE6E3EAFFFFFFFFFFFFFFFFFFFFFFFFFFBEB4
310
C8FF6F5486FF5F3C78FFCBC4D3FFFFFFFFFFFFFFFFFFFFFFFFFFFFFFFFFFFFFF
310
FFFFFFFFFFFFFFFFFFFFFFFFFFFFFFFFFFFFFFFFFFFFFFFFFFFFFFFFFFFFFFFF
310
FFFFFFFFFFFFFFFFFFFFFFFFFFFFFFFFFFFFFFFFFFFFFFFFFFFFFFFFFFFFFFFF
310
FFFFFFFFFFFFFFFFFFFFC7BFD0FF63437CFF67497FFF684A80FF684A80FF684A
310
80FF684A80FF684A80FF684A80FF684A80FF67497FFF62407BFFAB9DB9FFFFFF
310
FFFFFFFFFFFFFFFFFFFFFFFFFFFFFFFFFFFF72706FFF252427FF252427FF2524
310
27FF252427FF252427FF4C4A4AFFF6F6F6FFFFFFFFFFFFFFFFFFFFFFFFFFFFFF
310
FFFFC9C8C6FF2A292BFF252427FF252427FF252427FF252427FF252427FFBAB8
310
B6FFFFFFFFFFFFFFFFFFFFFFFFFFFFFFFFFFFFFFFFFFFFFFFFFFFFFFFFFFFFFF
310
FFFFFFFFFFFFFFFFFFFFD4D2D1FF2F2E30FF252427FF252427FF252427FF2524
310
27FF252427FFABA8A7FFFFFFFFFFFFFFFFFFFFFFFFFFFFFFFFFFFFFFFFFFFFFF
310
FFFFFFFFFFFFFFFFFFFFFFFFFFFFFFFFFFFF969492FF252427FF252427FF2524
310
27FF252427FF252427FF252427FF8D8B89FFFFFFFFFFFFFFFFFFFFFFFFFFFFFF
310
FFFFFFFFFFFFA6A4A2FF252427FF252427FF252427FF252427FF252427FF2524
310
27FF5A5858FFF7F7F7FFFFFFFFFFFFFFFFFFFFFFFFFFD7D6D5FF2F2E30FF2524
310
27FF252427FF252427FF252427FF252427FFA8A6A4FFFFFFFFFFFFFFFFFFFFFF
310
FFFFFFFFFFFFFFFFFFFFFFFFFFFFFFFFFFFFFFFFFFFFFFFFFFFFFFFFFFFFFFFF
310
FFFFFFFFFFFFFFFFFFFFFFFFFFFFFFFFFFFFFFFFFFFF9482A6FF62407BFF6749
310
7FFF62407BFF725889FFC7BFD0FFFFFFFFFFFFFFFFFFFFFFFFFFE2DFE7FF8671
310
9AFFA394B2FFFFFFFFFFFFFFFFFFFFFFFFFFFFFFFFFFFFFFFFFFFFFFFFFFFFFF
310
FFFFFFFFFFFFFFFFFFFFFFFFFFFFFFFFFFFFFFFFFFFFFFFFFFFFFFFFFFFFFFFF
310
FFFFFFFFFFFFFFFFFFFFFFFFFFFFFFFFFFFFFFFFFFFFFFFFFFFFFFFFFFFFFFFF
310
FFFFDFDBE4FF6C4F83FF64457DFF684A80FF684A80FF684A80FF684A80FF684A
310
80FF684A80FF684A80FF684A80FF62407BFF8A769DFFFBFAFAFFFFFFFFFFFFFF
310
FFFFFFFFFFFFFFFFFFFFA4A1A0FF252427FF252427FF252427FF252427FF2524
310
27FF2A292BFFD6D5D4FFFFFFFFFFFFFFFFFFFFFFFFFFFFFFFFFFE8E7E6FF3D3B
310
3CFF252427FF252427FF252427FF252427FF252427FF858381FFFFFFFFFFFFFF
310
FFFFFFFFFFFFFFFFFFFFFFFFFFFFFFFFFFFFFFFFFFFFFFFFFFFFFFFFFFFFFFFF
310
FFFFF0EFEFFF4C4A4AFF252427FF252427FF252427FF252427FF252427FF7674
310
73FFFFFFFFFFFFFFFFFFFFFFFFFFFFFFFFFFFFFFFFFFFFFFFFFFFFFFFFFFFFFF
310
FFFFFFFFFFFFFFFFFFFF7E7C7BFF252427FF252427FF252427FF252427FF2524
310
27FF2A292BFFD0CECDFFFFFFFFFFFFFFFFFFFFFFFFFFFFFFFFFFFFFFFFFFFFFF
310
FFFF8F8D8BFF252427FF252427FF252427FF252427FF252427FF252427FFADAA
310
A9FFFFFFFFFFFFFFFFFFFFFFFFFFF1F0F0FF4E4C4CFF252427FF252427FF2524
310
27FF252427FF252427FF706E6DFFFEFDFEFFFFFFFFFFFFFFFFFFFFFFFFFFFFFF
310
FFFFFFFFFFFFFFFFFFFFFFFFFFFFFFFFFFFFFFFFFFFFFFFFFFFFFFFFFFFFFFFF
310
FFFFFFFFFFFFFFFFFFFFFFFFFFFFB0A3BDFF62407BFF684A80FF684A80FF6342
310
7BFF64447CFF9A89ABFFEDEBF0FFFFFFFFFFFFFFFFFFF5F4F7FFD4CEDBFFFDFC
310
FEFFFFFFFFFFFFFFFFFFFFFFFFFFFFFFFFFFFFFFFFFFFFFFFFFFFFFFFFFFFFFF
310
FFFFFFFFFFFFFFFFFFFFFFFFFFFFFFFFFFFFFFFFFFFFFFFFFFFFFFFFFFFFFFFF
310
FFFFFFFFFFFFFFFFFFFFFFFFFFFFFFFFFFFFFFFFFFFFFFFFFFFFF2F1F5FF816B
310
96FF63427BFF684A80FF684A80FF684A80FF684A80FF684A80FF684A80FF684A
310
80FF684A80FF65457DFF725889FFF0EEF1FFFFFFFFFFFFFFFFFFFFFFFFFFFFFF
310
FFFFD1CFCEFF2A292BFF252427FF252427FF252427FF252427FF252427FFB2B0
310
AEFFFFFFFFFFFFFFFFFFFFFFFFFFFFFFFFFFFEFDFEFF605E5DFF252427FF2524
310
27FF252427FF252427FF252427FF646261FFFBFAFAFFFFFFFFFFFFFFFFFFFFFF
310
FFFFFFFFFFFFFFFFFFFFFFFFFFFFFFFFFFFFFFFFFFFFFFFFFFFFFFFFFFFF6F6D
310
6CFF252427FF252427FF252427FF252427FF252427FF575555FFF6F5F5FFFFFF
310
FFFFFFFFFFFFFFFFFFFFFFFFFFFFFFFFFFFFFFFFFFFFFFFFFFFFFFFFFFFFFEFD
310
FEFF696766FF252427FF252427FF252427FF252427FF252427FF383738FFE0DF
310
DEFFFFFFFFFFFFFFFFFFFFFFFFFFFFFFFFFFFFFFFFFFFFFFFFFFECEBEBFF3D3B
310
3CFF252427FF252427FF252427FF252427FF252427FF605E5DFFF9F9F9FFFFFF
310
FFFFFFFFFFFFFFFFFFFF716F6EFF252427FF252427FF252427FF252427FF2524
310
27FF565454FFF2F2F1FFFFFFFFFFFFFFFFFFFFFFFFFFFFFFFFFFFFFFFFFFFFFF
310
FFFFFFFFFFFFFFFFFFFFFFFFFFFFFFFFFFFFFFFFFFFFFFFFFFFFFFFFFFFFFFFF
310
FFFFFFFFFFFFD1CBD9FF66477EFF67497FFF684A80FF684A80FF66477EFF5F3C
310
78FF78608EFFCBC4D3FFFFFFFFFFFFFFFFFFFFFFFFFFFFFFFFFFFFFFFFFFFFFF
310
FFFFFFFFFFFFFFFFFFFFFFFFFFFFFFFFFFFFFFFFFFFFFFFFFFFFFFFFFFFFFFFF
310
FFFFFFFFFFFFFFFFFFFFFFFFFFFFFFFFFFFFFFFFFFFFFFFFFFFFFFFFFFFFFFFF
310
FFFFFFFFFFFFFFFFFFFFFFFFFFFFFFFFFFFFFFFFFFFF9D8DAEFF62407BFF684A
310
80FF684A80FF684A80FF684A80FF684A80FF684A80FF684A80FF684A80FF6749
310
7FFF66477EFFD1CBD9FFFFFFFFFFFFFFFFFFFFFFFFFFFFFFFFFFE9E8E7FF4A48
310
48FF252427FF252427FF252427FF252427FF252427FF7E7C7BFFFFFFFFFFFFFF
310
FFFFFFFFFFFFFFFFFFFFFFFFFFFF949190FF252427FF252427FF252427FF2524
310
27FF252427FF3D3B3CFFE9E9E8FFFFFFFFFFFFFFFFFFFFFFFFFFFFFFFFFFFFFF
310
FFFFFFFFFFFFFFFFFFFFFFFFFFFFFFFFFFFFFFFFFFFFA29F9EFF252427FF2524
310
27FF252427FF252427FF252427FF2F2E30FFDEDDDCFFFFFFFFFFFFFFFFFFFFFF
310
FFFFFFFFFFFFFFFFFFFFFFFFFFFFFFFFFFFFFFFFFFFFFEFDFEFF787574FF2524
310
27FF252427FF252427FF252427FF252427FF343334FFDDDCDBFFFFFFFFFFFFFF
310
FFFFFFFFFFFFFFFFFFFFFFFFFFFFFFFFFFFFFFFFFFFF8C8988FF252427FF2524
310
27FF252427FF252427FF252427FF2A292BFFD3D1D0FFFFFFFFFFFFFFFFFFFFFF
310
FFFFA4A1A0FF252427FF252427FF252427FF252427FF252427FF2F2E30FFDAD9
310
D8FFFFFFFFFFFFFFFFFFFFFFFFFFFFFFFFFFFFFFFFFFFFFFFFFFFFFFFFFFFFFF
310
FFFFFFFFFFFFFFFFFFFFFFFFFFFFFFFFFFFFFFFFFFFFFFFFFFFFFFFFFFFFF0EE
310
F1FF725889FF65467DFF684A80FF684A80FF684A80FF684A80FF63427BFF6647
310
7EFFA191B0FFF1EFF3FFFFFFFFFFFFFFFFFFFFFFFFFFFFFFFFFFFFFFFFFFFFFF
310
FFFFFFFFFFFFFFFFFFFFFFFFFFFFFFFFFFFFFFFFFFFFFFFFFFFFFFFFFFFFFFFF
310
FFFFFFFFFFFFFFFFFFFFFFFFFFFFFFFFFFFFFFFFFFFFFFFFFFFFFFFFFFFFFFFF
310
FFFFFFFFFFFFFFFFFFFFFFFFFFFFB9AEC4FF62407BFF684A80FF684A80FF684A
310
80FF684A80FF684A80FF684A80FF684A80FF684A80FF684A80FF62407BFFB1A5
310
BEFFFFFFFFFFFFFFFFFFFFFFFFFFFFFFFFFFFDFDFDFF666463FF252427FF2524
310
27FF252427FF252427FF252427FF5D5B5AFFF7F7F7FFFFFFFFFFFFFFFFFFFFFF
310
FFFFFFFFFFFFB8B6B5FF252427FF252427FF252427FF252427FF252427FF2524
310
27FFC4C2C0FFFFFFFFFFFFFFFFFFFFFFFFFFFFFFFFFFFFFFFFFFFFFFFFFFFFFF
310
FFFFFFFFFFFFFFFFFFFFFFFFFFFFC8C6C5FF252427FF252427FF252427FF2524
310
27FF252427FF252427FFB8B6B5FFFFFFFFFFFFFFFFFFFFFFFFFFFFFFFFFFFFFF
310
FFFFFFFFFFFFFFFFFFFFFFFFFFFFFFFFFFFF7E7C7BFF252427FF252427FF2524
310
27FF252427FF252427FF2F2E30FFD1CFCEFFFFFFFFFFFFFFFFFFFFFFFFFFFFFF
310
FFFFFFFFFFFFFFFFFFFFFFFFFFFFC2C0BFFF252427FF252427FF252427FF2524
310
27FF252427FF252427FFA6A4A2FFFFFFFFFFFFFFFFFFFFFFFFFFC9C8C6FF2524
310
27FF252427FF252427FF252427FF252427FF252427FFB4B1B0FFFFFFFFFFFFFF
310
FFFFFFFFFFFFFFFFFFFFFFFFFFFFFFFFFFFFFFFFFFFFFFFFFFFFFFFFFFFFFFFF
310
FFFFFFFFFFFFFFFFFFFFFFFFFFFFFFFFFFFFFFFFFFFFFBFBFCFF8A769DFF6342
310
7BFF684A80FF684A80FF684A80FF684A80FF684A80FF65467DFF5F3C78FF7D66
310
92FFD1CAD8FFFFFFFFFFFFFFFFFFFFFFFFFFFFFFFFFFFFFFFFFFFFFFFFFFFFFF
310
FFFFFFFFFFFFFEFDFEFFEDEBF0FFEAE7EDFFEAE7EDFFEAE7EDFFEAE7EDFFEAE7
310
EDFFEAE7EDFFEAE7EDFFFDFDFDFFFFFFFFFFFFFFFFFFFFFFFFFFFFFFFFFFFFFF
310
FFFFFFFFFFFFD6D1DDFF684A80FF67487FFF684A80FF684A80FF684A80FF684A
310
80FF684A80FF684A80FF684A80FF684A80FF62407BFF9280A4FFFFFFFFFFFFFF
310
FFFFFFFFFFFFFFFFFFFFFFFFFFFF9A9796FF252427FF252427FF252427FF2524
310
27FF252427FF383738FFE0DFDEFFFFFFFFFFFFFFFFFFFFFFFFFFFFFFFFFFE5E4
310
E3FF383738FF252427FF252427FF252427FF252427FF252427FF949190FFFFFF
310
FFFFFFFFFFFFFFFFFFFFFFFFFFFFFFFFFFFFFFFFFFFFFFFFFFFFFFFFFFFFFFFF
310
FFFFFFFFFFFFF0EFEFFF434242FF252427FF252427FF252427FF252427FF2524
310
27FF868483FFFFFFFFFFFFFFFFFFFFFFFFFFFFFFFFFFFFFFFFFFFFFFFFFFFFFF
310
FFFFFFFFFFFFFFFFFFFFA6A4A2FF252427FF252427FF252427FF252427FF2524
310
27FF252427FFB2B0AEFFFFFFFFFFFFFFFFFFFFFFFFFFFFFFFFFFFFFFFFFFFFFF
310
FFFFFFFFFFFFE3E2E1FF383738FF252427FF252427FF252427FF252427FF2524
310
27FF7B7978FFFFFFFFFFFFFFFFFFFFFFFFFFF1F0F0FF434242FF252427FF2524
310
27FF252427FF252427FF252427FF838180FFFFFFFFFFFFFFFFFFFFFFFFFFFFFF
310
FFFFFFFFFFFFFFFFFFFFFFFFFFFFFFFFFFFFFFFFFFFFFFFFFFFFFFFFFFFFFFFF
310
FFFFFFFFFFFFFFFFFFFFFFFFFFFFFFFFFFFFA99BB7FF62407BFF67497FFF684A
310
80FF684A80FF684A80FF684A80FF684A80FF684A80FF63427BFF65457EFFB9AE
310
C4FFFFFFFFFFFFFFFFFFFFFFFFFFFFFFFFFFFFFFFFFFFFFFFFFFFFFFFFFFE8E5
310
ECFF816B96FF775D8DFF78608EFF78608EFF78608EFF78608EFF78608EFF745A
310
8AFFB9AEC4FFFFFFFFFFFFFFFFFFFFFFFFFFFFFFFFFFFFFFFFFFFFFFFFFFF7F6
310
F8FF775D8DFF64457DFF684A80FF684A80FF684A80FF684A80FF684A80FF684A
310
80FF684A80FF684A80FF64447CFF7B6491FFF4F2F5FFFFFFFFFFFFFFFFFFFFFF
310
FFFFFFFFFFFFC1BFBDFF252427FF252427FF252427FF252427FF252427FF2524
310
27FFC1BFBDFFFFFFFFFFFFFFFFFFFFFFFFFFFFFFFFFFF8F8F8FF545252FF2524
310
27FF252427FF252427FF252427FF252427FF716F6EFFFFFFFFFFFFFFFFFFFFFF
310
FFFFFFFFFFFFFFFFFFFFFFFFFFFFFFFFFFFFFFFFFFFFFFFFFFFFFFFFFFFFFDFD
310
FDFF605E5DFF252427FF252427FF252427FF252427FF252427FF615F5FFFFEFD
310
FEFFFFFFFFFFFFFFFFFFFFFFFFFFFFFFFFFFFFFFFFFFFFFFFFFFFFFFFFFFFFFF
310
FFFFCDCCCBFF2A292BFF252427FF252427FF252427FF252427FF252427FF8A88
310
86FFFFFFFFFFFFFFFFFFFFFFFFFFFFFFFFFFFFFFFFFFFFFFFFFFFFFFFFFFEEEE
310
EDFF434242FF252427FF252427FF252427FF252427FF252427FF706E6DFFFFFF
310
FFFFFFFFFFFFFFFFFFFFFFFFFFFF636160FF252427FF252427FF252427FF2524
310
27FF252427FF615F5FFFFFFFFFFFFFFFFFFFFFFFFFFFFFFFFFFFFFFFFFFFFFFF
310
FFFFFFFFFFFFFFFFFFFFFFFFFFFFFFFFFFFFFFFFFFFFFFFFFFFFFFFFFFFFFFFF
310
FFFFFFFFFFFFFFFFFFFFCBC4D3FF64447CFF67487FFF684A80FF684A80FF684A
310
80FF684A80FF684A80FF684A80FF684A80FF5F3C78FF7A628FFFF1EFF3FFFFFF
310
FFFFFFFFFFFFFFFFFFFFFFFFFFFFFFFFFFFFFFFFFFFFC7BFD0FF5F3C78FF6444
310
7CFF63437CFF63437CFF63437CFF63437CFF63437CFF62407BFF6A4D82FFDDD9
310
E2FFFFFFFFFFFFFFFFFFFFFFFFFFFFFFFFFFFFFFFFFFFFFFFFFF8F7CA2FF6240
310
7BFF684A80FF684A80FF684A80FF684A80FF684A80FF684A80FF684A80FF684A
310
80FF66477EFF6A4D82FFD8D3DEFFFFFFFFFFFFFFFFFFFFFFFFFFFFFFFFFFE5E4
310
E4FF383738FF252427FF252427FF252427FF252427FF252427FF8C8988FFFFFF
310
FFFFFFFFFFFFFFFFFFFFFFFFFFFFFFFFFFFF82807EFF252427FF252427FF2524
310
27FF252427FF252427FF434242FFF6F5F5FFFFFFFFFFFFFFFFFFFFFFFFFFFFFF
310
FFFFFFFFFFFFFFFFFFFFFFFFFFFFFFFFFFFFFFFFFFFFFFFFFFFF8F8D8BFF2524
310
27FF252427FF252427FF252427FF252427FF383738FFEDECEBFFFFFFFFFFFFFF
310
FFFFFFFFFFFFFFFFFFFFFFFFFFFFFFFFFFFFFFFFFFFFFFFFFFFFF1F0F0FF5250
310
50FF252427FF252427FF252427FF252427FF252427FF484747FFEFEEEEFFFFFF
310
FFFFFFFFFFFFFFFFFFFFFFFFFFFFFFFFFFFFFFFFFFFFF3F3F2FF504E4EFF2524
310
27FF252427FF252427FF252427FF252427FF5A5858FFFCFCFCFFFFFFFFFFFFFF
310
FFFFFFFFFFFF928F8EFF252427FF252427FF252427FF252427FF252427FF3837
310
38FFEDECEBFFFFFFFFFFFFFFFFFFFFFFFFFFFFFFFFFFFFFFFFFFFFFFFFFFFFFF
310
FFFFFFFFFFFFFFFFFFFFFFFFFFFFFFFFFFFFFFFFFFFFFFFFFFFFFFFFFFFFFFFF
310
FFFFDFDCE5FF6F5486FF64457DFF684A80FF684A80FF684A80FF684A80FF684A
310
80FF684A80FF684A80FF65467DFF6C4F83FFDBD6E0FFFFFFFFFFFFFFFFFFFFFF
310
FFFFFFFFFFFFFFFFFFFFFFFFFFFFC5BCCEFF64447CFF63427BFF684A80FF684A
310
80FF684A80FF684A80FF684A80FF684A80FF62407BFF8C789FFFF8F7FAFFFFFF
310
FFFFFFFFFFFFFFFFFFFFFFFFFFFFFFFFFFFFAEA1BBFF62407BFF684A80FF684A
310
80FF684A80FF684A80FF684A80FF684A80FF684A80FF684A80FF67497FFF6240
310
7BFFC0B6CAFFFFFFFFFFFFFFFFFFFFFFFFFFFFFFFFFFFEFDFEFF575555FF2524
310
27FF252427FF252427FF252427FF252427FF6A6867FFFFFFFFFFFFFFFFFFFFFF
310
FFFFFFFFFFFFFFFFFFFFB0ADACFF252427FF252427FF252427FF252427FF2524
310
27FF2F2E30FFA4A1A0FFE8E7E6FFFEFDFEFFFFFFFFFFFFFFFFFFFFFFFFFFFFFF
310
FFFFFDFDFDFFFCFCFCFFFFFFFFFFFFFFFFFFBEBCBBFF252427FF252427FF2524
310
27FF252427FF252427FF2A292BFF9B9997FFE6E5E5FFFDFDFDFFFFFFFFFFFFFF
310
FFFFFFFFFFFFFFFFFFFFFDFDFDFFFCFBFBFFFFFFFFFF949190FF252427FF2524
310
27FF252427FF252427FF252427FF252427FFAFACABFFFFFFFFFFFFFFFFFFFFFF
310
FFFFFFFFFFFFFFFFFFFFFFFFFFFFEDEDECFF434242FF252427FF252427FF2524
310
27FF252427FF252427FF636160FFFEFDFEFFFFFFFFFFFFFFFFFFFFFFFFFFBDBB
310
BAFF252427FF252427FF252427FF252427FF252427FF252427FF9B9997FFE5E4
310
E3FFFDFDFDFFFFFFFFFFFFFFFFFFFFFFFFFFFFFFFFFFFDFDFDFFFCFCFCFFFFFF
310
FFFFFFFFFFFFFFFFFFFFFFFFFFFFFFFFFFFFFFFFFFFFFFFFFFFFF5F4F7FF846E
310
98FF63427BFF684A80FF684A80FF684A80FF684A80FF684A80FF684A80FF684A
310
80FF67497FFF62407BFFC1B8CBFFFFFFFFFFFFFFFFFFFFFFFFFFFFFFFFFFFFFF
310
FFFFFFFFFFFFFCFBFBFFCBC4D3FF78608EFF5F3C78FF67487FFF684A80FF684A
310
80FF684A80FF684A80FF67497FFF62407BFFB9AEC4FFFFFFFFFFFFFFFFFFFFFF
310
FFFFFFFFFFFFFFFFFFFFD4CEDBFF65467DFF67487FFF684A80FF684A80FF684A
310
80FF684A80FF684A80FF684A80FF684A80FF684A80FF62407BFFA090B0FFFFFF
310
FFFFFFFFFFFFFFFFFFFFFFFFFFFFFFFFFFFF868483FF252427FF252427FF2524
310
27FF252427FF252427FF3D3B3CFFF1F0F0FFFFFFFFFFFFFFFFFFFFFFFFFFFFFF
310
FFFFD5D3D2FF343334FF252427FF252427FF252427FF252427FF252427FF2524
310
27FF383738FF5A5858FF6E6C6BFF7E7C7BFF7E7C7BFF6E6C6BFF4E4C4CFFABA8
310
A7FFFFFFFFFFFFFFFFFFDEDDDCFF3D3B3CFF252427FF252427FF252427FF2524
310
27FF252427FF252427FF343334FF575555FF6D6B6AFF7D7A79FF7E7C7BFF706E
310
6DFF4E4C4CFF9E9C9AFFFFFFFFFFE9E8E7FF434242FF252427FF252427FF2524
310
27FF252427FF252427FF383738FFDAD9D8FFFFFFFFFFFFFFFFFFFFFFFFFFFFFF
310
FFFFFFFFFFFFCBC9C8FF252427FF252427FF252427FF252427FF252427FF2524
310
27FF706E6DFFFFFFFFFFFFFFFFFFFFFFFFFFFFFFFFFFE0DFDEFF3D3B3CFF2524
310
27FF252427FF252427FF252427FF252427FF252427FF343334FF565454FF6D6A
310
6AFF7D7A79FF7E7C7BFF6F6D6CFF504E4EFF9D9A99FFFFFFFFFFFFFFFFFFFFFF
310
FFFFFFFFFFFFFFFFFFFFFFFFFFFFFFFFFFFFFFFFFFFF9D8DAEFF62407BFF684A
310
80FF684A80FF684A80FF684A80FF684A80FF684A80FF684A80FF684A80FF6240
310
7BFF9F8FAFFFFFFFFFFFFFFFFFFFFFFFFFFFFFFFFFFFFFFFFFFFFFFFFFFFFFFF
310
FFFFFFFFFFFFECEAEFFF9B8AACFF64447CFF64447CFF684A80FF684A80FF684A
310
80FF684A80FF64447DFF6F5486FFE2DFE7FFFFFFFFFFFFFFFFFFFFFFFFFFFFFF
310
FFFFE8E5ECFF725889FF64447CFF684A80FF684A80FF684A80FF684A80FF684A
310
80FF684A80FF684A80FF684A80FF63427BFF816B96FFF4F2F5FFFFFFFFFFFFFF
310
FFFFFFFFFFFFFFFFFFFFB0ADACFF252427FF252427FF252427FF252427FF2524
310
27FF252427FFCBC9C8FFFFFFFFFFFFFFFFFFFFFFFFFFFFFFFFFFEFEEEEFF4847
310
47FF252427FF252427FF252427FF252427FF252427FF252427FF252427FF2524
310
27FF252427FF252427FF252427FF252427FF252427FF767473FFFFFFFFFFFFFF
310
FFFFF6F6F6FF504E4EFF252427FF252427FF252427FF252427FF252427FF2524
310
27FF252427FF252427FF252427FF252427FF252427FF252427FF252427FF6765
310
64FFFFFFFFFFFFFFFFFFABA8A7FF252427FF252427FF252427FF252427FF2524
310
27FF252427FF4C4A4AFFC9C8C6FFFFFFFFFFFFFFFFFFFFFFFFFFE7E6E5FF5755
310
55FF252427FF252427FF252427FF252427FF252427FF252427FF9D9A99FFFFFF
310
FFFFFFFFFFFFFFFFFFFFFFFFFFFFF6F5F5FF545252FF252427FF252427FF2524
310
27FF252427FF252427FF252427FF252427FF252427FF252427FF252427FF2524
310
27FF252427FF252427FF666463FFFEFDFEFFFFFFFFFFFFFFFFFFFFFFFFFFFFFF
310
FFFFFFFFFFFFFFFFFFFFFFFFFFFFBCB1C6FF62407BFF684A80FF684A80FF684A
310
80FF684A80FF684A80FF684A80FF684A80FF684A80FF63427BFF816B96FFFAF9
310
FBFFFFFFFFFFFFFFFFFFFFFFFFFFFFFFFFFFF2F1F5FFE6E3EAFFFFFFFFFFFFFF
310
FFFFFDFDFDFFC3BACCFF745A8AFF5F3C78FF67497FFF684A80FF684A80FF684A
310
80FF62407BFF8F7CA2FFFEFDFEFFFFFFFFFFFFFFFFFFFFFFFFFFF7F6F8FF8A76
310
9DFF62407BFF684A80FF684A80FF684A80FF684A80FF684A80FF684A80FF684A
310
80FF684A80FF65467EFF6D5285FFE6E3EAFFFFFFFFFFFFFFFFFFFFFFFFFFFFFF
310
FFFFDDDBDAFF343334FF252427FF252427FF252427FF252427FF252427FF9D9A
310
99FFFFFFFFFFFFFFFFFFFFFFFFFFFFFFFFFFFFFFFFFF737170FF252427FF2524
310
27FF252427FF252427FF252427FF252427FF252427FF252427FF252427FF2524
310
27FF252427FF252427FF252427FF434242FFF7F6F8FFFFFFFFFFFFFFFFFF8280
310
7EFF252427FF252427FF252427FF252427FF252427FF252427FF252427FF2524
310
27FF252427FF252427FF252427FF252427FF252427FF3D3B3CFFEDEDECFFFFFF
310
FFFFFDFDFDFF858381FF252427FF252427FF252427FF252427FF252427FF2524
310
27FF252427FF666463FF868483FF7B7978FF434242FF252427FF252427FF2524
310
27FF252427FF252427FF252427FF2A292BFFDEDDDCFFFFFFFFFFFFFFFFFFFFFF
310
FFFFFFFFFFFFFFFFFFFF868483FF252427FF252427FF252427FF252427FF2524
310
27FF252427FF252427FF252427FF252427FF252427FF252427FF252427FF2524
310
27FF383738FFEFEEEEFFFFFFFFFFFFFFFFFFFFFFFFFFFFFFFFFFFFFFFFFFFFFF
310
FFFFFFFFFFFFDBD6E0FF6A4D82FF67487FFF684A80FF684A80FF684A80FF684A
310
80FF684A80FF684A80FF684A80FF66477EFF6F5486FFECEAEFFFFFFFFFFFFFFF
310
FFFFFFFFFFFFFFFFFFFFD1CAD8FF6D5285FFBCB1C6FFFDFDFDFFFFFFFFFFFFFF
310
FFFFE6E3EAFF9482A6FF63437CFF64457DFF684A80FF684A80FF67487FFF6240
310
7BFFBEB4C8FFFFFFFFFFFFFFFFFFFFFFFFFFFFFFFFFFA99BB7FF62407BFF684A
310
80FF684A80FF684A80FF684A80FF684A80FF684A80FF684A80FF684A80FF6749
310
7FFF64447CFFC9C1D1FFFFFFFFFFFFFFFFFFFFFFFFFFFFFFFFFFF2F2F1FF4A48
310
48FF252427FF252427FF252427FF252427FF252427FF767473FFFFFFFFFFFFFF
310
FFFFFFFFFFFFFFFFFFFFFFFFFFFF9E9C9AFF252427FF252427FF252427FF2524
310
27FF252427FF2F2E30FF545252FF252427FF252427FF252427FF252427FF2524
310
27FF252427FF2F2E30FFD5D3D2FFFFFFFFFFFFFFFFFFAFACABFF252427FF2524
310
27FF252427FF252427FF252427FF2A292BFF565454FF252427FF252427FF2524
310
27FF252427FF252427FF252427FF2A292BFFC8C6C5FFFFFFFFFFFFFFFFFFF7F7
310
F7FF797776FF252427FF252427FF252427FF252427FF252427FF252427FF2524
310
27FF252427FF252427FF252427FF252427FF252427FF252427FF252427FF2524
310
27FF252427FF908E8CFFFFFFFFFFFFFFFFFFFFFFFFFFFFFFFFFFFFFFFFFFFFFF
310
FFFFB1AFADFF252427FF252427FF252427FF252427FF252427FF2A292BFF5452
310
52FF252427FF252427FF252427FF252427FF252427FF252427FF252427FFC9C8
310
C6FFFFFFFFFFFFFFFFFFFFFFFFFFFFFFFFFFFFFFFFFFFFFFFFFFFFFFFFFFF5F4
310
F7FF78608EFF64447DFF684A80FF684A80FF684A80FF684A80FF684A80FF684A
310
80FF684A80FF67497FFF64457DFFC9C1D1FFFFFFFFFFFFFFFFFFFFFFFFFFFFFF
310
FFFFB9AEC4FF5F3C78FF63427BFF9786A8FFE9E6ECFFFFFFFFFFFFFFFFFFFBFB
310
FCFFBCB1C6FF6F5486FF62407BFF67487FFF684A80FF63437CFF745A8AFFE8E5
310
ECFFFFFFFFFFFFFFFFFFFFFFFFFFC3BACCFF63427BFF67487FFF684A80FF684A
310
80FF684A80FF684A80FF684A80FF684A80FF684A80FF684A80FF62407BFFA799
310
B5FFFFFFFFFFFFFFFFFFFFFFFFFFFFFFFFFFFDFDFDFF767473FF252427FF2524
310
27FF252427FF252427FF252427FF484747FFF1F0F0FFFFFFFFFFFFFFFFFFFFFF
310
FFFFFFFFFFFFC8C6C5FF252427FF252427FF252427FF252427FF252427FF2524
310
27FFB0ADACFFB2B0AEFF3D3B3CFF252427FF252427FF252427FF252427FF2524
310
27FFABA8A7FFFFFFFFFFFFFFFFFFD5D3D2FF2A292BFF252427FF252427FF2524
310
27FF252427FF252427FFA8A6A4FFBAB8B6FF434242FF252427FF252427FF2524
310
27FF252427FF252427FF9A9796FFFFFFFFFFFFFFFFFFFFFFFFFFF9F9F9FF9D9A
310
99FF2F2E30FF252427FF252427FF252427FF252427FF252427FF252427FF2524
310
27FF252427FF252427FF252427FF252427FF252427FF252427FF72706FFFF6F5
310
F5FFFFFFFFFFFFFFFFFFFFFFFFFFFFFFFFFFFFFFFFFFFFFFFFFFD6D5D4FF2A29
310
2BFF252427FF252427FF252427FF252427FF252427FF9E9C9AFFBCBAB9FF4342
310
42FF252427FF252427FF252427FF252427FF252427FF9D9A99FFFFFFFFFFFFFF
310
FFFFFFFFFFFFFFFFFFFFFFFFFFFFFFFFFFFFFFFFFFFFFFFFFFFF9280A4FF6240
310
7BFF684A80FF684A80FF684A80FF684A80FF684A80FF684A80FF684A80FF684A
310
80FF62407BFFA99BB7FFFFFFFFFFFFFFFFFFFFFFFFFFFFFFFFFF9A89ABFF6240
310
7BFF67487FFF5F3C78FF755B8CFFC7BFD0FFFEFDFEFFFFFFFFFFFFFFFFFFE2DE
310
E6FF8F7CA2FF62407BFF65457DFF684A80FF62407BFF9584A7FFFDFDFDFFFFFF
310
FFFFFFFFFFFFDFDBE4FF6D5285FF66477EFF684A80FF684A80FF684A80FF684A
310
80FF684A80FF684A80FF684A80FF684A80FF62407BFF8A769DFFFEFDFEFFFFFF
310
FFFFFFFFFFFFFFFFFFFFFFFFFFFFA6A4A2FF252427FF2A292BFF2A292BFF2A29
310
2BFF252427FF383738FFD3D1D0FFFFFFFFFFFFFFFFFFFFFFFFFFFFFFFFFFEDED
310
ECFF434242FF252427FF2A292BFF2A292BFF2A292BFF252427FF8F8D8BFFFFFF
310
FFFFE9E8E7FF928F8EFF4A4848FF2F2E30FF252427FF252427FF7E7C7BFFFFFF
310
FFFFFFFFFFFFF6F5F5FF4E4C4CFF252427FF2A292BFF2A292BFF2A292BFF2524
310
27FF817E7DFFFFFFFFFFECEBEBFF9A9796FF525050FF2F2E30FF252427FF2524
310
27FF716F6EFFFDFDFDFFFFFFFFFFFFFFFFFFFFFFFFFFFFFFFFFFD6D5D4FF7876
310
75FF343334FF252427FF252427FF252427FF252427FF252427FF252427FF2524
310
27FF252427FF252427FF434242FF989594FFFCFCFCFFFFFFFFFFFFFFFFFFFFFF
310
FFFFFFFFFFFFFFFFFFFFFFFFFFFFFFFFFFFFF7F7F7FF4C4A4AFF252427FF2A29
310
2BFF2A292BFF2A292BFF252427FF7E7C7BFFFFFFFFFFEDEDECFF9B9997FF504E
310
4EFF2F2E30FF252427FF252427FF767473FFFFFFFFFFFFFFFFFFFFFFFFFFFFFF
310
FFFFFFFFFFFFFFFFFFFFFFFFFFFFFFFFFFFFB3A7BFFF62407BFF684A80FF684A
310
80FF684A80FF684A80FF684A80FF684A80FF684A80FF684A80FF62407BFF8C78
310
9FFFFFFFFFFFFFFFFFFFFFFFFFFFFBFBFCFF816B96FF63437CFF684A80FF684A
310
80FF63437CFF64447CFF9D8DAEFFEDEBF0FFFFFFFFFFFFFFFFFFF9F9F9FFB6AA
310
C1FF6C4F83FF62407BFF66477EFF64447CFFC5BCCEFFFFFFFFFFFFFFFFFFFBFB
310
FCFF7F6994FF63437CFF684A80FF684A80FF684A80FF684A80FF684A80FF684A
310
80FF684A80FF684A80FF65467DFF745A8AFFECEAEFFFFFFFFFFFFFFFFFFFFFFF
310
FFFFFFFFFFFFECEBEBFFBEBCBBFFC1BFBDFFC2C0BFFFC2C0BFFFC1BFBDFFBEBC
310
BBFFEAEAE9FFFFFFFFFFFFFFFFFFFFFFFFFFFFFFFFFFFEFDFEFFCCCAC9FFBEBC
310
BBFFC2C0BFFFC2C0BFFFC2C0BFFFBDBBBAFFD3D1D0FFFFFFFFFFFFFFFFFFFFFF
310
FFFFF0EFEFFFCCCAC9FFB6B4B2FFABA8A7FFC9C8C6FFFFFFFFFFFFFFFFFFFFFF
310
FFFFD0CECDFFBEBCBBFFC2C0BFFFC2C0BFFFC2C0BFFFBEBCBBFFCDCCCBFFFFFF
310
FFFFFFFFFFFFFFFFFFFFF3F3F2FFD0CECDFFB8B6B5FFABA8A7FFC4C2C0FFFDFD
310
FDFFFFFFFFFFFFFFFFFFFFFFFFFFFFFFFFFFFFFFFFFFFFFFFFFFDDDBDAFFA8A6
310
A4FF7B7978FF615F5FFF565454FF565454FF565454FF605E5DFF787574FFA8A6
310
A4FFE4E3E2FFFFFFFFFFFFFFFFFFFFFFFFFFFFFFFFFFFFFFFFFFFFFFFFFFFFFF
310
FFFFFFFFFFFFFFFFFFFFFFFFFFFFD1CFCEFFBEBCBBFFC2C0BFFFC2C0BFFFC2C0
310
BFFFBEBCBBFFCDCCCBFFFFFFFFFFFFFFFFFFFFFFFFFFF3F3F2FFD0CECDFFB8B6
310
B5FFABA8A7FFC8C6C5FFFFFFFFFFFFFFFFFFFFFFFFFFFFFFFFFFFFFFFFFFFFFF
310
FFFFFFFFFFFFFFFFFFFFD6D1DDFF65467DFF66477EFF684A80FF684A80FF684A
310
80FF684A80FF684A80FF684A80FF684A80FF64447CFF755B8CFFEAE7EDFFFFFF
310
FFFFFFFFFFFFEDEBF0FF725889FF65467DFF684A80FF684A80FF684A80FF6748
310
7FFF5F3C78FF7A628FFFCBC4D3FFFFFFFFFFFFFFFFFFFFFFFFFFDDD9E2FF8874
310
9CFF5F3C78FF5F3C78FF775D8DFFEAE7EDFFFFFFFFFFFFFFFFFF9786A8FF6240
310
7BFF684A80FF684A80FF684A80FF684A80FF684A80FF684A80FF684A80FF684A
310
80FF67487FFF67487FFFCFC8D6FFFFFFFFFFFFFFFFFFFFFFFFFFFFFFFFFFFFFF
310
FFFFFFFFFFFFFFFFFFFFFFFFFFFFFFFFFFFFFFFFFFFFFFFFFFFFFFFFFFFFFFFF
310
FFFFFFFFFFFFFFFFFFFFFFFFFFFFFFFFFFFFFFFFFFFFFFFFFFFFFFFFFFFFFFFF
310
FFFFFFFFFFFFFFFFFFFFFFFFFFFFFFFFFFFFFFFFFFFFFFFFFFFFFFFFFFFFFFFF
310
FFFFFFFFFFFFFFFFFFFFFFFFFFFFFFFFFFFFFFFFFFFFFFFFFFFFFFFFFFFFFFFF
310
FFFFFFFFFFFFFFFFFFFFFFFFFFFFFFFFFFFFFFFFFFFFFFFFFFFFFFFFFFFFFFFF
310
FFFFFFFFFFFFFFFFFFFFFFFFFFFFFFFFFFFFFFFFFFFFFFFFFFFFFFFFFFFFFFFF
310
FFFFFFFFFFFFFFFFFFFFFFFFFFFFFFFFFFFFFFFFFFFFFFFFFFFFFFFFFFFFF7F7
310
F7FFF3F3F2FFF4F3F3FFF3F3F2FFF6F6F6FFFFFFFFFFFFFFFFFFFFFFFFFFFFFF
310
FFFFFFFFFFFFFFFFFFFFFFFFFFFFFFFFFFFFFFFFFFFFFFFFFFFFFFFFFFFFFFFF
310
FFFFFFFFFFFFFFFFFFFFFFFFFFFFFFFFFFFFFFFFFFFFFFFFFFFFFFFFFFFFFFFF
310
FFFFFFFFFFFFFFFFFFFFFFFFFFFFFFFFFFFFFFFFFFFFFFFFFFFFFFFFFFFFFFFF
310
FFFFFFFFFFFFFFFFFFFFFFFFFFFFFFFFFFFFFFFFFFFFFFFFFFFFFFFFFFFFFFFF
310
FFFFE9E6ECFF745A8AFF64447CFF684A80FF684A80FF684A80FF684A80FF684A
310
80FF684A80FF684A80FF66477EFF67497FFFD1CBD9FFFFFFFFFFFFFFFFFFD1CB
310
D9FF66477EFF67497FFF684A80FF684A80FF684A80FF684A80FF684A80FF6342
310
7BFF63427BFFA191B0FFF0EEF1FFFFFFFFFFFFFFFFFFF7F6F8FFB0A3BDFF694C
310
81FF5F3C78FF9A89ABFFFDFDFDFFFFFFFFFFB9AEC4FF63427BFF684A80FF684A
310
80FF684A80FF684A80FF684A80FF684A80FF684A80FF684A80FF684A80FF6240
310
7BFFB3A7BFFFFFFFFFFFFFFFFFFFFFFFFFFFFFFFFFFFFFFFFFFFF2F2F1FFF0EF
310
EFFFF1F0F0FFF1F0F0FFF1F0F0FFF1F0F0FFF1F0F0FFFDFCFEFFFFFFFFFFFFFF
310
FFFFFFFFFFFFFFFFFFFFFFFFFFFFFFFFFFFFFFFFFFFFFFFFFFFFFFFFFFFFFFFF
310
FFFFFFFFFFFFFFFFFFFFFFFFFFFFFFFFFFFFFFFFFFFFFFFFFFFFFFFFFFFFFFFF
310
FFFFFFFFFFFFFFFFFFFFFFFFFFFFFFFFFFFFFFFFFFFFFFFFFFFFFFFFFFFFFFFF
310
FFFFFFFFFFFFFFFFFFFFFFFFFFFFFFFFFFFFFFFFFFFFFFFFFFFFFFFFFFFFFFFF
310
FFFFFFFFFFFFFFFFFFFFFFFFFFFFFFFFFFFFFFFFFFFFFFFFFFFFFFFFFFFFFFFF
310
FFFFFFFFFFFFFFFFFFFFFFFFFFFFFFFFFFFFFFFFFFFFFFFFFFFFFFFFFFFFFFFF
310
FFFFFFFFFFFFFFFFFFFFFFFFFFFFFFFFFFFFFFFFFFFFFFFFFFFFFFFFFFFFFFFF
310
FFFFFFFFFFFFFFFFFFFFFFFFFFFFFFFFFFFFFFFFFFFFFFFFFFFFFFFFFFFFFFFF
310
FFFFFFFFFFFFFFFFFFFFFFFFFFFFFFFFFFFFFFFFFFFFFFFFFFFFFFFFFFFFFFFF
310
FFFFFFFFFFFFFFFFFFFFFFFFFFFFFFFFFFFFFFFFFFFFFFFFFFFFFFFFFFFFFFFF
310
FFFFFFFFFFFFFFFFFFFFFFFFFFFFFFFFFFFFFFFFFFFFFFFFFFFFF9F8F9FF8C78
310
9FFF62407BFF684A80FF684A80FF684A80FF684A80FF684A80FF684A80FF684A
310
80FF684A80FF5F3C78FFB9AEC4FFFFFFFFFFFFFFFFFFB6AAC1FF62407BFF684A
310
80FF684A80FF684A80FF684A80FF684A80FF684A80FF65467DFF816B96FF6B4E
310
83FF7A628FFFD4CEDBFFFFFFFFFFFFFFFFFFFFFFFFFFD6D1DDFF7E6793FF5F3C
310
78FFC9C1D1FFFFFFFFFFDDD9E2FF684A80FF66477EFF684A80FF684A80FF684A
310
80FF684A80FF684A80FF684A80FF684A80FF684A80FF62407BFF9785A8FFFDFD
310
FDFFFFFFFFFFFFFFFFFFFFFFFFFFFFFFFFFF8A8886FF3D3B3CFF434242FF4342
310
42FF434242FF3D3B3CFF3D3B3CFFD3D1D0FFFFFFFFFFFFFFFFFFFFFFFFFFFFFF
310
FFFFFFFFFFFFFFFFFFFFFFFFFFFFFFFFFFFFFFFFFFFFFFFFFFFFFFFFFFFFFFFF
310
FFFFFFFFFFFFFFFFFFFFFFFFFFFFFFFFFFFFFFFFFFFFFFFFFFFFFFFFFFFFFFFF
310
FFFFFFFFFFFFFFFFFFFFFFFFFFFFFFFFFFFFFFFFFFFFFFFFFFFFFFFFFFFFFFFF
310
FFFFFFFFFFFFFFFFFFFFFFFFFFFFFFFFFFFFFFFFFFFFFFFFFFFFFFFFFFFFFFFF
310
FFFFFFFFFFFFFFFFFFFFFFFFFFFFFFFFFFFFFFFFFFFFFFFFFFFFFFFFFFFFFFFF
310
FFFFFFFFFFFFFFFFFFFFFFFFFFFFFFFFFFFFFFFFFFFFFFFFFFFFFFFFFFFFFFFF
310
FFFFFFFFFFFFFFFFFFFFFFFFFFFFFFFFFFFFFFFFFFFFFFFFFFFFFFFFFFFFFFFF
310
FFFFFFFFFFFFFFFFFFFFFFFFFFFFFFFFFFFFFFFFFFFFFFFFFFFFFFFFFFFFFFFF
310
FFFFFFFFFFFFFFFFFFFFFFFFFFFFFFFFFFFFFFFFFFFFFFFFFFFFFFFFFFFFFFFF
310
FFFFFFFFFFFFFFFFFFFFFFFFFFFFFFFFFFFFFFFFFFFFFFFFFFFFFFFFFFFFFFFF
310
FFFFFFFFFFFFFFFFFFFFFFFFFFFFFFFFFFFFFFFFFFFFA99BB7FF62407BFF684A
310
80FF684A80FF684A80FF684A80FF684A80FF684A80FF684A80FF684A80FF6240
310
7BFF9584A7FFFEFDFEFFFFFFFFFF9D8DAEFF62407BFF684A80FF684A80FF684A
310
80FF684A80FF684A80FF684A80FF62407BFFBCB1C6FFC0B6CAFF5F3C78FF6647
310
7EFFAB9DB9FFF4F2F5FFFFFFFFFFFFFFFFFFF4F2F5FFA090B0FF7A628FFFECEA
310
EFFFF5F4F7FF775D8DFF63437CFF684A80FF684A80FF684A80FF684A80FF684A
310
80FF684A80FF684A80FF684A80FF63437CFF7A628FFFEDEBF0FFFFFFFFFFFFFF
310
FFFFFFFFFFFFFFFFFFFF989594FF252427FF252427FF252427FF252427FF2524
310
27FF252427FF969492FFFFFFFFFFFFFFFFFFFFFFFFFFFFFFFFFFFFFFFFFFFFFF
310
FFFFFFFFFFFFFFFFFFFFFFFFFFFFFFFFFFFFFFFFFFFFFFFFFFFFFFFFFFFFFFFF
310
FFFFFFFFFFFFFFFFFFFFFFFFFFFFFFFFFFFFFFFFFFFFFFFFFFFFFFFFFFFFFFFF
310
FFFFFFFFFFFFFFFFFFFFFFFFFFFFFFFFFFFFFFFFFFFFFFFFFFFFFFFFFFFFFFFF
310
FFFFFFFFFFFFFFFFFFFFFFFFFFFFFFFFFFFFFFFFFFFFFFFFFFFFFFFFFFFFFFFF
310
FFFFFFFFFFFFFFFFFFFFFFFFFFFFFFFFFFFFFFFFFFFFFFFFFFFFFFFFFFFFFFFF
310
FFFFFFFFFFFFFFFFFFFFFFFFFFFFFFFFFFFFFFFFFFFFFFFFFFFFFFFFFFFFFFFF
310
FFFFFFFFFFFFFFFFFFFFFFFFFFFFFFFFFFFFFFFFFFFFFFFFFFFFFFFFFFFFFFFF
310
FFFFFFFFFFFFFFFFFFFFFFFFFFFFFFFFFFFFFFFFFFFFFFFFFFFFFFFFFFFFFFFF
310
FFFFFFFFFFFFFFFFFFFFFFFFFFFFFFFFFFFFFFFFFFFFFFFFFFFFFFFFFFFFFFFF
310
FFFFFFFFFFFFFFFFFFFFFFFFFFFFFFFFFFFFFFFFFFFFFFFFFFFFFFFFFFFFFFFF
310
FFFFFFFFFFFFFFFFFFFFFFFFFFFFC5BCCEFF64447CFF67497FFF684A80FF684A
310
80FF684A80FF684A80FF684A80FF684A80FF684A80FF63437CFF7B6491FFF5F4
310
F7FFFBFBFCFF88749CFF62407BFF684A80FF684A80FF684A80FF684A80FF684A
310
80FF67487FFF65457DFFD6D1DDFFFBFBFCFF8F7CA2FF5F3C78FF62407BFF8671
310
9AFFDBD6E0FFFFFFFFFFFFFFFFFFFFFFFFFFC5BCCEFFBCB1C6FFFBFAFAFF9280
310
A4FF62407BFF684A80FF684A80FF684A80FF684A80FF684A80FF684A80FF684A
310
80FF684A80FF65467DFF694C81FFDDD9E2FFFFFFFFFFFFFFFFFFFFFFFFFFFFFF
310
FFFFC8C6C5FF252427FF252427FF252427FF252427FF252427FF252427FF7674
310
73FFFFFFFFFFFFFFFFFFFFFFFFFFFFFFFFFFFFFFFFFFFFFFFFFFFFFFFFFFFFFF
310
FFFFFFFFFFFFFFFFFFFFFFFFFFFFFFFFFFFFFFFFFFFFFFFFFFFFFFFFFFFFFFFF
310
FFFFFFFFFFFFFFFFFFFFFFFFFFFFFFFFFFFFFFFFFFFFFFFFFFFFFFFFFFFFFFFF
310
FFFFFFFFFFFFFFFFFFFFFFFFFFFFFFFFFFFFFFFFFFFFFFFFFFFFFFFFFFFFFFFF
310
FFFFFFFFFFFFFFFFFFFFFFFFFFFFFFFFFFFFFFFFFFFFFFFFFFFFFFFFFFFFFFFF
310
FFFFFFFFFFFFFFFFFFFFFFFFFFFFFFFFFFFFFFFFFFFFFFFFFFFFFFFFFFFFFFFF
310
FFFFFFFFFFFFFFFFFFFFFFFFFFFFFFFFFFFFFFFFFFFFFFFFFFFFFFFFFFFFFFFF
310
FFFFFFFFFFFFFFFFFFFFFFFFFFFFFFFFFFFFFFFFFFFFFFFFFFFFFFFFFFFFFFFF
310
FFFFFFFFFFFFFFFFFFFFFFFFFFFFFFFFFFFFFFFFFFFFFFFFFFFFFFFFFFFFFFFF
310
FFFFFFFFFFFFFFFFFFFFFFFFFFFFFFFFFFFFFFFFFFFFFFFFFFFFFFFFFFFFFFFF
310
FFFFFFFFFFFFFFFFFFFFFFFFFFFFFFFFFFFFFFFFFFFFFFFFFFFFFFFFFFFFFFFF
310
FFFFFFFFFFFFE2DFE7FF6F5486FF66477EFF684A80FF684A80FF684A80FF684A
310
80FF684A80FF684A80FF684A80FF66477EFF694C81FFE8E5ECFFEDEBF0FF755B
310
8CFF64447CFF684A80FF684A80FF684A80FF684A80FF684A80FF64447CFF7258
310
89FFE8E5ECFFFFFFFFFFE2DEE6FF6F5486FF64447CFF62407BFF6C4F83FFB1A5
310
BEFFF8F7FAFFFFFFFFFFFFFFFFFFF2F1F5FFFEFDFEFFB1A5BEFF5F3C78FF6748
310
7FFF684A80FF684A80FF684A80FF684A80FF684A80FF684A80FF684A80FF6749
310
7FFF62407BFFC0B6CAFFFFFFFFFFFFFFFFFFFFFFFFFFFFFFFFFFECEBEBFF4342
310
42FF252427FF252427FF252427FF252427FF252427FF434242FFF4F3F3FFFFFF
310
FFFFFFFFFFFFFFFFFFFFFFFFFFFFFFFFFFFFFFFFFFFFFFFFFFFFFFFFFFFFFFFF
310
FFFFFFFFFFFFFFFFFFFFFFFFFFFFFFFFFFFFFFFFFFFFFFFFFFFFFFFFFFFFFFFF
310
FFFFFFFFFFFFFFFFFFFFFFFFFFFFFFFFFFFFFFFFFFFFFFFFFFFFFFFFFFFFFFFF
310
FFFFFFFFFFFFFFFFFFFFFFFFFFFFFFFFFFFFFFFFFFFFFFFFFFFFFFFFFFFFFFFF
310
FFFFFFFFFFFFFFFFFFFFFFFFFFFFFFFFFFFFFFFFFFFFFFFFFFFFFFFFFFFFFFFF
310
FFFFFFFFFFFFFFFFFFFFFFFFFFFFFFFFFFFFFFFFFFFFFFFFFFFFFFFFFFFFFFFF
310
FFFFFFFFFFFFFFFFFFFFFFFFFFFFFFFFFFFFFFFFFFFFFFFFFFFFFFFFFFFFFFFF
310
FFFFFFFFFFFFFFFFFFFFFFFFFFFFFFFFFFFFFFFFFFFFFFFFFFFFFFFFFFFFFFFF
310
FFFFFFFFFFFFFFFFFFFFFFFFFFFFFFFFFFFFFFFFFFFFFFFFFFFFFFFFFFFFFFFF
310
FFFFFFFFFFFFFFFFFFFFFFFFFFFFFFFFFFFFFFFFFFFFFFFFFFFFFFFFFFFFFFFF
310
FFFFFFFFFFFFFFFFFFFFFFFFFFFFFFFFFFFFFFFFFFFFFFFFFFFFFFFFFFFFFBFB
310
FCFF816B96FF63437CFF684A80FF684A80FF684A80FF684A80FF684A80FF684A
310
80FF684A80FF684A80FF63427BFFC7BFD0FFDBD6E0FF684A80FF66477EFF684A
310
80FF684A80FF684A80FF684A80FF684A80FF62407BFF86719AFFF5F4F7FFFFFF
310
FFFFFFFFFFFFBCB1C6FF62407BFF67497FFF64457DFF62407BFF8C789FFFDFDB
310
E4FFFFFFFFFFFFFFFFFFFFFFFFFFE2DEE6FF775D8DFF5F3C78FF67487FFF684A
310
80FF684A80FF684A80FF684A80FF684A80FF684A80FF684A80FF62407BFF9B8B
310
ACFFFFFFFFFFFFFFFFFFFFFFFFFFFFFFFFFFFBFAFAFF6D6B6AFF2A292BFF3433
310
34FF343334FF343334FF2F2E30FF3D3B3CFFD5D3D2FFFFFFFFFFFFFFFFFFFFFF
310
FFFFFFFFFFFFFFFFFFFFFFFFFFFFFFFFFFFFFFFFFFFFFFFFFFFFFFFFFFFFFFFF
310
FFFFFFFFFFFFFFFFFFFFFFFFFFFFFFFFFFFFFFFFFFFFFFFFFFFFFFFFFFFFFFFF
310
FFFFFFFFFFFFFFFFFFFFFFFFFFFFFFFFFFFFFFFFFFFFFFFFFFFFFFFFFFFFFFFF
310
FFFFFFFFFFFFFFFFFFFFFFFFFFFFFFFFFFFFFFFFFFFFFFFFFFFFFFFFFFFFFFFF
310
FFFFFFFFFFFFFFFFFFFFFFFFFFFFFFFFFFFFFFFFFFFFFFFFFFFFFFFFFFFFFFFF
310
FFFFFFFFFFFFFFFFFFFFFFFFFFFFFFFFFFFFFFFFFFFFFFFFFFFFFFFFFFFFFFFF
310
FFFFFFFFFFFFFFFFFFFFFFFFFFFFFFFFFFFFFFFFFFFFFFFFFFFFFFFFFFFFFFFF
310
FFFFFFFFFFFFFFFFFFFFFFFFFFFFFFFFFFFFFFFFFFFFFFFFFFFFFFFFFFFFFFFF
310
FFFFFFFFFFFFFFFFFFFFFFFFFFFFFFFFFFFFFFFFFFFFFFFFFFFFFFFFFFFFFFFF
310
FFFFFFFFFFFFFFFFFFFFFFFFFFFFFFFFFFFFFFFFFFFFFFFFFFFFFFFFFFFFFFFF
310
FFFFFFFFFFFFFFFFFFFFFFFFFFFFFFFFFFFFFFFFFFFFFFFFFFFF9B8BACFF6240
310
7BFF684A80FF684A80FF684A80FF684A80FF684A80FF684A80FF684A80FF684A
310
80FF62407BFFA99BB7FFC9C1D1FF62407BFF67487FFF684A80FF684A80FF684A
310
80FF684A80FF684A80FF62407BFFA596B4FFFFFFFFFFFFFFFFFFFFFFFFFFFCFC
310
FCFF9280A4FF5F3C78FF694C81FF67497FFF62407BFF6D5285FFBCB1C6FFFBFB
310
FCFFFFFFFFFFFFFFFFFFEDEBF0FF9A89ABFF64447CFF63427BFF684A80FF684A
310
80FF684A80FF684A80FF684A80FF684A80FF63437CFF816B96FFFCFCFCFFFFFF
310
FFFFFFFFFFFFFFFFFFFFFFFFFFFFE9E9E8FFD9D7D6FFDDDBDAFFDBDAD9FFDDDB
310
DAFFDBDAD9FFDAD9D8FFF2F2F1FFFFFFFFFFFFFFFFFFFFFFFFFFFFFFFFFFFFFF
310
FFFFFFFFFFFFFFFFFFFFFFFFFFFFFFFFFFFFFFFFFFFFFFFFFFFFFFFFFFFFFFFF
310
FFFFFFFFFFFFFFFFFFFFFFFFFFFFFFFFFFFFFFFFFFFFFFFFFFFFFFFFFFFFFFFF
310
FFFFFFFFFFFFFFFFFFFFFFFFFFFFFFFFFFFFFFFFFFFFFFFFFFFFFFFFFFFFFFFF
310
FFFFFFFFFFFFFFFFFFFFFFFFFFFFFFFFFFFFFFFFFFFFFFFFFFFFFFFFFFFFFFFF
310
FFFFFFFFFFFFFFFFFFFFFFFFFFFFFFFFFFFFFFFFFFFFFFFFFFFFFFFFFFFFFFFF
310
FFFFFFFFFFFFFFFFFFFFFFFFFFFFFFFFFFFFFFFFFFFFFFFFFFFFFFFFFFFFFFFF
310
FFFFFFFFFFFFFFFFFFFFFFFFFFFFFFFFFFFFFFFFFFFFFFFFFFFFFFFFFFFFFFFF
310
FFFFFFFFFFFFFFFFFFFFFFFFFFFFFFFFFFFFFFFFFFFFFFFFFFFFFFFFFFFFFFFF
310
FFFFFFFFFFFFFFFFFFFFFFFFFFFFFFFFFFFFFFFFFFFFFFFFFFFFFFFFFFFFFFFF
310
FFFFFFFFFFFFFFFFFFFFFFFFFFFFFFFFFFFFFFFFFFFFFFFFFFFFFFFFFFFFFFFF
310
FFFFFFFFFFFFFFFFFFFFFFFFFFFFFFFFFFFFBEB4C8FF63427BFF684A80FF684A
310
80FF684A80FF684A80FF684A80FF684A80FF684A80FF684A80FF63437CFF8874
310
9CFFA394B2FF62407BFF684A80FF684A80FF684A80FF684A80FF684A80FF6749
310
7FFF63427BFFC0B6CAFFFFFFFFFFFFFFFFFFFFFFFFFFFFFFFFFFE5E2E9FF7157
310
88FF64447CFF684A80FF684A80FF64447CFF62407BFF9280A4FFE5E2E9FFFFFF
310
FFFFFFFFFFFFFFFFFFFFC3BACCFF725889FF62407BFF67497FFF684A80FF684A
310
80FF684A80FF684A80FF67487FFF6D5285FFE5E2E9FFFFFFFFFFFFFFFFFFFFFF
310
FFFFFFFFFFFFFFFFFFFFFFFFFFFFFFFFFFFFFFFFFFFFFFFFFFFFFFFFFFFFFFFF
310
FFFFFFFFFFFFFFFFFFFFFFFFFFFFFFFFFFFFFFFFFFFFFFFFFFFFFFFFFFFFFFFF
310
FFFFFFFFFFFFFFFFFFFFFFFFFFFFFFFFFFFFFFFFFFFFFFFFFFFFFFFFFFFFFFFF
310
FFFFFFFFFFFFFFFFFFFFFFFFFFFFFFFFFFFFFFFFFFFFFFFFFFFFFFFFFFFFFFFF
310
FFFFFFFFFFFFFFFFFFFFFFFFFFFFFFFFFFFFFFFFFFFFFFFFFFFFFFFFFFFFFFFF
310
FFFFFFFFFFFFFFFFFFFFFFFFFFFFFFFFFFFFFFFFFFFFFFFFFFFFFFFFFFFFFFFF
310
FFFFFFFFFFFFFFFFFFFFFFFFFFFFFFFFFFFFFFFFFFFFFFFFFFFFFFFFFFFFFFFF
310
FFFFFFFFFFFFFFFFFFFFFFFFFFFFFFFFFFFFFFFFFFFFFFFFFFFFFFFFFFFFFFFF
310
FFFFFFFFFFFFFFFFFFFFFFFFFFFFFFFFFFFFFFFFFFFFFFFFFFFFFFFFFFFFFFFF
310
FFFFFFFFFFFFFFFFFFFFFFFFFFFFFFFFFFFFFFFFFFFFFFFFFFFFFFFFFFFFFFFF
310
FFFFFFFFFFFFFFFFFFFFFFFFFFFFFFFFFFFFFFFFFFFFFFFFFFFFFFFFFFFFFFFF
310
FFFFFFFFFFFFFFFFFFFFFFFFFFFFFFFFFFFFFFFFFFFFFFFFFFFFFFFFFFFFFFFF
310
FFFFFFFFFFFFFFFFFFFFDFDBE4FF684A80FF66477EFF684A80FF684A80FF684A
310
80FF684A80FF684A80FF684A80FF684A80FF67487FFF715788FF7A628FFF6647
310
7EFF684A80FF684A80FF684A80FF684A80FF684A80FF66477EFF6A4D82FFD6D1
310
DDFFFFFFFFFFFFFFFFFFFFFFFFFFFFFFFFFFFFFFFFFFBEB4C8FF62407BFF6749
310
7FFF684A80FF684A80FF67497FFF62407BFF725889FFC1B8CBFFFFFFFFFFFFFF
310
FFFFFFFFFFFFE5E2E9FF9280A4FF62407BFF64447CFF684A80FF684A80FF684A
310
80FF67497FFF64457DFFC5BCCEFFFFFFFFFFFFFFFFFFFFFFFFFFFFFFFFFFFFFF
310
FFFFFFFFFFFFFFFFFFFFFFFFFFFFFFFFFFFFFFFFFFFFFFFFFFFFFFFFFFFFFFFF
310
FFFFFFFFFFFFFFFFFFFFFFFFFFFFFFFFFFFFFFFFFFFFFFFFFFFFFFFFFFFFFFFF
310
FFFFFFFFFFFFFFFFFFFFFFFFFFFFFFFFFFFFFFFFFFFFFFFFFFFFFFFFFFFFFFFF
310
FFFFFFFFFFFFFFFFFFFFFFFFFFFFFFFFFFFFFFFFFFFFFFFFFFFFFFFFFFFFFFFF
310
FFFFFFFFFFFFFFFFFFFFFFFFFFFFFFFFFFFFFFFFFFFFFFFFFFFFFFFFFFFFFFFF
310
FFFFFFFFFFFFFFFFFFFFFFFFFFFFFFFFFFFFFFFFFFFFFFFFFFFFFFFFFFFFFFFF
310
FFFFFFFFFFFFFFFFFFFFFFFFFFFFFFFFFFFFFFFFFFFFFFFFFFFFFFFFFFFFFFFF
310
FFFFFFFFFFFFFFFFFFFFFFFFFFFFFFFFFFFFFFFFFFFFFFFFFFFFFFFFFFFFFFFF
310
FFFFFFFFFFFFFFFFFFFFFFFFFFFFFFFFFFFFFFFFFFFFFFFFFFFFFFFFFFFFFFFF
310
FFFFFFFFFFFFFFFFFFFFFFFFFFFFFFFFFFFFFFFFFFFFFFFFFFFFFFFFFFFFFFFF
310
FFFFFFFFFFFFFFFFFFFFFFFFFFFFFFFFFFFFFFFFFFFFFFFFFFFFFFFFFFFFFFFF
310
FFFFFFFFFFFFFFFFFFFFFFFFFFFFFFFFFFFFFFFFFFFFFFFFFFFFFFFFFFFFFFFF
310
FFFFF1EFF3FF7A628FFF63427BFF684A80FF684A80FF684A80FF684A80FF684A
310
80FF684A80FF684A80FF684A80FF67497FFF67497FFF684A80FF684A80FF684A
310
80FF684A80FF684A80FF684A80FF64457DFF7A628FFFF4F2F5FFFFFFFFFFFFFF
310
FFFFFFFFFFFFFFFFFFFFFFFFFFFFFCFCFCFF9482A6FF62407BFF684A80FF684A
310
80FF684A80FF684A80FF63437CFF63427BFF9785A8FFEAE7EDFFFFFFFFFFFFFF
310
FFFFFFFFFFFFBCB1C6FF6F5486FF62407BFF67497FFF684A80FF684A80FF6240
310
7BFFA99BB7FFFFFFFFFFFFFFFFFFFFFFFFFFFFFFFFFFFFFFFFFFFFFFFFFFFFFF
310
FFFFFFFFFFFFFFFFFFFFFFFFFFFFFFFFFFFFFFFFFFFFFFFFFFFFFFFFFFFFFFFF
310
FFFFFFFFFFFFFFFFFFFFFFFFFFFFFFFFFFFFFFFFFFFFFFFFFFFFFFFFFFFFFFFF
310
FFFFFFFFFFFFFFFFFFFFFFFFFFFFFFFFFFFFFFFFFFFFFFFFFFFFFFFFFFFFFFFF
310
FFFFFFFFFFFFFFFFFFFFFFFFFFFFFFFFFFFFFFFFFFFFFFFFFFFFFFFFFFFFFFFF
310
FFFFFFFFFFFFFFFFFFFFFFFFFFFFFFFFFFFFFFFFFFFFFFFFFFFFFFFFFFFFFFFF
310
FFFFFFFFFFFFFFFFFFFFFFFFFFFFFFFFFFFFFFFFFFFFFFFFFFFFFFFFFFFFFFFF
310
FFFFFFFFFFFFFFFFFFFFFFFFFFFFFFFFFFFFFFFFFFFFFFFFFFFFFFFFFFFFFFFF
310
FFFFFFFFFFFFFFFFFFFFFFFFFFFFFFFFFFFFFFFFFFFFFFFFFFFFFFFFFFFFFFFF
310
FFFFFFFFFFFFFFFFFFFFFFFFFFFFFFFFFFFFFFFFFFFFFFFFFFFFFFFFFFFFFFFF
310
FFFFFFFFFFFFFFFFFFFFFFFFFFFFFFFFFFFFFFFFFFFFFFFFFFFFFFFFFFFFFFFF
310
FFFFFFFFFFFFFFFFFFFFFFFFFFFFFFFFFFFFFFFFFFFFFFFFFFFFFFFFFFFFFFFF
310
FFFFFFFFFFFFFFFFFFFFFFFFFFFFFFFFFFFFFFFFFFFFFFFFFFFFFDFDFDFF9584
310
A7FF62407BFF684A80FF684A80FF684A80FF684A80FF684A80FF684A80FF684A
310
80FF684A80FF684A80FF684A80FF684A80FF684A80FF684A80FF684A80FF684A
310
80FF684A80FF62407BFF8F7CA2FFFFFFFFFFFFFFFFFFFFFFFFFFFFFFFFFFFFFF
310
FFFFFFFFFFFFFFFFFFFFE5E2E9FF715788FF63427BFF684A80FF684A80FF684A
310
80FF684A80FF67497FFF5F3C78FF78608EFFC7BFD0FFFFFFFFFFFFFFFFFFFFFF
310
FFFFE2DEE6FF8A769DFF62407BFF64447CFF684A80FF62407BFF8C789FFFFBFB
310
FCFFFFFFFFFFFFFFFFFFFFFFFFFFFFFFFFFFFFFFFFFFFFFFFFFFFFFFFFFFFFFF
310
FFFFFFFFFFFFFFFFFFFFFFFFFFFFFFFFFFFFFFFFFFFFFFFFFFFFFFFFFFFFFFFF
310
FFFFFFFFFFFFFFFFFFFFFFFFFFFFFFFFFFFFFFFFFFFFFFFFFFFFFFFFFFFFFFFF
310
FFFFFFFFFFFFFFFFFFFFFFFFFFFFFFFFFFFFFFFFFFFFFFFFFFFFFFFFFFFFFFFF
310
FFFFFFFFFFFFFFFFFFFFFFFFFFFFFFFFFFFFFFFFFFFFFFFFFFFFFFFFFFFFFFFF
310
FFFFFFFFFFFFFFFFFFFFFFFFFFFFFFFFFFFFFFFFFFFFFFFFFFFFFFFFFFFFFFFF
310
FFFFFFFFFFFFFFFFFFFFFFFFFFFFFFFFFFFFFFFFFFFFFFFFFFFFFFFFFFFFFFFF
310
FFFFFFFFFFFFFFFFFFFFFFFFFFFFFFFFFFFFFFFFFFFFFFFFFFFFFFFFFFFFFFFF
310
FFFFFFFFFFFFFFFFFFFFFFFFFFFFFFFFFFFFFFFFFFFFFFFFFFFFFFFFFFFFFFFF
310
FFFFFFFFFFFFFFFFFFFFFFFFFFFFFFFFFFFFFFFFFFFFFFFFFFFFFFFFFFFFFFFF
310
FFFFFFFFFFFFFFFFFFFFFFFFFFFFFFFFFFFFFFFFFFFFFFFFFFFFFFFFFFFFFFFF
310
FFFFFFFFFFFFFFFFFFFFFFFFFFFFFFFFFFFFFFFFFFFFFFFFFFFFFFFFFFFFFFFF
310
FFFFFFFFFFFFFFFFFFFFFFFFFFFFFFFFFFFFFFFFFFFFB6AAC1FF62407BFF6749
310
7FFF684A80FF684A80FF684A80FF684A80FF684A80FF684A80FF684A80FF684A
310
80FF684A80FF684A80FF684A80FF684A80FF684A80FF684A80FF684A80FF6240
310
7BFFA99BB7FFFFFFFFFFFFFFFFFFFFFFFFFFFFFFFFFFFFFFFFFFFFFFFFFFFFFF
310
FFFFFFFFFFFFC1B8CBFF63437CFF67497FFF684A80FF684A80FF684A80FF684A
310
80FF684A80FF62407BFF64447CFF9F8FAFFFEDEBF0FFFFFFFFFFFFFFFFFFFBFA
310
FAFFB6AAC1FF6C4F83FF62407BFF64447CFF745A8AFFE6E3EAFFFFFFFFFFFFFF
310
FFFFFFFFFFFFFFFFFFFFFFFFFFFFFFFFFFFFFFFFFFFFFFFFFFFFFFFFFFFFFFFF
310
FFFFFFFFFFFFFFFFFFFFFFFFFFFFFFFFFFFFFFFFFFFFFFFFFFFFFFFFFFFFFFFF
310
FFFFFFFFFFFFFFFFFFFFFFFFFFFFFFFFFFFFFFFFFFFFFFFFFFFFFFFFFFFFFFFF
310
FFFFFFFFFFFFFFFFFFFFFFFFFFFFFFFFFFFFFFFFFFFFFFFFFFFFFFFFFFFFFFFF
310
FFFFFFFFFFFFFFFFFFFFFFFFFFFFFFFFFFFFFFFFFFFFFFFFFFFFFFFFFFFFFFFF
310
FFFFFFFFFFFFFFFFFFFFFFFFFFFFFFFFFFFFFFFFFFFFFFFFFFFFFFFFFFFFFFFF
310
FFFFFFFFFFFFFFFFFFFFFFFFFFFFFFFFFFFFFFFFFFFFFFFFFFFFFFFFFFFFFFFF
310
FFFFFFFFFFFFFFFFFFFFFFFFFFFFFFFFFFFFFFFFFFFFFFFFFFFFFFFFFFFFFFFF
310
FFFFFFFFFFFFFFFFFFFFFFFFFFFFFFFFFFFFFFFFFFFFFFFFFFFFFFFFFFFFFFFF
310
FFFFFFFFFFFFFFFFFFFFFFFFFFFFFFFFFFFFFFFFFFFFFFFFFFFFFFFFFFFFFFFF
310
FFFFFFFFFFFFFFFFFFFFFFFFFFFFFFFFFFFFFFFFFFFFFFFFFFFFFFFFFFFFFFFF
310
FFFFFFFFFFFFFFFFFFFFFFFFFFFFFFFFFFFFFFFFFFFFFFFFFFFFFFFFFFFFFFFF
310
FFFFFFFFFFFFFFFFFFFFFFFFFFFFCFC8D6FF66477EFF67487FFF684A80FF684A
310
80FF684A80FF684A80FF684A80FF684A80FF684A80FF684A80FF684A80FF684A
310
80FF684A80FF684A80FF684A80FF684A80FF67497FFF64447CFFCBC4D3FFFFFF
310
FFFFFFFFFFFFFFFFFFFFFFFFFFFFFFFFFFFFFFFFFFFFFFFFFFFFFFFFFFFFFFFF
310
FFFF9785A8FF62407BFF684A80FF684A80FF684A80FF684A80FF684A80FF684A
310
80FF66477EFF62407BFF7B6491FFD1CAD8FFFFFFFFFFFFFFFFFFFFFFFFFFDBD6
310
E0FF846E98FF5F3C78FF63437CFFD4CEDBFFFFFFFFFFFFFFFFFFFFFFFFFFFFFF
310
FFFFFFFFFFFFFFFFFFFFFFFFFFFFFFFFFFFFFFFFFFFFFFFFFFFFFFFFFFFFFFFF
310
FFFFFFFFFFFFFFFFFFFFFFFFFFFFFFFFFFFFFFFFFFFFFFFFFFFFFFFFFFFFFFFF
310
FFFFFFFFFFFFFFFFFFFFFFFFFFFFFFFFFFFFFFFFFFFFFFFFFFFFFFFFFFFFFFFF
310
FFFFFFFFFFFFFFFFFFFFFFFFFFFFFFFFFFFFFFFFFFFFFFFFFFFFFFFFFFFFFFFF
310
FFFFFFFFFFFFFFFFFFFFFFFFFFFFFFFFFFFFFFFFFFFFFFFFFFFFFFFFFFFFFFFF
310
FFFFFFFFFFFFFFFFFFFFFFFFFFFFFFFFFFFFFFFFFFFFFFFFFFFFFFFFFFFFFFFF
310
FFFFFFFFFFFFFFFFFFFFFFFFFFFFFFFFFFFFFFFFFFFFFFFFFFFFFFFFFFFFFFFF
310
FFFFFFFFFFFFFFFFFFFFFFFFFFFFFFFFFFFFFFFFFFFFFFFFFFFFFFFFFFFFFFFF
310
FFFFFFFFFFFFFFFFFFFFFFFFFFFFFFFFFFFFFFFFFFFFFFFFFFFFFFFFFFFFFFFF
310
FFFFFFFFFFFFFFFFFFFFFFFFFFFFFFFFFFFFFFFFFFFFFFFFFFFFFFFFFFFFFFFF
310
FFFFFFFFFFFFFFFFFFFFFFFFFFFFFFFFFFFFFFFFFFFFFFFFFFFFFFFFFFFFFFFF
310
FFFFFFFFFFFFFFFFFFFFFFFFFFFFFFFFFFFFFFFFFFFFFFFFFFFFFFFFFFFFFFFF
310
FFFFFFFFFFFFE9E6ECFF745A8AFF64457DFF684A80FF684A80FF684A80FF684A
310
80FF684A80FF684A80FF684A80FF684A80FF684A80FF684A80FF684A80FF684A
310
80FF684A80FF684A80FF65467DFF6C4F83FFE8E5ECFFFFFFFFFFFFFFFFFFFFFF
310
FFFFFFFFFFFFFFFFFFFFFFFFFFFFFFFFFFFFFFFFFFFFFFFFFFFFE5E2E9FF745A
310
8AFF63427BFF684A80FF684A80FF684A80FF684A80FF684A80FF684A80FF684A
310
80FF62407BFF67487FFFA596B4FFF5F4F7FFFFFFFFFFFFFFFFFFF7F6F8FFAB9D
310
B9FF62407BFFAEA1BBFFFFFFFFFFFFFFFFFFFFFFFFFFFFFFFFFFFFFFFFFFFFFF
310
FFFFFFFFFFFFFFFFFFFFFFFFFFFFFFFFFFFFFFFFFFFFFFFFFFFFFFFFFFFFFFFF
310
FFFFFFFFFFFFFFFFFFFFFFFFFFFFFFFFFFFFFFFFFFFFFFFFFFFFFFFFFFFFFFFF
310
FFFFFFFFFFFFFFFFFFFFFFFFFFFFFFFFFFFFFFFFFFFFFFFFFFFFFFFFFFFFFFFF
310
FFFFFFFFFFFFFFFFFFFFFFFFFFFFFFFFFFFFFFFFFFFFFFFFFFFFFFFFFFFFFFFF
310
FFFFFFFFFFFFFFFFFFFFFFFFFFFFFFFFFFFFFFFFFFFFFFFFFFFFFFFFFFFFFFFF
310
FFFFFFFFFFFFFFFFFFFFFFFFFFFFFFFFFFFFFFFFFFFFFFFFFFFFFFFFFFFFFFFF
310
FFFFFFFFFFFFFFFFFFFFFFFFFFFFFFFFFFFFFFFFFFFFFFFFFFFFFFFFFFFFFFFF
310
FFFFFFFFFFFFFFFFFFFFFFFFFFFFFFFFFFFFFFFFFFFFFFFFFFFFFFFFFFFFFFFF
310
FFFFFFFFFFFFFFFFFFFFFFFFFFFFFFFFFFFFFFFFFFFFFFFFFFFFFFFFFFFFFFFF
310
FFFFFFFFFFFFFFFFFFFFFFFFFFFFFFFFFFFFFFFFFFFFFFFFFFFFFFFFFFFFFFFF
310
FFFFFFFFFFFFFFFFFFFFFFFFFFFFFFFFFFFFFFFFFFFFFFFFFFFFFFFFFFFFFFFF
310
FFFFFFFFFFFFFFFFFFFFFFFFFFFFFFFFFFFFFFFFFFFFFFFFFFFFFFFFFFFFFFFF
310
FFFF8C789FFF62407BFF684A80FF684A80FF684A80FF684A80FF684A80FF684A
310
80FF684A80FF684A80FF684A80FF684A80FF684A80FF684A80FF684A80FF684A
310
80FF63427BFF7F6994FFF4F2F5FFFFFFFFFFFFFFFFFFFFFFFFFFFFFFFFFFFFFF
310
FFFFFFFFFFFFFFFFFFFFFFFFFFFFFFFFFFFFFFFFFFFFC5BCCEFF63437CFF6748
310
7FFF684A80FF684A80FF684A80FF684A80FF684A80FF684A80FF684A80FF6546
310
7EFF5F3C78FF816B96FFD6D1DDFFFFFFFFFFFFFFFFFFFFFFFFFFC9C1D1FFAEA1
310
BBFFFCFBFBFFFFFFFFFFFFFFFFFFFFFFFFFFFFFFFFFFFFFFFFFFFFFFFFFFFFFF
310
FFFFFFFFFFFFFFFFFFFFFFFFFFFFFFFFFFFFFFFFFFFFFFFFFFFFFFFFFFFFFFFF
310
FFFFFFFFFFFFFFFFFFFFFFFFFFFFFFFFFFFFFFFFFFFFFFFFFFFFFFFFFFFFFFFF
310
FFFFFFFFFFFFFFFFFFFFFFFFFFFFFFFFFFFFFFFFFFFFFFFFFFFFFFFFFFFFFFFF
310
FFFFFFFFFFFFFFFFFFFFFFFFFFFFFFFFFFFFFFFFFFFFFFFFFFFFFFFFFFFFFFFF
310
FFFFFFFFFFFFFFFFFFFFFFFFFFFFFFFFFFFFFFFFFFFFFFFFFFFFFFFFFFFFFFFF
310
FFFFFFFFFFFFFFFFFFFFFFFFFFFFFFFFFFFFFFFFFFFFFFFFFFFFFFFFFFFFFFFF
310
FFFFFFFFFFFFFFFFFFFFFFFFFFFFFFFFFFFFFFFFFFFFFFFFFFFFFFFFFFFFFFFF
310
FFFFFFFFFFFFFFFFFFFFFFFFFFFFFFFFFFFFFFFFFFFFFFFFFFFFFFFFFFFFFFFF
310
FFFFFFFFFFFFFFFFFFFFFFFFFFFFFFFFFFFFFFFFFFFFFFFFFFFFFFFFFFFFFFFF
310
FFFFFFFFFFFFFFFFFFFFFFFFFFFFFFFFFFFFFFFFFFFFFFFFFFFFFFFFFFFFFFFF
310
FFFFFFFFFFFFFFFFFFFFFFFFFFFFFFFFFFFFFFFFFFFFFFFFFFFFFFFFFFFFFFFF
310
FFFFFFFFFFFFFFFFFFFFFFFFFFFFFFFFFFFFFFFFFFFFFFFFFFFFA799B5FF5F3C
310
78FF684A80FF684A80FF684A80FF684A80FF684A80FF684A80FF684A80FF684A
310
80FF684A80FF684A80FF684A80FF684A80FF684A80FF684A80FF62407BFF9B8A
310
ACFFFEFDFEFFFFFFFFFFFFFFFFFFFFFFFFFFFFFFFFFFFFFFFFFFFFFFFFFFFFFF
310
FFFFFFFFFFFFFFFFFFFFFFFFFFFFFEFDFEFF9786A8FF62407BFF684A80FF684A
310
80FF684A80FF684A80FF684A80FF684A80FF684A80FF684A80FF684A80FF6240
310
7BFF694C81FFAEA1BBFFF9F8FAFFFFFFFFFFFFFFFFFFF9F8FAFFFEFDFEFFFFFF
310
FFFFFFFFFFFFFFFFFFFFFFFFFFFFFFFFFFFFFFFFFFFFFFFFFFFFFFFFFFFFFFFF
310
FFFFFFFFFFFFFFFFFFFFFFFFFFFFFFFFFFFFFFFFFFFFFFFFFFFFFFFFFFFFFFFF
310
FFFFFFFFFFFFFFFFFFFFFFFFFFFFFFFFFFFFFFFFFFFFFFFFFFFFFFFFFFFFFFFF
310
FFFFFFFFFFFFFFFFFFFFFFFFFFFFFFFFFFFFFFFFFFFFFFFFFFFFFFFFFFFFFFFF
310
FFFFFFFFFFFFFFFFFFFFFFFFFFFFFFFFFFFFFFFFFFFFFFFFFFFFFFFFFFFFFFFF
310
FFFFFFFFFFFFFFFFFFFFFFFFFFFFFFFFFFFFFFFFFFFFFFFFFFFFFFFFFFFFFFFF
310
FFFFFFFFFFFFFFFFFFFFFFFFFFFFFFFFFFFFFFFFFFFFFFFFFFFFFFFFFFFFFFFF
310
FFFFFFFFFFFFFFFFFFFFFFFFFFFFFFFFFFFFFFFFFFFFFFFFFFFFFFFFFFFFFFFF
310
FFFFFFFFFFFFFFFFFFFFFFFFFFFFFFFFFFFFFFFFFFFFFFFFFFFFFFFFFFFFFFFF
310
FFFFFFFFFFFFFFFFFFFFFFFFFFFFFFFFFFFFFFFFFFFFFFFFFFFFFFFFFFFFFFFF
310
FFFFFFFFFFFFFFFFFFFFFFFFFFFFFFFFFFFFFFFFFFFFFFFFFFFFFFFFFFFFFFFF
310
FFFFFFFFFFFFFFFFFFFFFFFFFFFFFFFFFFFFFFFFFFFFFFFFFFFFFFFFFFFFFFFF
310
FFFFFFFFFFFFFFFFFFFFFFFFFFFFFFFFFFFFC7BFD0FF64447CFF684A80FF684A
310
80FF684A80FF684A80FF684A80FF684A80FF684A80FF684A80FF684A80FF684A
310
80FF684A80FF684A80FF684A80FF67497FFF62407BFFB9AEC4FFFFFFFFFFFFFF
310
FFFFFFFFFFFFFFFFFFFFFFFFFFFFFFFFFFFFFFFFFFFFFFFFFFFFFFFFFFFFFFFF
310
FFFFFFFFFFFFFFFFFFFFECEAEFFF775D8DFF63427BFF684A80FF684A80FF684A
310
80FF684A80FF684A80FF684A80FF684A80FF684A80FF684A80FF64457DFF5F3C
310
78FF86719AFFDBD6E0FFFFFFFFFFFFFFFFFFFFFFFFFFFFFFFFFFFFFFFFFFFFFF
310
FFFFFFFFFFFFFFFFFFFFFFFFFFFFFFFFFFFFFFFFFFFFFFFFFFFFFFFFFFFFFFFF
310
FFFFFFFFFFFFFFFFFFFFFFFFFFFFFFFFFFFFFFFFFFFFFFFFFFFFFFFFFFFFFFFF
310
FFFFFFFFFFFFFFFFFFFFFFFFFFFFFFFFFFFFFFFFFFFFFFFFFFFFFFFFFFFFFFFF
310
FFFFFFFFFFFFFFFFFFFFFFFFFFFFFFFFFFFFFFFFFFFFFFFFFFFFFFFFFFFFFFFF
310
FFFFFFFFFFFFFFFFFFFFFFFFFFFFFFFFFFFFFFFFFFFFFFFFFFFFFFFFFFFFFFFF
310
FFFFFFFFFFFFFFFFFFFFFFFFFFFFFFFFFFFFFFFFFFFFFFFFFFFFFFFFFFFFFFFF
310
FFFFFFFFFFFFFFFFFFFFFFFFFFFFFFFFFFFFFFFFFFFFFFFFFFFFFFFFFFFFFFFF
310
FFFFFFFFFFFFFFFFFFFFFFFFFFFFFFFFFFFFFFFFFFFFFFFFFFFFFFFFFFFFFFFF
310
FFFFFFFFFFFFFFFFFFFFFFFFFFFFFFFFFFFFFFFFFFFFFFFFFFFFFFFFFFFFFFFF
310
FFFFFFFFFFFFFFFFFFFFFFFFFFFFFFFFFFFFFFFFFFFFFFFFFFFFFFFFFFFFFFFF
310
FFFFFFFFFFFFFFFFFFFFFFFFFFFFFFFFFFFFFFFFFFFFFFFFFFFFFFFFFFFFFFFF
310
FFFFFFFFFFFFFFFFFFFFFFFFFFFFFFFFFFFFFFFFFFFFFFFFFFFFFFFFFFFFFFFF
310
FFFFFFFFFFFFFFFFFFFFE8E5ECFF6C4F83FF66477EFF684A80FF684A80FF684A
310
80FF684A80FF684A80FF684A80FF684A80FF684A80FF684A80FF684A80FF684A
310
80FF684A80FF66477EFF67497FFFD1CAD8FFFFFFFFFFFFFFFFFFFFFFFFFFFFFF
310
FFFFFFFFFFFFFFFFFFFFFFFFFFFFFFFFFFFFFFFFFFFFFFFFFFFFFFFFFFFFFFFF
310
FFFFFFFFFFFFC5BCCEFF64447CFF67487FFF684A80FF684A80FF684A80FF684A
310
80FF684A80FF684A80FF684A80FF684A80FF684A80FF684A80FF62407BFF6C4F
310
83FFB9AEC4FFFBFAFAFFFFFFFFFFFFFFFFFFFFFFFFFFFFFFFFFFFFFFFFFFFFFF
310
FFFFFFFFFFFFFFFFFFFFFFFFFFFFFFFFFFFFFFFFFFFFFFFFFFFFFFFFFFFFFFFF
310
FFFFFFFFFFFFFFFFFFFFFFFFFFFFFFFFFFFFFFFFFFFFFFFFFFFFFFFFFFFFFFFF
310
FFFFFFFFFFFFFFFFFFFFFFFFFFFFFFFFFFFFFFFFFFFFFFFFFFFFFFFFFFFFFFFF
310
FFFFFFFFFFFFFFFFFFFFFFFFFFFFFFFFFFFFFFFFFFFFFFFFFFFFFFFFFFFFFFFF
310
FFFFFFFFFFFFFFFFFFFFFFFFFFFFFFFFFFFFFFFFFFFFFFFFFFFFFFFFFFFFFFFF
310
FFFFFFFFFFFFFFFFFFFFFFFFFFFFFFFFFFFFFFFFFFFFFFFFFFFFFFFFFFFFFFFF
310
FFFFFFFFFFFFFFFFFFFFFFFFFFFFFFFFFFFFFFFFFFFFFFFFFFFFFFFFFFFFFFFF
310
FFFFFFFFFFFFFFFFFFFFFFFFFFFFFFFFFFFFFFFFFFFFFFFFFFFFFFFFFFFFFFFF
310
FFFFFFFFFFFFFFFFFFFFFFFFFFFFFFFFFFFFFFFFFFFFFFFFFFFFFFFFFFFFFFFF
310
FFFFFFFFFFFFFFFFFFFFFFFFFFFFFFFFFFFFFFFFFFFFFFFFFFFFFFFFFFFFFFFF
310
FFFFFFFFFFFFFFFFFFFFFFFFFFFFFFFFFFFFFFFFFFFFFFFFFFFFFFFFFFFFFFFF
310
FFFFFFFFFFFFFFFFFFFFFFFFFFFFFFFFFFFFFFFFFFFFFFFFFFFFFFFFFFFFFFFF
310
FFFFF7F6F8FF7F6994FF63427BFF684A80FF684A80FF684A80FF684A80FF684A
310
80FF684A80FF684A80FF684A80FF684A80FF684A80FF684A80FF684A80FF6445
310
7DFF755B8CFFEAE7EDFFFFFFFFFFFFFFFFFFFFFFFFFFFFFFFFFFFFFFFFFFFFFF
310
FFFFFFFFFFFFFFFFFFFFFFFFFFFFFFFFFFFFFFFFFFFFFFFFFFFFFFFFFFFFFFFF
310
FFFF9B8BACFF5F3C78FF694C81FF684A80FF684A80FF684A80FF684A80FF684A
310
80FF684A80FF684A80FF684A80FF684A80FF684A80FF64447CFF62407BFF8C78
310
9FFFE5E2E9FFFFFFFFFFFFFFFFFFFFFFFFFFFFFFFFFFFFFFFFFFFFFFFFFFFFFF
310
FFFFFFFFFFFFFFFFFFFFFFFFFFFFFFFFFFFFFFFFFFFFFFFFFFFFFFFFFFFFFFFF
310
FFFFFFFFFFFFFFFFFFFFFFFFFFFFFFFFFFFFFFFFFFFFFFFFFFFFFFFFFFFFFFFF
310
FFFFFFFFFFFFFFFFFFFFFFFFFFFFFFFFFFFFFFFFFFFFFFFFFFFFFFFFFFFFFFFF
310
FFFFFFFFFFFFFFFFFFFFFFFFFFFFFFFFFFFFFFFFFFFFFFFFFFFFFFFFFFFFFFFF
310
FFFFFFFFFFFFFFFFFFFFFFFFFFFFFFFFFFFFFFFFFFFFFFFFFFFFFFFFFFFFFFFF
310
FFFFFFFFFFFFFFFFFFFFFFFFFFFFFFFFFFFFFFFFFFFFFFFFFFFFFFFFFFFFFFFF
310
FFFFFFFFFFFFFFFFFFFFFFFFFFFFFFFFFFFFFFFFFFFFFFFFFFFFFFFFFFFFFFFF
310
FFFFFFFFFFFFFFFFFFFFFFFFFFFFFFFFFFFFFFFFFFFFFFFFFFFFFFFFFFFFFFFF
310
FFFFFFFFFFFFFFFFFFFFFFFFFFFFFFFFFFFFFFFFFFFFFFFFFFFFFFFFFFFFFFFF
310
FFFFFFFFFFFFFFFFFFFFFFFFFFFFFFFFFFFFFFFFFFFFFFFFFFFFFFFFFFFFFFFF
310
FFFFFFFFFFFFFFFFFFFFFFFFFFFFFFFFFFFFFFFFFFFFFFFFFFFFFFFFFFFFFFFF
310
FFFFFFFFFFFFFFFFFFFFFFFFFFFFFFFFFFFFFFFFFFFFFFFFFFFFFEFDFEFF9D8D
310
AEFF62407BFF684A80FF684A80FF684A80FF684A80FF684A80FF684A80FF684A
310
80FF684A80FF684A80FF684A80FF684A80FF684A80FF62407BFF88749CFFFDFD
310
FDFFFFFFFFFFFFFFFFFFFFFFFFFFFFFFFFFFFFFFFFFFFFFFFFFFFFFFFFFFFFFF
310
FFFFFFFFFFFFFFFFFFFFFFFFFFFFFFFFFFFFFFFFFFFFFFFFFFFFECEAEFFF775D
310
8DFF63427BFF684A80FF684A80FF684A80FF684A80FF684A80FF684A80FF684A
310
80FF684A80FF684A80FF684A80FF684A80FF67487FFF5F3C78FF86719AFFF9F8
310
F9FFFFFFFFFFFFFFFFFFFFFFFFFFFFFFFFFFFFFFFFFFFFFFFFFFFFFFFFFFFFFF
310
FFFFFFFFFFFFFFFFFFFFFFFFFFFFFFFFFFFFFFFFFFFFFFFFFFFFFFFFFFFFFFFF
310
FFFFFFFFFFFFFFFFFFFFFFFFFFFFFFFFFFFFFFFFFFFFFFFFFFFFFFFFFFFFFFFF
310
FFFFFFFFFFFFFFFFFFFFFFFFFFFFFFFFFFFFFFFFFFFFFFFFFFFFFFFFFFFFFFFF
310
FFFFFFFFFFFFFFFFFFFFFFFFFFFFFFFFFFFFFFFFFFFFFFFFFFFFFFFFFFFFFFFF
310
FFFFFFFFFFFFFFFFFFFFFFFFFFFFFFFFFFFFFFFFFFFFFFFFFFFFFFFFFFFFFFFF
310
FFFFFFFFFFFFFFFFFFFFFFFFFFFFFFFFFFFFFFFFFFFFFFFFFFFFFFFFFFFFFFFF
310
FFFFFFFFFFFFFFFFFFFFFFFFFFFFFFFFFFFFFFFFFFFFFFFFFFFFFFFFFFFFFFFF
310
FFFFFFFFFFFFFFFFFFFFFFFFFFFFFFFFFFFFFFFFFFFFFFFFFFFFFFFFFFFFFFFF
310
FFFFFFFFFFFFFFFFFFFFFFFFFFFFFFFFFFFFFFFFFFFFFFFFFFFFFFFFFFFFFFFF
310
FFFFFFFFFFFFFFFFFFFFFFFFFFFFFFFFFFFFFFFFFFFFFFFFFFFFFFFFFFFFFFFF
310
FFFFFFFFFFFFFFFFFFFFFFFFFFFFFFFFFFFFFFFFFFFFFFFFFFFFFFFFFFFFFFFF
310
FFFFFFFFFFFFFFFFFFFFFFFFFFFFFFFFFFFFFFFFFFFFC0B6CAFF62407BFF6749
310
7FFF684A80FF684A80FF684A80FF684A80FF684A80FF684A80FF684A80FF684A
310
80FF684A80FF684A80FF684A80FF62407BFFA191B0FFFFFFFFFFFFFFFFFFFFFF
310
FFFFFFFFFFFFFFFFFFFFFFFFFFFFFFFFFFFFFFFFFFFFFFFFFFFFFFFFFFFFFFFF
310
FFFFFFFFFFFFFFFFFFFFFFFFFFFFFFFFFFFFFFFFFFFFCBC4D3FF65457DFF6647
310
7EFF684A80FF684A80FF684A80FF684A80FF684A80FF684A80FF684A80FF684A
310
80FF684A80FF684A80FF684A80FF64457DFF6D5285FFDFDBE4FFFFFFFFFFFFFF
310
FFFFFFFFFFFFFFFFFFFFFFFFFFFFFFFFFFFFFFFFFFFFFFFFFFFFFFFFFFFFFFFF
310
FFFFFFFFFFFFFFFFFFFFFFFFFFFFFFFFFFFFFFFFFFFFFFFFFFFFFFFFFFFFFFFF
310
FFFFFFFFFFFFFFFFFFFFFFFFFFFFFFFFFFFFFFFFFFFFFFFFFFFFFFFFFFFFFFFF
310
FFFFFFFFFFFFFFFFFFFFFFFFFFFFFFFFFFFFFFFFFFFFFFFFFFFFFFFFFFFFFFFF
310
FFFFFFFFFFFFFFFFFFFFFFFFFFFFFFFFFFFFFFFFFFFFFFFFFFFFFFFFFFFFFFFF
310
FFFFFFFFFFFFFFFFFFFFFFFFFFFFFFFFFFFFFFFFFFFFFFFFFFFFFFFFFFFFFFFF
310
FFFFFFFFFFFFFFFFFFFFFFFFFFFFFFFFFFFFFFFFFFFFFFFFFFFFFFFFFFFFFFFF
310
FFFFFFFFFFFFFFFFFFFFFFFFFFFFFFFFFFFFFFFFFFFFFFFFFFFFFFFFFFFFFFFF
310
FFFFFFFFFFFFFFFFFFFFFFFFFFFFFFFFFFFFFFFFFFFFFFFFFFFFFFFFFFFFFFFF
310
FFFFFFFFFFFFFFFFFFFFFFFFFFFFFFFFFFFFFFFFFFFFFFFFFFFFFFFFFFFFFFFF
310
FFFFFFFFFFFFFFFFFFFFFFFFFFFFFFFFFFFFFFFFFFFFFFFFFFFFFFFFFFFFFFFF
310
FFFFFFFFFFFFFFFFFFFFFFFFFFFFFFFFFFFFFFFFFFFFFFFFFFFFFFFFFFFFFFFF
310
FFFFFFFFFFFFFFFFFFFFFFFFFFFFD8D3DEFF6A4D82FF65467EFF684A80FF684A
310
80FF684A80FF684A80FF684A80FF684A80FF684A80FF684A80FF684A80FF684A
310
80FF684A80FF63437CFFC1B8CBFFFFFFFFFFFFFFFFFFFFFFFFFFFFFFFFFFFFFF
310
FFFFFFFFFFFFFFFFFFFFFFFFFFFFFFFFFFFFFFFFFFFFFFFFFFFFFFFFFFFFFFFF
310
FFFFFFFFFFFFFFFFFFFFFFFFFFFFFFFFFFFF9F8FAFFF5F3C78FF684A80FF684A
310
80FF684A80FF684A80FF684A80FF684A80FF684A80FF684A80FF684A80FF684A
310
80FF684A80FF67487FFF63437CFFC9C1D1FFFFFFFFFFFFFFFFFFFFFFFFFFFFFF
310
FFFFFFFFFFFFFFFFFFFFFFFFFFFFFFFFFFFFFFFFFFFFFFFFFFFFFFFFFFFFFFFF
310
FFFFFFFFFFFFFFFFFFFFFFFFFFFFFFFFFFFFFFFFFFFFFFFFFFFFFFFFFFFFFFFF
310
FFFFFFFFFFFFFFFFFFFFFFFFFFFFFFFFFFFFFFFFFFFFFFFFFFFFFFFFFFFFFFFF
310
FFFFFFFFFFFFFFFFFFFFFFFFFFFFFFFFFFFFFFFFFFFFFFFFFFFFFFFFFFFFFFFF
310
FFFFFFFFFFFFFFFFFFFFFFFFFFFFFFFFFFFFFFFFFFFFFFFFFFFFFFFFFFFFFFFF
310
FFFFFFFFFFFFFFFFFFFFFFFFFFFFFFFFFFFFFFFFFFFFFFFFFFFFFFFFFFFFFFFF
310
FFFFFFFFFFFFFFFFFFFFFFFFFFFFFFFFFFFFFFFFFFFFFFFFFFFFFFFFFFFFFFFF
310
FFFFFFFFFFFFFFFFFFFFFFFFFFFFFFFFFFFFFFFFFFFFFFFFFFFFFFFFFFFFFFFF
310
FFFFFFFFFFFFFFFFFFFFFFFFFFFFFFFFFFFFFFFFFFFFFFFFFFFFFFFFFFFFFFFF
310
FFFFFFFFFFFFFFFFFFFFFFFFFFFFFFFFFFFFFFFFFFFFFFFFFFFFFFFFFFFFFFFF
310
FFFFFFFFFFFFFFFFFFFFFFFFFFFFFFFFFFFFFFFFFFFFFFFFFFFFFFFFFFFFFFFF
310
FFFFFFFFFFFFFFFFFFFFFFFFFFFFFFFFFFFFFFFFFFFFFFFFFFFFFFFFFFFFFFFF
310
FFFFFFFFFFFFF1EFF3FF7E6793FF63437CFF684A80FF684A80FF684A80FF684A
310
80FF684A80FF684A80FF684A80FF684A80FF684A80FF684A80FF67487FFF6C4F
310
83FFE2DFE7FFFFFFFFFFFFFFFFFFFFFFFFFFFFFFFFFFFFFFFFFFFFFFFFFFFFFF
310
FFFFFFFFFFFFFFFFFFFFFFFFFFFFFFFFFFFFFFFFFFFFFFFFFFFFFFFFFFFFFFFF
310
FFFFFFFFFFFFFFFFFFFFF0EEF1FF7E6793FF65457DFF684A80FF684A80FF684A
310
80FF684A80FF684A80FF684A80FF684A80FF684A80FF684A80FF684A80FF684A
310
80FF62407BFFA799B5FFFEFDFEFFFFFFFFFFFFFFFFFFFFFFFFFFFFFFFFFFFFFF
310
FFFFFFFFFFFFFFFFFFFFFFFFFFFFFFFFFFFFFFFFFFFFFFFFFFFFFFFFFFFFFFFF
310
FFFFFFFFFFFFFFFFFFFFFFFFFFFFFFFFFFFFFFFFFFFFFFFFFFFFFFFFFFFFFFFF
310
FFFFFFFFFFFFFFFFFFFFFFFFFFFFFFFFFFFFFFFFFFFFFFFFFFFFFFFFFFFFFFFF
310
FFFFFFFFFFFFFFFFFFFFFFFFFFFFFFFFFFFFFFFFFFFFFFFFFFFFFFFFFFFFFFFF
310
FFFFFFFFFFFFFFFFFFFFFFFFFFFFFFFFFFFFFFFFFFFFFFFFFFFFFFFFFFFFFFFF
310
FFFFFFFFFFFFFFFFFFFFFFFFFFFFFFFFFFFFFFFFFFFFFFFFFFFFFFFFFFFFFFFF
310
FFFFFFFFFFFFFFFFFFFFFFFFFFFFFFFFFFFFFFFFFFFFFFFFFFFFFFFFFFFFFFFF
310
FFFFFFFFFFFFFFFFFFFFFFFFFFFFFFFFFFFFFFFFFFFFFFFFFFFFFFFFFFFFFFFF
310
FFFFFFFFFFFFFFFFFFFFFFFFFFFFFFFFFFFFFFFFFFFFFFFFFFFFFFFFFFFFFFFF
310
FFFFFFFFFFFFFFFFFFFFFFFFFFFFFFFFFFFFFFFFFFFFFFFFFFFFFFFFFFFFFFFF
310
FFFFFFFFFFFFFFFFFFFFFFFFFFFFFFFFFFFFFFFFFFFFFFFFFFFFFFFFFFFFFFFF
310
FFFFFFFFFFFFFFFFFFFFFFFFFFFFFFFFFFFFFFFFFFFFFFFFFFFFFFFFFFFFFFFF
310
FFFF9280A4FF62407BFF684A80FF684A80FF684A80FF684A80FF684A80FF684A
310
80FF684A80FF684A80FF684A80FF684A80FF64447CFF775D8DFFF4F2F5FFFFFF
310
FFFFFFFFFFFFFFFFFFFFFFFFFFFFFFFFFFFFFFFFFFFFFFFFFFFFFFFFFFFFFFFF
310
FFFFFFFFFFFFFFFFFFFFFFFFFFFFFFFFFFFFFFFFFFFFFFFFFFFFFFFFFFFFFFFF
310
FFFFFFFFFFFFBCB1C6FF63427BFF67487FFF684A80FF684A80FF684A80FF684A
310
80FF684A80FF684A80FF684A80FF684A80FF684A80FF684A80FF62407BFF8F7C
310
A2FFFBFAFAFFFFFFFFFFFFFFFFFFFFFFFFFFFFFFFFFFFFFFFFFFFFFFFFFFFFFF
310
FFFFFFFFFFFFFFFFFFFFFFFFFFFFFFFFFFFFFFFFFFFFFFFFFFFFFFFFFFFFFFFF
310
FFFFFFFFFFFFFFFFFFFFFFFFFFFFFFFFFFFFFFFFFFFFFFFFFFFFFFFFFFFFFFFF
310
FFFFFFFFFFFFFFFFFFFFFFFFFFFFFFFFFFFFFFFFFFFFFFFFFFFFFFFFFFFFFFFF
310
FFFFFFFFFFFFFFFFFFFFFFFFFFFFFFFFFFFFFFFFFFFFFFFFFFFFFFFFFFFFFFFF
310
FFFFFFFFFFFFFFFFFFFFFFFFFFFFFFFFFFFFFFFFFFFFFFFFFFFFFFFFFFFFFFFF
310
FFFFFFFFFFFFFFFFFFFFFFFFFFFFFFFFFFFFFFFFFFFFFFFFFFFFFFFFFFFFFFFF
310
FFFFFFFFFFFFFFFFFFFFFFFFFFFFFFFFFFFFFFFFFFFFFFFFFFFFFFFFFFFFFFFF
310
FFFFFFFFFFFFFFFFFFFFFFFFFFFFFFFFFFFFFFFFFFFFFFFFFFFFFFFFFFFFFFFF
310
FFFFFFFFFFFFFFFFFFFFFFFFFFFFFFFFFFFFFFFFFFFFFFFFFFFFFFFFFFFFFFFF
310
FFFFFFFFFFFFFFFFFFFFFFFFFFFFFFFFFFFFFFFFFFFFFFFFFFFFFFFFFFFFFFFF
310
FFFF000000000000000000000000000000000000000000000000000000000000
  1
OLE
  0
LINE
  5
55
330
1F
100
AcDbEntity
  8
0
  6
Continuous
 62
     7
370
     0
100
AcDbLine
 10
0.3223132999999975
 20
8.003025328330156
 30
0.0
 11
10.38462099230769
 21
8.003025328330203
 31
0.0
  0
LINE
  5
56
330
1F
100
AcDbEntity
  8
0
  6
Continuous
 62
     7
370
     0
100
AcDbLine
 10
0.3223132999999975
 20
8.003025328330156
 30
0.0
 11
0.3223132999999985
 21
0.3830253283302021
 31
0.0
  0
LINE
  5
57
330
1F
100
AcDbEntity
  8
0
  6
Continuous
 62
     7
370
     0
100
AcDbLine
 10
10.38462099230769
 20
0.3830253283302032
 30
0.0
 11
0.3223132999999985
 21
0.3830253283302021
 31
0.0
  0
LINE
  5
58
330
1F
100
AcDbEntity
  8
0
  6
Continuous
 62
     7
370
     0
100
AcDbLine
 10
10.38462099230769
 20
0.3830253283302032
 30
0.0
 11
10.38462099230769
 21
8.003025328330203
 31
0.0
  0
LINE
  5
59
330
1F
100
AcDbEntity
  8
0
  6
Continuous
 62
     7
370
     0
100
AcDbLine
 10
7.68956376584452
 20
2.302042187295598
 30
0.0
 11
7.68956376584452
 21
0.3830253283302082
 31
0.0
  0
LINE
  5
5A
330
1F
100
AcDbEntity
  8
0
  6
Continuous
 62
     7
370
     0
100
AcDbLine
 10
7.68956376584452
 20
0.5909984175575791
 30
0.0
 11
10.38462099230769
 21
0.5909984175575743
 31
0.0
  0
LINE
  5
5B
330
1F
100
AcDbEntity
  8
0
  6
Continuous
 62
     7
370
     0
100
AcDbLine
 10
7.68956376584452
 20
1.08627617845651
 30
0.0
 11
10.38462099230769
 21
1.086276178456505
 31
0.0
  0
LINE
  5
5C
330
1F
100
AcDbEntity
  8
0
  6
Continuous
 62
     7
370
     0
100
AcDbLine
 10
7.68956376584452
 20
1.943364131522398
 30
0.0
 11
10.38462099230769
 21
1.943364131522393
 31
0.0
  0
LINE
  5
5D
330
1F
100
AcDbEntity
  8
0
  6
Continuous
 62
     7
370
     0
100
AcDbLine
 10
8.272707081669214
 20
1.08627617845651
 30
0.0
 11
8.272707081669214
 21
0.5909984175575743
 31
0.0
  0
LINE
  5
5E
330
1F
100
AcDbEntity
  8
0
  6
Continuous
 62
     7
370
     0
100
AcDbLine
 10
8.622985341481204
 20
1.08627617845651
 30
0.0
 11
8.622985341481204
 21
0.5909984175575743
 31
0.0
  0
LINE
  5
5F
330
1F
100
AcDbEntity
  8
0
  6
Continuous
 62
     7
370
     0
100
AcDbLine
 10
9.724899032404946
 20
1.08627617845651
 30
0.0
 11
9.724899032404946
 21
0.5909984175575743
 31
0.0
  0
LINE
  5
60
330
1F
100
AcDbEntity
  8
0
  6
Continuous
 62
     7
370
     0
100
AcDbLine
 10
9.443188224719397
 20
0.5909984175575743
 30
0.0
 11
9.443188224719397
 21
0.3830253283302033
 31
0.0
  0
LINE
  5
61
330
1F
100
AcDbEntity
  8
0
  6
Continuous
 62
     7
370
     0
100
AcDbLine
 10
7.68956376584452
 20
2.302042187295598
 30
0.0
 11
10.38462099230769
 21
2.302042187295598
 31
0.0
  0
INSERT
  5
68
330
1F
100
AcDbEntity
  8
0
  6
Continuous
 62
     7
370
     0
100
AcDbBlockReference
  2
SW_NOTE_18
 10
8.25424102903184
 20
1.27666364555498
 30
0.0
  0
INSERT
  5
8E
330
1F
100
AcDbEntity
  8
0
  6
Continuous
 62
     7
370
     0
100
AcDbBlockReference
  2
SW_NOTE_19
 10
0.4766710875331576
 20
2.93387592041486
 30
0.0
  0
INSERT
  5
94
102
{ACAD_REACTORS
330
96
102
}
330
1F
100
AcDbEntity
  8
0
  6
Continuous
 62
     7
370
     0
100
AcDbBlockReference
  2
SW_NOTE_20
 10
5.301412076767045
 20
5.999375877672023
 30
0.0
  0
LEADER
  5
96
330
1F
100
AcDbEntity
  8
0
  6
Continuous
 62
     7
370
     0
100
AcDbLeader
  3
SLDDIMSTYLE0
 73
     2
 76
     3
 10
3.740464111702736
 20
5.732800788962344
 30
0.0
 10
5.186027461382431
 20
5.999375877672023
 30
0.0
 10
5.301412076767045
 20
5.999375877672023
 30
0.0
340
94
  0
INSERT
  5
9C
330
1F
100
AcDbEntity
  8
0
  6
Continuous
 62
     7
370
     0
100
AcDbBlockReference
  2
SW_NOTE_21
 10
8.07414200324337
 20
1.685006563410956
 30
0.0
  0
MTEXT
  5
9D
330
1F
100
AcDbEntity
  8
0
  6
Continuous
 62
     7
370
     0
100
AcDbMText
 10
9.531963359518485
 20
0.5385303645191943
 30
0.0
 40
0.0976923076923077
 41
0.0
 71
     1
 72
     1
  1
SHEET 4 OF 4
  7
SLDTEXTSTYLE0
 73
     1
 44
1.0
1001
ACAD
1000
MTEXTBEGIN
1070
    73
1070
     1
1070
    44
1040
1.0
1070
    74
1070
     0
1000
MTEXTEND
  0
MTEXT
  5
9F
330
1F
100
AcDbEntity
  8
0
  6
Continuous
 62
     7
370
     0
100
AcDbMText
 10
7.978177573310641
 20
0.8399694947450111
 30
0.0
 40
0.1424679487179487
 41
0.0
 71
     2
 72
     1
  1
26:1
  7
SLDTEXTSTYLE1
 73
     1
 44
1.0
1001
ACAD
1000
MTEXTBEGIN
1070
    73
1070
     1
1070
    44
1040
1.0
1070
    74
1070
     0
1000
MTEXTEND
  0
MTEXT
  5
A0
330
1F
100
AcDbEntity
  8
0
  6
Continuous
 62
     7
370
     0
100
AcDbMText
 10
9.182665593544461
 20
1.044078873825517
 30
0.0
 40
0.0976923076923077
 41
0.0
 71
     2
 72
     1
  1
DWG.  NO.
  7
SLDTEXTSTYLE0
 73
     1
 44
1.0
1001
ACAD
1000
MTEXTBEGIN
1070
    73
1070
     1
1070
    44
1040
1.0
1070
    74
1070
     0
1000
MTEXTEND
  0
MTEXT
  5
A1
330
1F
100
AcDbEntity
  8
0
  6
Continuous
 62
     7
370
     0
100
AcDbMText
 10
8.333475588471197
 20
0.8607838966227966
 30
0.0
 40
0.2442307692307692
 41
0.0
 71
     1
 72
     1
  1
A
  7
SLDTEXTSTYLE1
 73
     1
 44
1.0
1001
ACAD
1000
MTEXTBEGIN
1070
    73
1070
     1
1070
    44
1040
1.0
1070
    74
1070
     0
1000
MTEXTEND
  0
MTEXT
  5
A2
330
1F
100
AcDbEntity
  8
0
  6
Continuous
 62
     7
370
     0
100
AcDbMText
 10
8.343028576050166
 20
1.044078873825517
 30
0.0
 40
0.0976923076923077
 41
0.0
 71
     1
 72
     1
  1
SIZE
  7
SLDTEXTSTYLE0
 73
     1
 44
1.0
1001
ACAD
1000
MTEXTBEGIN
1070
    73
1070
     1
1070
    44
1040
1.0
1070
    74
1070
     0
1000
MTEXTEND
  0
MTEXT
  5
A3
330
1F
100
AcDbEntity
  8
0
  6
Continuous
 62
     7
370
     0
100
AcDbMText
 10
7.734368792680006
 20
1.908532274236474
 30
0.0
 40
0.0976923076923077
 41
0.0
 71
     1
 72
     1
  1
TITLE:
  7
SLDTEXTSTYLE0
 73
     1
 44
1.0
1001
ACAD
1000
MTEXTBEGIN
1070
    73
1070
     1
1070
    44
1040
1.0
1070
    74
1070
     0
1000
MTEXTEND
  0
MTEXT
  5
A4
330
1F
100
AcDbEntity
  8
0
  6
Continuous
 62
     7
370
     0
100
AcDbMText
 10
7.770386187295268
 20
0.5385303645191942
 30
0.0
 40
0.0976923076923077
 41
0.0
 71
     1
 72
     1
  1
DO NOT SCALE DRAWING
  7
SLDTEXTSTYLE0
 73
     1
 44
1.0
1001
ACAD
1000
MTEXTBEGIN
1070
    73
1070
     1
1070
    44
1040
1.0
1070
    74
1070
     0
1000
MTEXTEND
  0
MTEXT
  5
A5
330
1F
100
AcDbEntity
  8
0
  6
Continuous
 62
     7
370
     0
100
AcDbMText
 10
7.968038047737801
 20
1.044078873825517
 30
0.0
 40
0.0976923076923077
 41
0.0
 71
     2
 72
     1
  1
SCALE
  7
SLDTEXTSTYLE0
 73
     1
 44
1.0
1001
ACAD
1000
MTEXTBEGIN
1070
    73
1070
     1
1070
    44
1040
1.0
1070
    74
1070
     0
1000
MTEXTEND
  0
MTEXT
  5
A6
330
1F
100
AcDbEntity
  8
0
  6
Continuous
 62
     7
370
     0
100
AcDbMText
 10
10.06762884726055
 20
1.044078873825517
 30
0.0
 40
0.0976923076923077
 41
0.0
 71
     2
 72
     1
  1
REV
  7
SLDTEXTSTYLE0
 73
     1
 44
1.0
1001
ACAD
1000
MTEXTBEGIN
1070
    73
1070
     1
1070
    44
1040
1.0
1070
    74
1070
     0
1000
MTEXTEND
  0
MTEXT
  5
A7
330
1F
100
AcDbEntity
  8
0
  6
Continuous
 62
     7
370
     0
100
AcDbMText
 10
10.06858641963683
 20
0.8922365984991426
 30
0.0
 40
0.2442307692307692
 41
0.0
 71
     2
 72
     1
  1
A
  7
SLDTEXTSTYLE0
 73
     1
 44
1.0
1001
ACAD
1000
MTEXTBEGIN
1070
    73
1070
     1
1070
    44
1040
1.0
1070
    74
1070
     0
1000
MTEXTEND
  0
INSERT
  5
AD
330
1F
100
AcDbEntity
  8
0
  6
Continuous
 62
     7
370
     0
100
AcDbBlockReference
  2
SW_NOTE_22
 10
8.905559548979441
 20
0.771811953142493
 30
0.0
  0
MTEXT
  5
AF
330
1F
100
AcDbEntity
  8
0
  6
Continuous
 62
     7
370
     0
100
AcDbMText
 10
8.804043164761914
 20
2.214878778735325
 30
0.0
 40
0.1017628205128205
 41
0.0
 71
     1
 72
     1
  1
www.MirrorSemi.com
  7
SLDTEXTSTYLE2
 73
     1
 44
1.0
1001
ACAD
1000
MTEXTBEGIN
1070
    73
1070
     1
1070
    44
1040
1.0
1070
    74
1070
     0
1000
MTEXTEND
  0
ARC
  5
B0
330
1F
100
AcDbEntity
  8
0
  6
Continuous
 62
     7
100
AcDbCircle
 10
2.146718687794944
 20
6.107631299734753
 30
0.0
 40
0.2250000000000005
100
AcDbArc
 50
270.0000000000011
 51
90.00000000000046
  0
ARC
  5
B1
330
1F
100
AcDbEntity
  8
0
  6
Continuous
 62
     7
100
AcDbCircle
 10
2.146718687794949
 20
5.457631299734754
 30
0.0
 40
0.2250000000000005
100
AcDbArc
 50
270.0000000000011
 51
90.00000000000033
  0
ARC
  5
B2
330
1F
100
AcDbEntity
  8
0
  6
Continuous
 62
     7
100
AcDbCircle
 10
2.146718687794953
 20
4.807631299734754
 30
0.0
 40
0.2249999999999996
100
AcDbArc
 50
270.0000000000013
 51
90.00000000000033
  0
ARC
  5
B3
330
1F
100
AcDbEntity
  8
0
  6
Continuous
 62
     7
100
AcDbCircle
 10
2.746718687794945
 20
6.70763129973476
 30
0.0
 40
0.2250000000000001
100
AcDbArc
 50
180.0000000000011
 51
0.000000000000302
  0
ARC
  5
B4
330
1F
100
AcDbEntity
  8
0
  6
Continuous
 62
     7
100
AcDbCircle
 10
3.396718687794945
 20
6.707631299734762
 30
0.0
 40
0.2250000000000001
100
AcDbArc
 50
179.9999999999998
 51
0.000000000000302
  0
ARC
  5
B5
330
1F
100
AcDbEntity
  8
0
  6
Continuous
 62
     7
100
AcDbCircle
 10
4.046718687794945
 20
6.707631299734765
 30
0.0
 40
0.2250000000000001
100
AcDbArc
 50
179.9999999999998
 51
0.0000000000003018
  0
ARC
  5
B6
330
1F
100
AcDbEntity
  8
0
  6
Continuous
 62
     7
100
AcDbCircle
 10
4.64671868779494
 20
6.107631299734779
 30
0.0
 40
0.2249999999999996
100
AcDbArc
 50
90.0000000000009
 51
270.0000000000017
  0
ARC
  5
B7
330
1F
100
AcDbEntity
  8
0
  6
Continuous
 62
     7
100
AcDbCircle
 10
4.646718687794949
 20
5.457631299734779
 30
0.0
 40
0.2250000000000005
100
AcDbArc
 50
90.0000000000009
 51
270.0000000000015
  0
ARC
  5
B8
330
1F
100
AcDbEntity
  8
0
  6
Continuous
 62
     7
100
AcDbCircle
 10
4.646718687794958
 20
4.807631299734779
 30
0.0
 40
0.2250000000000005
100
AcDbArc
 50
90.00000000000069
 51
270.0000000000017
  0
ARC
  5
B9
330
1F
100
AcDbEntity
  8
0
  6
Continuous
 62
     7
100
AcDbCircle
 10
4.046718687794953
 20
4.207631299734765
 30
0.0
 40
0.2250000000000001
100
AcDbArc
 50
0.0000000000003018
 51
180.0000000000013
  0
ARC
  5
BA
330
1F
100
AcDbEntity
  8
0
  6
Continuous
 62
     7
100
AcDbCircle
 10
3.396718687794953
 20
4.207631299734762
 30
0.0
 40
0.2250000000000001
100
AcDbArc
 50
0.000000000000302
 51
180.0000000000011
  0
ARC
  5
BB
330
1F
100
AcDbEntity
  8
0
  6
Continuous
 62
     7
100
AcDbCircle
 10
2.746718687794953
 20
4.20763129973476
 30
0.0
 40
0.2250000000000001
100
AcDbArc
 50
0.0000000000002001
 51
180.0000000000011
  0
LINE
  5
BC
330
1F
100
AcDbEntity
  8
0
  6
Continuous
 62
     7
100
AcDbLine
 10
1.896718687794955
 20
3.957631299734757
 30
0.0
 11
4.896718687794955
 21
3.957631299734767
 31
0.0
  0
LINE
  5
BD
330
1F
100
AcDbEntity
  8
0
  6
Continuous
 62
     7
100
AcDbLine
 10
2.746718687794951
 20
4.80763129973476
 30
0.0
 11
2.746718687794947
 21
6.107631299734761
 31
0.0
  0
LINE
  5
BE
330
1F
100
AcDbEntity
  8
0
  6
Continuous
 62
     7
100
AcDbLine
 10
4.046718687794951
 20
4.807631299734764
 30
0.0
 11
2.746718687794951
 21
4.80763129973476
 31
0.0
  0
LINE
  5
BF
330
1F
100
AcDbEntity
  8
0
  6
Continuous
 62
     7
100
AcDbLine
 10
4.896718687794944
 20
6.957631299734767
 30
0.0
 11
4.896718687794955
 21
3.957631299734767
 31
0.0
  0
LINE
  5
C0
330
1F
100
AcDbEntity
  8
0
  6
Continuous
 62
     7
100
AcDbLine
 10
1.896718687794944
 20
6.957631299734757
 30
0.0
 11
4.896718687794944
 21
6.957631299734767
 31
0.0
  0
LINE
  5
C1
330
1F
100
AcDbEntity
  8
0
  6
Continuous
 62
     7
100
AcDbLine
 10
1.896718687794944
 20
6.957631299734757
 30
0.0
 11
1.896718687794955
 21
3.957631299734757
 31
0.0
  0
LINE
  5
C2
330
1F
100
AcDbEntity
  8
0
  6
Continuous
 62
     7
100
AcDbLine
 10
2.746718687794947
 20
6.107631299734761
 30
0.0
 11
4.046718687794947
 21
6.107631299734764
 31
0.0
  0
LINE
  5
C3
330
1F
100
AcDbEntity
  8
0
  6
Continuous
 62
     7
100
AcDbLine
 10
4.046718687794947
 20
6.107631299734764
 30
0.0
 11
4.046718687794951
 21
4.807631299734764
 31
0.0
  0
LINE
  5
C4
330
1F
100
AcDbEntity
  8
0
  6
Continuous
 62
     7
100
AcDbLine
 10
1.621718687794947
 20
5.882631299734749
 30
0.0
 11
2.146718687794946
 21
5.882631299734754
 31
0.0
  0
LINE
  5
C5
330
1F
100
AcDbEntity
  8
0
  6
Continuous
 62
     7
100
AcDbLine
 10
2.146718687794943
 20
6.332631299734754
 30
0.0
 11
1.621718687794944
 21
6.33263129973475
 31
0.0
  0
LINE
  5
C6
330
1F
100
AcDbEntity
  8
0
  6
Continuous
 62
     7
100
AcDbLine
 10
1.621718687794944
 20
6.33263129973475
 30
0.0
 11
1.621718687794947
 21
5.882631299734749
 31
0.0
  0
LINE
  5
C7
330
1F
100
AcDbEntity
  8
0
  6
Continuous
 62
     7
100
AcDbLine
 10
1.621718687794952
 20
5.23263129973475
 30
0.0
 11
2.14671868779495
 21
5.232631299734753
 31
0.0
  0
LINE
  5
C8
330
1F
100
AcDbEntity
  8
0
  6
Continuous
 62
     7
100
AcDbLine
 10
2.146718687794948
 20
5.682631299734754
 30
0.0
 11
1.621718687794949
 21
5.68263129973475
 31
0.0
  0
LINE
  5
C9
330
1F
100
AcDbEntity
  8
0
  6
Continuous
 62
     7
100
AcDbLine
 10
1.621718687794949
 20
5.68263129973475
 30
0.0
 11
1.621718687794952
 21
5.23263129973475
 31
0.0
  0
LINE
  5
CA
330
1F
100
AcDbEntity
  8
0
  6
Continuous
 62
     7
100
AcDbLine
 10
1.621718687794956
 20
4.58263129973475
 30
0.0
 11
2.146718687794955
 21
4.582631299734754
 31
0.0
  0
LINE
  5
CB
330
1F
100
AcDbEntity
  8
0
  6
Continuous
 62
     7
100
AcDbLine
 10
2.146718687794952
 20
5.032631299734753
 30
0.0
 11
1.621718687794953
 21
5.032631299734751
 31
0.0
  0
LINE
  5
CC
330
1F
100
AcDbEntity
  8
0
  6
Continuous
 62
     7
100
AcDbLine
 10
1.621718687794953
 20
5.032631299734751
 30
0.0
 11
1.621718687794956
 21
4.58263129973475
 31
0.0
  0
LINE
  5
CD
330
1F
100
AcDbEntity
  8
0
  6
Continuous
 62
     7
100
AcDbLine
 10
2.521718687794943
 20
7.232631299734758
 30
0.0
 11
2.521718687794945
 21
6.707631299734759
 31
0.0
  0
LINE
  5
CE
330
1F
100
AcDbEntity
  8
0
  6
Continuous
 62
     7
100
AcDbLine
 10
2.971718687794945
 20
6.707631299734761
 30
0.0
 11
2.971718687794944
 21
7.23263129973476
 31
0.0
  0
LINE
  5
CF
330
1F
100
AcDbEntity
  8
0
  6
Continuous
 62
     7
100
AcDbLine
 10
2.971718687794944
 20
7.23263129973476
 30
0.0
 11
2.521718687794943
 21
7.232631299734758
 31
0.0
  0
LINE
  5
D0
330
1F
100
AcDbEntity
  8
0
  6
Continuous
 62
     7
100
AcDbLine
 10
3.171718687794943
 20
7.23263129973476
 30
0.0
 11
3.171718687794945
 21
6.707631299734762
 31
0.0
  0
LINE
  5
D1
330
1F
100
AcDbEntity
  8
0
  6
Continuous
 62
     7
100
AcDbLine
 10
3.621718687794945
 20
6.707631299734763
 30
0.0
 11
3.621718687794944
 21
7.232631299734762
 31
0.0
  0
LINE
  5
D2
330
1F
100
AcDbEntity
  8
0
  6
Continuous
 62
     7
100
AcDbLine
 10
3.621718687794944
 20
7.232631299734762
 30
0.0
 11
3.171718687794943
 21
7.23263129973476
 31
0.0
  0
LINE
  5
D3
330
1F
100
AcDbEntity
  8
0
  6
Continuous
 62
     7
100
AcDbLine
 10
3.821718687794943
 20
7.232631299734762
 30
0.0
 11
3.821718687794945
 21
6.707631299734765
 31
0.0
  0
LINE
  5
D4
330
1F
100
AcDbEntity
  8
0
  6
Continuous
 62
     7
100
AcDbLine
 10
4.271718687794945
 20
6.707631299734766
 30
0.0
 11
4.271718687794943
 21
7.232631299734764
 31
0.0
  0
LINE
  5
D5
330
1F
100
AcDbEntity
  8
0
  6
Continuous
 62
     7
100
AcDbLine
 10
4.271718687794943
 20
7.232631299734764
 30
0.0
 11
3.821718687794943
 21
7.232631299734762
 31
0.0
  0
LINE
  5
D6
330
1F
100
AcDbEntity
  8
0
  6
Continuous
 62
     7
100
AcDbLine
 10
5.171718687794936
 20
6.332631299734786
 30
0.0
 11
4.646718687794937
 21
6.332631299734779
 31
0.0
  0
LINE
  5
D7
330
1F
100
AcDbEntity
  8
0
  6
Continuous
 62
     7
100
AcDbLine
 10
4.646718687794944
 20
5.88263129973478
 30
0.0
 11
5.171718687794943
 21
5.882631299734787
 31
0.0
  0
LINE
  5
D8
330
1F
100
AcDbEntity
  8
0
  6
Continuous
 62
     7
100
AcDbLine
 10
5.171718687794943
 20
5.882631299734787
 30
0.0
 11
5.171718687794936
 21
6.332631299734786
 31
0.0
  0
LINE
  5
D9
330
1F
100
AcDbEntity
  8
0
  6
Continuous
 62
     7
100
AcDbLine
 10
5.171718687794944
 20
5.682631299734786
 30
0.0
 11
4.646718687794946
 21
5.682631299734779
 31
0.0
  0
LINE
  5
DA
330
1F
100
AcDbEntity
  8
0
  6
Continuous
 62
     7
100
AcDbLine
 10
4.646718687794952
 20
5.232631299734779
 30
0.0
 11
5.171718687794951
 21
5.232631299734787
 31
0.0
  0
LINE
  5
DB
330
1F
100
AcDbEntity
  8
0
  6
Continuous
 62
     7
100
AcDbLine
 10
5.171718687794951
 20
5.232631299734787
 30
0.0
 11
5.171718687794944
 21
5.682631299734786
 31
0.0
  0
LINE
  5
DC
330
1F
100
AcDbEntity
  8
0
  6
Continuous
 62
     7
100
AcDbLine
 10
5.171718687794953
 20
5.032631299734786
 30
0.0
 11
4.646718687794956
 21
5.032631299734779
 31
0.0
  0
LINE
  5
DD
330
1F
100
AcDbEntity
  8
0
  6
Continuous
 62
     7
100
AcDbLine
 10
4.646718687794962
 20
4.582631299734779
 30
0.0
 11
5.171718687794959
 21
4.582631299734787
 31
0.0
  0
LINE
  5
DE
330
1F
100
AcDbEntity
  8
0
  6
Continuous
 62
     7
100
AcDbLine
 10
5.171718687794959
 20
4.582631299734787
 30
0.0
 11
5.171718687794953
 21
5.032631299734786
 31
0.0
  0
LINE
  5
DF
330
1F
100
AcDbEntity
  8
0
  6
Continuous
 62
     7
100
AcDbLine
 10
4.271718687794956
 20
3.682631299734766
 30
0.0
 11
4.271718687794953
 21
4.207631299734766
 31
0.0
  0
LINE
  5
E0
330
1F
100
AcDbEntity
  8
0
  6
Continuous
 62
     7
100
AcDbLine
 10
3.821718687794953
 20
4.207631299734763
 30
0.0
 11
3.821718687794954
 21
3.682631299734765
 31
0.0
  0
LINE
  5
E1
330
1F
100
AcDbEntity
  8
0
  6
Continuous
 62
     7
100
AcDbLine
 10
3.821718687794954
 20
3.682631299734765
 30
0.0
 11
4.271718687794956
 21
3.682631299734766
 31
0.0
  0
LINE
  5
E2
330
1F
100
AcDbEntity
  8
0
  6
Continuous
 62
     7
100
AcDbLine
 10
3.621718687794955
 20
3.682631299734764
 30
0.0
 11
3.621718687794953
 21
4.207631299734763
 31
0.0
  0
LINE
  5
E3
330
1F
100
AcDbEntity
  8
0
  6
Continuous
 62
     7
100
AcDbLine
 10
3.171718687794953
 20
4.207631299734761
 30
0.0
 11
3.171718687794955
 21
3.682631299734762
 31
0.0
  0
LINE
  5
E4
330
1F
100
AcDbEntity
  8
0
  6
Continuous
 62
     7
100
AcDbLine
 10
3.171718687794955
 20
3.682631299734762
 30
0.0
 11
3.621718687794955
 21
3.682631299734764
 31
0.0
  0
LINE
  5
E5
330
1F
100
AcDbEntity
  8
0
  6
Continuous
 62
     7
100
AcDbLine
 10
2.971718687794955
 20
3.682631299734762
 30
0.0
 11
2.971718687794953
 21
4.20763129973476
 31
0.0
  0
LINE
  5
E6
330
1F
100
AcDbEntity
  8
0
  6
Continuous
 62
     7
100
AcDbLine
 10
2.521718687794953
 20
4.207631299734759
 30
0.0
 11
2.521718687794955
 21
3.68263129973476
 31
0.0
  0
LINE
  5
E7
330
1F
100
AcDbEntity
  8
0
  6
Continuous
 62
     7
100
AcDbLine
 10
2.521718687794955
 20
3.68263129973476
 30
0.0
 11
2.971718687794955
 21
3.682631299734762
 31
0.0
  0
LINE
  5
E8
330
1F
100
AcDbEntity
  8
0
  6
Continuous
 62
     7
370
    15
100
AcDbLine
 10
4.896718687794949
 20
5.307631299734777
 30
0.0
 11
4.49671868779495
 21
5.307631299734773
 31
0.0
  0
LINE
  5
E9
330
1F
100
AcDbEntity
  8
0
  6
Continuous
 62
     7
370
    15
100
AcDbLine
 10
4.896718687794949
 20
5.607631299734777
 30
0.0
 11
4.896718687794949
 21
5.307631299734777
 31
0.0
  0
LINE
  5
EA
330
1F
100
AcDbEntity
  8
0
  6
Continuous
 62
     7
370
    15
100
AcDbLine
 10
4.49671868779495
 20
5.307631299734773
 30
0.0
 11
4.496718687794947
 21
5.607631299734773
 31
0.0
  0
LINE
  5
EB
330
1F
100
AcDbEntity
  8
0
  6
Continuous
 62
     7
370
    15
100
AcDbLine
 10
4.496718687794947
 20
5.607631299734773
 30
0.0
 11
4.896718687794949
 21
5.607631299734777
 31
0.0
  0
LINE
  5
EC
330
1F
100
AcDbEntity
  8
0
  6
Continuous
 62
     7
370
    15
100
AcDbLine
 10
4.896718687794949
 20
4.657631299734777
 30
0.0
 11
4.514916739328885
 21
4.657631299734774
 31
0.0
  0
LINE
  5
ED
330
1F
100
AcDbEntity
  8
0
  6
Continuous
 62
     7
370
    15
100
AcDbLine
 10
4.496718687794957
 20
4.675829351268701
 30
0.0
 11
4.514916739328885
 21
4.657631299734774
 31
0.0
  0
LINE
  5
EE
330
1F
100
AcDbEntity
  8
0
  6
Continuous
 62
     7
370
    15
100
AcDbLine
 10
4.496718687794954
 20
4.957631299734774
 30
0.0
 11
4.896718687794949
 21
4.957631299734778
 31
0.0
  0
LINE
  5
EF
330
1F
100
AcDbEntity
  8
0
  6
Continuous
 62
     7
370
    15
100
AcDbLine
 10
4.896718687794949
 20
4.957631299734778
 30
0.0
 11
4.896718687794949
 21
4.657631299734777
 31
0.0
  0
LINE
  5
F0
330
1F
100
AcDbEntity
  8
0
  6
Continuous
 62
     7
370
    15
100
AcDbLine
 10
4.496718687794957
 20
4.675829351268701
 30
0.0
 11
4.496718687794954
 21
4.957631299734774
 31
0.0
  0
LINE
  5
F1
330
1F
100
AcDbEntity
  8
0
  6
Continuous
 62
     7
370
    15
100
AcDbLine
 10
2.896718687794949
 20
6.957631299734762
 30
0.0
 11
2.896718687794949
 21
6.557631299734762
 31
0.0
  0
LINE
  5
F2
330
1F
100
AcDbEntity
  8
0
  6
Continuous
 62
     7
370
    15
100
AcDbLine
 10
2.896718687794949
 20
6.557631299734762
 30
0.0
 11
2.61491673932889
 21
6.557631299734762
 31
0.0
  0
LINE
  5
F3
330
1F
100
AcDbEntity
  8
0
  6
Continuous
 62
     7
370
    15
100
AcDbLine
 10
2.596718687794945
 20
6.575829351268707
 30
0.0
 11
2.596718687794949
 21
6.957631299734762
 31
0.0
  0
LINE
  5
F4
330
1F
100
AcDbEntity
  8
0
  6
Continuous
 62
     7
370
    15
100
AcDbLine
 10
2.596718687794945
 20
6.575829351268707
 30
0.0
 11
2.61491673932889
 21
6.557631299734762
 31
0.0
  0
LINE
  5
F5
330
1F
100
AcDbEntity
  8
0
  6
Continuous
 62
     7
370
    15
100
AcDbLine
 10
2.596718687794949
 20
6.957631299734762
 30
0.0
 11
2.896718687794949
 21
6.957631299734762
 31
0.0
  0
LINE
  5
F6
330
1F
100
AcDbEntity
  8
0
  6
Continuous
 62
     7
370
    15
100
AcDbLine
 10
2.896718687794949
 20
7.15763129973476
 30
0.0
 11
2.596718687794949
 21
7.15763129973476
 31
0.0
  0
LINE
  5
F7
330
1F
100
AcDbEntity
  8
0
  6
Continuous
 62
     7
370
    15
100
AcDbLine
 10
2.896718687794949
 20
6.707631299734762
 30
0.0
 11
2.896718687794949
 21
7.15763129973476
 31
0.0
  0
ARC
  5
F8
330
1F
100
AcDbEntity
  8
0
  6
Continuous
 62
     7
370
    15
100
AcDbCircle
 10
2.746718687794949
 20
6.707631299734762
 30
0.0
 40
0.1500000000000003
100
AcDbArc
 50
180.0
 51
0.0
  0
LINE
  5
F9
330
1F
100
AcDbEntity
  8
0
  6
Continuous
 62
     7
370
    15
100
AcDbLine
 10
2.596718687794949
 20
7.15763129973476
 30
0.0
 11
2.596718687794949
 21
6.707631299734762
 31
0.0
  0
LINE
  5
FA
330
1F
100
AcDbEntity
  8
0
  6
Continuous
 62
     7
370
    15
100
AcDbLine
 10
3.546718687794949
 20
6.707631299734762
 30
0.0
 11
3.546718687794949
 21
7.15763129973476
 31
0.0
  0
ARC
  5
FB
330
1F
100
AcDbEntity
  8
0
  6
Continuous
 62
     7
370
    15
100
AcDbCircle
 10
3.39671868779495
 20
6.707631299734762
 30
0.0
 40
0.1500000000000003
100
AcDbArc
 50
180.0
 51
0.0
  0
LINE
  5
FC
330
1F
100
AcDbEntity
  8
0
  6
Continuous
 62
     7
370
    15
100
AcDbLine
 10
3.546718687794949
 20
7.15763129973476
 30
0.0
 11
3.246718687794949
 21
7.15763129973476
 31
0.0
  0
LINE
  5
FD
330
1F
100
AcDbEntity
  8
0
  6
Continuous
 62
     7
370
    15
100
AcDbLine
 10
3.246718687794949
 20
7.15763129973476
 30
0.0
 11
3.246718687794949
 21
6.707631299734762
 31
0.0
  0
LINE
  5
FE
330
1F
100
AcDbEntity
  8
0
  6
Continuous
 62
     7
370
    15
100
AcDbLine
 10
4.196718687794949
 20
7.15763129973476
 30
0.0
 11
3.896718687794949
 21
7.15763129973476
 31
0.0
  0
LINE
  5
FF
330
1F
100
AcDbEntity
  8
0
  6
Continuous
 62
     7
370
    15
100
AcDbLine
 10
4.196718687794949
 20
6.707631299734762
 30
0.0
 11
4.196718687794949
 21
7.15763129973476
 31
0.0
  0
ARC
  5
100
330
1F
100
AcDbEntity
  8
0
  6
Continuous
 62
     7
370
    15
100
AcDbCircle
 10
4.046718687794949
 20
6.707631299734762
 30
0.0
 40
0.1500000000000003
100
AcDbArc
 50
180.0
 51
0.0
  0
LINE
  5
101
330
1F
100
AcDbEntity
  8
0
  6
Continuous
 62
     7
370
    15
100
AcDbLine
 10
3.896718687794949
 20
7.15763129973476
 30
0.0
 11
3.896718687794949
 21
6.707631299734762
 31
0.0
  0
LINE
  5
102
330
1F
100
AcDbEntity
  8
0
  6
Continuous
 62
     7
370
    15
100
AcDbLine
 10
1.696718687794947
 20
6.257631299734756
 30
0.0
 11
1.696718687794948
 21
5.957631299734756
 31
0.0
  0
LINE
  5
103
330
1F
100
AcDbEntity
  8
0
  6
Continuous
 62
     7
370
    15
100
AcDbLine
 10
2.146718687794946
 20
6.257631299734758
 30
0.0
 11
1.696718687794947
 21
6.257631299734756
 31
0.0
  0
ARC
  5
104
330
1F
100
AcDbEntity
  8
0
  6
Continuous
 62
     7
370
    15
100
AcDbCircle
 10
2.146718687794947
 20
6.107631299734758
 30
0.0
 40
0.1500000000000003
100
AcDbArc
 50
270.0000000000009
 51
90.00000000000033
  0
LINE
  5
105
330
1F
100
AcDbEntity
  8
0
  6
Continuous
 62
     7
370
    15
100
AcDbLine
 10
1.696718687794948
 20
5.957631299734756
 30
0.0
 11
2.146718687794947
 21
5.957631299734758
 31
0.0
  0
LINE
  5
106
330
1F
100
AcDbEntity
  8
0
  6
Continuous
 62
     7
370
    15
100
AcDbLine
 10
2.596718687794949
 20
3.757631299734764
 30
0.0
 11
2.896718687794949
 21
3.757631299734764
 31
0.0
  0
LINE
  5
107
330
1F
100
AcDbEntity
  8
0
  6
Continuous
 62
     7
370
    15
100
AcDbLine
 10
2.896718687794949
 20
3.757631299734764
 30
0.0
 11
2.896718687794949
 21
4.207631299734762
 31
0.0
  0
LINE
  5
108
330
1F
100
AcDbEntity
  8
0
  6
Continuous
 62
     7
370
    15
100
AcDbLine
 10
2.596718687794949
 20
4.207631299734762
 30
0.0
 11
2.596718687794949
 21
3.757631299734764
 31
0.0
  0
ARC
  5
109
330
1F
100
AcDbEntity
  8
0
  6
Continuous
 62
     7
370
    15
100
AcDbCircle
 10
2.746718687794948
 20
4.207631299734762
 30
0.0
 40
0.1500000000000003
100
AcDbArc
 50
0.0
 51
180.0
  0
LINE
  5
10A
330
1F
100
AcDbEntity
  8
0
  6
Continuous
 62
     7
370
    15
100
AcDbLine
 10
5.096718687794956
 20
4.65763129973478
 30
0.0
 11
5.096718687794953
 21
4.95763129973478
 31
0.0
  0
LINE
  5
10B
330
1F
100
AcDbEntity
  8
0
  6
Continuous
 62
     7
370
    15
100
AcDbLine
 10
4.646718687794957
 20
4.657631299734775
 30
0.0
 11
5.096718687794956
 21
4.65763129973478
 31
0.0
  0
LINE
  5
10C
330
1F
100
AcDbEntity
  8
0
  6
Continuous
 62
     7
370
    15
100
AcDbLine
 10
5.096718687794953
 20
4.95763129973478
 30
0.0
 11
4.646718687794955
 21
4.957631299734774
 31
0.0
  0
ARC
  5
10D
330
1F
100
AcDbEntity
  8
0
  6
Continuous
 62
     7
370
    15
100
AcDbCircle
 10
4.646718687794956
 20
4.807631299734775
 30
0.0
 40
0.1500000000000003
100
AcDbArc
 50
90.00000000000033
 51
270.0000000000015
  0
ARC
  5
10E
330
1F
100
AcDbEntity
  8
0
  6
Continuous
 62
     7
370
    15
100
AcDbCircle
 10
2.146718687794949
 20
5.457631299734758
 30
0.0
 40
0.1500000000000012
100
AcDbArc
 50
270.0000000000008
 51
90.00000000000019
  0
LINE
  5
10F
330
1F
100
AcDbEntity
  8
0
  6
Continuous
 62
     7
370
    15
100
AcDbLine
 10
1.69671868779495
 20
5.607631299734756
 30
0.0
 11
1.696718687794951
 21
5.307631299734756
 31
0.0
  0
LINE
  5
110
330
1F
100
AcDbEntity
  8
0
  6
Continuous
 62
     7
370
    15
100
AcDbLine
 10
1.696718687794951
 20
5.307631299734756
 30
0.0
 11
2.146718687794949
 21
5.307631299734758
 31
0.0
  0
LINE
  5
111
330
1F
100
AcDbEntity
  8
0
  6
Continuous
 62
     7
370
    15
100
AcDbLine
 10
2.146718687794948
 20
5.607631299734759
 30
0.0
 11
1.69671868779495
 21
5.607631299734756
 31
0.0
  0
LINE
  5
112
330
1F
100
AcDbEntity
  8
0
  6
Continuous
 62
     7
370
    15
100
AcDbLine
 10
3.246718687794948
 20
3.757631299734764
 30
0.0
 11
3.546718687794949
 21
3.757631299734764
 31
0.0
  0
ARC
  5
113
330
1F
100
AcDbEntity
  8
0
  6
Continuous
 62
     7
370
    15
100
AcDbCircle
 10
3.396718687794948
 20
4.207631299734762
 30
0.0
 40
0.1500000000000003
100
AcDbArc
 50
0.0
 51
180.0
  0
LINE
  5
114
330
1F
100
AcDbEntity
  8
0
  6
Continuous
 62
     7
370
    15
100
AcDbLine
 10
3.546718687794949
 20
3.757631299734764
 30
0.0
 11
3.546718687794949
 21
4.207631299734762
 31
0.0
  0
LINE
  5
115
330
1F
100
AcDbEntity
  8
0
  6
Continuous
 62
     7
370
    15
100
AcDbLine
 10
3.246718687794948
 20
4.207631299734762
 30
0.0
 11
3.246718687794948
 21
3.757631299734764
 31
0.0
  0
LINE
  5
116
330
1F
100
AcDbEntity
  8
0
  6
Continuous
 62
     7
370
    15
100
AcDbLine
 10
5.096718687794949
 20
5.307631299734779
 30
0.0
 11
5.096718687794947
 21
5.60763129973478
 31
0.0
  0
LINE
  5
117
330
1F
100
AcDbEntity
  8
0
  6
Continuous
 62
     7
370
    15
100
AcDbLine
 10
4.646718687794951
 20
5.307631299734774
 30
0.0
 11
5.096718687794949
 21
5.307631299734779
 31
0.0
  0
ARC
  5
118
330
1F
100
AcDbEntity
  8
0
  6
Continuous
 62
     7
370
    15
100
AcDbCircle
 10
4.646718687794949
 20
5.457631299734775
 30
0.0
 40
0.1500000000000012
100
AcDbArc
 50
90.00000000000069
 51
270.0000000000015
  0
LINE
  5
119
330
1F
100
AcDbEntity
  8
0
  6
Continuous
 62
     7
370
    15
100
AcDbLine
 10
5.096718687794947
 20
5.60763129973478
 30
0.0
 11
4.646718687794948
 21
5.607631299734775
 31
0.0
  0
ARC
  5
11A
330
1F
100
AcDbEntity
  8
0
  6
Continuous
 62
     7
370
    15
100
AcDbCircle
 10
2.146718687794951
 20
4.807631299734758
 30
0.0
 40
0.1500000000000003
100
AcDbArc
 50
270.0000000000009
 51
90.00000000000033
  0
LINE
  5
11B
330
1F
100
AcDbEntity
  8
0
  6
Continuous
 62
     7
370
    15
100
AcDbLine
 10
1.696718687794952
 20
4.957631299734757
 30
0.0
 11
1.696718687794953
 21
4.657631299734756
 31
0.0
  0
LINE
  5
11C
330
1F
100
AcDbEntity
  8
0
  6
Continuous
 62
     7
370
    15
100
AcDbLine
 10
1.696718687794953
 20
4.657631299734756
 30
0.0
 11
2.146718687794952
 21
4.657631299734759
 31
0.0
  0
LINE
  5
11D
330
1F
100
AcDbEntity
  8
0
  6
Continuous
 62
     7
370
    15
100
AcDbLine
 10
2.14671868779495
 20
4.957631299734758
 30
0.0
 11
1.696718687794952
 21
4.957631299734757
 31
0.0
  0
LINE
  5
11E
330
1F
100
AcDbEntity
  8
0
  6
Continuous
 62
     7
370
    15
100
AcDbLine
 10
4.196718687794948
 20
3.757631299734764
 30
0.0
 11
4.196718687794948
 21
4.207631299734762
 31
0.0
  0
ARC
  5
11F
330
1F
100
AcDbEntity
  8
0
  6
Continuous
 62
     7
370
    15
100
AcDbCircle
 10
4.046718687794949
 20
4.207631299734762
 30
0.0
 40
0.1500000000000003
100
AcDbArc
 50
0.0
 51
180.0
  0
LINE
  5
120
330
1F
100
AcDbEntity
  8
0
  6
Continuous
 62
     7
370
    15
100
AcDbLine
 10
3.896718687794948
 20
4.207631299734762
 30
0.0
 11
3.896718687794948
 21
3.757631299734764
 31
0.0
  0
LINE
  5
121
330
1F
100
AcDbEntity
  8
0
  6
Continuous
 62
     7
370
    15
100
AcDbLine
 10
3.896718687794948
 20
3.757631299734764
 30
0.0
 11
4.196718687794948
 21
3.757631299734764
 31
0.0
  0
LINE
  5
122
330
1F
100
AcDbEntity
  8
0
  6
Continuous
 62
     7
370
    15
100
AcDbLine
 10
5.096718687794942
 20
5.95763129973478
 30
0.0
 11
5.096718687794939
 21
6.25763129973478
 31
0.0
  0
LINE
  5
123
330
1F
100
AcDbEntity
  8
0
  6
Continuous
 62
     7
370
    15
100
AcDbLine
 10
4.646718687794944
 20
5.957631299734774
 30
0.0
 11
5.096718687794942
 21
5.95763129973478
 31
0.0
  0
ARC
  5
124
330
1F
100
AcDbEntity
  8
0
  6
Continuous
 62
     7
370
    15
100
AcDbCircle
 10
4.646718687794943
 20
6.107631299734775
 30
0.0
 40
0.1500000000000003
100
AcDbArc
 50
90.00000000000103
 51
270.0000000000011
  0
LINE
  5
125
330
1F
100
AcDbEntity
  8
0
  6
Continuous
 62
     7
370
    15
100
AcDbLine
 10
5.096718687794939
 20
6.25763129973478
 30
0.0
 11
4.64671868779494
 21
6.257631299734775
 31
0.0
  0
LINE
  5
126
330
1F
100
AcDbEntity
  8
0
  6
Continuous
 62
     7
370
    15
100
AcDbLine
 10
3.546718687794949
 20
6.957631299734762
 30
0.0
 11
3.546718687794949
 21
6.557631299734762
 31
0.0
  0
LINE
  5
127
330
1F
100
AcDbEntity
  8
0
  6
Continuous
 62
     7
370
    15
100
AcDbLine
 10
3.546718687794949
 20
6.557631299734762
 30
0.0
 11
3.246718687794949
 21
6.557631299734762
 31
0.0
  0
LINE
  5
128
330
1F
100
AcDbEntity
  8
0
  6
Continuous
 62
     7
370
    15
100
AcDbLine
 10
3.246718687794949
 20
6.957631299734762
 30
0.0
 11
3.546718687794949
 21
6.957631299734762
 31
0.0
  0
LINE
  5
129
330
1F
100
AcDbEntity
  8
0
  6
Continuous
 62
     7
370
    15
100
AcDbLine
 10
3.246718687794949
 20
6.557631299734762
 30
0.0
 11
3.246718687794949
 21
6.957631299734762
 31
0.0
  0
LINE
  5
12A
330
1F
100
AcDbEntity
  8
0
  6
Continuous
 62
     7
370
    15
100
AcDbLine
 10
3.486718687794949
 20
4.732631299734762
 30
0.0
 11
3.486718687794949
 21
4.912631299734763
 31
0.0
  0
LINE
  5
12B
330
1F
100
AcDbEntity
  8
0
  6
Continuous
 62
     7
370
    15
100
AcDbLine
 10
3.486718687794949
 20
4.912631299734763
 30
0.0
 11
3.306718687794949
 21
4.912631299734763
 31
0.0
  0
LINE
  5
12C
330
1F
100
AcDbEntity
  8
0
  6
Continuous
 62
     7
370
    15
100
AcDbLine
 10
3.306718687794949
 20
4.912631299734763
 30
0.0
 11
3.306718687794949
 21
4.732631299734762
 31
0.0
  0
LINE
  5
12D
330
1F
100
AcDbEntity
  8
0
  6
Continuous
 62
     7
370
    15
100
AcDbLine
 10
3.306718687794949
 20
4.732631299734762
 30
0.0
 11
2.671718687794949
 21
4.732631299734762
 31
0.0
  0
LINE
  5
12E
330
1F
100
AcDbEntity
  8
0
  6
Continuous
 62
     7
370
    15
100
AcDbLine
 10
2.671718687794949
 20
5.367631299734762
 30
0.0
 11
2.851718687794949
 21
5.367631299734762
 31
0.0
  0
LINE
  5
12F
330
1F
100
AcDbEntity
  8
0
  6
Continuous
 62
     7
370
    15
100
AcDbLine
 10
2.851718687794949
 20
5.367631299734762
 30
0.0
 11
2.851718687794949
 21
5.547631299734761
 31
0.0
  0
LINE
  5
130
330
1F
100
AcDbEntity
  8
0
  6
Continuous
 62
     7
370
    15
100
AcDbLine
 10
2.851718687794949
 20
5.547631299734761
 30
0.0
 11
2.671718687794949
 21
5.547631299734761
 31
0.0
  0
LINE
  5
131
330
1F
100
AcDbEntity
  8
0
  6
Continuous
 62
     7
370
    15
100
AcDbLine
 10
2.671718687794949
 20
5.747631299734763
 30
0.0
 11
3.106718687794949
 21
6.182631299734762
 31
0.0
  0
LINE
  5
132
330
1F
100
AcDbEntity
  8
0
  6
Continuous
 62
     7
370
    15
100
AcDbLine
 10
3.106718687794949
 20
6.182631299734762
 30
0.0
 11
3.306718687794949
 21
6.182631299734762
 31
0.0
  0
LINE
  5
133
330
1F
100
AcDbEntity
  8
0
  6
Continuous
 62
     7
370
    15
100
AcDbLine
 10
3.306718687794949
 20
6.002631299734763
 30
0.0
 11
3.306718687794949
 21
6.182631299734762
 31
0.0
  0
LINE
  5
134
330
1F
100
AcDbEntity
  8
0
  6
Continuous
 62
     7
370
    15
100
AcDbLine
 10
3.486718687794949
 20
6.002631299734762
 30
0.0
 11
3.306718687794949
 21
6.002631299734763
 31
0.0
  0
LINE
  5
135
330
1F
100
AcDbEntity
  8
0
  6
Continuous
 62
     7
370
    15
100
AcDbLine
 10
3.48671868779495
 20
6.182631299734762
 30
0.0
 11
3.486718687794949
 21
6.002631299734762
 31
0.0
  0
LINE
  5
136
330
1F
100
AcDbEntity
  8
0
  6
Continuous
 62
     7
370
    15
100
AcDbLine
 10
3.48671868779495
 20
6.182631299734762
 30
0.0
 11
4.121718687794949
 21
6.182631299734762
 31
0.0
  0
LINE
  5
137
330
1F
100
AcDbEntity
  8
0
  6
Continuous
 62
     7
370
    15
100
AcDbLine
 10
4.121718687794949
 20
6.182631299734762
 30
0.0
 11
4.121718687794949
 21
5.547631299734763
 31
0.0
  0
LINE
  5
138
330
1F
100
AcDbEntity
  8
0
  6
Continuous
 62
     7
370
    15
100
AcDbLine
 10
3.941718687794949
 20
5.547631299734763
 30
0.0
 11
4.121718687794949
 21
5.547631299734763
 31
0.0
  0
LINE
  5
139
330
1F
100
AcDbEntity
  8
0
  6
Continuous
 62
     7
370
    15
100
AcDbLine
 10
3.941718687794949
 20
5.367631299734762
 30
0.0
 11
3.941718687794949
 21
5.547631299734763
 31
0.0
  0
LINE
  5
13A
330
1F
100
AcDbEntity
  8
0
  6
Continuous
 62
     7
370
    15
100
AcDbLine
 10
4.121718687794949
 20
5.367631299734762
 30
0.0
 11
3.941718687794949
 21
5.367631299734762
 31
0.0
  0
LINE
  5
13B
330
1F
100
AcDbEntity
  8
0
  6
Continuous
 62
     7
370
    15
100
AcDbLine
 10
4.121718687794949
 20
5.367631299734762
 30
0.0
 11
4.121718687794949
 21
4.732631299734762
 31
0.0
  0
LINE
  5
13C
330
1F
100
AcDbEntity
  8
0
  6
Continuous
 62
     7
370
    15
100
AcDbLine
 10
4.121718687794949
 20
4.732631299734762
 30
0.0
 11
3.486718687794949
 21
4.732631299734762
 31
0.0
  0
LINE
  5
13D
330
1F
100
AcDbEntity
  8
0
  6
Continuous
 62
     7
370
    15
100
AcDbLine
 10
2.671718687794949
 20
5.547631299734761
 30
0.0
 11
2.671718687794949
 21
5.747631299734763
 31
0.0
  0
LINE
  5
13E
330
1F
100
AcDbEntity
  8
0
  6
Continuous
 62
     7
370
    15
100
AcDbLine
 10
2.671718687794949
 20
4.732631299734762
 30
0.0
 11
2.671718687794949
 21
5.367631299734762
 31
0.0
  0
LINE
  5
13F
330
1F
100
AcDbEntity
  8
0
  6
Continuous
 62
     7
370
    15
100
AcDbLine
 10
4.196718687794949
 20
6.957631299734762
 30
0.0
 11
4.196718687794949
 21
6.575829351268716
 31
0.0
  0
LINE
  5
140
330
1F
100
AcDbEntity
  8
0
  6
Continuous
 62
     7
370
    15
100
AcDbLine
 10
4.178520636260996
 20
6.557631299734762
 30
0.0
 11
4.196718687794949
 21
6.575829351268716
 31
0.0
  0
LINE
  5
141
330
1F
100
AcDbEntity
  8
0
  6
Continuous
 62
     7
370
    15
100
AcDbLine
 10
4.178520636260996
 20
6.557631299734762
 30
0.0
 11
3.896718687794949
 21
6.557631299734762
 31
0.0
  0
LINE
  5
142
330
1F
100
AcDbEntity
  8
0
  6
Continuous
 62
     7
370
    15
100
AcDbLine
 10
3.896718687794949
 20
6.557631299734762
 30
0.0
 11
3.896718687794949
 21
6.957631299734762
 31
0.0
  0
LINE
  5
143
330
1F
100
AcDbEntity
  8
0
  6
Continuous
 62
     7
370
    15
100
AcDbLine
 10
3.896718687794949
 20
6.957631299734762
 30
0.0
 11
4.196718687794949
 21
6.957631299734762
 31
0.0
  0
LINE
  5
144
330
1F
100
AcDbEntity
  8
0
  6
Continuous
 62
     7
370
    15
100
AcDbLine
 10
1.896718687794949
 20
4.957631299734758
 30
0.0
 11
2.296718687794951
 21
4.957631299734758
 31
0.0
  0
LINE
  5
145
330
1F
100
AcDbEntity
  8
0
  6
Continuous
 62
     7
370
    15
100
AcDbLine
 10
2.296718687794951
 20
4.957631299734758
 30
0.0
 11
2.296718687794952
 21
4.675829351268712
 31
0.0
  0
LINE
  5
146
330
1F
100
AcDbEntity
  8
0
  6
Continuous
 62
     7
370
    15
100
AcDbLine
 10
2.278520636260996
 20
4.657631299734757
 30
0.0
 11
2.296718687794952
 21
4.675829351268712
 31
0.0
  0
LINE
  5
147
330
1F
100
AcDbEntity
  8
0
  6
Continuous
 62
     7
370
    15
100
AcDbLine
 10
2.278520636260996
 20
4.657631299734757
 30
0.0
 11
1.896718687794949
 21
4.657631299734758
 31
0.0
  0
LINE
  5
148
330
1F
100
AcDbEntity
  8
0
  6
Continuous
 62
     7
370
    15
100
AcDbLine
 10
1.896718687794949
 20
4.657631299734758
 30
0.0
 11
1.896718687794949
 21
4.957631299734758
 31
0.0
  0
LINE
  5
149
330
1F
100
AcDbEntity
  8
0
  6
Continuous
 62
     7
370
    15
100
AcDbLine
 10
2.296718687794948
 20
5.607631299734759
 30
0.0
 11
2.29671868779495
 21
5.307631299734758
 31
0.0
  0
LINE
  5
14A
330
1F
100
AcDbEntity
  8
0
  6
Continuous
 62
     7
370
    15
100
AcDbLine
 10
2.29671868779495
 20
5.307631299734758
 30
0.0
 11
1.896718687794949
 21
5.307631299734757
 31
0.0
  0
LINE
  5
14B
330
1F
100
AcDbEntity
  8
0
  6
Continuous
 62
     7
370
    15
100
AcDbLine
 10
1.896718687794949
 20
5.307631299734757
 30
0.0
 11
1.896718687794949
 21
5.607631299734757
 31
0.0
  0
LINE
  5
14C
330
1F
100
AcDbEntity
  8
0
  6
Continuous
 62
     7
370
    15
100
AcDbLine
 10
1.896718687794949
 20
5.607631299734757
 30
0.0
 11
2.296718687794948
 21
5.607631299734759
 31
0.0
  0
LINE
  5
14D
330
1F
100
AcDbEntity
  8
0
  6
Continuous
 62
     7
370
    15
100
AcDbLine
 10
1.896718687794949
 20
6.257631299734757
 30
0.0
 11
2.278520636261005
 21
6.257631299734758
 31
0.0
  0
LINE
  5
14E
330
1F
100
AcDbEntity
  8
0
  6
Continuous
 62
     7
370
    15
100
AcDbLine
 10
2.296718687794946
 20
6.239433248200818
 30
0.0
 11
2.278520636261005
 21
6.257631299734758
 31
0.0
  0
LINE
  5
14F
330
1F
100
AcDbEntity
  8
0
  6
Continuous
 62
     7
370
    15
100
AcDbLine
 10
2.296718687794946
 20
6.239433248200818
 30
0.0
 11
2.296718687794947
 21
5.957631299734758
 31
0.0
  0
LINE
  5
150
330
1F
100
AcDbEntity
  8
0
  6
Continuous
 62
     7
370
    15
100
AcDbLine
 10
2.296718687794947
 20
5.957631299734758
 30
0.0
 11
1.896718687794949
 21
5.957631299734758
 31
0.0
  0
LINE
  5
151
330
1F
100
AcDbEntity
  8
0
  6
Continuous
 62
     7
370
    15
100
AcDbLine
 10
1.896718687794949
 20
5.957631299734758
 30
0.0
 11
1.896718687794949
 21
6.257631299734757
 31
0.0
  0
LINE
  5
152
330
1F
100
AcDbEntity
  8
0
  6
Continuous
 62
     7
370
    15
100
AcDbLine
 10
3.896718687794948
 20
3.957631299734762
 30
0.0
 11
3.896718687794948
 21
4.357631299734761
 31
0.0
  0
LINE
  5
153
330
1F
100
AcDbEntity
  8
0
  6
Continuous
 62
     7
370
    15
100
AcDbLine
 10
3.896718687794948
 20
4.357631299734761
 30
0.0
 11
4.178520636261022
 21
4.357631299734762
 31
0.0
  0
LINE
  5
154
330
1F
100
AcDbEntity
  8
0
  6
Continuous
 62
     7
370
    15
100
AcDbLine
 10
4.196718687794954
 20
4.33943324820083
 30
0.0
 11
4.178520636261022
 21
4.357631299734762
 31
0.0
  0
LINE
  5
155
330
1F
100
AcDbEntity
  8
0
  6
Continuous
 62
     7
370
    15
100
AcDbLine
 10
4.196718687794954
 20
4.33943324820083
 30
0.0
 11
4.196718687794948
 21
3.957631299734762
 31
0.0
  0
LINE
  5
156
330
1F
100
AcDbEntity
  8
0
  6
Continuous
 62
     7
370
    15
100
AcDbLine
 10
4.196718687794948
 20
3.957631299734762
 30
0.0
 11
3.896718687794948
 21
3.957631299734762
 31
0.0
  0
LINE
  5
157
330
1F
100
AcDbEntity
  8
0
  6
Continuous
 62
     7
370
    15
100
AcDbLine
 10
3.246718687794948
 20
3.957631299734762
 30
0.0
 11
3.246718687794948
 21
4.357631299734761
 31
0.0
  0
LINE
  5
158
330
1F
100
AcDbEntity
  8
0
  6
Continuous
 62
     7
370
    15
100
AcDbLine
 10
3.546718687794949
 20
4.357631299734762
 30
0.0
 11
3.546718687794949
 21
3.957631299734762
 31
0.0
  0
LINE
  5
159
330
1F
100
AcDbEntity
  8
0
  6
Continuous
 62
     7
370
    15
100
AcDbLine
 10
3.546718687794949
 20
3.957631299734762
 30
0.0
 11
3.246718687794948
 21
3.957631299734762
 31
0.0
  0
LINE
  5
15A
330
1F
100
AcDbEntity
  8
0
  6
Continuous
 62
     7
370
    15
100
AcDbLine
 10
3.246718687794948
 20
4.357631299734761
 30
0.0
 11
3.546718687794949
 21
4.357631299734762
 31
0.0
  0
LINE
  5
15B
330
1F
100
AcDbEntity
  8
0
  6
Continuous
 62
     7
370
    15
100
AcDbLine
 10
2.596718687794949
 20
3.957631299734762
 30
0.0
 11
2.596718687794949
 21
4.339433248200794
 31
0.0
  0
LINE
  5
15C
330
1F
100
AcDbEntity
  8
0
  6
Continuous
 62
     7
370
    15
100
AcDbLine
 10
2.614916739328916
 20
4.357631299734761
 30
0.0
 11
2.596718687794949
 21
4.339433248200794
 31
0.0
  0
LINE
  5
15D
330
1F
100
AcDbEntity
  8
0
  6
Continuous
 62
     7
370
    15
100
AcDbLine
 10
2.614916739328916
 20
4.357631299734761
 30
0.0
 11
2.896718687794949
 21
4.357631299734762
 31
0.0
  0
LINE
  5
15E
330
1F
100
AcDbEntity
  8
0
  6
Continuous
 62
     7
370
    15
100
AcDbLine
 10
2.896718687794949
 20
4.357631299734762
 30
0.0
 11
2.896718687794949
 21
3.957631299734762
 31
0.0
  0
LINE
  5
15F
330
1F
100
AcDbEntity
  8
0
  6
Continuous
 62
     7
370
    15
100
AcDbLine
 10
2.896718687794949
 20
3.957631299734762
 30
0.0
 11
2.596718687794949
 21
3.957631299734762
 31
0.0
  0
LINE
  5
160
330
1F
100
AcDbEntity
  8
0
  6
Continuous
 62
     7
370
    15
100
AcDbLine
 10
4.514916739328907
 20
6.257631299734773
 30
0.0
 11
4.896718687794949
 21
6.257631299734778
 31
0.0
  0
LINE
  5
161
330
1F
100
AcDbEntity
  8
0
  6
Continuous
 62
     7
370
    15
100
AcDbLine
 10
4.896718687794949
 20
6.257631299734778
 30
0.0
 11
4.896718687794949
 21
5.957631299734776
 31
0.0
  0
LINE
  5
162
330
1F
100
AcDbEntity
  8
0
  6
Continuous
 62
     7
370
    15
100
AcDbLine
 10
4.496718687794944
 20
5.957631299734774
 30
0.0
 11
4.496718687794941
 21
6.239433248200807
 31
0.0
  0
LINE
  5
163
330
1F
100
AcDbEntity
  8
0
  6
Continuous
 62
     7
370
    15
100
AcDbLine
 10
4.896718687794949
 20
5.957631299734776
 30
0.0
 11
4.496718687794944
 21
5.957631299734774
 31
0.0
  0
LINE
  5
164
330
1F
100
AcDbEntity
  8
0
  6
Continuous
 62
     7
370
    15
100
AcDbLine
 10
4.514916739328907
 20
6.257631299734773
 30
0.0
 11
4.496718687794941
 21
6.239433248200807
 31
0.0
  0
DIMENSION
  5
165
330
1F
100
AcDbEntity
  8
0
  6
Continuous
 62
     7
370
     0
100
AcDbDimension
  2
_D
 10
4.046718687794943
 20
7.472088030663146
 30
0.0
 11
3.396718687794943
 21
7.472088030663143
 31
0.0
 70
   160
  1
<>
 71
     2
 42
-1.0
  3
SLDDIMSTYLE1
100
AcDbAlignedDimension
 13
2.746718687794943
 23
7.273015915119375
 33
0.0
 14
4.046718687794943
 24
7.273015915119379
 34
0.0
 50
0.0000000000002349
100
AcDbRotatedDimension
  0
DIMENSION
  5
171
330
1F
100
AcDbEntity
  8
0
  6
Continuous
 62
     7
370
     0
100
AcDbDimension
  2
_D_1
 10
1.072006371566988
 20
4.807631299734746
 30
0.0
 11
1.072006371566983
 21
5.457631299734746
 31
0.0
 70
   160
  1
<>
 71
     2
 42
-1.0
  3
SLDDIMSTYLE1
100
AcDbAlignedDimension
 13
1.58133407241033
 23
6.107631299734749
 33
0.0
 14
1.581334072410339
 24
4.807631299734749
 34
0.0
 50
90.00000000000019
100
AcDbRotatedDimension
  0
DIMENSION
  5
17C
330
1F
100
AcDbEntity
  8
0
  6
Continuous
 62
     7
370
     0
100
AcDbDimension
  2
_D_2
 10
1.393334150826388
 20
6.107631299734747
 30
0.0
 11
1.39333415082639
 21
5.782631299734757
 31
0.0
 70
   160
  1
<>
 71
     2
 42
-1.0
  3
SLDDIMSTYLE2
100
AcDbAlignedDimension
 13
1.581334072410326
 23
5.457631299734768
 33
0.0
 14
1.58133407241033
 24
6.107631299734749
 34
0.0
 50
90.00000000000019
100
AcDbRotatedDimension
  0
DIMENSION
  5
188
330
1F
100
AcDbEntity
  8
0
  6
Continuous
 62
     7
370
     0
100
AcDbDimension
  2
_D_3
 10
1.393334150826389
 20
4.657631299734748
 30
0.0
 11
1.393334150826391
 21
4.355585876508067
 31
0.0
 70
   160
  1
<>
 71
     2
 42
-1.0
  3
SLDDIMSTYLE1
100
AcDbAlignedDimension
 13
1.696718687794954
 23
4.957631299734751
 33
0.0
 14
1.696718687794956
 24
4.657631299734751
 34
0.0
 50
90.00000000000019
100
AcDbRotatedDimension
  0
DIMENSION
  5
194
330
1F
100
AcDbEntity
  8
0
  6
Continuous
 62
     7
370
     0
100
AcDbDimension
  2
_D_4
 10
0.8505648416410993
 20
3.957631299734753
 30
0.0
 11
0.8505648416410942
 21
5.457631299734754
 31
0.0
 70
   160
  1
<>
 71
     2
 42
-1.0
  3
SLDDIMSTYLE2
100
AcDbAlignedDimension
 13
1.896718687794944
 23
6.957631299734757
 33
0.0
 14
1.896718687794955
 24
3.957631299734757
 34
0.0
 50
90.00000000000019
100
AcDbRotatedDimension
  0
DIMENSION
  5
19F
330
1F
100
AcDbEntity
  8
0
  6
Continuous
 62
     7
370
     0
100
AcDbDimension
  2
_D_5
 10
0.5635329701077359
 20
3.757631299734753
 30
0.0
 11
0.5635329701077298
 21
5.457631299734752
 31
0.0
 70
   160
  1
<>
 71
     2
 42
-1.0
  3
SLDDIMSTYLE1
100
AcDbAlignedDimension
 13
2.596718687794943
 23
7.157631299734759
 33
0.0
 14
2.596718687794955
 24
3.75763129973476
 34
0.0
 50
90.00000000000019
100
AcDbRotatedDimension
  0
DIMENSION
  5
1AA
330
1F
100
AcDbEntity
  8
0
  6
Continuous
 62
     7
370
     0
100
AcDbDimension
  2
_D_6
 10
4.896718687794941
 20
7.669331381088511
 30
0.0
 11
3.396718687794942
 21
7.669331381088506
 31
0.0
 70
   160
  1
<>
 71
     2
 42
-1.0
  3
SLDDIMSTYLE2
100
AcDbAlignedDimension
 13
1.896718687794944
 23
6.957631299734757
 33
0.0
 14
4.896718687794944
 24
6.957631299734767
 34
0.0
 50
0.0000000000002036
100
AcDbRotatedDimension
  0
DIMENSION
  5
1B5
330
1F
100
AcDbEntity
  8
0
  6
Continuous
 62
     7
370
     0
100
AcDbDimension
  2
_D_7
 10
5.096718687794914
 20
7.871322457973985
 30
0.0
 11
3.396718687794918
 21
7.871322457973962
 31
0.0
 70
   160
  1
<>
 71
     2
 42
-1.0
  3
SLDDIMSTYLE1
100
AcDbAlignedDimension
 13
1.696718687794945
 23
6.257631299734751
 33
0.0
 14
5.096718687794937
 24
6.257631299734786
 34
0.0
 50
0.0000000000008082
100
AcDbRotatedDimension
  0
DIMENSION
  5
1C0
330
1F
100
AcDbEntity
  8
0
  6
Continuous
 62
     7
370
     0
100
AcDbDimension
  2
_D_8
 10
7.252307359581735
 20
4.807631299734775
 30
0.0
 11
7.252307359581732
 21
5.457631299734775
 31
0.0
 70
   160
  1
<>
 71
     2
 42
-1.0
  3
SLDDIMSTYLE1
100
AcDbAlignedDimension
 13
4.046718687794947
 23
6.107631299734764
 33
0.0
 14
4.046718687794951
 24
4.807631299734764
 34
0.0
 50
90.00000000000019
100
AcDbRotatedDimension
  0
DIMENSION
  5
1CB
330
1F
100
AcDbEntity
  8
0
  6
Continuous
 62
     7
370
     0
100
AcDbDimension
  2
_D_9
 10
7.558257149333423
 20
6.182631299734776
 30
0.0
 11
7.558257149333425
 21
5.457631299734776
 31
0.0
 70
   160
  1
<>
 71
     2
 42
-1.0
  3
SLDDIMSTYLE2
100
AcDbAlignedDimension
 13
4.121718687794952
 23
4.732631299734765
 33
0.0
 14
4.121718687794946
 24
6.182631299734764
 34
0.0
 50
90.00000000000019
100
AcDbRotatedDimension
  0
MTEXT
  5
1D6
330
1F
100
AcDbEntity
  8
0
  6
Continuous
 62
     7
370
     0
100
AcDbMText
 10
5.316427702300163
 20
6.770543016600654
 30
0.0
 40
0.1221153846153846
 41
0.0
 71
     1
 72
     1
  1
PCB PAD
  7
SLDTEXTSTYLE0
 73
     1
 44
1.0
1001
ACAD
1000
MTEXTBEGIN
1070
    73
1070
     1
1070
    44
1040
1.0
1070
    74
1070
     0
1000
MTEXTEND
  0
LEADER
  5
1D7
330
1F
100
AcDbEntity
  8
0
  6
Continuous
 62
     7
370
     0
100
AcDbLeader
  3
SLDDIMSTYLE0
 76
     3
 10
5.024553781824892
 20
6.257631299734785
 30
0.0
 10
5.178225932282726
 20
6.713215790294897
 30
0.0
 10
5.293610547667342
 20
6.713215790294897
 30
0.0
  0
MTEXT
  5
1D8
330
1F
100
AcDbEntity
  8
0
  6
Continuous
 62
     7
370
     0
100
AcDbMText
 10
5.316619814103501
 20
6.964517899163434
 30
0.0
 40
0.1221153846153846
 41
0.0
 71
     1
 72
     1
  1
COMPONENT PAD
  7
SLDTEXTSTYLE0
 73
     1
 44
1.0
1001
ACAD
1000
MTEXTBEGIN
1070
    73
1070
     1
1070
    44
1040
1.0
1070
    74
1070
     0
1000
MTEXTEND
  0
LEADER
  5
1D9
330
1F
100
AcDbEntity
  8
0
  6
Continuous
 62
     7
370
     0
100
AcDbLeader
  3
SLDDIMSTYLE0
 76
     3
 10
4.730727155203215
 20
6.257631299734782
 30
0.0
 10
5.178225932282726
 20
6.908254017787486
 30
0.0
 10
5.293610547667342
 20
6.908254017787486
 30
0.0
  0
MTEXT
  5
1DA
330
1F
100
AcDbEntity
  8
0
  6
Continuous
 62
     7
370
     0
100
AcDbMText
 10
5.328985571858071
 20
7.158926300948688
 30
0.0
 40
0.1221153846153846
 41
0.0
 71
     1
 72
     1
  1
SOLDER MASK OPENING
  7
SLDTEXTSTYLE0
 73
     1
 44
1.0
1001
ACAD
1000
MTEXTBEGIN
1070
    73
1070
     1
1070
    44
1040
1.0
1070
    74
1070
     0
1000
MTEXTEND
  0
LEADER
  5
1DB
330
1F
100
AcDbEntity
  8
0
  6
Continuous
 62
     7
370
     0
100
AcDbLeader
  3
SLDDIMSTYLE0
 76
     3
 10
4.646718687794937
 20
6.332631299734779
 30
0.0
 10
5.193828990482133
 20
7.103292245280074
 30
0.0
 10
5.309213605866749
 20
7.103292245280074
 30
0.0
  0
INSERT
  5
1E2
102
{ACAD_REACTORS
330
1E3
102
}
330
1F
100
AcDbEntity
  8
0
  6
Continuous
 62
     7
370
     0
100
AcDbBlockReference
  2
SW_NOTE_23
 10
5.281908254017786
 20
5.593696364487439
 30
0.0
  0
LEADER
  5
1E3
330
1F
100
AcDbEntity
  8
0
  6
Continuous
 62
     7
370
     0
100
AcDbLeader
  3
SLDDIMSTYLE0
 73
     2
 76
     3
 10
4.121718687794949
 20
5.318694001512048
 30
0.0
 10
5.166523638633171
 20
5.593696364487439
 30
0.0
 10
5.281908254017786
 20
5.593696364487439
 30
0.0
340
1E2
  0
MTEXT
  5
1E4
330
1F
100
AcDbEntity
  8
0
  6
Continuous
 62
     7
370
     0
100
AcDbMText
 10
5.313879562236381
 20
5.032029470357029
 30
0.0
 40
0.1221153846153846
 41
0.0
 71
     1
 72
     1
  1
SOLDER MASK OPENING
  7
SLDTEXTSTYLE0
 73
     1
 44
1.0
1001
ACAD
1000
MTEXTBEGIN
1070
    73
1070
     1
1070
    44
1040
1.0
1070
    74
1070
     0
1000
MTEXTEND
  0
LEADER
  5
1E5
330
1F
100
AcDbEntity
  8
0
  6
Continuous
 62
     7
370
     0
100
AcDbLeader
  3
SLDDIMSTYLE0
 76
     3
 10
4.04671868779495
 20
5.008058722290543
 30
0.0
 10
5.178225932282726
 20
4.977375565610859
 30
0.0
 10
5.293610547667342
 20
4.977375565610859
 30
0.0
  0
ARC
  5
1E6
330
1F
100
AcDbEntity
  8
0
  6
Continuous
 62
     7
370
     0
100
AcDbCircle
 10
3.718058481965328
 20
4.059793780736299
 30
0.0
 40
0.713621078634159
100
AcDbArc
 50
298.519140160085
 51
287.9946302800485
  0
SOLID
  5
1E7
330
1F
100
AcDbEntity
  8
0
  6
Continuous
 62
     7
370
     0
100
AcDbTrace
 10
4.05877851458886
 20
3.432765150417077
 30
0.0
 11
4.12933195041727
 21
3.464887231255993
 31
0.0
 12
4.11925410172374
 22
3.481265859126404
 32
0.0
 13
4.11925410172374
 23
3.481265859126404
 33
0.0
  0
SOLID
  5
1E8
330
1F
100
AcDbEntity
  8
0
  6
Continuous
 62
     7
370
     0
100
AcDbTrace
 10
3.938515915119363
 20
3.381079139640268
 30
0.0
 11
3.861708618322241
 21
3.370578923293252
 31
0.0
 12
3.866656588401418
 22
3.351995595353868
 32
0.0
 13
3.866656588401418
 23
3.351995595353868
 33
0.0
  0
MTEXT
  5
1E9
330
1F
100
AcDbEntity
  8
0
  6
Continuous
 62
     7
370
     0
100
AcDbMText
 10
3.938515915119363
 20
3.490478779840849
 30
-0.000000000000025
 40
0.1221153846153846
 41
0.0
 71
     1
 72
     1
  1
A
  7
SLDTEXTSTYLE0
 73
     1
 44
1.0
1001
ACAD
1000
MTEXTBEGIN
1070
    73
1070
     1
1070
    44
1040
1.0
1070
    74
1070
     0
1000
MTEXTEND
  0
LINE
  5
1EA
330
1F
100
AcDbEntity
  8
0
  6
CENTERX2
 62
     7
370
     0
100
AcDbLine
 10
2.746718687794945
 20
6.592246684350144
 30
0.0
 11
2.746718687794943
 21
7.273015915119374
 31
0.0
  0
LINE
  5
1EB
330
1F
100
AcDbEntity
  8
0
  6
CENTERX2
 62
     7
370
     0
100
AcDbLine
 10
4.046718687794945
 20
6.592246684350149
 30
0.0
 11
4.046718687794943
 21
7.273015915119378
 31
0.0
  0
LINE
  5
1EC
330
1F
100
AcDbEntity
  8
0
  6
CENTERX2
 62
     7
370
     0
100
AcDbLine
 10
1.581334072410331
 20
6.107631299734749
 30
0.0
 11
2.26210330317956
 21
6.107631299734754
 31
0.0
  0
LINE
  5
1ED
330
1F
100
AcDbEntity
  8
0
  6
CENTERX2
 62
     7
370
     0
100
AcDbLine
 10
1.581334072410335
 20
5.457631299734768
 30
0.0
 11
2.262103303179564
 21
5.457631299734774
 31
0.0
  0
LINE
  5
1EE
330
1F
100
AcDbEntity
  8
0
  6
CENTERX2
 62
     7
370
     0
100
AcDbLine
 10
1.58133407241034
 20
4.807631299734749
 30
0.0
 11
2.262103303179569
 21
4.807631299734755
 31
0.0
  0
LINE
  5
1EF
330
1F
100
AcDbEntity
  8
0
  6
CENTERX2
 62
     7
100
AcDbLine
 10
7.848051985511957
 20
4.734310014870155
 30
0.0
 11
10.02119161862132
 21
4.734310014870162
 31
0.0
  0
LINE
  5
1F0
330
1F
100
AcDbEntity
  8
0
  6
CENTERX2
 62
     7
100
AcDbLine
 10
9.786406809465216
 20
4.311233094085725
 30
0.0
 11
9.786406809465212
 21
5.118925462528921
 31
0.0
  0
LINE
  5
1F1
330
1F
100
AcDbEntity
  8
0
  6
CENTERX2
 62
     7
100
AcDbLine
 10
9.094099084274668
 20
5.118925462528918
 30
0.0
 11
9.094099084274672
 21
4.311233094085722
 31
0.0
  0
LINE
  5
1F2
330
1F
100
AcDbEntity
  8
0
  6
CENTERX2
 62
     7
100
AcDbLine
 10
9.094099084274672
 20
4.311233094085722
 30
0.0
 11
9.786406809465216
 21
4.311233094085725
 31
0.0
  0
LINE
  5
1F3
330
1F
100
AcDbEntity
  8
0
  6
CENTERX2
 62
     7
100
AcDbLine
 10
8.786406761967764
 20
4.311233094085721
 30
0.0
 11
8.786406761967761
 21
5.118925462528917
 31
0.0
  0
LINE
  5
1F4
330
1F
100
AcDbEntity
  8
0
  6
CENTERX2
 62
     7
100
AcDbLine
 10
8.094099081552341
 20
5.118925462528915
 30
0.0
 11
8.094099081552345
 21
4.311233094085719
 31
0.0
  0
LINE
  5
1F5
330
1F
100
AcDbEntity
  8
0
  6
CENTERX2
 62
     7
100
AcDbLine
 10
8.094099081552345
 20
4.311233094085719
 30
0.0
 11
8.786406761967764
 21
4.311233094085721
 31
0.0
  0
LINE
  5
1F6
330
1F
100
AcDbEntity
  8
0
  6
CENTERX2
 62
     7
100
AcDbLine
 10
9.786406809465212
 20
5.118925462528921
 30
0.0
 11
9.784510493422898
 21
5.155108419155703
 31
0.0
  0
LINE
  5
1F7
330
1F
100
AcDbEntity
  8
0
  6
CENTERX2
 62
     7
100
AcDbLine
 10
9.784510493422898
 20
5.155108419155703
 30
0.0
 11
9.778842500053887
 21
5.190894847286293
 31
0.0
  0
LINE
  5
1F8
330
1F
100
AcDbEntity
  8
0
  6
CENTERX2
 62
     7
100
AcDbLine
 10
9.778842500053887
 20
5.190894847286293
 30
0.0
 11
9.76946479812949
 21
5.225892875037372
 31
0.0
  0
LINE
  5
1F9
330
1F
100
AcDbEntity
  8
0
  6
CENTERX2
 62
     7
100
AcDbLine
 10
9.76946479812949
 20
5.225892875037372
 30
0.0
 11
9.756480191333904
 21
5.259718869148397
 31
0.0
  0
LINE
  5
1FA
330
1F
100
AcDbEntity
  8
0
  6
CENTERX2
 62
     7
100
AcDbLine
 10
9.756480191333904
 20
5.259718869148397
 30
0.0
 11
9.740030975010501
 21
5.292002270694966
 31
0.0
  0
LINE
  5
1FB
330
1F
100
AcDbEntity
  8
0
  6
CENTERX2
 62
     7
100
AcDbLine
 10
9.740030975010501
 20
5.292002270694966
 30
0.0
 11
9.720297234707121
 21
5.322389535299717
 31
0.0
  0
LINE
  5
1FC
330
1F
100
AcDbEntity
  8
0
  6
CENTERX2
 62
     7
100
AcDbLine
 10
9.720297234707121
 20
5.322389535299717
 30
0.0
 11
9.69749532382187
 21
5.350547536041731
 31
0.0
  0
LINE
  5
1FD
330
1F
100
AcDbEntity
  8
0
  6
CENTERX2
 62
     7
100
AcDbLine
 10
9.69749532382187
 20
5.350547536041731
 30
0.0
 11
9.671875087545437
 21
5.376167861868412
 31
0.0
  0
LINE
  5
1FE
330
1F
100
AcDbEntity
  8
0
  6
CENTERX2
 62
     7
100
AcDbLine
 10
9.671875087545437
 20
5.376167861868412
 30
0.0
 11
9.643717086803423
 21
5.398969683203416
 31
0.0
  0
LINE
  5
1FF
330
1F
100
AcDbEntity
  8
0
  6
CENTERX2
 62
     7
100
AcDbLine
 10
9.643717086803423
 20
5.398969683203416
 30
0.0
 11
9.61332982219867
 21
5.418703513057042
 31
0.0
  0
LINE
  5
200
330
1F
100
AcDbEntity
  8
0
  6
CENTERX2
 62
     7
100
AcDbLine
 10
9.61332982219867
 20
5.418703513057042
 30
0.0
 11
9.581046331101852
 21
5.435152639830199
 31
0.0
  0
LINE
  5
201
330
1F
100
AcDbEntity
  8
0
  6
CENTERX2
 62
     7
100
AcDbLine
 10
9.581046331101852
 20
5.435152639830199
 30
0.0
 11
9.547220336990829
 21
5.448137246625784
 31
0.0
  0
LINE
  5
202
330
1F
100
AcDbEntity
  8
0
  6
CENTERX2
 62
     7
100
AcDbLine
 10
9.547220336990829
 20
5.448137246625784
 30
0.0
 11
9.512222309239749
 21
5.457514948550181
 31
0.0
  0
LINE
  5
203
330
1F
100
AcDbEntity
  8
0
  6
CENTERX2
 62
     7
100
AcDbLine
 10
9.512222309239749
 20
5.457514948550181
 30
0.0
 11
9.476435881109159
 21
5.463182941919192
 31
0.0
  0
LINE
  5
204
330
1F
100
AcDbEntity
  8
0
  6
CENTERX2
 62
     7
100
AcDbLine
 10
9.476435881109159
 20
5.463182941919192
 30
0.0
 11
9.440252924482377
 21
5.465079257961505
 31
0.0
  0
LINE
  5
205
330
1F
100
AcDbEntity
  8
0
  6
CENTERX2
 62
     7
100
AcDbLine
 10
9.440252924482377
 20
5.465079257961505
 30
0.0
 11
9.404069967855594
 21
5.463182941919192
 31
0.0
  0
LINE
  5
206
330
1F
100
AcDbEntity
  8
0
  6
CENTERX2
 62
     7
100
AcDbLine
 10
9.404069967855594
 20
5.463182941919192
 30
0.0
 11
9.368283450174757
 21
5.457514948550181
 31
0.0
  0
LINE
  5
207
330
1F
100
AcDbEntity
  8
0
  6
CENTERX2
 62
     7
100
AcDbLine
 10
9.368283450174757
 20
5.457514948550181
 30
0.0
 11
9.333285511973926
 21
5.448137246625783
 31
0.0
  0
LINE
  5
208
330
1F
100
AcDbEntity
  8
0
  6
CENTERX2
 62
     7
100
AcDbLine
 10
9.333285511973926
 20
5.448137246625783
 30
0.0
 11
9.299459428312655
 21
5.435152639830198
 31
0.0
  0
LINE
  5
209
330
1F
100
AcDbEntity
  8
0
  6
CENTERX2
 62
     7
100
AcDbLine
 10
9.299459428312655
 20
5.435152639830198
 30
0.0
 11
9.267176026766083
 21
5.418703513057042
 31
0.0
  0
LINE
  5
20A
330
1F
100
AcDbEntity
  8
0
  6
CENTERX2
 62
     7
100
AcDbLine
 10
9.267176026766083
 20
5.418703513057042
 30
0.0
 11
9.236788762161332
 21
5.398969683203415
 31
0.0
  0
LINE
  5
20B
330
1F
100
AcDbEntity
  8
0
  6
CENTERX2
 62
     7
100
AcDbLine
 10
9.236788762161332
 20
5.398969683203415
 30
0.0
 11
9.208630761419319
 21
5.376167861868411
 31
0.0
  0
LINE
  5
20C
330
1F
100
AcDbEntity
  8
0
  6
CENTERX2
 62
     7
100
AcDbLine
 10
9.208630761419319
 20
5.376167861868411
 30
0.0
 11
9.183010480367762
 21
5.35054753604173
 31
0.0
  0
LINE
  5
20D
330
1F
100
AcDbEntity
  8
0
  6
CENTERX2
 62
     7
100
AcDbLine
 10
9.183010480367762
 20
5.35054753604173
 30
0.0
 11
9.160208569482509
 21
5.322389535299716
 31
0.0
  0
LINE
  5
20E
330
1F
100
AcDbEntity
  8
0
  6
CENTERX2
 62
     7
100
AcDbLine
 10
9.160208569482509
 20
5.322389535299716
 30
0.0
 11
9.140474918729379
 21
5.292002270694963
 31
0.0
  0
LINE
  5
20F
330
1F
100
AcDbEntity
  8
0
  6
CENTERX2
 62
     7
100
AcDbLine
 10
9.140474918729379
 20
5.292002270694963
 30
0.0
 11
9.124025657630852
 21
5.259718869148393
 31
0.0
  0
LINE
  5
210
330
1F
100
AcDbEntity
  8
0
  6
CENTERX2
 62
     7
100
AcDbLine
 10
9.124025657630852
 20
5.259718869148393
 30
0.0
 11
9.111041050835266
 21
5.225892875037369
 31
0.0
  0
LINE
  5
211
330
1F
100
AcDbEntity
  8
0
  6
CENTERX2
 62
     7
100
AcDbLine
 10
9.111041050835266
 20
5.225892875037369
 30
0.0
 11
9.101663348910868
 21
5.19089484728629
 31
0.0
  0
LINE
  5
212
330
1F
100
AcDbEntity
  8
0
  6
CENTERX2
 62
     7
100
AcDbLine
 10
9.101663348910868
 20
5.19089484728629
 30
0.0
 11
9.095995355541857
 21
5.1551084191557
 31
0.0
  0
LINE
  5
213
330
1F
100
AcDbEntity
  8
0
  6
CENTERX2
 62
     7
100
AcDbLine
 10
9.095995355541857
 20
5.1551084191557
 30
0.0
 11
9.094099084274668
 21
5.118925462528918
 31
0.0
  0
LINE
  5
214
330
1F
100
AcDbEntity
  8
0
  6
CENTERX2
 62
     7
100
AcDbLine
 10
8.786406761967761
 20
5.118925462528917
 30
0.0
 11
8.78451049070057
 21
5.155108419155699
 31
0.0
  0
LINE
  5
215
330
1F
100
AcDbEntity
  8
0
  6
CENTERX2
 62
     7
100
AcDbLine
 10
8.78451049070057
 20
5.155108419155699
 30
0.0
 11
8.778842474943997
 21
5.190894847286289
 31
0.0
  0
LINE
  5
216
330
1F
100
AcDbEntity
  8
0
  6
CENTERX2
 62
     7
100
AcDbLine
 10
8.778842474943997
 20
5.190894847286289
 30
0.0
 11
8.769464795407163
 21
5.225892875037368
 31
0.0
  0
LINE
  5
217
330
1F
100
AcDbEntity
  8
0
  6
CENTERX2
 62
     7
100
AcDbLine
 10
8.769464795407163
 20
5.225892875037368
 30
0.0
 11
8.756480188611577
 21
5.259718869148392
 31
0.0
  0
LINE
  5
218
330
1F
100
AcDbEntity
  8
0
  6
CENTERX2
 62
     7
100
AcDbLine
 10
8.756480188611577
 20
5.259718869148392
 30
0.0
 11
8.740030949900612
 21
5.292002270694962
 31
0.0
  0
LINE
  5
219
330
1F
100
AcDbEntity
  8
0
  6
CENTERX2
 62
     7
100
AcDbLine
 10
8.740030949900612
 20
5.292002270694962
 30
0.0
 11
8.720297276759918
 21
5.322389535299715
 31
0.0
  0
LINE
  5
21A
330
1F
100
AcDbEntity
  8
0
  6
CENTERX2
 62
     7
100
AcDbLine
 10
8.720297276759918
 20
5.322389535299715
 30
0.0
 11
8.697495365874667
 21
5.350547536041728
 31
0.0
  0
LINE
  5
21B
330
1F
100
AcDbEntity
  8
0
  6
CENTERX2
 62
     7
100
AcDbLine
 10
8.697495365874667
 20
5.350547536041728
 30
0.0
 11
8.671875062435546
 21
5.37616786186841
 31
0.0
  0
LINE
  5
21C
330
1F
100
AcDbEntity
  8
0
  6
CENTERX2
 62
     7
100
AcDbLine
 10
8.671875062435546
 20
5.37616786186841
 30
0.0
 11
8.64371703930597
 21
5.398969683203413
 31
0.0
  0
LINE
  5
21D
330
1F
100
AcDbEntity
  8
0
  6
CENTERX2
 62
     7
100
AcDbLine
 10
8.64371703930597
 20
5.398969683203413
 30
0.0
 11
8.613329841863905
 21
5.41870351305704
 31
0.0
  0
LINE
  5
21E
330
1F
100
AcDbEntity
  8
0
  6
CENTERX2
 62
     7
100
AcDbLine
 10
8.613329841863905
 20
5.41870351305704
 30
0.0
 11
8.581046373154649
 21
5.435152639830194
 31
0.0
  0
LINE
  5
21F
330
1F
100
AcDbEntity
  8
0
  6
CENTERX2
 62
     7
100
AcDbLine
 10
8.581046373154649
 20
5.435152639830194
 30
0.0
 11
8.547220345462282
 21
5.448137246625781
 31
0.0
  0
LINE
  5
220
330
1F
100
AcDbEntity
  8
0
  6
CENTERX2
 62
     7
100
AcDbLine
 10
8.547220345462282
 20
5.448137246625781
 30
0.0
 11
8.512222351292546
 21
5.457514948550178
 31
0.0
  0
LINE
  5
221
330
1F
100
AcDbEntity
  8
0
  6
CENTERX2
 62
     7
100
AcDbLine
 10
8.512222351292546
 20
5.457514948550178
 30
0.0
 11
8.47643585040238
 21
5.463182941919188
 31
0.0
  0
LINE
  5
222
330
1F
100
AcDbEntity
  8
0
  6
CENTERX2
 62
     7
100
AcDbLine
 10
8.47643585040238
 20
5.463182941919188
 30
0.0
 11
8.44025292176005
 21
5.465079257961502
 31
0.0
  0
LINE
  5
223
330
1F
100
AcDbEntity
  8
0
  6
CENTERX2
 62
     7
100
AcDbLine
 10
8.44025292176005
 20
5.465079257961502
 30
0.0
 11
8.404069993117721
 21
5.463182941919188
 31
0.0
  0
LINE
  5
224
330
1F
100
AcDbEntity
  8
0
  6
CENTERX2
 62
     7
100
AcDbLine
 10
8.404069993117721
 20
5.463182941919188
 30
0.0
 11
8.368283492227554
 21
5.457514948550178
 31
0.0
  0
LINE
  5
225
330
1F
100
AcDbEntity
  8
0
  6
CENTERX2
 62
     7
100
AcDbLine
 10
8.368283492227554
 20
5.457514948550178
 30
0.0
 11
8.333285498057817
 21
5.448137246625781
 31
0.0
  0
LINE
  5
226
330
1F
100
AcDbEntity
  8
0
  6
CENTERX2
 62
     7
100
AcDbLine
 10
8.333285498057817
 20
5.448137246625781
 30
0.0
 11
8.29945947036545
 21
5.435152639830194
 31
0.0
  0
LINE
  5
227
330
1F
100
AcDbEntity
  8
0
  6
CENTERX2
 62
     7
100
AcDbLine
 10
8.29945947036545
 20
5.435152639830194
 30
0.0
 11
8.267176001656194
 21
5.418703513057037
 31
0.0
  0
LINE
  5
228
330
1F
100
AcDbEntity
  8
0
  6
CENTERX2
 62
     7
100
AcDbLine
 10
8.267176001656194
 20
5.418703513057037
 30
0.0
 11
8.236788804214128
 21
5.398969683203411
 31
0.0
  0
LINE
  5
229
330
1F
100
AcDbEntity
  8
0
  6
CENTERX2
 62
     7
100
AcDbLine
 10
8.236788804214128
 20
5.398969683203411
 30
0.0
 11
8.208630781084552
 21
5.376167861868407
 31
0.0
  0
LINE
  5
22A
330
1F
100
AcDbEntity
  8
0
  6
CENTERX2
 62
     7
100
AcDbLine
 10
8.208630781084552
 20
5.376167861868407
 30
0.0
 11
8.183010477645435
 21
5.350547536041726
 31
0.0
  0
LINE
  5
22B
330
1F
100
AcDbEntity
  8
0
  6
CENTERX2
 62
     7
100
AcDbLine
 10
8.183010477645435
 20
5.350547536041726
 30
0.0
 11
8.160208566760182
 21
5.322389535299712
 31
0.0
  0
LINE
  5
22C
330
1F
100
AcDbEntity
  8
0
  6
CENTERX2
 62
     7
100
AcDbLine
 10
8.160208566760182
 20
5.322389535299712
 30
0.0
 11
8.14047489361949
 21
5.29200227069496
 31
0.0
  0
LINE
  5
22D
330
1F
100
AcDbEntity
  8
0
  6
CENTERX2
 62
     7
100
AcDbLine
 10
8.14047489361949
 20
5.29200227069496
 30
0.0
 11
8.124025654908525
 21
5.25971886914839
 31
0.0
  0
LINE
  5
22E
330
1F
100
AcDbEntity
  8
0
  6
CENTERX2
 62
     7
100
AcDbLine
 10
8.124025654908525
 20
5.25971886914839
 30
0.0
 11
8.111041048112939
 21
5.225892875037366
 31
0.0
  0
LINE
  5
22F
330
1F
100
AcDbEntity
  8
0
  6
CENTERX2
 62
     7
100
AcDbLine
 10
8.111041048112939
 20
5.225892875037366
 30
0.0
 11
8.101663368576103
 21
5.190894847286287
 31
0.0
  0
LINE
  5
230
330
1F
100
AcDbEntity
  8
0
  6
CENTERX2
 62
     7
100
AcDbLine
 10
8.101663368576103
 20
5.190894847286287
 30
0.0
 11
8.09599535281953
 21
5.155108419155697
 31
0.0
  0
LINE
  5
231
330
1F
100
AcDbEntity
  8
0
  6
CENTERX2
 62
     7
100
AcDbLine
 10
8.09599535281953
 20
5.155108419155697
 30
0.0
 11
8.094099081552341
 21
5.118925462528915
 31
0.0
  0
CIRCLE
  5
232
330
1F
100
AcDbEntity
  8
0
  6
Continuous
 62
     7
370
     0
100
AcDbCircle
 10
8.934621786036155
 20
4.891480227829181
 30
0.0
 40
1.097878588092497
  0
LINE
  5
233
330
1F
100
AcDbEntity
  8
0
  6
Continuous
 62
     7
370
    15
100
AcDbLine
 10
8.209483680029864
 20
4.426617692563249
 30
0.0
 11
8.671022163490226
 21
4.426617692563249
 31
0.0
  0
ARC
  5
234
330
1F
100
AcDbEntity
  8
0
  6
Continuous
 62
     7
370
    15
100
AcDbCircle
 10
8.440252921760045
 20
5.118925396209935
 30
0.0
 40
0.2307692417301907
100
AcDbArc
 50
0.0000164657891904
 51
179.9999835342108
  0
LINE
  5
235
330
1F
100
AcDbEntity
  8
0
  6
Continuous
 62
     7
370
    15
100
AcDbLine
 10
8.671022163490226
 20
4.426617692563249
 30
0.0
 11
8.671022163490226
 21
5.118925462528916
 31
0.0
  0
LINE
  5
236
330
1F
100
AcDbEntity
  8
0
  6
Continuous
 62
     7
370
    15
100
AcDbLine
 10
8.209483680029864
 20
5.118925462528916
 30
0.0
 11
8.209483680029864
 21
4.426617692563249
 31
0.0
  0
LINE
  5
237
330
1F
100
AcDbEntity
  8
0
  6
Continuous
 62
     7
370
    15
100
AcDbLine
 10
9.671022121437429
 20
4.426617692563249
 30
0.0
 11
9.671022121437429
 21
5.118925462528916
 31
0.0
  0
ARC
  5
238
330
1F
100
AcDbEntity
  8
0
  6
Continuous
 62
     7
370
    15
100
AcDbCircle
 10
9.440252924482372
 20
5.118925441215477
 30
0.0
 40
0.2307691969550581
100
AcDbArc
 50
0.0000052917378858
 51
179.9999947082621
  0
LINE
  5
239
330
1F
100
AcDbEntity
  8
0
  6
Continuous
 62
     7
370
    15
100
AcDbLine
 10
9.209483727527315
 20
5.118925462528916
 30
0.0
 11
9.209483727527315
 21
4.426617692563249
 31
0.0
  0
LINE
  5
23A
330
1F
100
AcDbEntity
  8
0
  6
Continuous
 62
     7
370
    15
100
AcDbLine
 10
9.209483727527315
 20
4.426617692563249
 30
0.0
 11
9.671022121437429
 21
4.426617692563249
 31
0.0
  0
LINE
  5
23B
330
1F
100
AcDbEntity
  8
0
  6
Continuous
 62
     7
370
    15
100
AcDbLine
 10
8.57871446232064
 20
5.926617741421864
 30
0.0
 11
8.57871446232064
 21
5.930072142221459
 31
0.0
  0
LINE
  5
23C
330
1F
100
AcDbEntity
  8
0
  6
Continuous
 62
     7
370
    15
100
AcDbLine
 10
9.300454600213774
 20
5.926617741421864
 30
0.0
 11
8.57871446232064
 21
5.926617741421864
 31
0.0
  0
LINE
  5
23D
330
1F
100
AcDbEntity
  8
0
  6
Continuous
 62
     7
370
    15
100
AcDbLine
 10
9.209483727527315
 20
4.734310014870157
 30
0.0
 11
9.209483727527315
 21
5.349694659483973
 31
0.0
  0
LINE
  5
23E
330
1F
100
AcDbEntity
  8
0
  6
Continuous
 62
     7
370
    15
100
AcDbLine
 10
9.209483727527315
 20
5.349694659483973
 30
0.0
 11
9.643025132040527
 21
5.349694659483973
 31
0.0
  0
LINE
  5
23F
330
1F
100
AcDbEntity
  8
0
  6
Continuous
 62
     7
370
    15
100
AcDbLine
 10
9.671022121437429
 20
5.321697670087071
 30
0.0
 11
9.643025132040527
 21
5.349694659483973
 31
0.0
  0
LINE
  5
240
330
1F
100
AcDbEntity
  8
0
  6
Continuous
 62
     7
370
    15
100
AcDbLine
 10
9.671022121437429
 20
5.321697670087071
 30
0.0
 11
9.671022121437429
 21
4.734310014870157
 31
0.0
  0
LINE
  5
241
330
1F
100
AcDbEntity
  8
0
  6
Continuous
 62
     7
370
    15
100
AcDbLine
 10
9.671022121437429
 20
4.734310014870157
 30
0.0
 11
9.209483727527315
 21
4.734310014870157
 31
0.0
  0
LINE
  5
242
330
1F
100
AcDbEntity
  8
0
  6
Continuous
 62
     7
370
    15
100
AcDbLine
 10
8.209483680029864
 20
4.734310014870157
 30
0.0
 11
8.209483680029864
 21
5.349694659483973
 31
0.0
  0
LINE
  5
243
330
1F
100
AcDbEntity
  8
0
  6
Continuous
 62
     7
370
    15
100
AcDbLine
 10
8.671022163490226
 20
5.349694659483973
 30
0.0
 11
8.671022163490226
 21
4.734310014870157
 31
0.0
  0
LINE
  5
244
330
1F
100
AcDbEntity
  8
0
  6
Continuous
 62
     7
370
    15
100
AcDbLine
 10
8.671022163490226
 20
4.734310014870157
 30
0.0
 11
8.209483680029864
 21
4.734310014870157
 31
0.0
  0
LINE
  5
245
330
1F
100
AcDbEntity
  8
0
  6
Continuous
 62
     7
370
    15
100
AcDbLine
 10
8.209483680029864
 20
5.349694659483973
 30
0.0
 11
8.671022163490226
 21
5.349694659483973
 31
0.0
  0
DIMENSION
  5
246
330
1F
100
AcDbEntity
  8
0
  6
Continuous
 62
     7
370
     0
100
AcDbDimension
  2
_D_10
 10
9.440252921760032
 20
5.737411106188023
 30
0.0
 11
8.940252921760032
 21
5.737411106188021
 31
0.0
 70
   160
  1
<>
 71
     2
 42
-1.0
  3
SLDDIMSTYLE3
100
AcDbAlignedDimension
 13
8.440252921760034
 23
5.234310034929417
 33
0.0
 14
9.440252921760034
 24
5.23431003492942
 34
0.0
 50
0.0000000000002036
100
AcDbRotatedDimension
  0
DIMENSION
  5
252
330
1F
100
AcDbEntity
  8
0
  6
Continuous
 62
     7
370
     0
100
AcDbDimension
  2
_D_11
 10
8.440252921760047
 20
5.118925419544797
 30
0.0
 11
7.948929941973891
 21
5.737411106188021
 31
0.0
 70
   164
  1
<>
 42
-1.0
  3
SLDDIMSTYLE4
100
AcDbRadialDimension
 15
8.381795704943387
 25
5.342167869970051
 35
0.0
 40
0.0
  0
DIMENSION
  5
25B
330
1F
100
AcDbEntity
  8
0
  6
Continuous
 62
     7
370
     0
100
AcDbDimension
  2
_D_12
 10
9.094099075606205
 20
3.704935186893101
 30
0.0
 11
7.948929941973892
 21
3.704935186893097
 31
0.0
 70
   160
  1
0.185~<> MIN.
 71
     2
 42
-1.0
  3
SLDDIMSTYLE5
100
AcDbAlignedDimension
 13
8.786406767913895
 23
4.311233111852492
 33
0.0
 14
9.094099075606203
 24
4.311233111852494
 34
0.0
 50
0.0000000000001654
100
AcDbRotatedDimension
  0
DIMENSION
  5
269
330
1F
100
AcDbEntity
  8
0
  6
Continuous
 62
     7
370
     0
100
AcDbDimension
  2
_D_13
 10
9.671022152529282
 20
4.124140661630685
 30
0.0
 11
9.44025292176005
 21
4.124140661630684
 31
0.0
 70
   160
  1
<>
 71
     2
 42
-1.0
  3
SLDDIMSTYLE6
100
AcDbAlignedDimension
 13
9.209483690990817
 23
4.426617727237109
 33
0.0
 14
9.67102215252928
 24
4.426617727237111
 34
0.0
 50
0.0000000000002205
100
AcDbRotatedDimension
  0
DIMENSION
  5
275
330
1F
100
AcDbEntity
  8
0
  6
Continuous
 62
     7
370
     0
100
AcDbDimension
  2
_D_14
 10
9.92501565590868
 20
4.426617727237112
 30
0.0
 11
9.92501565590868
 21
4.207981756578202
 31
0.0
 70
   160
  1
<>
 71
     2
 42
-1.0
  3
SLDDIMSTYLE5
100
AcDbAlignedDimension
 13
10.02119161862131
 23
4.734310034929418
 33
0.0
 14
9.67102215252928
 24
4.426617727237111
 34
0.0
 50
90.00000000000019
100
AcDbRotatedDimension
  0
DIMENSION
  5
280
330
1F
100
AcDbEntity
  8
0
  6
Continuous
 62
     7
370
     0
100
AcDbDimension
  2
_D_15
 10
10.23850844571244
 20
4.426617727237113
 30
0.0
 11
10.23850844571244
 21
4.888156188775574
 31
0.0
 70
   160
  1
<>
 71
     2
 42
-1.0
  3
SLDDIMSTYLE5
100
AcDbAlignedDimension
 13
9.643025150169389
 23
5.349694650314032
 33
0.0
 14
9.67102215252928
 24
4.426617727237111
 34
0.0
 50
90.00000000000019
100
AcDbRotatedDimension
  0
DIMENSION
  5
28B
330
1F
100
AcDbEntity
  8
0
  6
Continuous
 62
     7
370
     0
100
AcDbDimension
  2
_D_16
 10
7.800555215238539
 20
4.311233111852489
 30
0.0
 11
7.80055521523854
 21
4.042002342621714
 31
0.0
 70
   160
  1
0.060~<>\PMASK OPENING
 71
     2
 42
-1.0
  3
SLDDIMSTYLE7
100
AcDbAlignedDimension
 13
8.209483690990817
 23
4.426617727237106
 33
0.0
 14
8.094099075606203
 24
4.31123311185249
 34
0.0
 50
90.00000000000019
100
AcDbRotatedDimension
  0
INSERT
  5
29F
330
1F
100
AcDbEntity
  8
0
  6
Continuous
 62
     7
370
     0
100
AcDbBlockReference
  2
SW_NOTE_24
 10
8.597700163176982
 20
3.340578374763645
 30
0.0
  0
ENDSEC
  0
SECTION
  2
OBJECTS
  0
DICTIONARY
  5
C
330
0
100
AcDbDictionary
281
     1
  3
ACAD_2007HEADERVARS_RT
350
2EC
  3
ACAD_COLOR
350
2D1
  3
ACAD_GROUP
350
D
  3
ACAD_LAYOUT
350
1A
  3
ACAD_MATERIAL
350
3B
  3
ACAD_MLEADERSTYLE
350
2C5
  3
ACAD_MLINESTYLE
350
17
  3
ACAD_PLOTSETTINGS
350
19
  3
ACAD_PLOTSTYLENAME
350
E
  3
ACAD_SCALELIST
350
2A0
  3
ACAD_TABLESTYLE
350
2C4
  3
ACAD_VISUALSTYLE
350
2A
  3
ACDB_RECOMPOSE_DATA
350
2EA
  3
AcDbVariableDictionary
350
2C2
  3
DWGPROPS
350
2EB
  0
DICTIONARY
  5
2EC
102
{ACAD_REACTORS
330
C
102
}
330
C
100
AcDbDictionary
281
     1
  3
INTERFERECOLOR
350
2ED
  0
DICTIONARY
  5
2D1
102
{ACAD_REACTORS
330
C
102
}
330
C
100
AcDbDictionary
281
     1
  0
DICTIONARY
  5
D
102
{ACAD_REACTORS
330
C
102
}
330
C
100
AcDbDictionary
281
     1
  0
DICTIONARY
  5
1A
102
{ACAD_REACTORS
330
C
102
}
330
C
100
AcDbDictionary
281
     1
  3
Layout1
350
1E
  3
Layout2
350
26
  3
Model
350
22
  0
DICTIONARY
  5
3B
102
{ACAD_REACTORS
330
C
102
}
330
C
100
AcDbDictionary
281
     1
  3
ByBlock
350
3D
  3
ByLayer
350
3C
  3
Global
350
3E
  0
DICTIONARY
  5
2C5
102
{ACAD_REACTORS
330
C
102
}
330
C
100
AcDbDictionary
281
     1
  3
Standard
350
2D3
  0
DICTIONARY
  5
17
102
{ACAD_REACTORS
330
C
102
}
330
C
100
AcDbDictionary
281
     1
  3
Standard
350
18
  0
DICTIONARY
  5
19
102
{ACAD_REACTORS
330
C
102
}
330
C
100
AcDbDictionary
281
     1
  0
ACDBDICTIONARYWDFLT
  5
E
102
{ACAD_REACTORS
330
C
102
}
330
C
100
AcDbDictionary
281
     1
  3
Normal
350
F
100
AcDbDictionaryWithDefault
340
F
  0
DICTIONARY
  5
2A0
102
{ACAD_REACTORS
330
C
102
}
330
C
100
AcDbDictionary
281
     1
  3
A0
350
2A1
  3
A1
350
2A2
  3
A2
350
2A3
  3
A3
350
2A4
  3
A4
350
2A5
  3
A5
350
2A6
  3
A6
350
2A7
  3
A7
350
2A8
  3
A8
350
2A9
  3
A9
350
2AA
  3
B0
350
2AB
  3
B1
350
2AC
  3
B2
350
2AD
  3
B3
350
2AE
  3
B4
350
2AF
  3
B5
350
2B0
  3
B6
350
2B1
  3
B7
350
2B2
  3
B8
350
2B3
  3
B9
350
2B4
  3
C0
350
2B5
  3
C1
350
2B6
  3
C2
350
2B7
  3
C3
350
2B8
  3
C4
350
2B9
  3
C5
350
2BA
  3
C6
350
2BB
  3
C7
350
2BC
  3
C8
350
2BD
  3
C9
350
2BE
  3
D0
350
2BF
  3
D1
350
2C0
  3
D2
350
2C1
  0
DICTIONARY
  5
2C4
102
{ACAD_REACTORS
330
C
102
}
330
C
100
AcDbDictionary
281
     1
  3
Standard
350
2D2
  0
DICTIONARY
  5
2A
102
{ACAD_REACTORS
330
C
102
}
330
C
100
AcDbDictionary
281
     1
  3
2dWireframe
350
2F
  3
3D Hidden
350
31
  3
3dWireframe
350
30
  3
Basic
350
32
  3
Brighten
350
36
  3
ColorChange
350
3A
  3
Conceptual
350
34
  3
Dim
350
35
  3
EdgeColorOff
350
2D0
  3
Facepattern
350
39
  3
Flat
350
2B
  3
FlatWithEdges
350
2C
  3
Gouraud
350
2D
  3
GouraudWithEdges
350
2E
  3
Hidden
350
2C8
  3
JitterOff
350
2CE
  3
Linepattern
350
38
  3
OverhangOff
350
2CF
  3
Realistic
350
33
  3
Shaded
350
2CD
  3
Shaded with edges
350
2CC
  3
Shades of Gray
350
2C9
  3
Sketchy
350
2CA
  3
Thicken
350
37
  3
Wireframe
350
2C7
  3
X-Ray
350
2CB
  0
XRECORD
  5
2EA
102
{ACAD_REACTORS
330
C
102
}
330
C
100
AcDbXrecord
280
     1
 90
        1
330
2D2
  0
DICTIONARY
  5
2C2
102
{ACAD_REACTORS
330
C
102
}
330
C
100
AcDbDictionary
281
     1
  3
CANNOSCALE
350
2C3
  3
CMLEADERSTYLE
350
2DB
  3
CTABLESTYLE
350
2DA
  3
DGNFRAME
350
2E4
  3
DIMASSOC
350
2E3
  3
HIDETEXT
350
2E2
  3
INDEXCTL
350
2E1
  3
LAYEREVAL
350
2DE
  3
LAYERNOTIFY
350
2DF
  3
LIGHTINGUNITS
350
2DD
  3
MSLTSCALE
350
2DC
  3
PSOLHEIGHT
350
2E6
  3
PSOLWIDTH
350
2E5
  3
SORTENTS
350
2E0
  3
XCLIPFRAME
350
2E7
  0
XRECORD
  5
2EB
102
{ACAD_REACTORS
330
C
102
}
330
C
100
AcDbXrecord
280
     1
  1
DWGPROPS COOKIE
  2

  3

  4

  6

  7

  8
admin
  9

300
=
301
=
302
=
303
=
304
=
305
=
306
=
307
=
308
=
309
=
 40
0.0000878240740741
 41
2456181.624287049
 42
2456272.503957511
  1

 90
        0
  0
XRECORD
  5
2ED
102
{ACAD_REACTORS
330
2EC
102
}
330
2EC
100
AcDbXrecord
280
     1
1004
1800000001000000000000C0000000000000000000000000
  0
LAYOUT
  5
1E
102
{ACAD_XDICTIONARY
360
2EE
102
}
102
{ACAD_REACTORS
330
1A
102
}
330
1A
100
AcDbPlotSettings
  1

  2
none_device
  4

  6

 40
0.0
 41
0.0
 42
0.0
 43
0.0
 44
0.0
 45
0.0
 46
0.0
 47
0.0
 48
0.0
 49
0.0
140
0.0
141
0.0
142
1.0
143
1.0
 70
   688
 72
     0
 73
     0
 74
     5
  7

 75
    16
147
1.0
148
0.0
149
0.0
100
AcDbLayout
  1
Layout1
 70
     1
 71
     1
 10
0.0
 20
0.0
 11
420.0
 21
297.0
 12
0.0
 22
0.0
 32
0.0
 14
1.000000000000000E+20
 24
1.000000000000000E+20
 34
1.000000000000000E+20
 15
-1.000000000000000E+20
 25
-1.000000000000000E+20
 35
-1.000000000000000E+20
146
0.0
 13
0.0
 23
0.0
 33
0.0
 16
1.0
 26
0.0
 36
0.0
 17
0.0
 27
1.0
 37
0.0
 76
     0
330
1B
  0
LAYOUT
  5
26
102
{ACAD_XDICTIONARY
360
2F2
102
}
102
{ACAD_REACTORS
330
1A
102
}
330
1A
100
AcDbPlotSettings
  1

  2
none_device
  4

  6

 40
0.0
 41
0.0
 42
0.0
 43
0.0
 44
0.0
 45
0.0
 46
0.0
 47
0.0
 48
0.0
 49
0.0
140
0.0
141
0.0
142
1.0
143
1.0
 70
   688
 72
     0
 73
     0
 74
     5
  7

 75
    16
147
1.0
148
0.0
149
0.0
100
AcDbLayout
  1
Layout2
 70
     1
 71
     2
 10
0.0
 20
0.0
 11
0.0
 21
0.0
 12
0.0
 22
0.0
 32
0.0
 14
0.0
 24
0.0
 34
0.0
 15
0.0
 25
0.0
 35
0.0
146
0.0
 13
0.0
 23
0.0
 33
0.0
 16
1.0
 26
0.0
 36
0.0
 17
0.0
 27
1.0
 37
0.0
 76
     0
330
23
  0
LAYOUT
  5
22
102
{ACAD_XDICTIONARY
360
2F0
102
}
102
{ACAD_REACTORS
330
1A
102
}
330
1A
100
AcDbPlotSettings
  1

  2
none_device
  4

  6

 40
0.0
 41
0.0
 42
0.0
 43
0.0
 44
0.0
 45
0.0
 46
0.0
 47
0.0
 48
0.0
 49
0.0
140
0.0
141
0.0
142
1.0
143
1.0
 70
  1712
 72
     0
 73
     0
 74
     0
  7

 75
     0
147
1.0
148
0.0
149
0.0
100
AcDbLayout
  1
Model
 70
     1
 71
     0
 10
0.0
 20
0.0
 11
10.74615384615384
 21
8.303846153846151
 12
0.0
 22
0.0
 32
0.0
 14
0.0
 24
0.0
 34
0.0
 15
10.74615384615384
 25
8.303846153846151
 35
0.0
146
0.0
 13
0.0
 23
0.0
 33
0.0
 16
1.0
 26
0.0
 36
0.0
 17
0.0
 27
1.0
 37
0.0
 76
     0
330
1F
331
29
  0
MATERIAL
  5
3D
102
{ACAD_XDICTIONARY
360
316
102
}
102
{ACAD_REACTORS
330
3B
102
}
330
3B
100
AcDbMaterial
  1
ByBlock
 73
     1
 78
     1
172
     1
176
     1
270
     1
274
     1
  0
MATERIAL
  5
3C
102
{ACAD_XDICTIONARY
360
314
102
}
102
{ACAD_REACTORS
330
3B
102
}
330
3B
100
AcDbMaterial
  1
ByLayer
 73
     1
 78
     1
172
     1
176
     1
270
     1
274
     1
  0
MATERIAL
  5
3E
102
{ACAD_XDICTIONARY
360
318
102
}
102
{ACAD_REACTORS
330
3B
102
}
330
3B
100
AcDbMaterial
  1
Global
 73
     1
 78
     1
172
     1
176
     1
270
     1
274
     1
  0
MLEADERSTYLE
  5
2D3
102
{ACAD_REACTORS
330
2C5
102
}
330
2C5
100
AcDbMLeaderStyle
170
     2
171
     1
172
     0
 90
        2
 40
0.0
 41
0.0
173
     1
 91
-1056964608
340
14
 92
       -2
290
     1
 42
2.0
291
     1
 43
0.36
  3
Standard
 44
4.0
300

342
11
174
     1
178
     6
175
     1
176
     0
 93
-1056964608
 45
4.0
292
     0
297
     0
 46
4.0
 94
-1056964608
 47
1.0
 49
1.0
140
1.0
293
     1
141
0.0
294
     1
177
     0
142
1.0
295
     0
296
     0
143
0.125
1001
ACAD_MLEADERVER
1070
     2
  0
MLINESTYLE
  5
18
102
{ACAD_REACTORS
330
17
102
}
330
17
100
AcDbMlineStyle
  2
STANDARD
 70
     0
  3

 62
   256
 51
90.0
 52
90.0
 71
     2
 49
0.5
 62
   256
  6
BYLAYER
 49
-0.5
 62
   256
  6
BYLAYER
  0
ACDBPLACEHOLDER
  5
F
102
{ACAD_REACTORS
330
E
102
}
330
E
  0
SCALE
  5
2A1
102
{ACAD_REACTORS
330
2A0
102
}
330
2A0
100
AcDbScale
 70
     0
300
1:1
140
1.0
141
1.0
290
     1
  0
SCALE
  5
2A2
102
{ACAD_REACTORS
330
2A0
102
}
330
2A0
100
AcDbScale
 70
     0
300
1:2
140
1.0
141
2.0
290
     0
  0
SCALE
  5
2A3
102
{ACAD_REACTORS
330
2A0
102
}
330
2A0
100
AcDbScale
 70
     0
300
1:4
140
1.0
141
4.0
290
     0
  0
SCALE
  5
2A4
102
{ACAD_REACTORS
330
2A0
102
}
330
2A0
100
AcDbScale
 70
     0
300
1:5
140
1.0
141
5.0
290
     0
  0
SCALE
  5
2A5
102
{ACAD_REACTORS
330
2A0
102
}
330
2A0
100
AcDbScale
 70
     0
300
1:8
140
1.0
141
8.0
290
     0
  0
SCALE
  5
2A6
102
{ACAD_REACTORS
330
2A0
102
}
330
2A0
100
AcDbScale
 70
     0
300
1:10
140
1.0
141
10.0
290
     0
  0
SCALE
  5
2A7
102
{ACAD_REACTORS
330
2A0
102
}
330
2A0
100
AcDbScale
 70
     0
300
1:16
140
1.0
141
16.0
290
     0
  0
SCALE
  5
2A8
102
{ACAD_REACTORS
330
2A0
102
}
330
2A0
100
AcDbScale
 70
     0
300
1:20
140
1.0
141
20.0
290
     0
  0
SCALE
  5
2A9
102
{ACAD_REACTORS
330
2A0
102
}
330
2A0
100
AcDbScale
 70
     0
300
1:30
140
1.0
141
30.0
290
     0
  0
SCALE
  5
2AA
102
{ACAD_REACTORS
330
2A0
102
}
330
2A0
100
AcDbScale
 70
     0
300
1:40
140
1.0
141
40.0
290
     0
  0
SCALE
  5
2AB
102
{ACAD_REACTORS
330
2A0
102
}
330
2A0
100
AcDbScale
 70
     0
300
1:50
140
1.0
141
50.0
290
     0
  0
SCALE
  5
2AC
102
{ACAD_REACTORS
330
2A0
102
}
330
2A0
100
AcDbScale
 70
     0
300
1:100
140
1.0
141
100.0
290
     0
  0
SCALE
  5
2AD
102
{ACAD_REACTORS
330
2A0
102
}
330
2A0
100
AcDbScale
 70
     0
300
2:1
140
2.0
141
1.0
290
     0
  0
SCALE
  5
2AE
102
{ACAD_REACTORS
330
2A0
102
}
330
2A0
100
AcDbScale
 70
     0
300
4:1
140
4.0
141
1.0
290
     0
  0
SCALE
  5
2AF
102
{ACAD_REACTORS
330
2A0
102
}
330
2A0
100
AcDbScale
 70
     0
300
8:1
140
8.0
141
1.0
290
     0
  0
SCALE
  5
2B0
102
{ACAD_REACTORS
330
2A0
102
}
330
2A0
100
AcDbScale
 70
     0
300
10:1
140
10.0
141
1.0
290
     0
  0
SCALE
  5
2B1
102
{ACAD_REACTORS
330
2A0
102
}
330
2A0
100
AcDbScale
 70
     0
300
100:1
140
100.0
141
1.0
290
     0
  0
SCALE
  5
2B2
102
{ACAD_REACTORS
330
2A0
102
}
330
2A0
100
AcDbScale
 70
     0
300
1/128" = 1'-0"
140
0.0078125
141
12.0
290
     0
  0
SCALE
  5
2B3
102
{ACAD_REACTORS
330
2A0
102
}
330
2A0
100
AcDbScale
 70
     0
300
1/64" = 1'-0"
140
0.015625
141
12.0
290
     0
  0
SCALE
  5
2B4
102
{ACAD_REACTORS
330
2A0
102
}
330
2A0
100
AcDbScale
 70
     0
300
1/32" = 1'-0"
140
0.03125
141
12.0
290
     0
  0
SCALE
  5
2B5
102
{ACAD_REACTORS
330
2A0
102
}
330
2A0
100
AcDbScale
 70
     0
300
1/16" = 1'-0"
140
0.0625
141
12.0
290
     0
  0
SCALE
  5
2B6
102
{ACAD_REACTORS
330
2A0
102
}
330
2A0
100
AcDbScale
 70
     0
300
3/32" = 1'-0"
140
0.09375
141
12.0
290
     0
  0
SCALE
  5
2B7
102
{ACAD_REACTORS
330
2A0
102
}
330
2A0
100
AcDbScale
 70
     0
300
1/8" = 1'-0"
140
0.125
141
12.0
290
     0
  0
SCALE
  5
2B8
102
{ACAD_REACTORS
330
2A0
102
}
330
2A0
100
AcDbScale
 70
     0
300
3/16" = 1'-0"
140
0.1875
141
12.0
290
     0
  0
SCALE
  5
2B9
102
{ACAD_REACTORS
330
2A0
102
}
330
2A0
100
AcDbScale
 70
     0
300
1/4" = 1'-0"
140
0.25
141
12.0
290
     0
  0
SCALE
  5
2BA
102
{ACAD_REACTORS
330
2A0
102
}
330
2A0
100
AcDbScale
 70
     0
300
3/8" = 1'-0"
140
0.375
141
12.0
290
     0
  0
SCALE
  5
2BB
102
{ACAD_REACTORS
330
2A0
102
}
330
2A0
100
AcDbScale
 70
     0
300
1/2" = 1'-0"
140
0.5
141
12.0
290
     0
  0
SCALE
  5
2BC
102
{ACAD_REACTORS
330
2A0
102
}
330
2A0
100
AcDbScale
 70
     0
300
3/4" = 1'-0"
140
0.75
141
12.0
290
     0
  0
SCALE
  5
2BD
102
{ACAD_REACTORS
330
2A0
102
}
330
2A0
100
AcDbScale
 70
     0
300
1" = 1'-0"
140
1.0
141
12.0
290
     0
  0
SCALE
  5
2BE
102
{ACAD_REACTORS
330
2A0
102
}
330
2A0
100
AcDbScale
 70
     0
300
1-1/2" = 1'-0"
140
1.5
141
12.0
290
     0
  0
SCALE
  5
2BF
102
{ACAD_REACTORS
330
2A0
102
}
330
2A0
100
AcDbScale
 70
     0
300
3" = 1'-0"
140
3.0
141
12.0
290
     0
  0
SCALE
  5
2C0
102
{ACAD_REACTORS
330
2A0
102
}
330
2A0
100
AcDbScale
 70
     0
300
6" = 1'-0"
140
6.0
141
12.0
290
     0
  0
SCALE
  5
2C1
102
{ACAD_REACTORS
330
2A0
102
}
330
2A0
100
AcDbScale
 70
     0
300
1'-0" = 1'-0"
140
12.0
141
12.0
290
     0
  0
TABLESTYLE
  5
2D2
102
{ACAD_XDICTIONARY
360
2E8
102
}
102
{ACAD_REACTORS
330
2C4
102
}
330
2C4
100
AcDbTableStyle
  3
Standard
 70
     0
 71
     0
 40
1.5
 41
1.5
280
     0
281
     0
  7
STANDARD
140
4.5
170
     2
 62
     0
 63
     7
283
     0
274
    -2
284
     1
 64
     0
275
    -2
285
     1
 65
     0
276
    -2
286
     1
 66
     0
277
    -2
287
     1
 67
     0
278
    -2
288
     1
 68
     0
279
    -2
289
     1
 69
     0
  7
STANDARD
140
6.0
170
     5
 62
     0
 63
     7
283
     0
274
    -2
284
     1
 64
     0
275
    -2
285
     1
 65
     0
276
    -2
286
     1
 66
     0
277
    -2
287
     1
 67
     0
278
    -2
288
     1
 68
     0
279
    -2
289
     1
 69
     0
  7
STANDARD
140
4.5
170
     5
 62
     0
 63
     7
283
     0
274
    -2
284
     1
 64
     0
275
    -2
285
     1
 65
     0
276
    -2
286
     1
 66
     0
277
    -2
287
     1
 67
     0
278
    -2
288
     1
 68
     0
279
    -2
289
     1
 69
     0
  0
VISUALSTYLE
  5
2F
102
{ACAD_XDICTIONARY
360
2FC
102
}
102
{ACAD_REACTORS
330
2A
102
}
330
2A
100
AcDbVisualStyle
  2
2dWireframe
 70
     4
 71
     0
 72
     2
 73
     0
 90
        0
 40
-0.6
 41
-30.0
 62
     5
 63
     7
 74
     1
 91
        4
 64
     7
 65
   257
 75
     1
175
     1
 42
1.0
 92
        0
 66
   257
 43
1.0
 76
     1
 77
     6
 78
     2
 67
     7
 79
     5
170
     0
171
     0
290
     0
174
     0
 93
        1
 44
0.0
173
     0
291
     0
 45
0.0
1001
ACAD
1000
AcDbSavedByObjectVersion
1070
     0
  0
VISUALSTYLE
  5
31
102
{ACAD_XDICTIONARY
360
300
102
}
102
{ACAD_REACTORS
330
2A
102
}
330
2A
100
AcDbVisualStyle
  2
3D Hidden
 70
     6
 71
     1
 72
     2
 73
     2
 90
        0
 40
-0.6
 41
-30.0
 62
     5
 63
     7
 74
     2
 91
        2
 64
     7
 65
   257
 75
     2
175
     1
 42
40.0
 92
        0
 66
   257
 43
1.0
 76
     1
 77
     6
 78
     2
 67
     7
 79
     3
170
     0
171
     0
290
     0
174
     0
 93
        1
 44
0.0
173
     0
291
     0
 45
0.0
1001
ACAD
1000
AcDbSavedByObjectVersion
1070
     0
  0
VISUALSTYLE
  5
30
102
{ACAD_XDICTIONARY
360
2FE
102
}
102
{ACAD_REACTORS
330
2A
102
}
330
2A
100
AcDbVisualStyle
  2
3dWireframe
 70
     5
 71
     0
 72
     2
 73
     0
 90
        0
 40
-0.6
 41
-30.0
 62
     5
 63
     7
 74
     1
 91
        4
 64
     7
 65
   257
 75
     1
175
     1
 42
1.0
 92
        0
 66
   257
 43
1.0
 76
     1
 77
     6
 78
     2
 67
     7
 79
     5
170
     0
171
     0
290
     0
174
     0
 93
        1
 44
0.0
173
     0
291
     0
 45
0.0
1001
ACAD
1000
AcDbSavedByObjectVersion
1070
     0
  0
VISUALSTYLE
  5
32
102
{ACAD_XDICTIONARY
360
302
102
}
102
{ACAD_REACTORS
330
2A
102
}
330
2A
100
AcDbVisualStyle
  2
Basic
 70
     7
 71
     1
 72
     0
 73
     1
 90
        0
 40
-0.6
 41
-30.0
 62
     5
 63
     7
 74
     0
 91
        4
 64
     7
 65
   257
 75
     1
175
     1
 42
1.0
 92
        8
 66
     7
 43
1.0
 76
     1
 77
     6
 78
     2
 67
     7
 79
     5
170
     0
171
     0
290
     0
174
     0
 93
        1
 44
0.0
173
     0
291
     1
 45
0.0
1001
ACAD
1000
AcDbSavedByObjectVersion
1070
     0
  0
VISUALSTYLE
  5
36
102
{ACAD_XDICTIONARY
360
30A
102
}
102
{ACAD_REACTORS
330
2A
102
}
330
2A
100
AcDbVisualStyle
  2
Brighten
 70
    12
 71
     2
 72
     2
 73
     0
 90
        0
 40
-0.6
 41
-30.0
 62
     5
 63
     7
 74
     1
 91
        4
 64
     7
 65
   257
 75
     1
175
     1
 42
1.0
 92
        8
 66
     7
 43
1.0
 76
     1
 77
     6
 78
     2
 67
     7
 79
     5
170
     0
171
     0
290
     0
174
     0
 93
        1
 44
50.0
173
     0
291
     1
 45
0.0
1001
ACAD
1000
AcDbSavedByObjectVersion
1070
     0
  0
VISUALSTYLE
  5
3A
102
{ACAD_XDICTIONARY
360
312
102
}
102
{ACAD_REACTORS
330
2A
102
}
330
2A
100
AcDbVisualStyle
  2
ColorChange
 70
    16
 71
     2
 72
     2
 73
     3
 90
        0
 40
-0.6
 41
-30.0
 62
     5
 63
     8
 74
     1
 91
        4
 64
     7
 65
   257
 75
     1
175
     1
 42
1.0
 92
        8
 66
     8
 43
1.0
 76
     1
 77
     6
 78
     2
 67
     7
 79
     5
170
     0
171
     0
290
     0
174
     0
 93
        1
 44
0.0
173
     0
291
     1
 45
0.0
1001
ACAD
1000
AcDbSavedByObjectVersion
1070
     0
  0
VISUALSTYLE
  5
34
102
{ACAD_XDICTIONARY
360
306
102
}
102
{ACAD_REACTORS
330
2A
102
}
330
2A
100
AcDbVisualStyle
  2
Conceptual
 70
     9
 71
     3
 72
     2
 73
     0
 90
        0
 40
-0.6
 41
-30.0
 62
     5
 63
     7
 74
     2
 91
        2
 64
     7
 65
   257
 75
     1
175
     1
 42
40.0
 92
        8
 66
     7
 43
1.0
 76
     1
 77
     6
 78
     2
 67
     7
 79
     3
170
     0
171
     0
290
     0
174
     0
 93
        1
 44
0.0
173
     0
291
     0
 45
0.0
1001
ACAD
1000
AcDbSavedByObjectVersion
1070
     0
  0
VISUALSTYLE
  5
35
102
{ACAD_XDICTIONARY
360
308
102
}
102
{ACAD_REACTORS
330
2A
102
}
330
2A
100
AcDbVisualStyle
  2
Dim
 70
    11
 71
     2
 72
     2
 73
     0
 90
        0
 40
-0.6
 41
-30.0
 62
     5
 63
     7
 74
     1
 91
        4
 64
     7
 65
   257
 75
     1
175
     1
 42
1.0
 92
        8
 66
     7
 43
1.0
 76
     1
 77
     6
 78
     2
 67
     7
 79
     5
170
     0
171
     0
290
     0
174
     0
 93
        1
 44
-50.0
173
     0
291
     1
 45
0.0
1001
ACAD
1000
AcDbSavedByObjectVersion
1070
     0
  0
VISUALSTYLE
  5
2D0
102
{ACAD_XDICTIONARY
360
32C
102
}
102
{ACAD_REACTORS
330
2A
102
}
330
2A
100
AcDbVisualStyle
  2
EdgeColorOff
 70
    22
 71
     2
 72
     2
 73
     0
 90
        0
 40
-0.6
 41
-30.0
 62
     5
 63
     7
 74
     1
 91
        4
 64
     7
 65
   257
 75
     1
175
     1
 42
1.0
 92
        8
 66
     7
 43
1.0
 76
     1
 77
     6
 78
     2
 67
     7
 79
     5
170
     0
171
     0
290
     0
174
     0
 93
        1
 44
0.0
173
     0
291
     1
 45
0.0
1001
ACAD
1000
AcDbSavedByObjectVersion
1070
     0
  0
VISUALSTYLE
  5
39
102
{ACAD_XDICTIONARY
360
310
102
}
102
{ACAD_REACTORS
330
2A
102
}
330
2A
100
AcDbVisualStyle
  2
Facepattern
 70
    15
 71
     2
 72
     2
 73
     0
 90
        0
 40
-0.6
 41
-30.0
 62
     5
 63
     7
 74
     1
 91
        4
 64
     7
 65
   257
 75
     1
175
     1
 42
1.0
 92
        8
 66
     7
 43
1.0
 76
     1
 77
     6
 78
     2
 67
     7
 79
     5
170
     0
171
     0
290
     0
174
     0
 93
        1
 44
0.0
173
     0
291
     1
 45
0.0
1001
ACAD
1000
AcDbSavedByObjectVersion
1070
     0
  0
VISUALSTYLE
  5
2B
102
{ACAD_XDICTIONARY
360
2F4
102
}
102
{ACAD_REACTORS
330
2A
102
}
330
2A
100
AcDbVisualStyle
  2
Flat
 70
     0
 71
     2
 72
     1
 73
     1
 90
        2
 40
-0.6
 41
30.0
 62
     5
 63
     7
 74
     0
 91
        4
 64
     7
 65
   257
 75
     1
175
     1
 42
1.0
 92
        8
 66
     7
 43
1.0
 76
     1
 77
     6
 78
     2
 67
     7
 79
     5
170
     0
171
     0
290
     0
174
     0
 93
       13
 44
0.0
173
     0
291
     1
 45
0.0
1001
ACAD
1000
AcDbSavedByObjectVersion
1070
     0
  0
VISUALSTYLE
  5
2C
102
{ACAD_XDICTIONARY
360
2F6
102
}
102
{ACAD_REACTORS
330
2A
102
}
330
2A
100
AcDbVisualStyle
  2
FlatWithEdges
 70
     1
 71
     2
 72
     1
 73
     1
 90
        2
 40
-0.6
 41
30.0
 62
     5
 63
     7
 74
     1
 91
        4
 64
     7
 65
   257
 75
     1
175
     1
 42
1.0
 92
        0
 66
   257
 43
1.0
 76
     1
 77
     6
 78
     2
 67
     7
 79
     5
170
     0
171
     0
290
     0
174
     0
 93
       13
 44
0.0
173
     0
291
     1
 45
0.0
1001
ACAD
1000
AcDbSavedByObjectVersion
1070
     0
  0
VISUALSTYLE
  5
2D
102
{ACAD_XDICTIONARY
360
2F8
102
}
102
{ACAD_REACTORS
330
2A
102
}
330
2A
100
AcDbVisualStyle
  2
Gouraud
 70
     2
 71
     2
 72
     2
 73
     1
 90
        2
 40
-0.6
 41
30.0
 62
     5
 63
     7
 74
     0
 91
        4
 64
     7
 65
   257
 75
     1
175
     1
 42
1.0
 92
        0
 66
     7
 43
1.0
 76
     1
 77
     6
 78
     2
 67
     7
 79
     5
170
     0
171
     0
290
     0
174
     0
 93
       13
 44
0.0
173
     0
291
     1
 45
0.0
1001
ACAD
1000
AcDbSavedByObjectVersion
1070
     0
  0
VISUALSTYLE
  5
2E
102
{ACAD_XDICTIONARY
360
2FA
102
}
102
{ACAD_REACTORS
330
2A
102
}
330
2A
100
AcDbVisualStyle
  2
GouraudWithEdges
 70
     3
 71
     2
 72
     2
 73
     1
 90
        2
 40
-0.6
 41
30.0
 62
     5
 63
     7
 74
     1
 91
        4
 64
     7
 65
   257
 75
     1
175
     1
 42
1.0
 92
        0
 66
   257
 43
1.0
 76
     1
 77
     6
 78
     2
 67
     7
 79
     5
170
     0
171
     0
290
     0
174
     0
 93
       13
 44
0.0
173
     0
291
     1
 45
0.0
1001
ACAD
1000
AcDbSavedByObjectVersion
1070
     0
  0
VISUALSTYLE
  5
2C8
102
{ACAD_XDICTIONARY
360
31C
102
}
102
{ACAD_REACTORS
330
2A
102
}
330
2A
100
AcDbVisualStyle
  2
Hidden
 70
     6
 71
     1
 72
     2
 73
     2
 90
        0
 40
-0.6
 41
-30.0
 62
     5
 63
     7
 74
     2
 91
        2
 64
     7
 65
   257
 75
     2
175
     1
 42
40.0
 92
        0
 66
   257
 43
1.0
 76
     1
 77
     6
 78
     2
 67
     7
 79
     3
170
     0
171
     0
290
     0
174
     0
 93
        1
 44
0.0
173
     0
291
     0
 45
0.0
1001
ACAD
1000
AcDbSavedByObjectVersion
1070
     0
  0
VISUALSTYLE
  5
2CE
102
{ACAD_XDICTIONARY
360
328
102
}
102
{ACAD_REACTORS
330
2A
102
}
330
2A
100
AcDbVisualStyle
  2
JitterOff
 70
    20
 71
     2
 72
     2
 73
     0
 90
        0
 40
-0.6
 41
-30.0
 62
     5
 63
     7
 74
     1
 91
        4
 64
     7
 65
   257
 75
     1
175
     1
 42
1.0
 92
       10
 66
     7
 43
1.0
 76
     1
 77
     6
 78
     2
 67
     7
 79
     5
170
     0
171
     0
290
     0
174
     0
 93
        1
 44
0.0
173
     0
291
     1
 45
0.0
1001
ACAD
1000
AcDbSavedByObjectVersion
1070
     0
  0
VISUALSTYLE
  5
38
102
{ACAD_XDICTIONARY
360
30E
102
}
102
{ACAD_REACTORS
330
2A
102
}
330
2A
100
AcDbVisualStyle
  2
Linepattern
 70
    14
 71
     2
 72
     2
 73
     0
 90
        0
 40
-0.6
 41
-30.0
 62
     5
 63
     7
 74
     1
 91
        4
 64
     7
 65
   257
 75
     7
175
     7
 42
1.0
 92
        8
 66
     7
 43
1.0
 76
     1
 77
     6
 78
     2
 67
     7
 79
     5
170
     0
171
     0
290
     0
174
     0
 93
        1
 44
0.0
173
     0
291
     1
 45
0.0
1001
ACAD
1000
AcDbSavedByObjectVersion
1070
     0
  0
VISUALSTYLE
  5
2CF
102
{ACAD_XDICTIONARY
360
32A
102
}
102
{ACAD_REACTORS
330
2A
102
}
330
2A
100
AcDbVisualStyle
  2
OverhangOff
 70
    21
 71
     2
 72
     2
 73
     0
 90
        0
 40
-0.6
 41
-30.0
 62
     5
 63
     7
 74
     1
 91
        4
 64
     7
 65
   257
 75
     1
175
     1
 42
1.0
 92
        9
 66
     7
 43
1.0
 76
     1
 77
     6
 78
     2
 67
     7
 79
     5
170
     0
171
     0
290
     0
174
     0
 93
        1
 44
0.0
173
     0
291
     1
 45
0.0
1001
ACAD
1000
AcDbSavedByObjectVersion
1070
     0
  0
VISUALSTYLE
  5
33
102
{ACAD_XDICTIONARY
360
304
102
}
102
{ACAD_REACTORS
330
2A
102
}
330
2A
100
AcDbVisualStyle
  2
Realistic
 70
     8
 71
     2
 72
     2
 73
     0
 90
        0
 40
-0.6
 41
-30.0
 62
     5
 63
     7
 74
     1
 91
        0
 64
     7
 65
   257
 75
     1
175
     1
 42
1.0
 92
        8
 66
     8
 43
1.0
 76
     1
 77
     6
 78
     2
 67
     7
 79
     5
170
     0
171
     0
290
     0
174
     0
 93
       13
 44
0.0
173
     0
291
     0
 45
0.0
1001
ACAD
1000
AcDbSavedByObjectVersion
1070
     0
  0
VISUALSTYLE
  5
2CD
102
{ACAD_XDICTIONARY
360
326
102
}
102
{ACAD_REACTORS
330
2A
102
}
330
2A
100
AcDbVisualStyle
  2
Shaded
 70
    27
 71
     2
 72
     2
 73
     1
 90
        2
 40
-0.6
 41
30.0
 62
     5
 63
     7
 74
     0
 91
        4
 64
     7
 65
   257
 75
     1
175
     1
 42
1.0
 92
        8
 66
   257
 43
1.0
 76
     1
 77
     6
 78
     2
 67
     8
 79
     3
170
     0
171
     0
290
     0
174
     0
 93
        5
 44
0.0
173
     0
291
     0
 45
0.0
1001
ACAD
1000
AcDbSavedByObjectVersion
1070
     0
  0
VISUALSTYLE
  5
2CC
102
{ACAD_XDICTIONARY
360
324
102
}
102
{ACAD_REACTORS
330
2A
102
}
330
2A
100
AcDbVisualStyle
  2
Shaded with edges
 70
    26
 71
     2
 72
     2
 73
     1
 90
        2
 40
-0.6
 41
30.0
 62
     5
 63
     7
 74
     1
 91
       10
 64
     7
 65
   257
 75
     2
175
     1
 42
1.0
 92
        8
 66
   257
 43
1.0
 76
     1
 77
     6
 78
     2
 67
     7
 79
     3
170
     0
171
     0
290
     0
174
     0
 93
        5
 44
0.0
173
     0
291
     0
 45
0.0
1001
ACAD
1000
AcDbSavedByObjectVersion
1070
     0
  0
VISUALSTYLE
  5
2C9
102
{ACAD_XDICTIONARY
360
31E
102
}
102
{ACAD_REACTORS
330
2A
102
}
330
2A
100
AcDbVisualStyle
  2
Shades of Gray
 70
    23
 71
     2
 72
     2
 73
     3
 90
        0
 40
-0.6
 41
-30.0
 62
     5
 63
     7
 74
     2
 91
        2
 64
     7
 65
     7
 75
     1
175
     1
 42
40.0
 92
        8
 66
     7
 43
1.0
 76
     1
 77
     6
 78
     2
 67
     7
 79
     3
170
     0
171
     0
290
     0
174
     0
 93
        1
 44
0.0
173
     0
291
     0
 45
0.0
1001
ACAD
1000
AcDbSavedByObjectVersion
1070
     0
  0
VISUALSTYLE
  5
2CA
102
{ACAD_XDICTIONARY
360
320
102
}
102
{ACAD_REACTORS
330
2A
102
}
330
2A
100
AcDbVisualStyle
  2
Sketchy
 70
    24
 71
     1
 72
     2
 73
     2
 90
        0
 40
-0.6
 41
-30.0
 62
     5
 63
     7
 74
     2
 91
        2
 64
     7
 65
     7
 75
     1
175
     1
 42
40.0
 92
       11
 66
     7
 43
1.0
 76
     1
 77
     6
 78
     2
 67
     7
 79
     6
170
     0
171
     0
290
     0
174
     0
 93
        1
 44
0.0
173
     0
291
     0
 45
0.0
1001
ACAD
1000
AcDbSavedByObjectVersion
1070
     0
  0
VISUALSTYLE
  5
37
102
{ACAD_XDICTIONARY
360
30C
102
}
102
{ACAD_REACTORS
330
2A
102
}
330
2A
100
AcDbVisualStyle
  2
Thicken
 70
    13
 71
     2
 72
     2
 73
     0
 90
        0
 40
-0.6
 41
-30.0
 62
     5
 63
     7
 74
     1
 91
        4
 64
     7
 65
   257
 75
     1
175
     1
 42
1.0
 92
       12
 66
     7
 43
1.0
 76
     1
 77
     6
 78
     2
 67
     7
 79
     5
170
     0
171
     0
290
     0
174
     0
 93
        1
 44
0.0
173
     0
291
     1
 45
0.0
1001
ACAD
1000
AcDbSavedByObjectVersion
1070
     0
  0
VISUALSTYLE
  5
2C7
102
{ACAD_XDICTIONARY
360
31A
102
}
102
{ACAD_REACTORS
330
2A
102
}
330
2A
100
AcDbVisualStyle
  2
Wireframe
 70
     5
 71
     0
 72
     2
 73
     0
 90
        0
 40
-0.6
 41
-30.0
 62
     5
 63
     7
 74
     1
 91
        4
 64
     7
 65
   257
 75
     1
175
     1
 42
1.0
 92
        0
 66
   257
 43
1.0
 76
     1
 77
     6
 78
     2
 67
     7
 79
     3
170
     0
171
     0
290
     0
174
     0
 93
        1
 44
0.0
173
     0
291
     0
 45
0.0
1001
ACAD
1000
AcDbSavedByObjectVersion
1070
     0
  0
VISUALSTYLE
  5
2CB
102
{ACAD_XDICTIONARY
360
322
102
}
102
{ACAD_REACTORS
330
2A
102
}
330
2A
100
AcDbVisualStyle
  2
X-Ray
 70
    25
 71
     2
 72
     2
 73
     1
 90
        1
 40
0.5
 41
-30.0
 62
     5
 63
     7
 74
     1
 91
        0
 64
     7
 65
   257
 75
     1
175
     1
 42
1.0
 92
        8
 66
     7
 43
1.0
 76
     1
 77
     6
 78
     2
 67
     7
 79
     3
170
     0
171
     0
290
     0
174
     0
 93
       13
 44
0.0
173
     0
291
     0
 45
0.0
1001
ACAD
1000
AcDbSavedByObjectVersion
1070
     0
  0
DICTIONARYVAR
  5
2C3
102
{ACAD_REACTORS
330
2C2
102
}
330
2C2
100
DictionaryVariables
280
     0
  1
1:1
  0
DICTIONARYVAR
  5
2DB
102
{ACAD_REACTORS
330
2C2
102
}
330
2C2
100
DictionaryVariables
280
     0
  1
STANDARD
  0
DICTIONARYVAR
  5
2DA
102
{ACAD_REACTORS
330
2C2
102
}
330
2C2
100
DictionaryVariables
280
     0
  1
STANDARD
  0
DICTIONARYVAR
  5
2E4
102
{ACAD_REACTORS
330
2C2
102
}
330
2C2
100
DictionaryVariables
280
     0
  1
2
  0
DICTIONARYVAR
  5
2E3
102
{ACAD_REACTORS
330
2C2
102
}
330
2C2
100
DictionaryVariables
280
     0
  1
2
  0
DICTIONARYVAR
  5
2E2
102
{ACAD_REACTORS
330
2C2
102
}
330
2C2
100
DictionaryVariables
280
     0
  1
1
  0
DICTIONARYVAR
  5
2E1
102
{ACAD_REACTORS
330
2C2
102
}
330
2C2
100
DictionaryVariables
280
     0
  1
0
  0
DICTIONARYVAR
  5
2DE
102
{ACAD_REACTORS
330
2C2
102
}
330
2C2
100
DictionaryVariables
280
     0
  1
0
  0
DICTIONARYVAR
  5
2DF
102
{ACAD_REACTORS
330
2C2
102
}
330
2C2
100
DictionaryVariables
280
     0
  1
0
  0
DICTIONARYVAR
  5
2DD
102
{ACAD_REACTORS
330
2C2
102
}
330
2C2
100
DictionaryVariables
280
     0
  1
2
  0
DICTIONARYVAR
  5
2DC
102
{ACAD_REACTORS
330
2C2
102
}
330
2C2
100
DictionaryVariables
280
     0
  1
1
  0
DICTIONARYVAR
  5
2E6
102
{ACAD_REACTORS
330
2C2
102
}
330
2C2
100
DictionaryVariables
280
     0
  1
80.000000
  0
DICTIONARYVAR
  5
2E5
102
{ACAD_REACTORS
330
2C2
102
}
330
2C2
100
DictionaryVariables
280
     0
  1
5.000000
  0
DICTIONARYVAR
  5
2E0
102
{ACAD_REACTORS
330
2C2
102
}
330
2C2
100
DictionaryVariables
280
     0
  1
127
  0
DICTIONARYVAR
  5
2E7
102
{ACAD_REACTORS
330
2C2
102
}
330
2C2
100
DictionaryVariables
280
     0
  1
2
  0
DICTIONARY
  5
2EE
330
1E
100
AcDbDictionary
280
     1
281
     1
  3
ACAD_XREC_ROUNDTRIP
360
2EF
  0
DICTIONARY
  5
2F2
330
26
100
AcDbDictionary
280
     1
281
     1
  3
ACAD_XREC_ROUNDTRIP
360
2F3
  0
DICTIONARY
  5
2F0
330
22
100
AcDbDictionary
280
     1
281
     1
  3
ACAD_XREC_ROUNDTRIP
360
2F1
  0
DICTIONARY
  5
316
330
3D
100
AcDbDictionary
280
     1
281
     1
  3
ACAD_XREC_ROUNDTRIP
360
317
  0
DICTIONARY
  5
314
330
3C
100
AcDbDictionary
280
     1
281
     1
  3
ACAD_XREC_ROUNDTRIP
360
315
  0
DICTIONARY
  5
318
330
3E
100
AcDbDictionary
280
     1
281
     1
  3
ACAD_XREC_ROUNDTRIP
360
319
  0
DICTIONARY
  5
2E8
330
2D2
100
AcDbDictionary
280
     1
281
     1
  3
ACAD_ROUNDTRIP_2008_TABLESTYLE_CELLSTYLEMAP
360
2E9
  3
ACAD_XREC_ROUNDTRIP
360
32E
  0
DICTIONARY
  5
2FC
330
2F
100
AcDbDictionary
280
     1
281
     1
  3
ACAD_XREC_ROUNDTRIP
360
2FD
  0
DICTIONARY
  5
300
330
31
100
AcDbDictionary
280
     1
281
     1
  3
ACAD_XREC_ROUNDTRIP
360
301
  0
DICTIONARY
  5
2FE
330
30
100
AcDbDictionary
280
     1
281
     1
  3
ACAD_XREC_ROUNDTRIP
360
2FF
  0
DICTIONARY
  5
302
330
32
100
AcDbDictionary
280
     1
281
     1
  3
ACAD_XREC_ROUNDTRIP
360
303
  0
DICTIONARY
  5
30A
330
36
100
AcDbDictionary
280
     1
281
     1
  3
ACAD_XREC_ROUNDTRIP
360
30B
  0
DICTIONARY
  5
312
330
3A
100
AcDbDictionary
280
     1
281
     1
  3
ACAD_XREC_ROUNDTRIP
360
313
  0
DICTIONARY
  5
306
330
34
100
AcDbDictionary
280
     1
281
     1
  3
ACAD_XREC_ROUNDTRIP
360
307
  0
DICTIONARY
  5
308
330
35
100
AcDbDictionary
280
     1
281
     1
  3
ACAD_XREC_ROUNDTRIP
360
309
  0
DICTIONARY
  5
32C
330
2D0
100
AcDbDictionary
280
     1
281
     1
  3
ACAD_XREC_ROUNDTRIP
360
32D
  0
DICTIONARY
  5
310
330
39
100
AcDbDictionary
280
     1
281
     1
  3
ACAD_XREC_ROUNDTRIP
360
311
  0
DICTIONARY
  5
2F4
330
2B
100
AcDbDictionary
280
     1
281
     1
  3
ACAD_XREC_ROUNDTRIP
360
2F5
  0
DICTIONARY
  5
2F6
330
2C
100
AcDbDictionary
280
     1
281
     1
  3
ACAD_XREC_ROUNDTRIP
360
2F7
  0
DICTIONARY
  5
2F8
330
2D
100
AcDbDictionary
280
     1
281
     1
  3
ACAD_XREC_ROUNDTRIP
360
2F9
  0
DICTIONARY
  5
2FA
330
2E
100
AcDbDictionary
280
     1
281
     1
  3
ACAD_XREC_ROUNDTRIP
360
2FB
  0
DICTIONARY
  5
31C
330
2C8
100
AcDbDictionary
280
     1
281
     1
  3
ACAD_XREC_ROUNDTRIP
360
31D
  0
DICTIONARY
  5
328
330
2CE
100
AcDbDictionary
280
     1
281
     1
  3
ACAD_XREC_ROUNDTRIP
360
329
  0
DICTIONARY
  5
30E
330
38
100
AcDbDictionary
280
     1
281
     1
  3
ACAD_XREC_ROUNDTRIP
360
30F
  0
DICTIONARY
  5
32A
330
2CF
100
AcDbDictionary
280
     1
281
     1
  3
ACAD_XREC_ROUNDTRIP
360
32B
  0
DICTIONARY
  5
304
330
33
100
AcDbDictionary
280
     1
281
     1
  3
ACAD_XREC_ROUNDTRIP
360
305
  0
DICTIONARY
  5
326
330
2CD
100
AcDbDictionary
280
     1
281
     1
  3
ACAD_XREC_ROUNDTRIP
360
327
  0
DICTIONARY
  5
324
330
2CC
100
AcDbDictionary
280
     1
281
     1
  3
ACAD_XREC_ROUNDTRIP
360
325
  0
DICTIONARY
  5
31E
330
2C9
100
AcDbDictionary
280
     1
281
     1
  3
ACAD_XREC_ROUNDTRIP
360
31F
  0
DICTIONARY
  5
320
330
2CA
100
AcDbDictionary
280
     1
281
     1
  3
ACAD_XREC_ROUNDTRIP
360
321
  0
DICTIONARY
  5
30C
330
37
100
AcDbDictionary
280
     1
281
     1
  3
ACAD_XREC_ROUNDTRIP
360
30D
  0
DICTIONARY
  5
31A
330
2C7
100
AcDbDictionary
280
     1
281
     1
  3
ACAD_XREC_ROUNDTRIP
360
31B
  0
DICTIONARY
  5
322
330
2CB
100
AcDbDictionary
280
     1
281
     1
  3
ACAD_XREC_ROUNDTRIP
360
323
  0
XRECORD
  5
2EF
102
{ACAD_REACTORS
330
2EE
102
}
330
2EE
100
AcDbXrecord
280
     1
102
SHADEPLOT
 70
     0
102
SHADEPLOTRESLEVEL
 70
     2
102
SHADEPLOTCUSTOMDPI
 70
   300
  0
XRECORD
  5
2F3
102
{ACAD_REACTORS
330
2F2
102
}
330
2F2
100
AcDbXrecord
280
     1
102
SHADEPLOT
 70
     0
102
SHADEPLOTRESLEVEL
 70
     2
102
SHADEPLOTCUSTOMDPI
 70
   300
  0
XRECORD
  5
2F1
102
{ACAD_REACTORS
330
2F0
102
}
330
2F0
100
AcDbXrecord
280
     1
102
SHADEPLOT
 70
     0
102
SHADEPLOTRESLEVEL
 70
     2
102
SHADEPLOTCUSTOMDPI
 70
   300
  0
XRECORD
  5
317
102
{ACAD_REACTORS
330
316
102
}
330
316
100
AcDbXrecord
280
     1
102
MATERIAL
148
0.0
149
0.0
149
0.0
 93
        0
 94
      127
282
     0
 72
     1
 77
     1
171
     1
175
     1
179
     1
273
     0
  0
XRECORD
  5
315
102
{ACAD_REACTORS
330
314
102
}
330
314
100
AcDbXrecord
280
     1
102
MATERIAL
148
0.0
149
0.0
149
0.0
 93
        0
 94
      127
282
     0
 72
     1
 77
     1
171
     1
175
     1
179
     1
273
     0
  0
XRECORD
  5
319
102
{ACAD_REACTORS
330
318
102
}
330
318
100
AcDbXrecord
280
     1
102
MATERIAL
148
0.0
149
0.0
149
0.0
 93
        0
 94
      127
282
     0
 72
     1
 77
     1
171
     1
175
     1
179
     1
273
     0
  0
CELLSTYLEMAP
  5
2E9
102
{ACAD_REACTORS
330
2E8
102
}
330
2E8
100
AcDbCellStyleMap
 90
        3
300
CELLSTYLE
  1
TABLEFORMAT_BEGIN
 90
        5
170
     1
 91
        0
 92
    32768
 62
   257
 93
        1
300
CONTENTFORMAT
  1
CONTENTFORMAT_BEGIN
 90
        0
 91
        0
 92
      512
 93
        0
300

 40
0.0
140
1.0
 94
        5
 62
     0
340
11
144
6.0
309
CONTENTFORMAT_END
171
     1
301
MARGIN
  1
CELLMARGIN_BEGIN
 40
1.5
 40
1.5
 40
1.5
 40
1.5
 40
4.5
 40
4.5
309
CELLMARGIN_END
 94
        6
 95
        1
302
GRIDFORMAT
  1
GRIDFORMAT_BEGIN
 90
        0
 91
        1
 62
     0
 92
       -2
340
0
 93
        0
 40
1.125
309
GRIDFORMAT_END
 95
        2
302
GRIDFORMAT
  1
GRIDFORMAT_BEGIN
 90
        0
 91
        1
 62
     0
 92
       -2
340
0
 93
        0
 40
1.125
309
GRIDFORMAT_END
 95
        4
302
GRIDFORMAT
  1
GRIDFORMAT_BEGIN
 90
        0
 91
        1
 62
     0
 92
       -2
340
0
 93
        0
 40
1.125
309
GRIDFORMAT_END
 95
        8
302
GRIDFORMAT
  1
GRIDFORMAT_BEGIN
 90
        0
 91
        1
 62
     0
 92
       -2
340
0
 93
        0
 40
1.125
309
GRIDFORMAT_END
 95
       16
302
GRIDFORMAT
  1
GRIDFORMAT_BEGIN
 90
        0
 91
        1
 62
     0
 92
       -2
340
0
 93
        0
 40
1.125
309
GRIDFORMAT_END
 95
       32
302
GRIDFORMAT
  1
GRIDFORMAT_BEGIN
 90
        0
 91
        1
 62
     0
 92
       -2
340
0
 93
        0
 40
1.125
309
GRIDFORMAT_END
309
TABLEFORMAT_END
  1
CELLSTYLE_BEGIN
 90
        1
 91
        1
300
_TITLE
309
CELLSTYLE_END
300
CELLSTYLE
  1
TABLEFORMAT_BEGIN
 90
        5
170
     1
 91
        0
 92
        0
 62
   257
 93
        1
300
CONTENTFORMAT
  1
CONTENTFORMAT_BEGIN
 90
        0
 91
        0
 92
      512
 93
        0
300

 40
0.0
140
1.0
 94
        5
 62
     0
340
11
144
4.5
309
CONTENTFORMAT_END
171
     1
301
MARGIN
  1
CELLMARGIN_BEGIN
 40
1.5
 40
1.5
 40
1.5
 40
1.5
 40
4.5
 40
4.5
309
CELLMARGIN_END
 94
        6
 95
        1
302
GRIDFORMAT
  1
GRIDFORMAT_BEGIN
 90
        0
 91
        1
 62
     0
 92
       -2
340
0
 93
        0
 40
1.125
309
GRIDFORMAT_END
 95
        2
302
GRIDFORMAT
  1
GRIDFORMAT_BEGIN
 90
        0
 91
        1
 62
     0
 92
       -2
340
0
 93
        0
 40
1.125
309
GRIDFORMAT_END
 95
        4
302
GRIDFORMAT
  1
GRIDFORMAT_BEGIN
 90
        0
 91
        1
 62
     0
 92
       -2
340
0
 93
        0
 40
1.125
309
GRIDFORMAT_END
 95
        8
302
GRIDFORMAT
  1
GRIDFORMAT_BEGIN
 90
        0
 91
        1
 62
     0
 92
       -2
340
0
 93
        0
 40
1.125
309
GRIDFORMAT_END
 95
       16
302
GRIDFORMAT
  1
GRIDFORMAT_BEGIN
 90
        0
 91
        1
 62
     0
 92
       -2
340
0
 93
        0
 40
1.125
309
GRIDFORMAT_END
 95
       32
302
GRIDFORMAT
  1
GRIDFORMAT_BEGIN
 90
        0
 91
        1
 62
     0
 92
       -2
340
0
 93
        0
 40
1.125
309
GRIDFORMAT_END
309
TABLEFORMAT_END
  1
CELLSTYLE_BEGIN
 90
        2
 91
        1
300
_HEADER
309
CELLSTYLE_END
300
CELLSTYLE
  1
TABLEFORMAT_BEGIN
 90
        5
170
     1
 91
        0
 92
        0
 62
   257
 93
        1
300
CONTENTFORMAT
  1
CONTENTFORMAT_BEGIN
 90
        0
 91
        0
 92
      512
 93
        0
300

 40
0.0
140
1.0
 94
        2
 62
     0
340
11
144
4.5
309
CONTENTFORMAT_END
171
     1
301
MARGIN
  1
CELLMARGIN_BEGIN
 40
1.5
 40
1.5
 40
1.5
 40
1.5
 40
4.5
 40
4.5
309
CELLMARGIN_END
 94
        6
 95
        1
302
GRIDFORMAT
  1
GRIDFORMAT_BEGIN
 90
        0
 91
        1
 62
     0
 92
       -2
340
0
 93
        0
 40
1.125
309
GRIDFORMAT_END
 95
        2
302
GRIDFORMAT
  1
GRIDFORMAT_BEGIN
 90
        0
 91
        1
 62
     0
 92
       -2
340
0
 93
        0
 40
1.125
309
GRIDFORMAT_END
 95
        4
302
GRIDFORMAT
  1
GRIDFORMAT_BEGIN
 90
        0
 91
        1
 62
     0
 92
       -2
340
0
 93
        0
 40
1.125
309
GRIDFORMAT_END
 95
        8
302
GRIDFORMAT
  1
GRIDFORMAT_BEGIN
 90
        0
 91
        1
 62
     0
 92
       -2
340
0
 93
        0
 40
1.125
309
GRIDFORMAT_END
 95
       16
302
GRIDFORMAT
  1
GRIDFORMAT_BEGIN
 90
        0
 91
        1
 62
     0
 92
       -2
340
0
 93
        0
 40
1.125
309
GRIDFORMAT_END
 95
       32
302
GRIDFORMAT
  1
GRIDFORMAT_BEGIN
 90
        0
 91
        1
 62
     0
 92
       -2
340
0
 93
        0
 40
1.125
309
GRIDFORMAT_END
309
TABLEFORMAT_END
  1
CELLSTYLE_BEGIN
 90
        3
 91
        2
300
_DATA
309
CELLSTYLE_END
  0
XRECORD
  5
32E
102
{ACAD_REACTORS
330
2E8
102
}
330
2E8
100
AcDbXrecord
280
     1
102
ACAD_ROUNDTRIP_PRE2007_TABLESTYLE
 90
      512
 91
        0
  1

 92
      512
 93
        0
  2

 94
      512
 95
        0
  3

  0
XRECORD
  5
2FD
102
{ACAD_REACTORS
330
2FC
102
}
330
2FC
100
AcDbXrecord
280
     1
102
RTVSPropertyOp0
 70
     1
102
RTVSPropertyOp1
 70
     1
102
RTVSPropertyOp2
 70
     1
102
RTVSPropertyOp3
 70
     1
102
RTVSPropertyOp4
 70
     1
102
RTVSPropertyOp5
 70
     1
102
RTVSPropertyOp6
 70
     1
102
RTVSPropertyOp7
 70
     1
102
RTVSPropertyOp8
 70
     1
102
RTVSPropertyOp9
 70
     1
102
RTVSPropertyOp10
 70
     1
102
RTVSPropertyOp11
 70
     1
102
RTVSPropertyOp12
 70
     1
102
RTVSPropertyOp13
 70
     1
102
RTVSPropertyOp14
 70
     1
102
RTVSPropertyOp15
 70
     1
102
RTVSPropertyOp16
 70
     1
102
RTVSPropertyOp17
 70
     1
102
RTVSPropertyOp18
 70
     1
102
RTVSPropertyOp19
 70
     1
102
RTVSPropertyOp20
 70
     1
102
RTVSPropertyOp21
 70
     1
102
RTVSPropertyOp22
 70
     1
102
RTVSPropertyOp23
 70
     1
102
RTVSPropertyOp24
 70
     1
102
RTVSPropertyOp25
 70
     1
102
RTVSPropertyOp26
 70
     1
102
RTVSPropertyOp27
 70
     1
102
RTVSPropertyOp28
 70
     1
102
RTVSPropertyOp29
 70
     1
102
RTVSPropertyOp30
 70
     1
102
RTVSPropertyOp31
 70
     1
102
RTVSPropertyOp32
 70
     1
  0
XRECORD
  5
301
102
{ACAD_REACTORS
330
300
102
}
330
300
100
AcDbXrecord
280
     1
102
RTVSPropertyOp0
 70
     1
102
RTVSPropertyOp1
 70
     1
102
RTVSPropertyOp2
 70
     1
102
RTVSPropertyOp3
 70
     1
102
RTVSPropertyOp4
 70
     1
102
RTVSPropertyOp5
 70
     1
102
RTVSPropertyOp6
 70
     1
102
RTVSPropertyOp7
 70
     1
102
RTVSPropertyOp8
 70
     1
102
RTVSPropertyOp9
 70
     1
102
RTVSPropertyOp10
 70
     1
102
RTVSPropertyOp11
 70
     1
102
RTVSPropertyOp12
 70
     1
102
RTVSPropertyOp13
 70
     1
102
RTVSPropertyOp14
 70
     1
102
RTVSPropertyOp15
 70
     1
102
RTVSPropertyOp16
 70
     1
102
RTVSPropertyOp17
 70
     1
102
RTVSPropertyOp18
 70
     1
102
RTVSPropertyOp19
 70
     1
102
RTVSPropertyOp20
 70
     1
102
RTVSPropertyOp21
 70
     1
102
RTVSPropertyOp22
 70
     1
102
RTVSPropertyOp23
 70
     1
102
RTVSPropertyOp24
 70
     1
102
RTVSPropertyOp25
 70
     1
102
RTVSPropertyOp26
 70
     1
102
RTVSPropertyOp27
 70
     1
102
RTVSPropertyOp28
 70
     1
102
RTVSPropertyOp29
 70
     1
102
RTVSPropertyOp30
 70
     1
102
RTVSPropertyOp31
 70
     1
102
RTVSPropertyOp32
 70
     1
  0
XRECORD
  5
2FF
102
{ACAD_REACTORS
330
2FE
102
}
330
2FE
100
AcDbXrecord
280
     1
102
RTVSPropertyOp0
 70
     1
102
RTVSPropertyOp1
 70
     1
102
RTVSPropertyOp2
 70
     1
102
RTVSPropertyOp3
 70
     1
102
RTVSPropertyOp4
 70
     1
102
RTVSPropertyOp5
 70
     1
102
RTVSPropertyOp6
 70
     1
102
RTVSPropertyOp7
 70
     1
102
RTVSPropertyOp8
 70
     1
102
RTVSPropertyOp9
 70
     1
102
RTVSPropertyOp10
 70
     1
102
RTVSPropertyOp11
 70
     1
102
RTVSPropertyOp12
 70
     1
102
RTVSPropertyOp13
 70
     1
102
RTVSPropertyOp14
 70
     1
102
RTVSPropertyOp15
 70
     1
102
RTVSPropertyOp16
 70
     1
102
RTVSPropertyOp17
 70
     1
102
RTVSPropertyOp18
 70
     1
102
RTVSPropertyOp19
 70
     1
102
RTVSPropertyOp20
 70
     1
102
RTVSPropertyOp21
 70
     1
102
RTVSPropertyOp22
 70
     1
102
RTVSPropertyOp23
 70
     1
102
RTVSPropertyOp24
 70
     1
102
RTVSPropertyOp25
 70
     1
102
RTVSPropertyOp26
 70
     1
102
RTVSPropertyOp27
 70
     1
102
RTVSPropertyOp28
 70
     1
102
RTVSPropertyOp29
 70
     1
102
RTVSPropertyOp30
 70
     1
102
RTVSPropertyOp31
 70
     1
102
RTVSPropertyOp32
 70
     1
  0
XRECORD
  5
303
102
{ACAD_REACTORS
330
302
102
}
330
302
100
AcDbXrecord
280
     1
102
RTVSPropertyOp0
 70
     1
102
RTVSPropertyOp1
 70
     1
102
RTVSPropertyOp2
 70
     1
102
RTVSPropertyOp3
 70
     1
102
RTVSPropertyOp4
 70
     1
102
RTVSPropertyOp5
 70
     1
102
RTVSPropertyOp6
 70
     1
102
RTVSPropertyOp7
 70
     1
102
RTVSPropertyOp8
 70
     1
102
RTVSPropertyOp9
 70
     1
102
RTVSPropertyOp10
 70
     1
102
RTVSPropertyOp11
 70
     1
102
RTVSPropertyOp12
 70
     1
102
RTVSPropertyOp13
 70
     1
102
RTVSPropertyOp14
 70
     1
102
RTVSPropertyOp15
 70
     1
102
RTVSPropertyOp16
 70
     1
102
RTVSPropertyOp17
 70
     1
102
RTVSPropertyOp18
 70
     1
102
RTVSPropertyOp19
 70
     1
102
RTVSPropertyOp20
 70
     1
102
RTVSPropertyOp21
 70
     1
102
RTVSPropertyOp22
 70
     1
102
RTVSPropertyOp23
 70
     1
102
RTVSPropertyOp24
 70
     1
102
RTVSPropertyOp25
 70
     1
102
RTVSPropertyOp26
 70
     1
102
RTVSPropertyOp27
 70
     1
102
RTVSPropertyOp28
 70
     1
102
RTVSPropertyOp29
 70
     1
102
RTVSPropertyOp30
 70
     1
102
RTVSPropertyOp31
 70
     1
102
RTVSPropertyOp32
 70
     1
  0
XRECORD
  5
30B
102
{ACAD_REACTORS
330
30A
102
}
330
30A
100
AcDbXrecord
280
     1
102
RTVSPropertyOp0
 70
     1
102
RTVSPropertyOp1
 70
     1
102
RTVSPropertyOp2
 70
     1
102
RTVSPropertyOp3
 70
     1
102
RTVSPropertyOp4
 70
     1
102
RTVSPropertyOp5
 70
     1
102
RTVSPropertyOp6
 70
     1
102
RTVSPropertyOp7
 70
     1
102
RTVSPropertyOp8
 70
     1
102
RTVSPropertyOp9
 70
     1
102
RTVSPropertyOp10
 70
     1
102
RTVSPropertyOp11
 70
     1
102
RTVSPropertyOp12
 70
     1
102
RTVSPropertyOp13
 70
     1
102
RTVSPropertyOp14
 70
     1
102
RTVSPropertyOp15
 70
     1
102
RTVSPropertyOp16
 70
     1
102
RTVSPropertyOp17
 70
     1
102
RTVSPropertyOp18
 70
     1
102
RTVSPropertyOp19
 70
     1
102
RTVSPropertyOp20
 70
     1
102
RTVSPropertyOp21
 70
     1
102
RTVSPropertyOp22
 70
     1
102
RTVSPropertyOp23
 70
     1
102
RTVSPropertyOp24
 70
     1
102
RTVSPropertyOp25
 70
     1
102
RTVSPropertyOp26
 70
     1
102
RTVSPropertyOp27
 70
     1
102
RTVSPropertyOp28
 70
     1
102
RTVSPropertyOp29
 70
     1
102
RTVSPropertyOp30
 70
     1
102
RTVSPropertyOp31
 70
     1
102
RTVSPropertyOp32
 70
     1
  0
XRECORD
  5
313
102
{ACAD_REACTORS
330
312
102
}
330
312
100
AcDbXrecord
280
     1
102
RTVSPropertyOp0
 70
     1
102
RTVSPropertyOp1
 70
     1
102
RTVSPropertyOp2
 70
     1
102
RTVSPropertyOp3
 70
     1
102
RTVSPropertyOp4
 70
     1
102
RTVSPropertyOp5
 70
     1
102
RTVSPropertyOp6
 70
     1
102
RTVSPropertyOp7
 70
     1
102
RTVSPropertyOp8
 70
     1
102
RTVSPropertyOp9
 70
     1
102
RTVSPropertyOp10
 70
     1
102
RTVSPropertyOp11
 70
     1
102
RTVSPropertyOp12
 70
     1
102
RTVSPropertyOp13
 70
     1
102
RTVSPropertyOp14
 70
     1
102
RTVSPropertyOp15
 70
     1
102
RTVSPropertyOp16
 70
     1
102
RTVSPropertyOp17
 70
     1
102
RTVSPropertyOp18
 70
     1
102
RTVSPropertyOp19
 70
     1
102
RTVSPropertyOp20
 70
     1
102
RTVSPropertyOp21
 70
     1
102
RTVSPropertyOp22
 70
     1
102
RTVSPropertyOp23
 70
     1
102
RTVSPropertyOp24
 70
     1
102
RTVSPropertyOp25
 70
     1
102
RTVSPropertyOp26
 70
     1
102
RTVSPropertyOp27
 70
     1
102
RTVSPropertyOp28
 70
     1
102
RTVSPropertyOp29
 70
     1
102
RTVSPropertyOp30
 70
     1
102
RTVSPropertyOp31
 70
     1
102
RTVSPropertyOp32
 70
     1
  0
XRECORD
  5
307
102
{ACAD_REACTORS
330
306
102
}
330
306
100
AcDbXrecord
280
     1
102
RTVSPropertyOp0
 70
     1
102
RTVSPropertyOp1
 70
     1
102
RTVSPropertyOp2
 70
     1
102
RTVSPropertyOp3
 70
     1
102
RTVSPropertyOp4
 70
     1
102
RTVSPropertyOp5
 70
     1
102
RTVSPropertyOp6
 70
     1
102
RTVSPropertyOp7
 70
     1
102
RTVSPropertyOp8
 70
     1
102
RTVSPropertyOp9
 70
     1
102
RTVSPropertyOp10
 70
     1
102
RTVSPropertyOp11
 70
     1
102
RTVSPropertyOp12
 70
     1
102
RTVSPropertyOp13
 70
     1
102
RTVSPropertyOp14
 70
     1
102
RTVSPropertyOp15
 70
     1
102
RTVSPropertyOp16
 70
     1
102
RTVSPropertyOp17
 70
     1
102
RTVSPropertyOp18
 70
     1
102
RTVSPropertyOp19
 70
     1
102
RTVSPropertyOp20
 70
     1
102
RTVSPropertyOp21
 70
     1
102
RTVSPropertyOp22
 70
     1
102
RTVSPropertyOp23
 70
     1
102
RTVSPropertyOp24
 70
     1
102
RTVSPropertyOp25
 70
     1
102
RTVSPropertyOp26
 70
     1
102
RTVSPropertyOp27
 70
     1
102
RTVSPropertyOp28
 70
     1
102
RTVSPropertyOp29
 70
     1
102
RTVSPropertyOp30
 70
     1
102
RTVSPropertyOp31
 70
     1
102
RTVSPropertyOp32
 70
     1
  0
XRECORD
  5
309
102
{ACAD_REACTORS
330
308
102
}
330
308
100
AcDbXrecord
280
     1
102
RTVSPropertyOp0
 70
     1
102
RTVSPropertyOp1
 70
     1
102
RTVSPropertyOp2
 70
     1
102
RTVSPropertyOp3
 70
     1
102
RTVSPropertyOp4
 70
     1
102
RTVSPropertyOp5
 70
     1
102
RTVSPropertyOp6
 70
     1
102
RTVSPropertyOp7
 70
     1
102
RTVSPropertyOp8
 70
     1
102
RTVSPropertyOp9
 70
     1
102
RTVSPropertyOp10
 70
     1
102
RTVSPropertyOp11
 70
     1
102
RTVSPropertyOp12
 70
     1
102
RTVSPropertyOp13
 70
     1
102
RTVSPropertyOp14
 70
     1
102
RTVSPropertyOp15
 70
     1
102
RTVSPropertyOp16
 70
     1
102
RTVSPropertyOp17
 70
     1
102
RTVSPropertyOp18
 70
     1
102
RTVSPropertyOp19
 70
     1
102
RTVSPropertyOp20
 70
     1
102
RTVSPropertyOp21
 70
     1
102
RTVSPropertyOp22
 70
     1
102
RTVSPropertyOp23
 70
     1
102
RTVSPropertyOp24
 70
     1
102
RTVSPropertyOp25
 70
     1
102
RTVSPropertyOp26
 70
     1
102
RTVSPropertyOp27
 70
     1
102
RTVSPropertyOp28
 70
     1
102
RTVSPropertyOp29
 70
     1
102
RTVSPropertyOp30
 70
     1
102
RTVSPropertyOp31
 70
     1
102
RTVSPropertyOp32
 70
     1
  0
XRECORD
  5
32D
102
{ACAD_REACTORS
330
32C
102
}
330
32C
100
AcDbXrecord
280
     1
102
RTVSPropertyOp0
 70
     0
102
RTVSPropertyOp1
 70
     0
102
RTVSPropertyOp2
 70
     0
102
RTVSPropertyOp3
 70
     0
102
RTVSPropertyOp4
 70
     0
102
RTVSPropertyOp5
 70
     0
102
RTVSPropertyOp6
 70
     0
102
RTVSPropertyOp7
 70
     0
102
RTVSPropertyOp8
 70
     0
102
RTVSPropertyOp9
 70
     0
102
RTVSPropertyOp10
 70
     0
102
RTVSPropertyOp11
 70
     0
102
RTVSPropertyOp12
 70
     0
102
RTVSPropertyOp13
 70
     0
102
RTVSPropertyOp14
 70
     2
102
RTVSPropertyOp15
 70
     0
102
RTVSPropertyOp16
 70
     0
102
RTVSPropertyOp17
 70
     0
102
RTVSPropertyOp18
 70
     0
102
RTVSPropertyOp19
 70
     0
102
RTVSPropertyOp20
 70
     0
102
RTVSPropertyOp21
 70
     0
102
RTVSPropertyOp22
 70
     0
102
RTVSPropertyOp23
 70
     0
102
RTVSPropertyOp24
 70
     0
102
RTVSPropertyOp25
 70
     0
102
RTVSPropertyOp26
 70
     0
102
RTVSPropertyOp27
 70
     0
102
RTVSPropertyOp28
 70
     0
102
RTVSPropertyOp29
 70
     0
102
RTVSPropertyOp30
 70
     0
102
RTVSPropertyOp31
 70
     0
102
RTVSPropertyOp32
 70
     0
  0
XRECORD
  5
311
102
{ACAD_REACTORS
330
310
102
}
330
310
100
AcDbXrecord
280
     1
102
RTVSPropertyOp0
 70
     1
102
RTVSPropertyOp1
 70
     1
102
RTVSPropertyOp2
 70
     1
102
RTVSPropertyOp3
 70
     1
102
RTVSPropertyOp4
 70
     1
102
RTVSPropertyOp5
 70
     1
102
RTVSPropertyOp6
 70
     1
102
RTVSPropertyOp7
 70
     1
102
RTVSPropertyOp8
 70
     1
102
RTVSPropertyOp9
 70
     1
102
RTVSPropertyOp10
 70
     1
102
RTVSPropertyOp11
 70
     1
102
RTVSPropertyOp12
 70
     1
102
RTVSPropertyOp13
 70
     1
102
RTVSPropertyOp14
 70
     1
102
RTVSPropertyOp15
 70
     1
102
RTVSPropertyOp16
 70
     1
102
RTVSPropertyOp17
 70
     1
102
RTVSPropertyOp18
 70
     1
102
RTVSPropertyOp19
 70
     1
102
RTVSPropertyOp20
 70
     1
102
RTVSPropertyOp21
 70
     1
102
RTVSPropertyOp22
 70
     1
102
RTVSPropertyOp23
 70
     1
102
RTVSPropertyOp24
 70
     1
102
RTVSPropertyOp25
 70
     1
102
RTVSPropertyOp26
 70
     1
102
RTVSPropertyOp27
 70
     1
102
RTVSPropertyOp28
 70
     1
102
RTVSPropertyOp29
 70
     1
102
RTVSPropertyOp30
 70
     1
102
RTVSPropertyOp31
 70
     1
102
RTVSPropertyOp32
 70
     1
  0
XRECORD
  5
2F5
102
{ACAD_REACTORS
330
2F4
102
}
330
2F4
100
AcDbXrecord
280
     1
102
RTVSPropertyOp0
 70
     1
102
RTVSPropertyOp1
 70
     1
102
RTVSPropertyOp2
 70
     1
102
RTVSPropertyOp3
 70
     1
102
RTVSPropertyOp4
 70
     1
102
RTVSPropertyOp5
 70
     1
102
RTVSPropertyOp6
 70
     1
102
RTVSPropertyOp7
 70
     1
102
RTVSPropertyOp8
 70
     1
102
RTVSPropertyOp9
 70
     1
102
RTVSPropertyOp10
 70
     1
102
RTVSPropertyOp11
 70
     1
102
RTVSPropertyOp12
 70
     1
102
RTVSPropertyOp13
 70
     1
102
RTVSPropertyOp14
 70
     1
102
RTVSPropertyOp15
 70
     1
102
RTVSPropertyOp16
 70
     1
102
RTVSPropertyOp17
 70
     1
102
RTVSPropertyOp18
 70
     1
102
RTVSPropertyOp19
 70
     1
102
RTVSPropertyOp20
 70
     1
102
RTVSPropertyOp21
 70
     1
102
RTVSPropertyOp22
 70
     1
102
RTVSPropertyOp23
 70
     1
102
RTVSPropertyOp24
 70
     1
102
RTVSPropertyOp25
 70
     1
102
RTVSPropertyOp26
 70
     1
102
RTVSPropertyOp27
 70
     1
102
RTVSPropertyOp28
 70
     1
102
RTVSPropertyOp29
 70
     1
102
RTVSPropertyOp30
 70
     1
102
RTVSPropertyOp31
 70
     1
102
RTVSPropertyOp32
 70
     1
  0
XRECORD
  5
2F7
102
{ACAD_REACTORS
330
2F6
102
}
330
2F6
100
AcDbXrecord
280
     1
102
RTVSPropertyOp0
 70
     1
102
RTVSPropertyOp1
 70
     1
102
RTVSPropertyOp2
 70
     1
102
RTVSPropertyOp3
 70
     1
102
RTVSPropertyOp4
 70
     1
102
RTVSPropertyOp5
 70
     1
102
RTVSPropertyOp6
 70
     1
102
RTVSPropertyOp7
 70
     1
102
RTVSPropertyOp8
 70
     1
102
RTVSPropertyOp9
 70
     1
102
RTVSPropertyOp10
 70
     1
102
RTVSPropertyOp11
 70
     1
102
RTVSPropertyOp12
 70
     1
102
RTVSPropertyOp13
 70
     1
102
RTVSPropertyOp14
 70
     1
102
RTVSPropertyOp15
 70
     1
102
RTVSPropertyOp16
 70
     1
102
RTVSPropertyOp17
 70
     1
102
RTVSPropertyOp18
 70
     1
102
RTVSPropertyOp19
 70
     1
102
RTVSPropertyOp20
 70
     1
102
RTVSPropertyOp21
 70
     1
102
RTVSPropertyOp22
 70
     1
102
RTVSPropertyOp23
 70
     1
102
RTVSPropertyOp24
 70
     1
102
RTVSPropertyOp25
 70
     1
102
RTVSPropertyOp26
 70
     1
102
RTVSPropertyOp27
 70
     1
102
RTVSPropertyOp28
 70
     1
102
RTVSPropertyOp29
 70
     1
102
RTVSPropertyOp30
 70
     1
102
RTVSPropertyOp31
 70
     1
102
RTVSPropertyOp32
 70
     1
  0
XRECORD
  5
2F9
102
{ACAD_REACTORS
330
2F8
102
}
330
2F8
100
AcDbXrecord
280
     1
102
RTVSPropertyOp0
 70
     1
102
RTVSPropertyOp1
 70
     1
102
RTVSPropertyOp2
 70
     1
102
RTVSPropertyOp3
 70
     1
102
RTVSPropertyOp4
 70
     1
102
RTVSPropertyOp5
 70
     1
102
RTVSPropertyOp6
 70
     1
102
RTVSPropertyOp7
 70
     1
102
RTVSPropertyOp8
 70
     1
102
RTVSPropertyOp9
 70
     1
102
RTVSPropertyOp10
 70
     1
102
RTVSPropertyOp11
 70
     1
102
RTVSPropertyOp12
 70
     1
102
RTVSPropertyOp13
 70
     1
102
RTVSPropertyOp14
 70
     1
102
RTVSPropertyOp15
 70
     1
102
RTVSPropertyOp16
 70
     1
102
RTVSPropertyOp17
 70
     1
102
RTVSPropertyOp18
 70
     1
102
RTVSPropertyOp19
 70
     1
102
RTVSPropertyOp20
 70
     1
102
RTVSPropertyOp21
 70
     1
102
RTVSPropertyOp22
 70
     1
102
RTVSPropertyOp23
 70
     1
102
RTVSPropertyOp24
 70
     1
102
RTVSPropertyOp25
 70
     1
102
RTVSPropertyOp26
 70
     1
102
RTVSPropertyOp27
 70
     1
102
RTVSPropertyOp28
 70
     1
102
RTVSPropertyOp29
 70
     1
102
RTVSPropertyOp30
 70
     1
102
RTVSPropertyOp31
 70
     1
102
RTVSPropertyOp32
 70
     1
  0
XRECORD
  5
2FB
102
{ACAD_REACTORS
330
2FA
102
}
330
2FA
100
AcDbXrecord
280
     1
102
RTVSPropertyOp0
 70
     1
102
RTVSPropertyOp1
 70
     1
102
RTVSPropertyOp2
 70
     1
102
RTVSPropertyOp3
 70
     1
102
RTVSPropertyOp4
 70
     1
102
RTVSPropertyOp5
 70
     1
102
RTVSPropertyOp6
 70
     1
102
RTVSPropertyOp7
 70
     1
102
RTVSPropertyOp8
 70
     1
102
RTVSPropertyOp9
 70
     1
102
RTVSPropertyOp10
 70
     1
102
RTVSPropertyOp11
 70
     1
102
RTVSPropertyOp12
 70
     1
102
RTVSPropertyOp13
 70
     1
102
RTVSPropertyOp14
 70
     1
102
RTVSPropertyOp15
 70
     1
102
RTVSPropertyOp16
 70
     1
102
RTVSPropertyOp17
 70
     1
102
RTVSPropertyOp18
 70
     1
102
RTVSPropertyOp19
 70
     1
102
RTVSPropertyOp20
 70
     1
102
RTVSPropertyOp21
 70
     1
102
RTVSPropertyOp22
 70
     1
102
RTVSPropertyOp23
 70
     1
102
RTVSPropertyOp24
 70
     1
102
RTVSPropertyOp25
 70
     1
102
RTVSPropertyOp26
 70
     1
102
RTVSPropertyOp27
 70
     1
102
RTVSPropertyOp28
 70
     1
102
RTVSPropertyOp29
 70
     1
102
RTVSPropertyOp30
 70
     1
102
RTVSPropertyOp31
 70
     1
102
RTVSPropertyOp32
 70
     1
  0
XRECORD
  5
31D
102
{ACAD_REACTORS
330
31C
102
}
330
31C
100
AcDbXrecord
280
     1
102
RTVSPropertyOp0
 70
     1
102
RTVSPropertyOp1
 70
     1
102
RTVSPropertyOp2
 70
     1
102
RTVSPropertyOp3
 70
     1
102
RTVSPropertyOp4
 70
     1
102
RTVSPropertyOp5
 70
     1
102
RTVSPropertyOp6
 70
     1
102
RTVSPropertyOp7
 70
     1
102
RTVSPropertyOp8
 70
     1
102
RTVSPropertyOp9
 70
     1
102
RTVSPropertyOp10
 70
     1
102
RTVSPropertyOp11
 70
     1
102
RTVSPropertyOp12
 70
     1
102
RTVSPropertyOp13
 70
     1
102
RTVSPropertyOp14
 70
     1
102
RTVSPropertyOp15
 70
     1
102
RTVSPropertyOp16
 70
     1
102
RTVSPropertyOp17
 70
     1
102
RTVSPropertyOp18
 70
     1
102
RTVSPropertyOp19
 70
     1
102
RTVSPropertyOp20
 70
     1
102
RTVSPropertyOp21
 70
     1
102
RTVSPropertyOp22
 70
     1
102
RTVSPropertyOp23
 70
     1
102
RTVSPropertyOp24
 70
     1
102
RTVSPropertyOp25
 70
     1
102
RTVSPropertyOp26
 70
     1
102
RTVSPropertyOp27
 70
     1
102
RTVSPropertyOp28
 70
     1
102
RTVSPropertyOp29
 70
     1
102
RTVSPropertyOp30
 70
     1
102
RTVSPropertyOp31
 70
     1
102
RTVSPropertyOp32
 70
     1
  0
XRECORD
  5
329
102
{ACAD_REACTORS
330
328
102
}
330
328
100
AcDbXrecord
280
     1
102
RTVSPropertyOp0
 70
     0
102
RTVSPropertyOp1
 70
     0
102
RTVSPropertyOp2
 70
     0
102
RTVSPropertyOp3
 70
     0
102
RTVSPropertyOp4
 70
     0
102
RTVSPropertyOp5
 70
     0
102
RTVSPropertyOp6
 70
     0
102
RTVSPropertyOp7
 70
     0
102
RTVSPropertyOp8
 70
     0
102
RTVSPropertyOp9
 70
     0
102
RTVSPropertyOp10
 70
     0
102
RTVSPropertyOp11
 70
     0
102
RTVSPropertyOp12
 70
     0
102
RTVSPropertyOp13
 70
     0
102
RTVSPropertyOp14
 70
     2
102
RTVSPropertyOp15
 70
     0
102
RTVSPropertyOp16
 70
     0
102
RTVSPropertyOp17
 70
     0
102
RTVSPropertyOp18
 70
     0
102
RTVSPropertyOp19
 70
     0
102
RTVSPropertyOp20
 70
     0
102
RTVSPropertyOp21
 70
     0
102
RTVSPropertyOp22
 70
     0
102
RTVSPropertyOp23
 70
     0
102
RTVSPropertyOp24
 70
     0
102
RTVSPropertyOp25
 70
     0
102
RTVSPropertyOp26
 70
     0
102
RTVSPropertyOp27
 70
     0
102
RTVSPropertyOp28
 70
     0
102
RTVSPropertyOp29
 70
     0
102
RTVSPropertyOp30
 70
     0
102
RTVSPropertyOp31
 70
     0
102
RTVSPropertyOp32
 70
     0
  0
XRECORD
  5
30F
102
{ACAD_REACTORS
330
30E
102
}
330
30E
100
AcDbXrecord
280
     1
102
RTVSPropertyOp0
 70
     1
102
RTVSPropertyOp1
 70
     1
102
RTVSPropertyOp2
 70
     1
102
RTVSPropertyOp3
 70
     1
102
RTVSPropertyOp4
 70
     1
102
RTVSPropertyOp5
 70
     1
102
RTVSPropertyOp6
 70
     1
102
RTVSPropertyOp7
 70
     1
102
RTVSPropertyOp8
 70
     1
102
RTVSPropertyOp9
 70
     1
102
RTVSPropertyOp10
 70
     1
102
RTVSPropertyOp11
 70
     1
102
RTVSPropertyOp12
 70
     1
102
RTVSPropertyOp13
 70
     1
102
RTVSPropertyOp14
 70
     1
102
RTVSPropertyOp15
 70
     1
102
RTVSPropertyOp16
 70
     1
102
RTVSPropertyOp17
 70
     1
102
RTVSPropertyOp18
 70
     1
102
RTVSPropertyOp19
 70
     1
102
RTVSPropertyOp20
 70
     1
102
RTVSPropertyOp21
 70
     1
102
RTVSPropertyOp22
 70
     1
102
RTVSPropertyOp23
 70
     1
102
RTVSPropertyOp24
 70
     1
102
RTVSPropertyOp25
 70
     1
102
RTVSPropertyOp26
 70
     1
102
RTVSPropertyOp27
 70
     1
102
RTVSPropertyOp28
 70
     1
102
RTVSPropertyOp29
 70
     1
102
RTVSPropertyOp30
 70
     1
102
RTVSPropertyOp31
 70
     1
102
RTVSPropertyOp32
 70
     1
  0
XRECORD
  5
32B
102
{ACAD_REACTORS
330
32A
102
}
330
32A
100
AcDbXrecord
280
     1
102
RTVSPropertyOp0
 70
     0
102
RTVSPropertyOp1
 70
     0
102
RTVSPropertyOp2
 70
     0
102
RTVSPropertyOp3
 70
     0
102
RTVSPropertyOp4
 70
     0
102
RTVSPropertyOp5
 70
     0
102
RTVSPropertyOp6
 70
     0
102
RTVSPropertyOp7
 70
     0
102
RTVSPropertyOp8
 70
     0
102
RTVSPropertyOp9
 70
     0
102
RTVSPropertyOp10
 70
     0
102
RTVSPropertyOp11
 70
     0
102
RTVSPropertyOp12
 70
     0
102
RTVSPropertyOp13
 70
     0
102
RTVSPropertyOp14
 70
     2
102
RTVSPropertyOp15
 70
     0
102
RTVSPropertyOp16
 70
     0
102
RTVSPropertyOp17
 70
     0
102
RTVSPropertyOp18
 70
     0
102
RTVSPropertyOp19
 70
     0
102
RTVSPropertyOp20
 70
     0
102
RTVSPropertyOp21
 70
     0
102
RTVSPropertyOp22
 70
     0
102
RTVSPropertyOp23
 70
     0
102
RTVSPropertyOp24
 70
     0
102
RTVSPropertyOp25
 70
     0
102
RTVSPropertyOp26
 70
     0
102
RTVSPropertyOp27
 70
     0
102
RTVSPropertyOp28
 70
     0
102
RTVSPropertyOp29
 70
     0
102
RTVSPropertyOp30
 70
     0
102
RTVSPropertyOp31
 70
     0
102
RTVSPropertyOp32
 70
     0
  0
XRECORD
  5
305
102
{ACAD_REACTORS
330
304
102
}
330
304
100
AcDbXrecord
280
     1
102
RTVSPropertyOp0
 70
     1
102
RTVSPropertyOp1
 70
     1
102
RTVSPropertyOp2
 70
     1
102
RTVSPropertyOp3
 70
     1
102
RTVSPropertyOp4
 70
     1
102
RTVSPropertyOp5
 70
     1
102
RTVSPropertyOp6
 70
     1
102
RTVSPropertyOp7
 70
     1
102
RTVSPropertyOp8
 70
     1
102
RTVSPropertyOp9
 70
     1
102
RTVSPropertyOp10
 70
     1
102
RTVSPropertyOp11
 70
     1
102
RTVSPropertyOp12
 70
     1
102
RTVSPropertyOp13
 70
     1
102
RTVSPropertyOp14
 70
     1
102
RTVSPropertyOp15
 70
     1
102
RTVSPropertyOp16
 70
     1
102
RTVSPropertyOp17
 70
     1
102
RTVSPropertyOp18
 70
     1
102
RTVSPropertyOp19
 70
     1
102
RTVSPropertyOp20
 70
     1
102
RTVSPropertyOp21
 70
     1
102
RTVSPropertyOp22
 70
     1
102
RTVSPropertyOp23
 70
     1
102
RTVSPropertyOp24
 70
     1
102
RTVSPropertyOp25
 70
     1
102
RTVSPropertyOp26
 70
     1
102
RTVSPropertyOp27
 70
     1
102
RTVSPropertyOp28
 70
     1
102
RTVSPropertyOp29
 70
     1
102
RTVSPropertyOp30
 70
     1
102
RTVSPropertyOp31
 70
     1
102
RTVSPropertyOp32
 70
     1
  0
XRECORD
  5
327
102
{ACAD_REACTORS
330
326
102
}
330
326
100
AcDbXrecord
280
     1
102
RTVSPropertyOp0
 70
     1
102
RTVSPropertyOp1
 70
     1
102
RTVSPropertyOp2
 70
     1
102
RTVSPropertyOp3
 70
     1
102
RTVSPropertyOp4
 70
     1
102
RTVSPropertyOp5
 70
     1
102
RTVSPropertyOp6
 70
     1
102
RTVSPropertyOp7
 70
     1
102
RTVSPropertyOp8
 70
     1
102
RTVSPropertyOp9
 70
     1
102
RTVSPropertyOp10
 70
     1
102
RTVSPropertyOp11
 70
     1
102
RTVSPropertyOp12
 70
     1
102
RTVSPropertyOp13
 70
     1
102
RTVSPropertyOp14
 70
     1
102
RTVSPropertyOp15
 70
     1
102
RTVSPropertyOp16
 70
     1
102
RTVSPropertyOp17
 70
     1
102
RTVSPropertyOp18
 70
     1
102
RTVSPropertyOp19
 70
     1
102
RTVSPropertyOp20
 70
     1
102
RTVSPropertyOp21
 70
     1
102
RTVSPropertyOp22
 70
     1
102
RTVSPropertyOp23
 70
     1
102
RTVSPropertyOp24
 70
     1
102
RTVSPropertyOp25
 70
     1
102
RTVSPropertyOp26
 70
     1
102
RTVSPropertyOp27
 70
     1
102
RTVSPropertyOp28
 70
     1
102
RTVSPropertyOp29
 70
     1
102
RTVSPropertyOp30
 70
     1
102
RTVSPropertyOp31
 70
     1
102
RTVSPropertyOp32
 70
     1
  0
XRECORD
  5
325
102
{ACAD_REACTORS
330
324
102
}
330
324
100
AcDbXrecord
280
     1
102
RTVSPropertyOp0
 70
     1
102
RTVSPropertyOp1
 70
     1
102
RTVSPropertyOp2
 70
     1
102
RTVSPropertyOp3
 70
     1
102
RTVSPropertyOp4
 70
     1
102
RTVSPropertyOp5
 70
     1
102
RTVSPropertyOp6
 70
     1
102
RTVSPropertyOp7
 70
     1
102
RTVSPropertyOp8
 70
     1
102
RTVSPropertyOp9
 70
     1
102
RTVSPropertyOp10
 70
     1
102
RTVSPropertyOp11
 70
     1
102
RTVSPropertyOp12
 70
     1
102
RTVSPropertyOp13
 70
     1
102
RTVSPropertyOp14
 70
     1
102
RTVSPropertyOp15
 70
     1
102
RTVSPropertyOp16
 70
     1
102
RTVSPropertyOp17
 70
     1
102
RTVSPropertyOp18
 70
     1
102
RTVSPropertyOp19
 70
     1
102
RTVSPropertyOp20
 70
     1
102
RTVSPropertyOp21
 70
     1
102
RTVSPropertyOp22
 70
     1
102
RTVSPropertyOp23
 70
     1
102
RTVSPropertyOp24
 70
     1
102
RTVSPropertyOp25
 70
     1
102
RTVSPropertyOp26
 70
     1
102
RTVSPropertyOp27
 70
     1
102
RTVSPropertyOp28
 70
     1
102
RTVSPropertyOp29
 70
     1
102
RTVSPropertyOp30
 70
     1
102
RTVSPropertyOp31
 70
     1
102
RTVSPropertyOp32
 70
     1
  0
XRECORD
  5
31F
102
{ACAD_REACTORS
330
31E
102
}
330
31E
100
AcDbXrecord
280
     1
102
RTVSPropertyOp0
 70
     1
102
RTVSPropertyOp1
 70
     1
102
RTVSPropertyOp2
 70
     1
102
RTVSPropertyOp3
 70
     1
102
RTVSPropertyOp4
 70
     1
102
RTVSPropertyOp5
 70
     1
102
RTVSPropertyOp6
 70
     1
102
RTVSPropertyOp7
 70
     1
102
RTVSPropertyOp8
 70
     1
102
RTVSPropertyOp9
 70
     1
102
RTVSPropertyOp10
 70
     1
102
RTVSPropertyOp11
 70
     1
102
RTVSPropertyOp12
 70
     1
102
RTVSPropertyOp13
 70
     1
102
RTVSPropertyOp14
 70
     1
102
RTVSPropertyOp15
 70
     1
102
RTVSPropertyOp16
 70
     1
102
RTVSPropertyOp17
 70
     1
102
RTVSPropertyOp18
 70
     1
102
RTVSPropertyOp19
 70
     1
102
RTVSPropertyOp20
 70
     1
102
RTVSPropertyOp21
 70
     1
102
RTVSPropertyOp22
 70
     1
102
RTVSPropertyOp23
 70
     1
102
RTVSPropertyOp24
 70
     1
102
RTVSPropertyOp25
 70
     1
102
RTVSPropertyOp26
 70
     1
102
RTVSPropertyOp27
 70
     1
102
RTVSPropertyOp28
 70
     1
102
RTVSPropertyOp29
 70
     1
102
RTVSPropertyOp30
 70
     1
102
RTVSPropertyOp31
 70
     1
102
RTVSPropertyOp32
 70
     1
  0
XRECORD
  5
321
102
{ACAD_REACTORS
330
320
102
}
330
320
100
AcDbXrecord
280
     1
102
RTVSPropertyOp0
 70
     1
102
RTVSPropertyOp1
 70
     1
102
RTVSPropertyOp2
 70
     1
102
RTVSPropertyOp3
 70
     1
102
RTVSPropertyOp4
 70
     1
102
RTVSPropertyOp5
 70
     1
102
RTVSPropertyOp6
 70
     1
102
RTVSPropertyOp7
 70
     1
102
RTVSPropertyOp8
 70
     1
102
RTVSPropertyOp9
 70
     1
102
RTVSPropertyOp10
 70
     1
102
RTVSPropertyOp11
 70
     1
102
RTVSPropertyOp12
 70
     1
102
RTVSPropertyOp13
 70
     1
102
RTVSPropertyOp14
 70
     1
102
RTVSPropertyOp15
 70
     1
102
RTVSPropertyOp16
 70
     1
102
RTVSPropertyOp17
 70
     1
102
RTVSPropertyOp18
 70
     1
102
RTVSPropertyOp19
 70
     1
102
RTVSPropertyOp20
 70
     1
102
RTVSPropertyOp21
 70
     1
102
RTVSPropertyOp22
 70
     1
102
RTVSPropertyOp23
 70
     1
102
RTVSPropertyOp24
 70
     1
102
RTVSPropertyOp25
 70
     1
102
RTVSPropertyOp26
 70
     1
102
RTVSPropertyOp27
 70
     1
102
RTVSPropertyOp28
 70
     1
102
RTVSPropertyOp29
 70
     1
102
RTVSPropertyOp30
 70
     1
102
RTVSPropertyOp31
 70
     1
102
RTVSPropertyOp32
 70
     1
  0
XRECORD
  5
30D
102
{ACAD_REACTORS
330
30C
102
}
330
30C
100
AcDbXrecord
280
     1
102
RTVSPropertyOp0
 70
     1
102
RTVSPropertyOp1
 70
     1
102
RTVSPropertyOp2
 70
     1
102
RTVSPropertyOp3
 70
     1
102
RTVSPropertyOp4
 70
     1
102
RTVSPropertyOp5
 70
     1
102
RTVSPropertyOp6
 70
     1
102
RTVSPropertyOp7
 70
     1
102
RTVSPropertyOp8
 70
     1
102
RTVSPropertyOp9
 70
     1
102
RTVSPropertyOp10
 70
     1
102
RTVSPropertyOp11
 70
     1
102
RTVSPropertyOp12
 70
     1
102
RTVSPropertyOp13
 70
     1
102
RTVSPropertyOp14
 70
     1
102
RTVSPropertyOp15
 70
     1
102
RTVSPropertyOp16
 70
     1
102
RTVSPropertyOp17
 70
     1
102
RTVSPropertyOp18
 70
     1
102
RTVSPropertyOp19
 70
     1
102
RTVSPropertyOp20
 70
     1
102
RTVSPropertyOp21
 70
     1
102
RTVSPropertyOp22
 70
     1
102
RTVSPropertyOp23
 70
     1
102
RTVSPropertyOp24
 70
     1
102
RTVSPropertyOp25
 70
     1
102
RTVSPropertyOp26
 70
     1
102
RTVSPropertyOp27
 70
     1
102
RTVSPropertyOp28
 70
     1
102
RTVSPropertyOp29
 70
     1
102
RTVSPropertyOp30
 70
     1
102
RTVSPropertyOp31
 70
     1
102
RTVSPropertyOp32
 70
     1
  0
XRECORD
  5
31B
102
{ACAD_REACTORS
330
31A
102
}
330
31A
100
AcDbXrecord
280
     1
102
RTVSPropertyOp0
 70
     1
102
RTVSPropertyOp1
 70
     1
102
RTVSPropertyOp2
 70
     1
102
RTVSPropertyOp3
 70
     1
102
RTVSPropertyOp4
 70
     1
102
RTVSPropertyOp5
 70
     1
102
RTVSPropertyOp6
 70
     1
102
RTVSPropertyOp7
 70
     1
102
RTVSPropertyOp8
 70
     1
102
RTVSPropertyOp9
 70
     1
102
RTVSPropertyOp10
 70
     1
102
RTVSPropertyOp11
 70
     1
102
RTVSPropertyOp12
 70
     1
102
RTVSPropertyOp13
 70
     1
102
RTVSPropertyOp14
 70
     1
102
RTVSPropertyOp15
 70
     1
102
RTVSPropertyOp16
 70
     1
102
RTVSPropertyOp17
 70
     1
102
RTVSPropertyOp18
 70
     1
102
RTVSPropertyOp19
 70
     1
102
RTVSPropertyOp20
 70
     1
102
RTVSPropertyOp21
 70
     1
102
RTVSPropertyOp22
 70
     1
102
RTVSPropertyOp23
 70
     1
102
RTVSPropertyOp24
 70
     1
102
RTVSPropertyOp25
 70
     1
102
RTVSPropertyOp26
 70
     1
102
RTVSPropertyOp27
 70
     1
102
RTVSPropertyOp28
 70
     1
102
RTVSPropertyOp29
 70
     1
102
RTVSPropertyOp30
 70
     1
102
RTVSPropertyOp31
 70
     1
102
RTVSPropertyOp32
 70
     1
  0
XRECORD
  5
323
102
{ACAD_REACTORS
330
322
102
}
330
322
100
AcDbXrecord
280
     1
102
RTVSPropertyOp0
 70
     1
102
RTVSPropertyOp1
 70
     1
102
RTVSPropertyOp2
 70
     1
102
RTVSPropertyOp3
 70
     1
102
RTVSPropertyOp4
 70
     1
102
RTVSPropertyOp5
 70
     1
102
RTVSPropertyOp6
 70
     1
102
RTVSPropertyOp7
 70
     1
102
RTVSPropertyOp8
 70
     1
102
RTVSPropertyOp9
 70
     1
102
RTVSPropertyOp10
 70
     1
102
RTVSPropertyOp11
 70
     1
102
RTVSPropertyOp12
 70
     1
102
RTVSPropertyOp13
 70
     1
102
RTVSPropertyOp14
 70
     1
102
RTVSPropertyOp15
 70
     1
102
RTVSPropertyOp16
 70
     1
102
RTVSPropertyOp17
 70
     1
102
RTVSPropertyOp18
 70
     1
102
RTVSPropertyOp19
 70
     1
102
RTVSPropertyOp20
 70
     1
102
RTVSPropertyOp21
 70
     1
102
RTVSPropertyOp22
 70
     1
102
RTVSPropertyOp23
 70
     1
102
RTVSPropertyOp24
 70
     1
102
RTVSPropertyOp25
 70
     1
102
RTVSPropertyOp26
 70
     1
102
RTVSPropertyOp27
 70
     1
102
RTVSPropertyOp28
 70
     1
102
RTVSPropertyOp29
 70
     1
102
RTVSPropertyOp30
 70
     1
102
RTVSPropertyOp31
 70
     1
102
RTVSPropertyOp32
 70
     1
  0
ENDSEC
  0
EOF
