  0
SECTION
  2
HEADER
  9
$ACADVER
  1
AC1015
  9
$ACADMAINTVER
 70
    20
  9
$DWGCODEPAGE
  3
ANSI_1252
  9
$INSBASE
 10
0.0
 20
0.0
 30
0.0
  9
$EXTMIN
 10
0.5985818428571383
 20
0.7113327526132323
 30
-0.0000000000001003
  9
$EXTMAX
 10
19.2857247
 20
14.8627613240418
 30
0.0
  9
$LIMMIN
 10
0.0
 20
0.0
  9
$LIMMAX
 10
19.95714285714285
 20
15.42142857142857
  9
$ORTHOMODE
 70
     0
  9
$REGENMODE
 70
     1
  9
$FILLMODE
 70
     1
  9
$QTEXTMODE
 70
     0
  9
$MIRRTEXT
 70
     1
  9
$LTSCALE
 40
0.0714285714285714
  9
$ATTMODE
 70
     1
  9
$TEXTSIZE
 40
0.2771825396825397
  9
$TRACEWID
 40
1.0
  9
$TEXTSTYLE
  7
STANDARD
  9
$CLAYER
  8
0
  9
$CELTYPE
  6
ByLayer
  9
$CECOLOR
 62
   256
  9
$CELTSCALE
 40
1.0
  9
$DISPSILH
 70
     0
  9
$DIMSCALE
 40
1.0
  9
$DIMASZ
 40
0.1428571428571429
  9
$DIMEXO
 40
0.1071428571428572
  9
$DIMDLI
 40
3.75
  9
$DIMRND
 40
0.0
  9
$DIMDLE
 40
0.0
  9
$DIMEXE
 40
0.1428571428571429
  9
$DIMTP
 40
0.0
  9
$DIMTM
 40
0.0
  9
$DIMTXT
 40
0.251984126984127
  9
$DIMCEN
 40
2.5
  9
$DIMTSZ
 40
0.0
  9
$DIMTOL
 70
     0
  9
$DIMLIM
 70
     0
  9
$DIMTIH
 70
     1
  9
$DIMTOH
 70
     1
  9
$DIMSE1
 70
     0
  9
$DIMSE2
 70
     0
  9
$DIMTAD
 70
     0
  9
$DIMZIN
 70
     0
  9
$DIMBLK
  1

  9
$DIMASO
 70
     1
  9
$DIMSHO
 70
     1
  9
$DIMPOST
  1

  9
$DIMAPOST
  1

  9
$DIMALT
 70
     0
  9
$DIMALTD
 70
     3
  9
$DIMALTF
 40
0.0393700787401575
  9
$DIMLFAC
 40
1.0
  9
$DIMTOFL
 70
     1
  9
$DIMTVP
 40
0.0
  9
$DIMTIX
 70
     0
  9
$DIMSOXD
 70
     0
  9
$DIMSAH
 70
     0
  9
$DIMBLK1
  1

  9
$DIMBLK2
  1

  9
$DIMSTYLE
  2
ISO-25
  9
$DIMCLRD
 70
     0
  9
$DIMCLRE
 70
     0
  9
$DIMCLRT
 70
     0
  9
$DIMTFAC
 40
1.0
  9
$DIMGAP
 40
0.0714285714285715
  9
$DIMJUST
 70
     0
  9
$DIMSD1
 70
     0
  9
$DIMSD2
 70
     0
  9
$DIMTOLJ
 70
     0
  9
$DIMTZIN
 70
     0
  9
$DIMALTZ
 70
     0
  9
$DIMALTTZ
 70
     0
  9
$DIMUPT
 70
     0
  9
$DIMDEC
 70
     2
  9
$DIMTDEC
 70
     2
  9
$DIMALTU
 70
     2
  9
$DIMALTTD
 70
     3
  9
$DIMTXSTY
  7
STANDARD
  9
$DIMAUNIT
 70
     0
  9
$DIMADEC
 70
     0
  9
$DIMALTRND
 40
0.0
  9
$DIMAZIN
 70
     0
  9
$DIMDSEP
 70
    44
  9
$DIMATFIT
 70
     3
  9
$DIMFRAC
 70
     0
  9
$DIMLDRBLK
  1

  9
$DIMLUNIT
 70
     2
  9
$DIMLWD
 70
    -2
  9
$DIMLWE
 70
    -2
  9
$DIMTMOVE
 70
     0
  9
$LUNITS
 70
     2
  9
$LUPREC
 70
     2
  9
$SKETCHINC
 40
1.0
  9
$FILLETRAD
 40
10.0
  9
$AUNITS
 70
     0
  9
$AUPREC
 70
     0
  9
$MENU
  1
.
  9
$ELEVATION
 40
0.0
  9
$PELEVATION
 40
0.0
  9
$THICKNESS
 40
0.0
  9
$LIMCHECK
 70
     0
  9
$CHAMFERA
 40
10.0
  9
$CHAMFERB
 40
10.0
  9
$CHAMFERC
 40
20.0
  9
$CHAMFERD
 40
0.0
  9
$SKPOLY
 70
     0
  9
$TDCREATE
 40
2456183.727434132
  9
$TDUCREATE
 40
2456184.060767466
  9
$TDUPDATE
 40
2456272.568282234
  9
$TDUUPDATE
 40
2456272.901615567
  9
$TDINDWG
 40
0.0001059838
  9
$TDUSRTIMER
 40
0.0001059838
  9
$USRTIMER
 70
     1
  9
$ANGBASE
 50
0.0
  9
$ANGDIR
 70
     0
  9
$PDMODE
 70
     0
  9
$PDSIZE
 40
-1.0
  9
$PLINEWID
 40
0.0
  9
$SPLFRAME
 70
     0
  9
$SPLINETYPE
 70
     6
  9
$SPLINESEGS
 70
     8
  9
$HANDSEED
  5
3FB
  9
$SURFTAB1
 70
     6
  9
$SURFTAB2
 70
     6
  9
$SURFTYPE
 70
     6
  9
$SURFU
 70
     6
  9
$SURFV
 70
     6
  9
$UCSBASE
  2

  9
$UCSNAME
  2

  9
$UCSORG
 10
0.0
 20
0.0
 30
0.0
  9
$UCSXDIR
 10
1.0
 20
0.0
 30
0.0
  9
$UCSYDIR
 10
0.0
 20
1.0
 30
0.0
  9
$UCSORTHOREF
  2

  9
$UCSORTHOVIEW
 70
     0
  9
$UCSORGTOP
 10
0.0
 20
0.0
 30
0.0
  9
$UCSORGBOTTOM
 10
0.0
 20
0.0
 30
0.0
  9
$UCSORGLEFT
 10
0.0
 20
0.0
 30
0.0
  9
$UCSORGRIGHT
 10
0.0
 20
0.0
 30
0.0
  9
$UCSORGFRONT
 10
0.0
 20
0.0
 30
0.0
  9
$UCSORGBACK
 10
0.0
 20
0.0
 30
0.0
  9
$PUCSBASE
  2

  9
$PUCSNAME
  2

  9
$PUCSORG
 10
0.0
 20
0.0
 30
0.0
  9
$PUCSXDIR
 10
1.0
 20
0.0
 30
0.0
  9
$PUCSYDIR
 10
0.0
 20
1.0
 30
0.0
  9
$PUCSORTHOREF
  2

  9
$PUCSORTHOVIEW
 70
     0
  9
$PUCSORGTOP
 10
0.0
 20
0.0
 30
0.0
  9
$PUCSORGBOTTOM
 10
0.0
 20
0.0
 30
0.0
  9
$PUCSORGLEFT
 10
0.0
 20
0.0
 30
0.0
  9
$PUCSORGRIGHT
 10
0.0
 20
0.0
 30
0.0
  9
$PUCSORGFRONT
 10
0.0
 20
0.0
 30
0.0
  9
$PUCSORGBACK
 10
0.0
 20
0.0
 30
0.0
  9
$USERI1
 70
     0
  9
$USERI2
 70
     0
  9
$USERI3
 70
     0
  9
$USERI4
 70
     0
  9
$USERI5
 70
     0
  9
$USERR1
 40
0.0
  9
$USERR2
 40
0.0
  9
$USERR3
 40
0.0
  9
$USERR4
 40
0.0
  9
$USERR5
 40
0.0
  9
$WORLDVIEW
 70
     1
  9
$SHADEDGE
 70
     3
  9
$SHADEDIF
 70
    70
  9
$TILEMODE
 70
     1
  9
$MAXACTVP
 70
    64
  9
$PINSBASE
 10
0.0
 20
0.0
 30
0.0
  9
$PLIMCHECK
 70
     0
  9
$PEXTMIN
 10
1.000000000000000E+20
 20
1.000000000000000E+20
 30
1.000000000000000E+20
  9
$PEXTMAX
 10
-1.000000000000000E+20
 20
-1.000000000000000E+20
 30
-1.000000000000000E+20
  9
$PLIMMIN
 10
0.0
 20
0.0
  9
$PLIMMAX
 10
420.0
 20
297.0
  9
$UNITMODE
 70
     0
  9
$VISRETAIN
 70
     1
  9
$PLINEGEN
 70
     0
  9
$PSLTSCALE
 70
     1
  9
$TREEDEPTH
 70
  3020
  9
$CMLSTYLE
  2
Standard
  9
$CMLJUST
 70
     0
  9
$CMLSCALE
 40
20.0
  9
$PROXYGRAPHICS
 70
     1
  9
$MEASUREMENT
 70
     1
  9
$CELWEIGHT
370
    -1
  9
$ENDCAPS
280
     0
  9
$JOINSTYLE
280
     0
  9
$LWDISPLAY
290
     1
  9
$INSUNITS
 70
     4
  9
$HYPERLINKBASE
  1

  9
$STYLESHEET
  1

  9
$XEDIT
290
     1
  9
$CEPSNTYPE
380
     0
  9
$PSTYLEMODE
290
     1
  9
$FINGERPRINTGUID
  2
{9B0F4A6E-6E8A-46AE-ACEE-A01F5F1976F0}
  9
$VERSIONGUID
  2
{FAEB1C32-E019-11D5-929B-00C0DF256EC4}
  9
$EXTNAMES
290
     1
  9
$PSVPSCALE
 40
0.0
  9
$OLESTARTUP
290
     0
  0
ENDSEC
  0
SECTION
  2
CLASSES
  0
CLASS
  1
ACDBDICTIONARYWDFLT
  2
AcDbDictionaryWithDefault
  3
ObjectDBX Classes
 90
        0
280
     0
281
     0
  0
CLASS
  1
VISUALSTYLE
  2
AcDbVisualStyle
  3
ObjectDBX Classes
 90
     4095
280
     0
281
     0
  0
CLASS
  1
MATERIAL
  2
AcDbMaterial
  3
ObjectDBX Classes
 90
     1153
280
     0
281
     0
  0
CLASS
  1
SCALE
  2
AcDbScale
  3
ObjectDBX Classes
 90
     1153
280
     0
281
     0
  0
CLASS
  1
DICTIONARYVAR
  2
AcDbDictionaryVar
  3
ObjectDBX Classes
 90
        0
280
     0
281
     0
  0
CLASS
  1
TABLESTYLE
  2
AcDbTableStyle
  3
ObjectDBX Classes
 90
     4095
280
     0
281
     0
  0
CLASS
  1
MLEADERSTYLE
  2
AcDbMLeaderStyle
  3
ACDB_MLEADERSTYLE_CLASS
 90
     4095
280
     0
281
     0
  0
CLASS
  1
CELLSTYLEMAP
  2
AcDbCellStyleMap
  3
ObjectDBX Classes
 90
     1152
280
     0
281
     0
  0
CLASS
  1
ACDBPLACEHOLDER
  2
AcDbPlaceHolder
  3
ObjectDBX Classes
 90
        0
280
     0
281
     0
  0
CLASS
  1
LAYOUT
  2
AcDbLayout
  3
ObjectDBX Classes
 90
        0
280
     0
281
     0
  0
ENDSEC
  0
SECTION
  2
TABLES
  0
TABLE
  2
VPORT
  5
8
330
0
100
AcDbSymbolTable
 70
     1
  0
VPORT
  5
29
330
8
100
AcDbSymbolTableRecord
100
AcDbViewportTableRecord
  2
*Active
 70
     0
 10
0.0
 20
0.0
 11
1.0
 21
1.0
 12
12.69643792071802
 22
7.710714285714285
 13
0.0
 23
0.0
 14
10.0
 24
10.0
 15
10.0
 25
10.0
 16
0.0
 26
0.0
 36
1.0
 17
0.0
 27
0.0
 37
0.0
 40
15.42142857142857
 41
1.646596858638743
 42
50.0
 43
0.0
 44
0.0
 50
0.0
 51
0.0
 71
     0
 72
  2000
 73
     1
 74
     3
 75
     0
 76
     0
 77
     0
 78
     0
281
     0
 65
     1
110
0.0
120
0.0
130
0.0
111
1.0
121
0.0
131
0.0
112
0.0
122
1.0
132
0.0
 79
     0
146
0.0
  0
ENDTAB
  0
TABLE
  2
LTYPE
  5
5
330
0
100
AcDbSymbolTable
 70
     6
  0
LTYPE
  5
14
330
5
100
AcDbSymbolTableRecord
100
AcDbLinetypeTableRecord
  2
ByBlock
 70
     0
  3

 72
    65
 73
     0
 40
0.0
  0
LTYPE
  5
15
330
5
100
AcDbSymbolTableRecord
100
AcDbLinetypeTableRecord
  2
ByLayer
 70
     0
  3

 72
    65
 73
     0
 40
0.0
  0
LTYPE
  5
16
330
5
100
AcDbSymbolTableRecord
100
AcDbLinetypeTableRecord
  2
Continuous
 70
     0
  3
Solid line
 72
    65
 73
     0
 40
0.0
  0
LTYPE
  5
3F
330
5
100
AcDbSymbolTableRecord
100
AcDbLinetypeTableRecord
  2
HIDDEN
 70
     0
  3
Hidden __ __ __ __ __ __ __ __ __ __ __ __ __ __
 72
    65
 73
     2
 40
1.905
 49
1.27
 74
     0
 49
-0.635
 74
     0
  0
LTYPE
  5
40
330
5
100
AcDbSymbolTableRecord
100
AcDbLinetypeTableRecord
  2
PHANTOM
 70
     0
  3
Phantom ______  __  __  ______  __  __  ______
 72
    65
 73
     6
 40
12.7
 49
6.349999999999999
 74
     0
 49
-1.27
 74
     0
 49
1.27
 74
     0
 49
-1.27
 74
     0
 49
1.27
 74
     0
 49
-1.27
 74
     0
  0
LTYPE
  5
41
330
5
100
AcDbSymbolTableRecord
100
AcDbLinetypeTableRecord
  2
CENTER
 70
     0
  3
Center ____ _ ____ _ ____ _ ____ _ ____ _ ____
 72
    65
 73
     4
 40
10.16
 49
6.349999999999999
 74
     0
 49
-1.27
 74
     0
 49
1.27
 74
     0
 49
-1.27
 74
     0
  0
LTYPE
  5
42
330
5
100
AcDbSymbolTableRecord
100
AcDbLinetypeTableRecord
  2
CENTERX2
 70
     0
  3
Center (2x) ________  __  ________  __  _____
 72
    65
 73
     4
 40
20.32
 49
12.7
 74
     0
 49
-2.54
 74
     0
 49
2.54
 74
     0
 49
-2.54
 74
     0
  0
LTYPE
  5
43
330
5
100
AcDbSymbolTableRecord
100
AcDbLinetypeTableRecord
  2
DOT2
 70
     0
  3
Dot (.5x) ........................................
 72
    65
 73
     2
 40
0.635
 49
0.0
 74
     0
 49
-0.635
 74
     0
  0
ENDTAB
  0
TABLE
  2
LAYER
  5
2
330
0
100
AcDbSymbolTable
 70
     2
  0
LAYER
  5
10
330
2
100
AcDbSymbolTableRecord
100
AcDbLayerTableRecord
  2
0
 70
     0
 62
     7
  6
Continuous
370
    -3
390
F
  0
LAYER
  5
44
330
2
100
AcDbSymbolTableRecord
100
AcDbLayerTableRecord
  2
FORMAT
 70
     0
 62
     7
  6
Continuous
370
    -3
390
F
  0
ENDTAB
  0
TABLE
  2
STYLE
  5
3
330
0
100
AcDbSymbolTable
 70
     4
  0
STYLE
  5
11
330
3
100
AcDbSymbolTableRecord
100
AcDbTextStyleTableRecord
  2
STANDARD
 70
     0
 40
0.0
 41
1.0
 50
0.0
 71
     0
 42
0.2771825396825397
  3
GOTHIC.TTF
  4

1001
ACAD
1000
CENTURY GOTHIC
1071
       34
  0
STYLE
  5
65
330
3
100
AcDbSymbolTableRecord
100
AcDbTextStyleTableRecord
  2
SLDTEXTSTYLE0
 70
     0
 40
0.0
 41
0.913
 50
0.0
 71
     0
 42
0.2
  3
GOTHIC.TTF
  4

1001
ACAD
1000
Century Gothic
1071
      290
  0
STYLE
  5
99
330
3
100
AcDbSymbolTableRecord
100
AcDbTextStyleTableRecord
  2
SLDTEXTSTYLE1
 70
     0
 40
0.0
 41
0.913
 50
0.0
 71
     0
 42
0.2
  3
GOTHIC.TTF
  4

1001
ACAD
1000
Century Gothic
1071
 33554722
  0
STYLE
  5
A9
330
3
100
AcDbSymbolTableRecord
100
AcDbTextStyleTableRecord
  2
SLDTEXTSTYLE2
 70
     0
 40
0.0
 41
0.948
 50
0.0
 71
     0
 42
0.2
  3
ARIAL.TTF
  4

1001
ACAD
1000
Arial
1071
      290
  0
ENDTAB
  0
TABLE
  2
VIEW
  5
6
330
0
100
AcDbSymbolTable
 70
     0
  0
ENDTAB
  0
TABLE
  2
UCS
  5
7
330
0
100
AcDbSymbolTable
 70
     0
  0
ENDTAB
  0
TABLE
  2
APPID
  5
9
330
0
100
AcDbSymbolTable
 70
     2
  0
APPID
  5
12
330
9
100
AcDbSymbolTableRecord
100
AcDbRegAppTableRecord
  2
ACAD
 70
     0
  0
APPID
  5
3FA
330
9
100
AcDbSymbolTableRecord
100
AcDbRegAppTableRecord
  2
ACAD_MLEADERVER
 70
     0
  0
ENDTAB
  0
TABLE
  2
DIMSTYLE
  5
A
330
0
100
AcDbSymbolTable
 70
    13
100
AcDbDimStyleTable
 71
     0
  0
DIMSTYLE
105
27
330
A
100
AcDbSymbolTableRecord
100
AcDbDimStyleTableRecord
  2
ISO-25
 70
     0
 41
2.5
 42
0.625
 43
3.75
 44
1.25
 73
     0
 74
     0
 77
     1
 78
     8
140
2.5
141
2.5
143
0.03937007874016
147
0.625
171
     3
172
     1
271
     2
272
     2
274
     3
278
    44
283
     0
284
     8
340
11
  0
DIMSTYLE
105
6A
330
A
100
AcDbSymbolTableRecord
100
AcDbDimStyleTableRecord
  2
SLDDIMSTYLE0
 70
     0
 41
0.1428571428571429
 44
0.0
 45
0.000000001
140
0.0
146
0.1428571428571429
147
0.0
173
     1
271
     0
272
     0
276
     2
340
11
  0
DIMSTYLE
105
226
102
{ACAD_REACTORS
330
225
330
23D
330
248
330
28D
102
}
330
A
100
AcDbSymbolTableRecord
100
AcDbDimStyleTableRecord
  2
SLDDIMSTYLE1
 70
     0
 41
0.1428571428571429
 44
0.0
 45
0.000000001
 78
    12
 79
     3
140
0.1889880952380952
147
0.0472470238095238
173
     1
271
     2
272
     2
276
     2
284
    12
340
65
  0
DIMSTYLE
105
232
102
{ACAD_REACTORS
330
231
330
253
330
25E
330
269
102
}
330
A
100
AcDbSymbolTableRecord
100
AcDbDimStyleTableRecord
  2
SLDDIMSTYLE2
 70
     0
 41
0.1428571428571429
 44
0.0
 45
0.000000001
 78
     4
 79
     1
140
0.1889880952380952
147
0.0472470238095238
173
     1
271
     2
272
     2
276
     2
284
    12
340
65
  0
DIMSTYLE
105
275
102
{ACAD_REACTORS
330
274
102
}
330
A
100
AcDbSymbolTableRecord
100
AcDbDimStyleTableRecord
  2
SLDDIMSTYLE3
 70
     0
 41
0.1428571428571429
 44
0.0
 45
0.000000001
 78
    12
 79
     3
140
0.1889880952380952
147
0.0472470238095238
172
     1
173
     1
271
     2
272
     2
276
     2
284
    12
289
     0
340
65
  0
DIMSTYLE
105
281
102
{ACAD_REACTORS
330
280
102
}
330
A
100
AcDbSymbolTableRecord
100
AcDbDimStyleTableRecord
  2
SLDDIMSTYLE4
 70
     0
 41
0.1428571428571429
 44
0.0
 45
0.000000001
 78
     4
 79
     1
140
0.1889880952380952
147
0.0472470238095238
172
     1
173
     1
271
     2
272
     2
276
     2
284
    12
289
     0
340
65
  0
DIMSTYLE
105
2A8
330
A
100
AcDbSymbolTableRecord
100
AcDbDimStyleTableRecord
  2
SLDDIMSTYLE5
 70
     0
 41
0.0357142857142857
 44
0.0
 45
0.000000001
140
0.0
146
0.0357142857142857
147
0.0
173
     1
271
     0
272
     0
276
     2
340
11
341
2A9
343
2A9
344
2A9
  0
DIMSTYLE
105
30E
102
{ACAD_REACTORS
330
30D
330
319
102
}
330
A
100
AcDbSymbolTableRecord
100
AcDbDimStyleTableRecord
  2
SLDDIMSTYLE6
 70
     0
 41
0.1428571428571429
 44
0.0
 45
0.000000001
 78
     4
 79
     1
140
0.1889880952380952
144
0.28
147
0.0472470238095238
173
     1
271
     2
272
     2
276
     2
284
    12
340
65
  0
DIMSTYLE
105
325
102
{ACAD_REACTORS
330
324
102
}
330
A
100
AcDbSymbolTableRecord
100
AcDbDimStyleTableRecord
  2
SLDDIMSTYLE7
 70
     0
 41
0.1428571428571429
 44
0.0
 45
0.000000001
 78
     4
 79
     1
140
0.1889880952380952
144
0.28
147
0.0472470238095238
172
     1
173
     1
271
     2
272
     3
276
     2
284
    12
289
     0
340
65
  0
DIMSTYLE
105
331
102
{ACAD_REACTORS
330
330
102
}
330
A
100
AcDbSymbolTableRecord
100
AcDbDimStyleTableRecord
  2
SLDDIMSTYLE8
 70
     0
 41
0.1428571428571429
 44
0.0
 45
0.000000001
 78
     4
 79
     1
140
0.1889880952380952
144
0.28
147
0.0472470238095238
173
     1
271
     3
272
     3
276
     2
284
    12
340
65
  0
DIMSTYLE
105
33F
102
{ACAD_REACTORS
330
33E
102
}
330
A
100
AcDbSymbolTableRecord
100
AcDbDimStyleTableRecord
  2
SLDDIMSTYLE9
 70
     0
 41
0.1428571428571429
 44
0.0
 45
0.000000001
 78
    12
 79
     3
140
0.1889880952380952
144
0.28
147
0.0472470238095238
172
     1
173
     1
271
     3
272
     3
276
     2
284
    12
289
     0
340
65
  0
DIMSTYLE
105
34E
102
{ACAD_REACTORS
330
34D
102
}
330
A
100
AcDbSymbolTableRecord
100
AcDbDimStyleTableRecord
  2
SLDDIMSTYLE10
 70
     0
 41
0.1428571428571429
 44
0.0
 45
0.000000001
 78
    12
 79
     3
140
0.1889880952380952
144
0.28
147
0.0472470238095238
173
     1
271
     2
272
     2
276
     2
284
    12
340
65
  0
DIMSTYLE
105
35A
102
{ACAD_REACTORS
330
359
102
}
330
A
100
AcDbSymbolTableRecord
100
AcDbDimStyleTableRecord
  2
SLDDIMSTYLE11
 70
     0
 41
0.1428571428571429
 44
0.0
 45
0.000000001
 78
    12
 79
     3
140
0.1889880952380952
141
0.0
144
0.28
147
0.0472470238095238
173
     1
271
     2
272
     2
276
     2
284
    12
340
65
  0
ENDTAB
  0
TABLE
  2
BLOCK_RECORD
  5
1
330
0
100
AcDbSymbolTable
 70
    27
  0
BLOCK_RECORD
  5
1F
330
1
100
AcDbSymbolTableRecord
100
AcDbBlockTableRecord
  2
*Model_Space
340
22
  0
BLOCK_RECORD
  5
1B
330
1
100
AcDbSymbolTableRecord
100
AcDbBlockTableRecord
  2
*Paper_Space
340
1E
  0
BLOCK_RECORD
  5
23
330
1
100
AcDbSymbolTableRecord
100
AcDbBlockTableRecord
  2
*Paper_Space0
340
26
  0
BLOCK_RECORD
  5
45
330
1
100
AcDbSymbolTableRecord
100
AcDbBlockTableRecord
  2
Block1
340
0
  0
BLOCK_RECORD
  5
62
330
1
100
AcDbSymbolTableRecord
100
AcDbBlockTableRecord
  2
SW_NOTE_18
340
0
102
{BLKREFS
331
68
102
}
  0
BLOCK_RECORD
  5
6C
330
1
100
AcDbSymbolTableRecord
100
AcDbBlockTableRecord
  2
SW_NOTE_19
340
0
102
{BLKREFS
331
91
102
}
  0
BLOCK_RECORD
  5
92
330
1
100
AcDbSymbolTableRecord
100
AcDbBlockTableRecord
  2
SW_NOTE_20
340
0
102
{BLKREFS
331
97
102
}
  0
BLOCK_RECORD
  5
A3
330
1
100
AcDbSymbolTableRecord
100
AcDbBlockTableRecord
  2
SW_NOTE_21
340
0
102
{BLKREFS
331
A8
102
}
  0
BLOCK_RECORD
  5
227
330
1
100
AcDbSymbolTableRecord
100
AcDbBlockTableRecord
  2
_D
340
0
  0
BLOCK_RECORD
  5
233
330
1
100
AcDbSymbolTableRecord
100
AcDbBlockTableRecord
  2
_D_1
340
0
  0
BLOCK_RECORD
  5
23E
330
1
100
AcDbSymbolTableRecord
100
AcDbBlockTableRecord
  2
_D_2
340
0
  0
BLOCK_RECORD
  5
249
330
1
100
AcDbSymbolTableRecord
100
AcDbBlockTableRecord
  2
_D_3
340
0
  0
BLOCK_RECORD
  5
254
330
1
100
AcDbSymbolTableRecord
100
AcDbBlockTableRecord
  2
_D_4
340
0
  0
BLOCK_RECORD
  5
25F
330
1
100
AcDbSymbolTableRecord
100
AcDbBlockTableRecord
  2
_D_5
340
0
  0
BLOCK_RECORD
  5
26A
330
1
100
AcDbSymbolTableRecord
100
AcDbBlockTableRecord
  2
_D_6
340
0
  0
BLOCK_RECORD
  5
276
330
1
100
AcDbSymbolTableRecord
100
AcDbBlockTableRecord
  2
_D_7
340
0
  0
BLOCK_RECORD
  5
282
330
1
100
AcDbSymbolTableRecord
100
AcDbBlockTableRecord
  2
_D_8
340
0
  0
BLOCK_RECORD
  5
28E
330
1
100
AcDbSymbolTableRecord
100
AcDbBlockTableRecord
  2
_D_9
340
0
  0
BLOCK_RECORD
  5
298
330
1
100
AcDbSymbolTableRecord
100
AcDbBlockTableRecord
  2
SW_NOTE_22
340
0
102
{BLKREFS
331
29D
102
}
  0
BLOCK_RECORD
  5
29F
330
1
100
AcDbSymbolTableRecord
100
AcDbBlockTableRecord
  2
SW_NOTE_23
340
0
102
{BLKREFS
331
2A5
102
}
  0
BLOCK_RECORD
  5
2A9
330
1
100
AcDbSymbolTableRecord
100
AcDbBlockTableRecord
  2
_DOT
340
0
  0
BLOCK_RECORD
  5
30F
330
1
100
AcDbSymbolTableRecord
100
AcDbBlockTableRecord
  2
_D_10
340
0
  0
BLOCK_RECORD
  5
31A
330
1
100
AcDbSymbolTableRecord
100
AcDbBlockTableRecord
  2
_D_11
340
0
  0
BLOCK_RECORD
  5
326
330
1
100
AcDbSymbolTableRecord
100
AcDbBlockTableRecord
  2
_D_12
340
0
  0
BLOCK_RECORD
  5
332
330
1
100
AcDbSymbolTableRecord
100
AcDbBlockTableRecord
  2
_D_13
340
0
  0
BLOCK_RECORD
  5
340
330
1
100
AcDbSymbolTableRecord
100
AcDbBlockTableRecord
  2
_D_14
340
0
  0
BLOCK_RECORD
  5
34F
330
1
100
AcDbSymbolTableRecord
100
AcDbBlockTableRecord
  2
_D_15
340
0
  0
BLOCK_RECORD
  5
35B
330
1
100
AcDbSymbolTableRecord
100
AcDbBlockTableRecord
  2
_D_16
340
0
  0
BLOCK_RECORD
  5
363
330
1
100
AcDbSymbolTableRecord
100
AcDbBlockTableRecord
  2
SW_NOTE_24
340
0
102
{BLKREFS
331
368
102
}
  0
ENDTAB
  0
ENDSEC
  0
SECTION
  2
BLOCKS
  0
BLOCK
  5
20
330
1F
100
AcDbEntity
  8
0
100
AcDbBlockBegin
  2
*Model_Space
 70
     0
 10
0.0
 20
0.0
 30
0.0
  3
*Model_Space
  1

  0
ENDBLK
  5
21
330
1F
100
AcDbEntity
  8
0
100
AcDbBlockEnd
  0
BLOCK
  5
1C
330
1B
100
AcDbEntity
 67
     1
  8
0
100
AcDbBlockBegin
  2
*Paper_Space
 70
     0
 10
0.0
 20
0.0
 30
0.0
  3
*Paper_Space
  1

  0
ENDBLK
  5
1D
330
1B
100
AcDbEntity
 67
     1
  8
0
100
AcDbBlockEnd
  0
BLOCK
  5
24
330
23
100
AcDbEntity
 67
     1
  8
0
100
AcDbBlockBegin
  2
*Paper_Space0
 70
     0
 10
0.0
 20
0.0
 30
0.0
  3
*Paper_Space0
  1

  0
ENDBLK
  5
25
330
23
100
AcDbEntity
 67
     1
  8
0
100
AcDbBlockEnd
  0
BLOCK
  5
46
330
45
100
AcDbEntity
  8
0
100
AcDbBlockBegin
  2
Block1
 70
     0
 10
0.0
 20
0.0
 30
0.0
  3
Block1
  1

  0
CIRCLE
  5
48
330
45
100
AcDbEntity
  8
0
  6
Continuous
 62
     7
370
     0
100
AcDbCircle
 10
9.930409662585224
 20
1.074077444772177
 30
0.0
 40
0.1929603628437031
  0
CIRCLE
  5
49
330
45
100
AcDbEntity
  8
0
  6
Continuous
 62
     7
370
     0
100
AcDbCircle
 10
9.930409662585224
 20
1.074077444772177
 30
0.0
 40
0.0938951405357299
  0
LINE
  5
4A
330
45
100
AcDbEntity
  8
0
  6
Continuous
 62
     7
370
     0
100
AcDbLine
 10
10.18462188326238
 20
1.074077444772177
 30
0.0
 11
9.43569767856492
 21
1.074077444772177
 31
0.0
  0
LINE
  5
4B
330
45
100
AcDbEntity
  8
0
  6
Continuous
 62
     7
370
     0
100
AcDbLine
 10
10.24501899654443
 20
1.074077444772177
 30
0.0
 11
10.34769408912392
 21
1.074077444772177
 31
0.0
  0
LINE
  5
4C
330
45
100
AcDbEntity
  8
0
  6
Continuous
 62
     7
370
     0
100
AcDbLine
 10
10.47150817135213
 20
1.075435578060405
 30
0.0
 11
11.20835295339317
 21
1.075435578060405
 31
0.0
  0
LINE
  5
4D
330
45
100
AcDbEntity
  8
0
  6
Continuous
 62
     7
370
     0
100
AcDbLine
 10
10.5719765109783
 20
1.167972585307907
 30
0.0
 11
10.5719765109783
 21
0.9801823042364478
 31
0.0
  0
LINE
  5
4E
330
45
100
AcDbEntity
  8
0
  6
Continuous
 62
     7
370
     0
100
AcDbLine
 10
10.5719765109783
 20
0.9801823042364478
 30
0.0
 11
11.08939387949871
 21
0.8811170819284741
 31
0.0
  0
LINE
  5
4F
330
45
100
AcDbEntity
  8
0
  6
Continuous
 62
     7
370
     0
100
AcDbLine
 10
11.08939387949871
 20
0.8811170819284741
 30
0.0
 11
11.08939387949871
 21
1.267037807615881
 31
0.0
  0
LINE
  5
50
330
45
100
AcDbEntity
  8
0
  6
Continuous
 62
     7
370
     0
100
AcDbLine
 10
11.08939387949871
 20
1.267037807615881
 30
0.0
 11
10.5719765109783
 21
1.167972585307907
 31
0.0
  0
LINE
  5
51
330
45
100
AcDbEntity
  8
0
  6
Continuous
 62
     7
370
     0
100
AcDbLine
 10
9.930409662585224
 20
1.267037807615881
 30
0.0
 11
9.930409662585224
 21
1.351745628397021
 31
0.0
  0
LINE
  5
52
330
45
100
AcDbEntity
  8
0
  6
Continuous
 62
     7
370
     0
100
AcDbLine
 10
9.930409662585224
 20
0.8811170819284741
 30
0.0
 11
9.930409662585224
 21
0.7964092611473336
 31
0.0
  0
LINE
  5
53
330
45
100
AcDbEntity
  8
0
  6
Continuous
 62
     7
370
     0
100
AcDbLine
 10
9.930409662585224
 20
1.121489154319433
 30
0.0
 11
9.930409662585224
 21
1.026665735224921
 31
0.0
  0
ENDBLK
  5
47
330
45
100
AcDbEntity
  8
0
100
AcDbBlockEnd
  0
BLOCK
  5
63
330
62
100
AcDbEntity
  8
0
100
AcDbBlockBegin
  2
SW_NOTE_18
 70
     0
 10
0.0
 20
0.0
 30
0.0
  3
SW_NOTE_18
  1

  0
MTEXT
  5
66
330
62
100
AcDbEntity
  8
0
  6
Continuous
 62
     0
370
     0
100
AcDbMText
 10
1.814876302083333
 20
0.3379638671875
 30
0.0
 40
0.2645833333333333
 41
0.0
 71
     2
 72
     1
  1
RECOMMENDED PCB 
  7
SLDTEXTSTYLE0
 73
     1
 44
1.0
1001
ACAD
1000
MTEXTBEGIN
1070
    73
1070
     1
1070
    44
1040
1.0
1070
    74
1070
     0
1000
MTEXTEND
  0
MTEXT
  5
67
330
62
100
AcDbEntity
  8
0
  6
Continuous
 62
     0
370
     0
100
AcDbMText
 10
1.758989296959978
 20
-0.01481390632689
 30
0.0
 40
0.2645833333333333
 41
0.0
 71
     2
 72
     1
  1
LAYOUT
  7
SLDTEXTSTYLE0
 73
     1
 44
1.0
1001
ACAD
1000
MTEXTBEGIN
1070
    73
1070
     1
1070
    44
1040
1.0
1070
    74
1070
     0
1000
MTEXTEND
  0
ENDBLK
  5
64
330
62
100
AcDbEntity
  8
0
100
AcDbBlockEnd
  0
BLOCK
  5
6D
330
6C
100
AcDbEntity
  8
0
100
AcDbBlockBegin
  2
SW_NOTE_19
 70
     0
 10
0.0
 20
0.0
 30
0.0
  3
SW_NOTE_19
  1

  0
MTEXT
  5
6F
330
6C
100
AcDbEntity
  8
0
  6
Continuous
 62
     0
370
     0
100
AcDbMText
 10
0.0
 20
0.241402762276786
 30
0.0
 40
0.1889880952380952
 41
0.0
 71
     1
 72
     1
  1
Notes: (Unless Otherwise Specified).
  7
SLDTEXTSTYLE0
 73
     1
 44
1.0
1001
ACAD
1000
MTEXTBEGIN
1070
    73
1070
     1
1070
    44
1040
1.0
1070
    74
1070
     0
1000
MTEXTEND
  0
MTEXT
  5
70
330
6C
100
AcDbEntity
  8
0
  6
Continuous
 62
     0
370
     0
100
AcDbMText
 10
0.7142856983201844
 20
-0.010581361662064
 30
0.0
 40
0.1889880952380952
 41
0.0
 71
     1
 72
     1
  1
DIMENSIONS ARE PRESENTED ONLY AS A GUIDELINE. DESIGNERS  SHOULD USE THEIR OWN KNOWLEDGE 
  7
SLDTEXTSTYLE0
 73
     1
 44
1.0
1001
ACAD
1000
MTEXTBEGIN
1070
    73
1070
     1
1070
    44
1040
1.0
1070
    74
1070
     0
1000
MTEXTEND
  0
MTEXT
  5
71
330
6C
100
AcDbEntity
  8
0
  6
Continuous
 62
     0
370
     0
100
AcDbMText
 10
0.0
 20
-0.010581361662064
 30
0.0
 40
0.1889880952380952
 41
0.0
 71
     1
 72
     1
  1
1.
  7
SLDTEXTSTYLE0
 73
     1
 44
1.0
1001
ACAD
1000
MTEXTBEGIN
1070
    73
1070
     1
1070
    44
1040
1.0
1070
    74
1070
     0
1000
MTEXTEND
  0
MTEXT
  5
72
330
6C
100
AcDbEntity
  8
0
  6
Continuous
 62
     0
370
     0
100
AcDbMText
 10
0.7142856983201844
 20
-0.262565485600914
 30
0.0
 40
0.1889880952380952
 41
0.0
 71
     1
 72
     1
  1
BASE WHEN DESIGNING THE PCB.
  7
SLDTEXTSTYLE0
 73
     1
 44
1.0
1001
ACAD
1000
MTEXTBEGIN
1070
    73
1070
     1
1070
    44
1040
1.0
1070
    74
1070
     0
1000
MTEXTEND
  0
MTEXT
  5
73
330
6C
100
AcDbEntity
  8
0
  6
Continuous
 62
     0
370
     0
100
AcDbMText
 10
0.7142856983201844
 20
-0.514549609539764
 30
0.0
 40
0.1889880952380952
 41
0.0
 71
     1
 72
     1
  1
SURROUND EACH SIDE OF I/O PERIMETER PADS WITH 0.060~0.075 mm (2.4~3.0mils) NSMD SOLDER MASK 
  7
SLDTEXTSTYLE0
 73
     1
 44
1.0
1001
ACAD
1000
MTEXTBEGIN
1070
    73
1070
     1
1070
    44
1040
1.0
1070
    74
1070
     0
1000
MTEXTEND
  0
MTEXT
  5
74
330
6C
100
AcDbEntity
  8
0
  6
Continuous
 62
     0
370
     0
100
AcDbMText
 10
0.0
 20
-0.514549609539764
 30
0.0
 40
0.1889880952380952
 41
0.0
 71
     1
 72
     1
  1
2.
  7
SLDTEXTSTYLE0
 73
     1
 44
1.0
1001
ACAD
1000
MTEXTBEGIN
1070
    73
1070
     1
1070
    44
1040
1.0
1070
    74
1070
     0
1000
MTEXTEND
  0
MTEXT
  5
75
330
6C
100
AcDbEntity
  8
0
  6
Continuous
 62
     0
370
     0
100
AcDbMText
 10
0.7142856983201844
 20
-0.766533733478614
 30
0.0
 40
0.1889880952380952
 41
0.0
 71
     1
 72
     1
  1
OPENING.  OPTIONALLY OK TO USE RECTANGLE (NSMD) MASK OPENING AROUND I/O PADS.
  7
SLDTEXTSTYLE0
 73
     1
 44
1.0
1001
ACAD
1000
MTEXTBEGIN
1070
    73
1070
     1
1070
    44
1040
1.0
1070
    74
1070
     0
1000
MTEXTEND
  0
MTEXT
  5
76
330
6C
100
AcDbEntity
  8
0
  6
Continuous
 62
     0
370
     0
100
AcDbMText
 10
0.7142856983201844
 20
-1.018517857417464
 30
0.0
 40
0.1889880952380952
 41
0.0
 71
     1
 72
     1
  1
ROUNDED PCB LAND PADS REDUCE SOLDER BRIDGING.  PAD CHAMFER ANGLE MAY VARY.
  7
SLDTEXTSTYLE0
 73
     1
 44
1.0
1001
ACAD
1000
MTEXTBEGIN
1070
    73
1070
     1
1070
    44
1040
1.0
1070
    74
1070
     0
1000
MTEXTEND
  0
MTEXT
  5
77
330
6C
100
AcDbEntity
  8
0
  6
Continuous
 62
     0
370
     0
100
AcDbMText
 10
0.0
 20
-1.018517857417464
 30
0.0
 40
0.1889880952380952
 41
0.0
 71
     1
 72
     1
  1
3.
  7
SLDTEXTSTYLE0
 73
     1
 44
1.0
1001
ACAD
1000
MTEXTBEGIN
1070
    73
1070
     1
1070
    44
1040
1.0
1070
    74
1070
     0
1000
MTEXTEND
  0
MTEXT
  5
78
330
6C
100
AcDbEntity
  8
0
  6
Continuous
 62
     0
370
     0
100
AcDbMText
 10
0.7142856983201844
 20
-1.270501981356314
 30
0.0
 40
0.1889880952380952
 41
0.0
 71
     1
 72
     1
  1
PCB LANDS SHOULD BE 0.2mm LONGER THAN THE PACKAGE I/O PADS.
  7
SLDTEXTSTYLE0
 73
     1
 44
1.0
1001
ACAD
1000
MTEXTBEGIN
1070
    73
1070
     1
1070
    44
1040
1.0
1070
    74
1070
     0
1000
MTEXTEND
  0
MTEXT
  5
79
330
6C
100
AcDbEntity
  8
0
  6
Continuous
 62
     0
370
     0
100
AcDbMText
 10
0.0
 20
-1.270501981356314
 30
0.0
 40
0.1889880952380952
 41
0.0
 71
     1
 72
     1
  1
4.
  7
SLDTEXTSTYLE0
 73
     1
 44
1.0
1001
ACAD
1000
MTEXTBEGIN
1070
    73
1070
     1
1070
    44
1040
1.0
1070
    74
1070
     0
1000
MTEXTEND
  0
MTEXT
  5
7A
330
6C
100
AcDbEntity
  8
0
  6
Continuous
 62
     0
370
     0
100
AcDbMText
 10
0.7142856983201844
 20
-1.522486105295164
 30
0.0
 40
0.1889880952380952
 41
0.0
 71
     1
 72
     1
  1
THE WIDTH OF PERIMETER PCB PADS SHOULD MATCH (1:1) THE WIDTH OF THE PACKAGE PADS.
  7
SLDTEXTSTYLE0
 73
     1
 44
1.0
1001
ACAD
1000
MTEXTBEGIN
1070
    73
1070
     1
1070
    44
1040
1.0
1070
    74
1070
     0
1000
MTEXTEND
  0
MTEXT
  5
7B
330
6C
100
AcDbEntity
  8
0
  6
Continuous
 62
     0
370
     0
100
AcDbMText
 10
0.0
 20
-1.522486105295164
 30
0.0
 40
0.1889880952380952
 41
0.0
 71
     1
 72
     1
  1
5.
  7
SLDTEXTSTYLE0
 73
     1
 44
1.0
1001
ACAD
1000
MTEXTBEGIN
1070
    73
1070
     1
1070
    44
1040
1.0
1070
    74
1070
     0
1000
MTEXTEND
  0
MTEXT
  5
7C
330
6C
100
AcDbEntity
  8
0
  6
Continuous
 62
     0
370
     0
100
AcDbMText
 10
0.7142856983201844
 20
-1.774470229234014
 30
0.0
 40
0.1889880952380952
 41
0.0
 71
     1
 72
     1
  1
REFER TO INDUSTRY REFERENCES SUCH AS IPC-SM-782 FOR PCB LAND PATTERN DESIGN.
  7
SLDTEXTSTYLE0
 73
     1
 44
1.0
1001
ACAD
1000
MTEXTBEGIN
1070
    73
1070
     1
1070
    44
1040
1.0
1070
    74
1070
     0
1000
MTEXTEND
  0
MTEXT
  5
7D
330
6C
100
AcDbEntity
  8
0
  6
Continuous
 62
     0
370
     0
100
AcDbMText
 10
0.0
 20
-1.774470229234014
 30
0.0
 40
0.1889880952380952
 41
0.0
 71
     1
 72
     1
  1
6.
  7
SLDTEXTSTYLE0
 73
     1
 44
1.0
1001
ACAD
1000
MTEXTBEGIN
1070
    73
1070
     1
1070
    44
1040
1.0
1070
    74
1070
     0
1000
MTEXTEND
  0
MTEXT
  5
7E
330
6C
100
AcDbEntity
  8
0
  6
Continuous
 62
     0
370
     0
100
AcDbMText
 10
0.7142856983201844
 20
-2.026454353172864
 30
0.0
 40
0.1889880952380952
 41
0.0
 71
     1
 72
     1
  1
THERMAL GROUND PADS MAY BE CHANGED TO SUITE REQUIREMENTS OF THE DESIGNER.
  7
SLDTEXTSTYLE0
 73
     1
 44
1.0
1001
ACAD
1000
MTEXTBEGIN
1070
    73
1070
     1
1070
    44
1040
1.0
1070
    74
1070
     0
1000
MTEXTEND
  0
MTEXT
  5
7F
330
6C
100
AcDbEntity
  8
0
  6
Continuous
 62
     0
370
     0
100
AcDbMText
 10
0.0
 20
-2.026454353172864
 30
0.0
 40
0.1889880952380952
 41
0.0
 71
     1
 72
     1
  1
7.
  7
SLDTEXTSTYLE0
 73
     1
 44
1.0
1001
ACAD
1000
MTEXTBEGIN
1070
    73
1070
     1
1070
    44
1040
1.0
1070
    74
1070
     0
1000
MTEXTEND
  0
MTEXT
  5
80
330
6C
100
AcDbEntity
  8
0
  6
Continuous
 62
     0
370
     0
100
AcDbMText
 10
1.428571396640368
 20
-2.278438477111714
 30
0.0
 40
0.1889880952380952
 41
0.0
 71
     1
 72
     1
  1
MAKE COPPER THERMAL PAD AS LARGE AS POSSIBLE.
  7
SLDTEXTSTYLE0
 73
     1
 44
1.0
1001
ACAD
1000
MTEXTBEGIN
1070
    73
1070
     1
1070
    44
1040
1.0
1070
    74
1070
     0
1000
MTEXTEND
  0
MTEXT
  5
81
330
6C
100
AcDbEntity
  8
0
  6
Continuous
 62
     0
370
     0
100
AcDbMText
 10
0.7142857142857145
 20
-2.278438477111714
 30
0.0
 40
0.1889880952380952
 41
0.0
 71
     1
 72
     1
  1
A.
  7
SLDTEXTSTYLE0
 73
     1
 44
1.0
1001
ACAD
1000
MTEXTBEGIN
1070
    73
1070
     1
1070
    44
1040
1.0
1070
    74
1070
     0
1000
MTEXTEND
  0
MTEXT
  5
82
330
6C
100
AcDbEntity
  8
0
  6
Continuous
 62
     0
370
     0
100
AcDbMText
 10
1.428571396640368
 20
-2.530422601050564
 30
0.0
 40
0.1889880952380952
 41
0.0
 71
     1
 72
     1
  1
DRILL MULTIPLE THERMAL VIAS 0.25~0.33mm DIAMETER USING 0.8~1.2mm PITCH GRID.
  7
SLDTEXTSTYLE0
 73
     1
 44
1.0
1001
ACAD
1000
MTEXTBEGIN
1070
    73
1070
     1
1070
    44
1040
1.0
1070
    74
1070
     0
1000
MTEXTEND
  0
MTEXT
  5
83
330
6C
100
AcDbEntity
  8
0
  6
Continuous
 62
     0
370
     0
100
AcDbMText
 10
0.7142857142857145
 20
-2.530422601050564
 30
0.0
 40
0.1889880952380952
 41
0.0
 71
     1
 72
     1
  1
B.
  7
SLDTEXTSTYLE0
 73
     1
 44
1.0
1001
ACAD
1000
MTEXTBEGIN
1070
    73
1070
     1
1070
    44
1040
1.0
1070
    74
1070
     0
1000
MTEXTEND
  0
MTEXT
  5
84
330
6C
100
AcDbEntity
  8
0
  6
Continuous
 62
     0
370
     0
100
AcDbMText
 10
1.428571396640368
 20
-2.782406724989414
 30
0.0
 40
0.1889880952380952
 41
0.0
 71
     1
 72
     1
  1
PLATE THERMAL VIA BARRELS WITH 1-OUNCE COPPER (18µm).
  7
SLDTEXTSTYLE0
 73
     1
 44
1.0
1001
ACAD
1000
MTEXTBEGIN
1070
    73
1070
     1
1070
    44
1040
1.0
1070
    74
1070
     0
1000
MTEXTEND
  0
MTEXT
  5
85
330
6C
100
AcDbEntity
  8
0
  6
Continuous
 62
     0
370
     0
100
AcDbMText
 10
0.7142857142857145
 20
-2.782406724989414
 30
0.0
 40
0.1889880952380952
 41
0.0
 71
     1
 72
     1
  1
C.
  7
SLDTEXTSTYLE0
 73
     1
 44
1.0
1001
ACAD
1000
MTEXTBEGIN
1070
    73
1070
     1
1070
    44
1040
1.0
1070
    74
1070
     0
1000
MTEXTEND
  0
MTEXT
  5
86
330
6C
100
AcDbEntity
  8
0
  6
Continuous
 62
     0
370
     0
100
AcDbMText
 10
1.428571396640368
 20
-3.034390848928264
 30
0.0
 40
0.1889880952380952
 41
0.0
 71
     1
 72
     1
  1
TENT (COVER) THERMAL VIAS WITH SOLDER MASK 0.1mm LARGER THAN THE VIA DIAMETER.
  7
SLDTEXTSTYLE0
 73
     1
 44
1.0
1001
ACAD
1000
MTEXTBEGIN
1070
    73
1070
     1
1070
    44
1040
1.0
1070
    74
1070
     0
1000
MTEXTEND
  0
MTEXT
  5
87
330
6C
100
AcDbEntity
  8
0
  6
Continuous
 62
     0
370
     0
100
AcDbMText
 10
0.7142857142857145
 20
-3.034390848928264
 30
0.0
 40
0.1889880952380952
 41
0.0
 71
     1
 72
     1
  1
D.
  7
SLDTEXTSTYLE0
 73
     1
 44
1.0
1001
ACAD
1000
MTEXTBEGIN
1070
    73
1070
     1
1070
    44
1040
1.0
1070
    74
1070
     0
1000
MTEXTEND
  0
MTEXT
  5
88
330
6C
100
AcDbEntity
  8
0
  6
Continuous
 62
     0
370
     0
100
AcDbMText
 10
0.7142856983201844
 20
-3.286374972867113
 30
0.0
 40
0.1889880952380952
 41
0.0
 71
     1
 72
     1
  1
STENCIL DESIGN MAY BE CHANGED TO SUITE REQUIREMENTS OF THE DESIGNER.
  7
SLDTEXTSTYLE0
 73
     1
 44
1.0
1001
ACAD
1000
MTEXTBEGIN
1070
    73
1070
     1
1070
    44
1040
1.0
1070
    74
1070
     0
1000
MTEXTEND
  0
MTEXT
  5
89
330
6C
100
AcDbEntity
  8
0
  6
Continuous
 62
     0
370
     0
100
AcDbMText
 10
0.0
 20
-3.286374972867113
 30
0.0
 40
0.1889880952380952
 41
0.0
 71
     1
 72
     1
  1
8.
  7
SLDTEXTSTYLE0
 73
     1
 44
1.0
1001
ACAD
1000
MTEXTBEGIN
1070
    73
1070
     1
1070
    44
1040
1.0
1070
    74
1070
     0
1000
MTEXTEND
  0
MTEXT
  5
8A
330
6C
100
AcDbEntity
  8
0
  6
Continuous
 62
     0
370
     0
100
AcDbMText
 10
1.428571396640368
 20
-3.538359096805963
 30
0.0
 40
0.1889880952380952
 41
0.0
 71
     1
 72
     1
  1
LASER CUT STENCIL 0.125mm (5mil) THICK.  APERTURE SIZE-TO-LAND RATIO OF 1:1.
  7
SLDTEXTSTYLE0
 73
     1
 44
1.0
1001
ACAD
1000
MTEXTBEGIN
1070
    73
1070
     1
1070
    44
1040
1.0
1070
    74
1070
     0
1000
MTEXTEND
  0
MTEXT
  5
8B
330
6C
100
AcDbEntity
  8
0
  6
Continuous
 62
     0
370
     0
100
AcDbMText
 10
0.7142857142857145
 20
-3.538359096805963
 30
0.0
 40
0.1889880952380952
 41
0.0
 71
     1
 72
     1
  1
A.
  7
SLDTEXTSTYLE0
 73
     1
 44
1.0
1001
ACAD
1000
MTEXTBEGIN
1070
    73
1070
     1
1070
    44
1040
1.0
1070
    74
1070
     0
1000
MTEXTEND
  0
MTEXT
  5
8C
330
6C
100
AcDbEntity
  8
0
  6
Continuous
 62
     0
370
     0
100
AcDbMText
 10
1.428571396640368
 20
-3.790343220744814
 30
0.0
 40
0.1889880952380952
 41
0.0
 71
     1
 72
     1
  1
THE SOLDER PASTE OPENING IN THE THERMAL PAD AREA SHOULD BE A MATRIX ARRAY OF 
  7
SLDTEXTSTYLE0
 73
     1
 44
1.0
1001
ACAD
1000
MTEXTBEGIN
1070
    73
1070
     1
1070
    44
1040
1.0
1070
    74
1070
     0
1000
MTEXTEND
  0
MTEXT
  5
8D
330
6C
100
AcDbEntity
  8
0
  6
Continuous
 62
     0
370
     0
100
AcDbMText
 10
0.7142857142857145
 20
-3.790343220744814
 30
0.0
 40
0.1889880952380952
 41
0.0
 71
     1
 72
     1
  1
B.
  7
SLDTEXTSTYLE0
 73
     1
 44
1.0
1001
ACAD
1000
MTEXTBEGIN
1070
    73
1070
     1
1070
    44
1040
1.0
1070
    74
1070
     0
1000
MTEXTEND
  0
MTEXT
  5
8E
330
6C
100
AcDbEntity
  8
0
  6
Continuous
 62
     0
370
     0
100
AcDbMText
 10
1.428571396640368
 20
-4.042327344683664
 30
0.0
 40
0.1889880952380952
 41
0.0
 71
     1
 72
     1
  1
SMALLER APERATURES INSTEAD OF ONE LARGE APERATURE TO CONTROL PASTE AMOUNTS.
  7
SLDTEXTSTYLE0
 73
     1
 44
1.0
1001
ACAD
1000
MTEXTBEGIN
1070
    73
1070
     1
1070
    44
1040
1.0
1070
    74
1070
     0
1000
MTEXTEND
  0
MTEXT
  5
8F
330
6C
100
AcDbEntity
  8
0
  6
Continuous
 62
     0
370
     0
100
AcDbMText
 10
1.428571396640368
 20
-4.294311468622513
 30
0.0
 40
0.1889880952380952
 41
0.0
 71
     1
 72
     1
  1
APPLY 50% TO 80% SOLDER PASTE COVERAGE IN THE PAD AREA.
  7
SLDTEXTSTYLE0
 73
     1
 44
1.0
1001
ACAD
1000
MTEXTBEGIN
1070
    73
1070
     1
1070
    44
1040
1.0
1070
    74
1070
     0
1000
MTEXTEND
  0
MTEXT
  5
90
330
6C
100
AcDbEntity
  8
0
  6
Continuous
 62
     0
370
     0
100
AcDbMText
 10
0.7142857142857145
 20
-4.294311468622513
 30
0.0
 40
0.1889880952380952
 41
0.0
 71
     1
 72
     1
  1
C.
  7
SLDTEXTSTYLE0
 73
     1
 44
1.0
1001
ACAD
1000
MTEXTBEGIN
1070
    73
1070
     1
1070
    44
1040
1.0
1070
    74
1070
     0
1000
MTEXTEND
  0
ENDBLK
  5
6E
330
6C
100
AcDbEntity
  8
0
100
AcDbBlockEnd
  0
BLOCK
  5
93
330
92
100
AcDbEntity
  8
0
100
AcDbBlockBegin
  2
SW_NOTE_20
 70
     0
 10
0.0
 20
0.0
 30
0.0
  3
SW_NOTE_20
  1

  0
MTEXT
  5
95
330
92
100
AcDbEntity
  8
0
  6
Continuous
 62
     0
370
     0
100
AcDbMText
 10
2.09599609375
 20
0.3379638671875
 30
0.0
 40
0.2645833333333333
 41
0.0
 71
     2
 72
     1
  1
20-LEAD 5mm P=0.65mm 
  7
SLDTEXTSTYLE0
 73
     1
 44
1.0
1001
ACAD
1000
MTEXTBEGIN
1070
    73
1070
     1
1070
    44
1040
1.0
1070
    74
1070
     0
1000
MTEXTEND
  0
MTEXT
  5
96
330
92
100
AcDbEntity
  8
0
  6
Continuous
 62
     0
370
     0
100
AcDbMText
 10
2.049632900172755
 20
-0.01481390632689
 30
0.0
 40
0.2645833333333333
 41
0.0
 71
     2
 72
     1
  1
QFN CAVITY PACKAGE
  7
SLDTEXTSTYLE0
 73
     1
 44
1.0
1001
ACAD
1000
MTEXTBEGIN
1070
    73
1070
     1
1070
    44
1040
1.0
1070
    74
1070
     0
1000
MTEXTEND
  0
ENDBLK
  5
94
330
92
100
AcDbEntity
  8
0
100
AcDbBlockEnd
  0
BLOCK
  5
A4
330
A3
100
AcDbEntity
  8
0
100
AcDbBlockBegin
  2
SW_NOTE_21
 70
     0
 10
0.0
 20
0.0
 30
0.0
  3
SW_NOTE_21
  1

  0
MTEXT
  5
A6
330
A3
100
AcDbEntity
  8
0
  6
Continuous
 62
     0
370
     0
100
AcDbMText
 10
0.5102678571428575
 20
0.2896833147321428
 30
0.0
 40
0.2267857142857142
 41
0.0
 71
     2
 72
     1
  1
462070
  7
SLDTEXTSTYLE1
 73
     1
 44
1.0
1001
ACAD
1000
MTEXTBEGIN
1070
    73
1070
     1
1070
    44
1040
1.0
1070
    74
1070
     0
1000
MTEXTEND
  0
MTEXT
  5
A7
330
A3
100
AcDbEntity
  8
0
  6
Continuous
 62
     0
370
     0
100
AcDbMText
 10
0.5122627271605396
 20
-0.0126976339944772
 30
0.0
 40
0.2267857142857142
 41
0.0
 71
     2
 72
     1
  1
M-QFN20W.65
  7
SLDTEXTSTYLE1
 73
     1
 44
1.0
1001
ACAD
1000
MTEXTBEGIN
1070
    73
1070
     1
1070
    44
1040
1.0
1070
    74
1070
     0
1000
MTEXTEND
  0
ENDBLK
  5
A5
330
A3
100
AcDbEntity
  8
0
100
AcDbBlockEnd
  0
BLOCK
  5
228
330
227
100
AcDbEntity
  8
0
100
AcDbBlockBegin
  2
_D
 70
     0
 10
0.0
 20
0.0
 30
0.0
  3
_D
  1

  0
SOLID
  5
22A
330
227
100
AcDbEntity
  8
0
  6
Continuous
 62
     7
370
     0
100
AcDbTrace
 10
1.574854927204262
 20
7.333854545757756
 30
0.0
 11
1.592712070061404
 21
7.4767116886149
 31
0.0
 12
1.556997784347118
 22
7.4767116886149
 32
0.0
 13
1.556997784347118
 23
7.4767116886149
 33
0.0
  0
SOLID
  5
22B
330
227
100
AcDbEntity
  8
0
  6
Continuous
 62
     7
370
     0
100
AcDbTrace
 10
1.574854927204244
 20
12.33385454575775
 30
0.0
 11
1.556997784347102
 21
12.19099740290061
 31
0.0
 12
1.592712070061387
 22
12.19099740290061
 32
0.0
 13
1.592712070061387
 23
12.19099740290061
 33
0.0
  0
LINE
  5
22C
330
227
100
AcDbEntity
  8
0
  6
Continuous
 62
     7
370
     0
100
AcDbLine
 10
3.239140641489992
 20
7.333854545757762
 30
0.0
 11
1.431997784347119
 21
7.333854545757756
 31
0.0
  0
LINE
  5
22D
330
227
100
AcDbEntity
  8
0
  6
Continuous
 62
     7
370
     0
100
AcDbLine
 10
3.239140641489974
 20
12.33385454575776
 30
0.0
 11
1.431997784347102
 21
12.33385454575775
 31
0.0
  0
LINE
  5
22E
330
227
100
AcDbEntity
  8
0
  6
Continuous
 62
     7
370
     0
100
AcDbLine
 10
1.574854927204262
 20
7.333854545757756
 30
0.0
 11
1.574854927204254
 21
9.690275728023769
 31
0.0
  0
LINE
  5
22F
330
227
100
AcDbEntity
  8
0
  6
Continuous
 62
     7
370
     0
100
AcDbLine
 10
1.574854927204244
 20
12.33385454575775
 30
0.0
 11
1.574854927204252
 21
9.977433363491748
 31
0.0
  0
MTEXT
  5
230
330
227
100
AcDbEntity
  8
0
  6
Continuous
 62
     7
370
     0
100
AcDbMText
 10
1.511042119322479
 20
9.931678486142864
 30
-0.0000000000000687
 40
0.1889880952380952
 41
0.0
 71
     1
 72
     1
  1
5
  7
SLDTEXTSTYLE0
 73
     1
 44
1.0
1001
ACAD
1000
MTEXTBEGIN
1070
    73
1070
     1
1070
    44
1040
1.0
1070
    74
1070
     0
1000
MTEXTEND
  0
ENDBLK
  5
229
330
227
100
AcDbEntity
  8
0
100
AcDbBlockEnd
  0
BLOCK
  5
234
330
233
100
AcDbEntity
  8
0
100
AcDbBlockBegin
  2
_D_1
 70
     0
 10
0.0
 20
0.0
 30
0.0
  3
_D_1
  1

  0
SOLID
  5
236
330
233
100
AcDbEntity
  8
0
  6
Continuous
 62
     7
370
     0
100
AcDbTrace
 10
1.059851417297555
 20
12.53385454575775
 30
0.0
 11
1.041994274440412
 21
12.39099740290061
 31
0.0
 12
1.077708560154698
 22
12.39099740290061
 32
0.0
 13
1.077708560154698
 23
12.39099740290061
 33
0.0
  0
SOLID
  5
237
330
233
100
AcDbEntity
  8
0
  6
Continuous
 62
     7
370
     0
100
AcDbTrace
 10
1.059851417297573
 20
7.133854545757755
 30
0.0
 11
1.077708560154715
 21
7.276711688614899
 31
0.0
 12
1.041994274440429
 22
7.276711688614899
 32
0.0
 13
1.041994274440429
 23
7.276711688614899
 33
0.0
  0
LINE
  5
238
330
233
100
AcDbEntity
  8
0
  6
Continuous
 62
     7
370
     0
100
AcDbLine
 10
4.289140641489974
 20
12.53385454575776
 30
0.0
 11
0.9169942744404123
 21
12.53385454575775
 31
0.0
  0
LINE
  5
239
330
233
100
AcDbEntity
  8
0
  6
Continuous
 62
     7
370
     0
100
AcDbLine
 10
4.289140641489993
 20
7.133854545757766
 30
0.0
 11
0.9169942744404302
 21
7.133854545757755
 31
0.0
  0
LINE
  5
23A
330
233
100
AcDbEntity
  8
0
  6
Continuous
 62
     7
370
     0
100
AcDbLine
 10
1.059851417297555
 20
12.53385454575775
 30
0.0
 11
1.059851417297563
 21
9.977433363491746
 31
0.0
  0
LINE
  5
23B
330
233
100
AcDbEntity
  8
0
  6
Continuous
 62
     7
370
     0
100
AcDbLine
 10
1.059851417297573
 20
7.133854545757755
 30
0.0
 11
1.059851417297564
 21
9.690275728023767
 31
0.0
  0
MTEXT
  5
23C
330
233
100
AcDbEntity
  8
0
  6
Continuous
 62
     7
370
     0
100
AcDbMText
 10
0.8205533877409145
 20
9.93167848614286
 30
-0.0000000000000687
 40
0.1889880952380952
 41
0.0
 71
     1
 72
     1
  1
5.40
  7
SLDTEXTSTYLE0
 73
     1
 44
1.0
1001
ACAD
1000
MTEXTBEGIN
1070
    73
1070
     1
1070
    44
1040
1.0
1070
    74
1070
     0
1000
MTEXTEND
  0
ENDBLK
  5
235
330
233
100
AcDbEntity
  8
0
100
AcDbBlockEnd
  0
BLOCK
  5
23F
330
23E
100
AcDbEntity
  8
0
100
AcDbBlockBegin
  2
_D_2
 70
     0
 10
0.0
 20
0.0
 30
0.0
  3
_D_2
  1

  0
SOLID
  5
241
330
23E
100
AcDbEntity
  8
0
  6
Continuous
 62
     7
370
     0
100
AcDbTrace
 10
11.93827745039789
 20
8.208854545757791
 30
0.0
 11
11.95613459325503
 21
8.351711688614933
 31
0.0
 12
11.92042030754074
 22
8.351711688614933
 32
0.0
 13
11.92042030754074
 23
8.351711688614933
 33
0.0
  0
SOLID
  5
242
330
23E
100
AcDbEntity
  8
0
  6
Continuous
 62
     7
370
     0
100
AcDbTrace
 10
11.93827745039787
 20
11.45885454575779
 30
0.0
 11
11.92042030754073
 21
11.31599740290065
 31
0.0
 12
11.95613459325502
 22
11.31599740290065
 32
0.0
 13
11.95613459325502
 23
11.31599740290065
 33
0.0
  0
LINE
  5
243
330
23E
100
AcDbEntity
  8
0
  6
Continuous
 62
     7
370
     0
100
AcDbLine
 10
7.578426355775704
 20
8.208854545757775
 30
0.0
 11
12.08113459325503
 21
8.208854545757793
 31
0.0
  0
LINE
  5
244
330
23E
100
AcDbEntity
  8
0
  6
Continuous
 62
     7
370
     0
100
AcDbLine
 10
7.578426355775692
 20
11.45885454575777
 30
0.0
 11
12.08113459325502
 21
11.45885454575779
 31
0.0
  0
LINE
  5
245
330
23E
100
AcDbEntity
  8
0
  6
Continuous
 62
     7
370
     0
100
AcDbLine
 10
11.93827745039789
 20
8.208854545757791
 30
0.0
 11
11.93827745039788
 21
9.690275728023802
 31
0.0
  0
LINE
  5
246
330
23E
100
AcDbEntity
  8
0
  6
Continuous
 62
     7
370
     0
100
AcDbLine
 10
11.93827745039787
 20
11.45885454575779
 30
0.0
 11
11.93827745039788
 21
9.977433363491783
 31
0.0
  0
MTEXT
  5
247
330
23E
100
AcDbEntity
  8
0
  6
Continuous
 62
     7
370
     0
100
AcDbMText
 10
11.69897942084124
 20
9.931678486142898
 30
-0.0000000000000687
 40
0.1889880952380952
 41
0.0
 71
     1
 72
     1
  1
3.25
  7
SLDTEXTSTYLE0
 73
     1
 44
1.0
1001
ACAD
1000
MTEXTBEGIN
1070
    73
1070
     1
1070
    44
1040
1.0
1070
    74
1070
     0
1000
MTEXTEND
  0
ENDBLK
  5
240
330
23E
100
AcDbEntity
  8
0
100
AcDbBlockEnd
  0
BLOCK
  5
24A
330
249
100
AcDbEntity
  8
0
100
AcDbBlockBegin
  2
_D_3
 70
     0
 10
0.0
 20
0.0
 30
0.0
  3
_D_3
  1

  0
SOLID
  5
24C
330
249
100
AcDbEntity
  8
0
  6
Continuous
 62
     7
370
     0
100
AcDbTrace
 10
3.346283498632826
 20
13.78823430165121
 30
0.0
 11
3.489140641489969
 21
13.77037715879407
 31
0.0
 12
3.489140641489969
 22
13.80609144450835
 32
0.0
 13
3.489140641489969
 23
13.80609144450835
 33
0.0
  0
SOLID
  5
24D
330
249
100
AcDbEntity
  8
0
  6
Continuous
 62
     7
370
     0
100
AcDbTrace
 10
8.346283498632827
 20
13.78823430165123
 30
0.0
 11
8.203426355775684
 21
13.80609144450837
 31
0.0
 12
8.203426355775684
 22
13.77037715879409
 32
0.0
 13
8.203426355775684
 23
13.77037715879409
 33
0.0
  0
LINE
  5
24E
330
249
100
AcDbEntity
  8
0
  6
Continuous
 62
     7
370
     0
100
AcDbLine
 10
3.346283498632831
 20
12.44099740290062
 30
0.0
 11
3.346283498632826
 21
13.93109144450835
 31
0.0
  0
LINE
  5
24F
330
249
100
AcDbEntity
  8
0
  6
Continuous
 62
     7
370
     0
100
AcDbLine
 10
8.346283498632832
 20
12.44099740290063
 30
0.0
 11
8.346283498632827
 21
13.93109144450837
 31
0.0
  0
LINE
  5
250
330
249
100
AcDbEntity
  8
0
  6
Continuous
 62
     7
370
     0
100
AcDbLine
 10
3.346283498632826
 20
13.78823430165121
 30
0.0
 11
5.669077833608198
 21
13.78823430165122
 31
0.0
  0
LINE
  5
251
330
249
100
AcDbEntity
  8
0
  6
Continuous
 62
     7
370
     0
100
AcDbLine
 10
8.346283498632827
 20
13.78823430165123
 30
0.0
 11
6.023489163657458
 21
13.78823430165122
 31
0.0
  0
MTEXT
  5
252
330
249
100
AcDbEntity
  8
0
  6
Continuous
 62
     7
370
     0
100
AcDbMText
 10
5.782470690751054
 20
13.88605824203632
 30
-0.0000000000000964
 40
0.1889880952380952
 41
0.0
 71
     1
 72
     1
  1
5
  7
SLDTEXTSTYLE0
 73
     1
 44
1.0
1001
ACAD
1000
MTEXTBEGIN
1070
    73
1070
     1
1070
    44
1040
1.0
1070
    74
1070
     0
1000
MTEXTEND
  0
ENDBLK
  5
24B
330
249
100
AcDbEntity
  8
0
100
AcDbBlockEnd
  0
BLOCK
  5
255
330
254
100
AcDbEntity
  8
0
100
AcDbBlockBegin
  2
_D_4
 70
     0
 10
0.0
 20
0.0
 30
0.0
  3
_D_4
  1

  0
SOLID
  5
257
330
254
100
AcDbEntity
  8
0
  6
Continuous
 62
     7
370
     0
100
AcDbTrace
 10
3.146283498632789
 20
14.35286002620548
 30
0.0
 11
3.289140641489932
 21
14.33500288334834
 31
0.0
 12
3.289140641489932
 22
14.37071716906263
 32
0.0
 13
3.289140641489932
 23
14.37071716906263
 33
0.0
  0
SOLID
  5
258
330
254
100
AcDbEntity
  8
0
  6
Continuous
 62
     7
370
     0
100
AcDbTrace
 10
8.546283498632778
 20
14.35286002620556
 30
0.0
 11
8.403426355775636
 21
14.3707171690627
 31
0.0
 12
8.403426355775636
 22
14.33500288334841
 32
0.0
 13
8.403426355775636
 23
14.33500288334841
 33
0.0
  0
LINE
  5
259
330
254
100
AcDbEntity
  8
0
  6
Continuous
 62
     7
370
     0
100
AcDbLine
 10
3.146283498632829
 20
11.39099740290061
 30
0.0
 11
3.146283498632787
 21
14.49571716906263
 31
0.0
  0
LINE
  5
25A
330
254
100
AcDbEntity
  8
0
  6
Continuous
 62
     7
370
     0
100
AcDbLine
 10
8.546283498632819
 20
11.39099740290066
 30
0.0
 11
8.546283498632776
 21
14.4957171690627
 31
0.0
  0
LINE
  5
25B
330
254
100
AcDbEntity
  8
0
  6
Continuous
 62
     7
370
     0
100
AcDbLine
 10
3.146283498632789
 20
14.35286002620548
 30
0.0
 11
5.493592611933278
 21
14.35286002620552
 31
0.0
  0
LINE
  5
25C
330
254
100
AcDbEntity
  8
0
  6
Continuous
 62
     7
370
     0
100
AcDbLine
 10
8.546283498632778
 20
14.35286002620556
 30
0.0
 11
6.198974385332292
 21
14.35286002620553
 31
0.0
  0
MTEXT
  5
25D
330
254
100
AcDbEntity
  8
0
  6
Continuous
 62
     7
370
     0
100
AcDbMText
 10
5.606985469076136
 20
14.45068396659063
 30
-0.0000000000001003
 40
0.1889880952380952
 41
0.0
 71
     1
 72
     1
  1
5.40
  7
SLDTEXTSTYLE0
 73
     1
 44
1.0
1001
ACAD
1000
MTEXTBEGIN
1070
    73
1070
     1
1070
    44
1040
1.0
1070
    74
1070
     0
1000
MTEXTEND
  0
ENDBLK
  5
256
330
254
100
AcDbEntity
  8
0
100
AcDbBlockEnd
  0
BLOCK
  5
260
330
25F
100
AcDbEntity
  8
0
100
AcDbBlockBegin
  2
_D_5
 70
     0
 10
0.0
 20
0.0
 30
0.0
  3
_D_5
  1

  0
SOLID
  5
262
330
25F
100
AcDbEntity
  8
0
  6
Continuous
 62
     7
370
     0
100
AcDbTrace
 10
4.546283498632828
 20
13.24814026004349
 30
0.0
 11
4.689140641489971
 21
13.23028311718634
 31
0.0
 12
4.689140641489971
 22
13.26599740290063
 32
0.0
 13
4.689140641489971
 23
13.26599740290063
 33
0.0
  0
SOLID
  5
263
330
25F
100
AcDbEntity
  8
0
  6
Continuous
 62
     7
370
     0
100
AcDbTrace
 10
7.146283498632826
 20
13.2481402600435
 30
0.0
 11
7.003426355775683
 21
13.26599740290064
 31
0.0
 12
7.003426355775683
 22
13.23028311718636
 32
0.0
 13
7.003426355775683
 23
13.23028311718636
 33
0.0
  0
LINE
  5
264
330
25F
100
AcDbEntity
  8
0
  6
Continuous
 62
     7
370
     0
100
AcDbLine
 10
4.546283498632829
 20
12.85528311718633
 30
0.0
 11
4.546283498632826
 21
13.39099740290063
 31
0.0
  0
LINE
  5
265
330
25F
100
AcDbEntity
  8
0
  6
Continuous
 62
     7
370
     0
100
AcDbLine
 10
7.146283498632827
 20
12.85528311718634
 30
0.0
 11
7.146283498632826
 21
13.39099740290064
 31
0.0
  0
LINE
  5
266
330
25F
100
AcDbEntity
  8
0
  6
Continuous
 62
     7
370
     0
100
AcDbLine
 10
4.546283498632828
 20
13.24814026004349
 30
0.0
 11
5.49359261193332
 21
13.24814026004349
 31
0.0
  0
LINE
  5
267
330
25F
100
AcDbEntity
  8
0
  6
Continuous
 62
     7
370
     0
100
AcDbLine
 10
7.146283498632826
 20
13.2481402600435
 30
0.0
 11
6.198974385332336
 21
13.2481402600435
 31
0.0
  0
MTEXT
  5
268
330
25F
100
AcDbEntity
  8
0
  6
Continuous
 62
     7
370
     0
100
AcDbMText
 10
5.606985469076176
 20
13.3459642004286
 30
-0.0000000000000926
 40
0.1889880952380952
 41
0.0
 71
     1
 72
     1
  1
2.60
  7
SLDTEXTSTYLE0
 73
     1
 44
1.0
1001
ACAD
1000
MTEXTBEGIN
1070
    73
1070
     1
1070
    44
1040
1.0
1070
    74
1070
     0
1000
MTEXTEND
  0
ENDBLK
  5
261
330
25F
100
AcDbEntity
  8
0
100
AcDbBlockEnd
  0
BLOCK
  5
26B
330
26A
100
AcDbEntity
  8
0
100
AcDbBlockBegin
  2
_D_6
 70
     0
 10
0.0
 20
0.0
 30
0.0
  3
_D_6
  1

  0
SOLID
  5
26D
330
26A
100
AcDbEntity
  8
0
  6
Continuous
 62
     7
370
     0
100
AcDbTrace
 10
2.148549447682946
 20
11.13385454575774
 30
0.0
 11
2.130692304825804
 21
10.9909974029006
 31
0.0
 12
2.16640659054009
 22
10.9909974029006
 32
0.0
 13
2.16640659054009
 23
10.9909974029006
 33
0.0
  0
SOLID
  5
26E
330
26A
100
AcDbEntity
  8
0
  6
Continuous
 62
     7
370
     0
100
AcDbTrace
 10
2.148549447682963
 20
8.533854545757742
 30
0.0
 11
2.166406590540105
 21
8.676711688614885
 31
0.0
 12
2.130692304825819
 22
8.676711688614885
 32
0.0
 13
2.130692304825819
 23
8.676711688614885
 33
0.0
  0
LINE
  5
26F
330
26A
100
AcDbEntity
  8
0
  6
Continuous
 62
     7
370
     0
100
AcDbLine
 10
2.824854927204258
 20
11.13385454575775
 30
0.0
 11
2.005692304825803
 21
11.13385454575774
 31
0.0
  0
LINE
  5
270
330
26A
100
AcDbEntity
  8
0
  6
Continuous
 62
     7
370
     0
100
AcDbLine
 10
2.824854927204278
 20
8.533854545757746
 30
0.0
 11
2.00569230482582
 21
8.533854545757742
 31
0.0
  0
LINE
  5
271
330
26A
100
AcDbEntity
  8
0
  6
Continuous
 62
     7
370
     0
100
AcDbLine
 10
2.148549447682946
 20
11.13385454575774
 30
0.0
 11
2.148549447682954
 21
9.977433363491732
 31
0.0
  0
LINE
  5
272
330
26A
100
AcDbEntity
  8
0
  6
Continuous
 62
     7
370
     0
100
AcDbLine
 10
2.148549447682963
 20
8.533854545757742
 30
0.0
 11
2.148549447682955
 21
9.690275728023754
 31
0.0
  0
MTEXT
  5
273
330
26A
100
AcDbEntity
  8
0
  6
Continuous
 62
     7
370
     0
100
AcDbMText
 10
1.909251418126304
 20
9.93167848614285
 30
-0.0000000000000687
 40
0.1889880952380952
 41
0.0
 71
     1
 72
     1
  1
2.60
  7
SLDTEXTSTYLE0
 73
     1
 44
1.0
1001
ACAD
1000
MTEXTBEGIN
1070
    73
1070
     1
1070
    44
1040
1.0
1070
    74
1070
     0
1000
MTEXTEND
  0
ENDBLK
  5
26C
330
26A
100
AcDbEntity
  8
0
100
AcDbBlockEnd
  0
BLOCK
  5
277
330
276
100
AcDbEntity
  8
0
100
AcDbBlockBegin
  2
_D_7
 70
     0
 10
0.0
 20
0.0
 30
0.0
  3
_D_7
  1

  0
SOLID
  5
279
330
276
100
AcDbEntity
  8
0
  6
Continuous
 62
     7
370
     0
100
AcDbTrace
 10
2.634905483006283
 20
10.48385454575774
 30
0.0
 11
2.617048340149141
 21
10.3409974029006
 31
0.0
 12
2.652762625863427
 22
10.3409974029006
 32
0.0
 13
2.652762625863427
 23
10.3409974029006
 33
0.0
  0
SOLID
  5
27A
330
276
100
AcDbEntity
  8
0
  6
Continuous
 62
     7
370
     0
100
AcDbTrace
 10
2.634905483006279
 20
11.13385454575774
 30
0.0
 11
2.652762625863421
 21
11.27671168861489
 31
0.0
 12
2.617048340149136
 22
11.27671168861489
 32
0.0
 13
2.617048340149136
 23
11.27671168861489
 33
0.0
  0
LINE
  5
27B
330
276
100
AcDbEntity
  8
0
  6
Continuous
 62
     7
370
     0
100
AcDbLine
 10
2.824854927204263
 20
10.48385454575774
 30
0.0
 11
2.49204834014914
 21
10.48385454575774
 31
0.0
  0
LINE
  5
27C
330
276
100
AcDbEntity
  8
0
  6
Continuous
 62
     7
370
     0
100
AcDbLine
 10
2.824854927204258
 20
11.13385454575775
 30
0.0
 11
2.492048340149136
 21
11.13385454575774
 31
0.0
  0
LINE
  5
27D
330
276
100
AcDbEntity
  8
0
  6
Continuous
 62
     7
370
     0
100
AcDbLine
 10
2.634905483006283
 20
10.48385454575774
 30
0.0
 11
2.634905483006285
 21
10.19814026004346
 31
0.0
  0
LINE
  5
27E
330
276
100
AcDbEntity
  8
0
  6
Continuous
 62
     7
370
     0
100
AcDbLine
 10
2.634905483006279
 20
11.13385454575774
 30
0.0
 11
2.634905483006277
 21
11.41956883147203
 31
0.0
  0
MTEXT
  5
27F
330
276
100
AcDbEntity
  8
0
  6
Continuous
 62
     7
370
     0
100
AcDbMText
 10
2.395607453449632
 20
10.90667848614285
 30
-0.0000000000000756
 40
0.1889880952380952
 41
0.0
 71
     1
 72
     1
  1
0.65
  7
SLDTEXTSTYLE0
 73
     1
 44
1.0
1001
ACAD
1000
MTEXTBEGIN
1070
    73
1070
     1
1070
    44
1040
1.0
1070
    74
1070
     0
1000
MTEXTEND
  0
ENDBLK
  5
278
330
276
100
AcDbEntity
  8
0
100
AcDbBlockEnd
  0
BLOCK
  5
283
330
282
100
AcDbEntity
  8
0
100
AcDbBlockBegin
  2
_D_8
 70
     0
 10
0.0
 20
0.0
 30
0.0
  3
_D_8
  1

  0
SOLID
  5
285
330
282
100
AcDbEntity
  8
0
  6
Continuous
 62
     7
370
     0
100
AcDbTrace
 10
2.634905483006272
 20
8.683854545757748
 30
0.0
 11
2.652762625863413
 21
8.82671168861489
 31
0.0
 12
2.617048340149128
 22
8.82671168861489
 32
0.0
 13
2.617048340149128
 23
8.82671168861489
 33
0.0
  0
SOLID
  5
286
330
282
100
AcDbEntity
  8
0
  6
Continuous
 62
     7
370
     0
100
AcDbTrace
 10
2.634905483006274
 20
8.383854545757749
 30
0.0
 11
2.617048340149133
 21
8.240997402900607
 31
0.0
 12
2.652762625863418
 22
8.240997402900607
 32
0.0
 13
2.652762625863418
 23
8.240997402900607
 33
0.0
  0
LINE
  5
287
330
282
100
AcDbEntity
  8
0
  6
Continuous
 62
     7
370
     0
100
AcDbLine
 10
3.039140641489993
 20
8.683854545757752
 30
0.0
 11
2.492048340149129
 21
8.683854545757746
 31
0.0
  0
LINE
  5
288
330
282
100
AcDbEntity
  8
0
  6
Continuous
 62
     7
370
     0
100
AcDbLine
 10
3.039140641489995
 20
8.383854545757751
 30
0.0
 11
2.492048340149132
 21
8.383854545757747
 31
0.0
  0
LINE
  5
289
330
282
100
AcDbEntity
  8
0
  6
Continuous
 62
     7
370
     0
100
AcDbLine
 10
2.420619768720557
 20
7.976278219499786
 30
0.0
 11
2.634905483006272
 21
7.976278219499786
 31
0.0
  0
LINE
  5
28A
330
282
100
AcDbEntity
  8
0
  6
Continuous
 62
     7
370
     0
100
AcDbLine
 10
2.634905483006272
 20
7.976278219499786
 30
0.0
 11
2.634905483006274
 21
8.383854545757749
 31
0.0
  0
LINE
  5
28B
330
282
100
AcDbEntity
  8
0
  6
Continuous
 62
     7
370
     0
100
AcDbLine
 10
2.634905483006272
 20
8.683854545757748
 30
0.0
 11
2.634905483006272
 21
8.969568831472033
 31
0.0
  0
MTEXT
  5
28C
330
282
100
AcDbEntity
  8
0
  6
Continuous
 62
     7
370
     0
100
AcDbMText
 10
1.828630852464399
 20
8.074102159884892
 30
-0.0000000000000558
 40
0.1889880952380952
 41
0.0
 71
     1
 72
     1
  1
0.30
  7
SLDTEXTSTYLE0
 73
     1
 44
1.0
1001
ACAD
1000
MTEXTBEGIN
1070
    73
1070
     1
1070
    44
1040
1.0
1070
    74
1070
     0
1000
MTEXTEND
  0
ENDBLK
  5
284
330
282
100
AcDbEntity
  8
0
100
AcDbBlockEnd
  0
BLOCK
  5
28F
330
28E
100
AcDbEntity
  8
0
100
AcDbBlockBegin
  2
_D_9
 70
     0
 10
0.0
 20
0.0
 30
0.0
  3
_D_9
  1

  0
SOLID
  5
291
330
28E
100
AcDbEntity
  8
0
  6
Continuous
 62
     7
370
     0
100
AcDbTrace
 10
12.68914064149
 20
11.60185454575779
 30
0.0
 11
12.67128349863286
 21
11.45899740290065
 31
0.0
 12
12.70699778434715
 22
11.45899740290065
 32
0.0
 13
12.70699778434715
 23
11.45899740290065
 33
0.0
  0
SOLID
  5
292
330
28E
100
AcDbEntity
  8
0
  6
Continuous
 62
     7
370
     0
100
AcDbTrace
 10
12.68914064149002
 20
8.065854545757796
 30
0.0
 11
12.70699778434716
 21
8.208711688614938
 31
0.0
 12
12.67128349863287
 22
8.208711688614938
 32
0.0
 13
12.67128349863287
 23
8.208711688614938
 33
0.0
  0
LINE
  5
293
330
28E
100
AcDbEntity
  8
0
  6
Continuous
 62
     7
370
     0
100
AcDbLine
 10
7.721426355775692
 20
11.60185454575778
 30
0.0
 11
12.83199778434715
 21
11.60185454575779
 31
0.0
  0
LINE
  5
294
330
28E
100
AcDbEntity
  8
0
  6
Continuous
 62
     7
370
     0
100
AcDbLine
 10
7.721426355775704
 20
8.065854545757778
 30
0.0
 11
12.83199778434716
 21
8.065854545757796
 31
0.0
  0
LINE
  5
295
330
28E
100
AcDbEntity
  8
0
  6
Continuous
 62
     7
370
     0
100
AcDbLine
 10
12.68914064149
 20
11.60185454575779
 30
0.0
 11
12.68914064149001
 21
9.977433363491783
 31
0.0
  0
LINE
  5
296
330
28E
100
AcDbEntity
  8
0
  6
Continuous
 62
     7
370
     0
100
AcDbLine
 10
12.68914064149002
 20
8.065854545757796
 30
0.0
 11
12.68914064149001
 21
9.690275728023804
 31
0.0
  0
MTEXT
  5
297
330
28E
100
AcDbEntity
  8
0
  6
Continuous
 62
     7
370
     0
100
AcDbMText
 10
12.44984261193337
 20
9.931678486142899
 30
-0.0000000000000687
 40
0.1889880952380952
 41
0.0
 71
     1
 72
     1
  1
3.54
  7
SLDTEXTSTYLE0
 73
     1
 44
1.0
1001
ACAD
1000
MTEXTBEGIN
1070
    73
1070
     1
1070
    44
1040
1.0
1070
    74
1070
     0
1000
MTEXTEND
  0
ENDBLK
  5
290
330
28E
100
AcDbEntity
  8
0
100
AcDbBlockEnd
  0
BLOCK
  5
299
330
298
100
AcDbEntity
  8
0
100
AcDbBlockBegin
  2
SW_NOTE_22
 70
     0
 10
0.0
 20
0.0
 30
0.0
  3
SW_NOTE_22
  1

  0
MTEXT
  5
29B
330
298
100
AcDbEntity
  8
0
  6
Continuous
 62
     0
370
     0
100
AcDbMText
 10
0.036775995161803
 20
0.0899244552871811
 30
0.0
 40
0.2078869047619047
 41
0.0
 71
     1
 72
     1
  1
SOLDER MASK 
  7
SLDTEXTSTYLE0
 73
     1
 44
1.0
1001
ACAD
1000
MTEXTBEGIN
1070
    73
1070
     1
1070
    44
1040
1.0
1070
    74
1070
     0
1000
MTEXTEND
  0
MTEXT
  5
29C
330
298
100
AcDbEntity
  8
0
  6
Continuous
 62
     0
370
     0
100
AcDbMText
 10
0.036775995161803
 20
-0.1872580810455539
 30
0.0
 40
0.2078869047619047
 41
0.0
 71
     1
 72
     1
  1
OPENING
  7
SLDTEXTSTYLE0
 73
     1
 44
1.0
1001
ACAD
1000
MTEXTBEGIN
1070
    73
1070
     1
1070
    44
1040
1.0
1070
    74
1070
     0
1000
MTEXTEND
  0
ENDBLK
  5
29A
330
298
100
AcDbEntity
  8
0
100
AcDbBlockEnd
  0
BLOCK
  5
2A0
330
29F
100
AcDbEntity
  8
0
100
AcDbBlockBegin
  2
SW_NOTE_23
 70
     0
 10
0.0
 20
0.0
 30
0.0
  3
SW_NOTE_23
  1

  0
MTEXT
  5
2A2
330
29F
100
AcDbEntity
  8
0
  6
Continuous
 62
     0
370
     0
100
AcDbMText
 10
0.0389471860035038
 20
0.108088895598308
 30
0.0
 40
0.2078869047619047
 41
0.0
 71
     1
 72
     1
  1
PCB THERMAL PAD 
  7
SLDTEXTSTYLE0
 73
     1
 44
1.0
1001
ACAD
1000
MTEXTBEGIN
1070
    73
1070
     1
1070
    44
1040
1.0
1070
    74
1070
     0
1000
MTEXTEND
  0
MTEXT
  5
2A3
330
29F
100
AcDbEntity
  8
0
  6
Continuous
 62
     0
370
     0
100
AcDbMText
 10
0.0389471860035038
 20
-0.169093640734427
 30
0.0
 40
0.2078869047619047
 41
0.0
 71
     1
 72
     1
  1
DESIGN OPTIONAL 
  7
SLDTEXTSTYLE0
 73
     1
 44
1.0
1001
ACAD
1000
MTEXTBEGIN
1070
    73
1070
     1
1070
    44
1040
1.0
1070
    74
1070
     0
1000
MTEXTEND
  0
MTEXT
  5
2A4
330
29F
100
AcDbEntity
  8
0
  6
Continuous
 62
     0
370
     0
100
AcDbMText
 10
0.0389471860035038
 20
-0.446276177067162
 30
0.0
 40
0.2078869047619047
 41
0.0
 71
     1
 72
     1
  1
SEE NOTE 7, 8
  7
SLDTEXTSTYLE0
 73
     1
 44
1.0
1001
ACAD
1000
MTEXTBEGIN
1070
    73
1070
     1
1070
    44
1040
1.0
1070
    74
1070
     0
1000
MTEXTEND
  0
ENDBLK
  5
2A1
330
29F
100
AcDbEntity
  8
0
100
AcDbBlockEnd
  0
BLOCK
  5
2AA
330
2A9
100
AcDbEntity
  8
0
100
AcDbBlockBegin
  2
_DOT
 70
     0
 10
0.0
 20
0.0
 30
0.0
  3
_DOT
  1

  0
POLYLINE
  5
2AC
330
2A9
100
AcDbEntity
  8
0
  6
ByBlock
 62
     0
100
AcDb2dPolyline
 66
     1
 10
0.0
 20
0.0
 30
0.0
 70
     1
 40
0.5
 41
0.5
  0
VERTEX
  5
2AE
330
2AC
100
AcDbEntity
  8
0
  6
ByBlock
 62
     0
100
AcDbVertex
100
AcDb2dVertex
 10
-0.25
 20
0.0
 30
0.0
 42
1.0
  0
VERTEX
  5
2AF
330
2AC
100
AcDbEntity
  8
0
  6
ByBlock
 62
     0
100
AcDbVertex
100
AcDb2dVertex
 10
0.25
 20
0.0
 30
0.0
 42
1.0
  0
SEQEND
  5
2B0
330
2AC
100
AcDbEntity
  8
0
  6
ByBlock
 62
     0
  0
LINE
  5
2AD
330
2A9
100
AcDbEntity
  8
0
  6
ByBlock
 62
     0
370
    -2
100
AcDbLine
 10
-0.5
 20
0.0
 30
0.0
 11
-1.0
 21
0.0
 31
0.0
  0
ENDBLK
  5
2AB
330
2A9
100
AcDbEntity
  8
0
100
AcDbBlockEnd
  0
BLOCK
  5
310
330
30F
100
AcDbEntity
  8
0
100
AcDbBlockBegin
  2
_D_10
 70
     0
 10
0.0
 20
0.0
 30
0.0
  3
_D_10
  1

  0
SOLID
  5
312
330
30F
100
AcDbEntity
  8
0
  6
Continuous
 62
     7
370
     0
100
AcDbTrace
 10
18.80012518663485
 20
7.872064121715706
 30
0.0
 11
18.81798232949199
 21
8.01492126457285
 31
0.0
 12
18.78226804377771
 22
8.01492126457285
 32
0.0
 13
18.78226804377771
 23
8.01492126457285
 33
0.0
  0
SOLID
  5
313
330
30F
100
AcDbEntity
  8
0
  6
Continuous
 62
     7
370
     0
100
AcDbTrace
 10
18.80012518663484
 20
10.01492126457284
 30
0.0
 11
18.7822680437777
 21
9.872064121715702
 31
0.0
 12
18.81798232949198
 22
9.872064121715702
 32
0.0
 13
18.81798232949198
 23
9.872064121715702
 33
0.0
  0
LINE
  5
314
330
30F
100
AcDbEntity
  8
0
  6
Continuous
 62
     7
370
     0
100
AcDbLine
 10
17.74587892239335
 20
7.872064121715703
 30
0.0
 11
18.94298232949199
 21
7.872064121715708
 31
0.0
  0
LINE
  5
315
330
30F
100
AcDbEntity
  8
0
  6
Continuous
 62
     7
370
     0
100
AcDbLine
 10
17.21016463667906
 20
10.01492126457284
 30
0.0
 11
18.94298232949198
 21
10.01492126457284
 31
0.0
  0
LINE
  5
316
330
30F
100
AcDbEntity
  8
0
  6
Continuous
 62
     7
370
     0
100
AcDbLine
 10
18.80012518663485
 20
7.872064121715706
 30
0.0
 11
18.80012518663485
 21
8.799913875410288
 31
0.0
  0
LINE
  5
317
330
30F
100
AcDbEntity
  8
0
  6
Continuous
 62
     7
370
     0
100
AcDbLine
 10
18.80012518663484
 20
10.01492126457284
 30
0.0
 11
18.80012518663485
 21
9.087071510878269
 31
0.0
  0
MTEXT
  5
318
330
30F
100
AcDbEntity
  8
0
  6
Continuous
 62
     7
370
     0
100
AcDbMText
 10
18.5608271570782
 20
9.041316633529381
 30
-0.0000000000000625
 40
0.1889880952380952
 41
0.0
 71
     1
 72
     1
  1
0.60
  7
SLDTEXTSTYLE0
 73
     1
 44
1.0
1001
ACAD
1000
MTEXTBEGIN
1070
    73
1070
     1
1070
    44
1040
1.0
1070
    74
1070
     0
1000
MTEXTEND
  0
ENDBLK
  5
311
330
30F
100
AcDbEntity
  8
0
100
AcDbBlockEnd
  0
BLOCK
  5
31B
330
31A
100
AcDbEntity
  8
0
100
AcDbBlockBegin
  2
_D_11
 70
     0
 10
0.0
 20
0.0
 30
0.0
  3
_D_11
  1

  0
SOLID
  5
31D
330
31A
100
AcDbEntity
  8
0
  6
Continuous
 62
     7
370
     0
100
AcDbTrace
 10
18.16324542933966
 20
8.586349836001412
 30
0.0
 11
18.14538828648251
 21
8.443492693144269
 31
0.0
 12
18.1811025721968
 22
8.443492693144269
 32
0.0
 13
18.1811025721968
 23
8.443492693144269
 33
0.0
  0
SOLID
  5
31E
330
31A
100
AcDbEntity
  8
0
  6
Continuous
 62
     7
370
     0
100
AcDbTrace
 10
18.16324542933966
 20
7.872064121715705
 30
0.0
 11
18.1811025721968
 21
8.014921264572848
 31
0.0
 12
18.14538828648252
 22
8.014921264572848
 32
0.0
 13
18.14538828648252
 23
8.014921264572848
 33
0.0
  0
LINE
  5
31F
330
31A
100
AcDbEntity
  8
0
  6
Continuous
 62
     7
370
     0
100
AcDbLine
 10
17.74587892239335
 20
7.872064121715703
 30
0.0
 11
18.30610257219681
 21
7.872064121715705
 31
0.0
  0
LINE
  5
320
330
31A
100
AcDbEntity
  8
0
  6
Continuous
 62
     7
370
     0
100
AcDbLine
 10
18.37753114362537
 20
7.539239973714808
 30
0.0
 11
18.16324542933966
 21
7.539239973714808
 31
0.0
  0
LINE
  5
321
330
31A
100
AcDbEntity
  8
0
  6
Continuous
 62
     7
370
     0
100
AcDbLine
 10
18.16324542933966
 20
7.539239973714808
 30
0.0
 11
18.16324542933966
 21
7.872064121715705
 31
0.0
  0
LINE
  5
322
330
31A
100
AcDbEntity
  8
0
  6
Continuous
 62
     7
370
     0
100
AcDbLine
 10
18.16324542933966
 20
8.586349836001412
 30
0.0
 11
18.16324542933966
 21
7.872064121715705
 31
0.0
  0
MTEXT
  5
323
330
31A
100
AcDbEntity
  8
0
  6
Continuous
 62
     7
370
     0
100
AcDbMText
 10
18.49092400076823
 20
7.637063914099911
 30
-0.0000000000000527
 40
0.1889880952380952
 41
0.0
 71
     1
 72
     1
  1
0.20
  7
SLDTEXTSTYLE0
 73
     1
 44
1.0
1001
ACAD
1000
MTEXTBEGIN
1070
    73
1070
     1
1070
    44
1040
1.0
1070
    74
1070
     0
1000
MTEXTEND
  0
ENDBLK
  5
31C
330
31A
100
AcDbEntity
  8
0
100
AcDbBlockEnd
  0
BLOCK
  5
327
330
326
100
AcDbEntity
  8
0
100
AcDbBlockBegin
  2
_D_12
 70
     0
 10
0.0
 20
0.0
 30
0.0
  3
_D_12
  1

  0
SOLID
  5
329
330
326
100
AcDbEntity
  8
0
  6
Continuous
 62
     7
370
     0
100
AcDbTrace
 10
16.56730749382192
 20
7.342766857334645
 30
0.0
 11
16.42445035096478
 21
7.360624000191787
 31
0.0
 12
16.42445035096478
 22
7.324909714477501
 32
0.0
 13
16.42445035096478
 23
7.324909714477501
 33
0.0
  0
SOLID
  5
32A
330
326
100
AcDbEntity
  8
0
  6
Continuous
 62
     7
370
     0
100
AcDbTrace
 10
17.63873606525049
 20
7.342766857334649
 30
0.0
 11
17.78159320810764
 21
7.324909714477507
 31
0.0
 12
17.78159320810764
 22
7.360624000191793
 32
0.0
 13
17.78159320810764
 23
7.360624000191793
 33
0.0
  0
LINE
  5
32B
330
326
100
AcDbEntity
  8
0
  6
Continuous
 62
     7
370
     0
100
AcDbLine
 10
16.56730749382192
 20
7.76492126457284
 30
0.0
 11
16.56730749382192
 21
7.199909714477502
 31
0.0
  0
LINE
  5
32C
330
326
100
AcDbEntity
  8
0
  6
Continuous
 62
     7
370
     0
100
AcDbLine
 10
17.63873606525049
 20
7.764921264572848
 30
0.0
 11
17.63873606525049
 21
7.199909714477506
 31
0.0
  0
LINE
  5
32D
330
326
100
AcDbEntity
  8
0
  6
Continuous
 62
     7
370
     0
100
AcDbLine
 10
16.56730749382192
 20
7.342766857334645
 30
0.0
 11
16.28159320810764
 21
7.342766857334644
 31
0.0
  0
LINE
  5
32E
330
326
100
AcDbEntity
  8
0
  6
Continuous
 62
     7
370
     0
100
AcDbLine
 10
17.63873606525049
 20
7.342766857334649
 30
0.0
 11
17.92445035096478
 21
7.34276685733465
 31
0.0
  0
MTEXT
  5
32F
330
326
100
AcDbEntity
  8
0
  6
Continuous
 62
     7
370
     0
100
AcDbMText
 10
16.86372374997955
 20
7.44059079771975
 30
-0.0000000000000513
 40
0.1889880952380952
 41
0.0
 71
     1
 72
     1
  1
0.30
  7
SLDTEXTSTYLE0
 73
     1
 44
1.0
1001
ACAD
1000
MTEXTBEGIN
1070
    73
1070
     1
1070
    44
1040
1.0
1070
    74
1070
     0
1000
MTEXTEND
  0
ENDBLK
  5
328
330
326
100
AcDbEntity
  8
0
100
AcDbBlockEnd
  0
BLOCK
  5
333
330
332
100
AcDbEntity
  8
0
100
AcDbBlockBegin
  2
_D_13
 70
     0
 10
0.0
 20
0.0
 30
0.0
  3
_D_13
  1

  0
SOLID
  5
335
330
332
100
AcDbEntity
  8
0
  6
Continuous
 62
     7
370
     0
100
AcDbTrace
 10
15.58516463667906
 20
6.729206978858517
 30
0.0
 11
15.72802177953621
 21
6.711349836001375
 31
0.0
 12
15.72802177953621
 22
6.747064121715661
 32
0.0
 13
15.72802177953621
 23
6.747064121715661
 33
0.0
  0
SOLID
  5
336
330
332
100
AcDbEntity
  8
0
  6
Continuous
 62
     7
370
     0
100
AcDbTrace
 10
16.29945035096478
 20
6.72920697885852
 30
0.0
 11
16.15659320810764
 21
6.747064121715663
 31
0.0
 12
16.15659320810764
 22
6.711349836001376
 32
0.0
 13
16.15659320810764
 23
6.711349836001376
 33
0.0
  0
LINE
  5
337
330
332
100
AcDbEntity
  8
0
  6
Continuous
 62
     7
370
     0
100
AcDbLine
 10
15.58516463667906
 20
7.497064121715692
 30
0.0
 11
15.58516463667906
 21
6.586349836001375
 31
0.0
  0
LINE
  5
338
330
332
100
AcDbEntity
  8
0
  6
Continuous
 62
     7
370
     0
100
AcDbLine
 10
16.29945035096478
 20
7.497064121715698
 30
0.0
 11
16.29945035096478
 21
6.586349836001377
 31
0.0
  0
LINE
  5
339
330
332
100
AcDbEntity
  8
0
  6
Continuous
 62
     7
370
     0
100
AcDbLine
 10
15.58516463667906
 20
6.729206978858517
 30
0.0
 11
14.26547487071755
 21
6.729206978858513
 31
0.0
  0
LINE
  5
33A
330
332
100
AcDbEntity
  8
0
  6
Continuous
 62
     7
370
     0
100
AcDbLine
 10
16.29945035096478
 20
6.72920697885852
 30
0.0
 11
15.58516463667906
 21
6.729206978858517
 31
0.0
  0
MTEXT
  5
33B
330
332
100
AcDbEntity
  8
0
  6
Continuous
 62
     7
370
     0
100
AcDbMText
 10
12.15793176726928
 20
6.827030919243612
 30
-0.0000000000000471
 40
0.1889880952380952
 41
0.0
 71
     1
 72
     1
  1
0.185~
  7
SLDTEXTSTYLE0
 73
     1
 44
1.0
1001
ACAD
1000
MTEXTBEGIN
1070
    73
1070
     1
1070
    44
1040
1.0
1070
    74
1070
     0
1000
MTEXTEND
  0
MTEXT
  5
33C
330
332
100
AcDbEntity
  8
0
  6
Continuous
 62
     7
370
     0
100
AcDbMText
 10
12.92368546185056
 20
6.827030919243612
 30
-0.0000000000000471
 40
0.1889880952380952
 41
0.0
 71
     1
 72
     1
  1
0.200
  7
SLDTEXTSTYLE0
 73
     1
 44
1.0
1001
ACAD
1000
MTEXTBEGIN
1070
    73
1070
     1
1070
    44
1040
1.0
1070
    74
1070
     0
1000
MTEXTEND
  0
MTEXT
  5
33D
330
332
100
AcDbEntity
  8
0
  6
Continuous
 62
     7
370
     0
100
AcDbMText
 10
13.54586033869785
 20
6.827030919243612
 30
-0.0000000000000471
 40
0.1889880952380952
 41
0.0
 71
     1
 72
     1
  1
 MIN.
  7
SLDTEXTSTYLE0
 73
     1
 44
1.0
1001
ACAD
1000
MTEXTBEGIN
1070
    73
1070
     1
1070
    44
1040
1.0
1070
    74
1070
     0
1000
MTEXTEND
  0
ENDBLK
  5
334
330
332
100
AcDbEntity
  8
0
100
AcDbBlockEnd
  0
BLOCK
  5
341
330
340
100
AcDbEntity
  8
0
100
AcDbBlockBegin
  2
_D_14
 70
     0
 10
0.0
 20
0.0
 30
0.0
  3
_D_14
  1

  0
SOLID
  5
343
330
340
100
AcDbEntity
  8
0
  6
Continuous
 62
     7
370
     0
100
AcDbTrace
 10
13.33822145574526
 20
7.872064121715686
 30
0.0
 11
13.3560785986024
 21
8.014921264572828
 31
0.0
 12
13.32036431288811
 22
8.014921264572828
 32
0.0
 13
13.32036431288811
 23
8.014921264572828
 33
0.0
  0
SOLID
  5
344
330
340
100
AcDbEntity
  8
0
  6
Continuous
 62
     7
370
     0
100
AcDbTrace
 10
13.33822145574526
 20
7.604206978858542
 30
0.0
 11
13.32036431288811
 21
7.461349836001399
 31
0.0
 12
13.3560785986024
 22
7.461349836001399
 32
0.0
 13
13.3560785986024
 23
7.461349836001399
 33
0.0
  0
LINE
  5
345
330
340
100
AcDbEntity
  8
0
  6
Continuous
 62
     7
370
     0
100
AcDbLine
 10
14.13873606525049
 20
7.872064121715689
 30
0.0
 11
13.19536431288811
 21
7.872064121715685
 31
0.0
  0
LINE
  5
346
330
340
100
AcDbEntity
  8
0
  6
Continuous
 62
     7
370
     0
100
AcDbLine
 10
13.87087892239335
 20
7.604206978858544
 30
0.0
 11
13.19536431288811
 21
7.604206978858541
 31
0.0
  0
LINE
  5
347
330
340
100
AcDbEntity
  8
0
  6
Continuous
 62
     7
370
     0
100
AcDbLine
 10
13.12393574145954
 20
7.342766857334654
 30
0.0
 11
13.33822145574526
 21
7.342766857334654
 31
0.0
  0
LINE
  5
348
330
340
100
AcDbEntity
  8
0
  6
Continuous
 62
     7
370
     0
100
AcDbLine
 10
13.33822145574526
 20
7.342766857334654
 30
0.0
 11
13.33822145574526
 21
7.604206978858542
 31
0.0
  0
LINE
  5
349
330
340
100
AcDbEntity
  8
0
  6
Continuous
 62
     7
370
     0
100
AcDbLine
 10
13.33822145574526
 20
7.872064121715686
 30
0.0
 11
13.33822145574526
 21
8.157778407429972
 31
0.0
  0
MTEXT
  5
34A
330
340
100
AcDbEntity
  8
0
  6
Continuous
 62
     7
370
     0
100
AcDbMText
 10
11.3593864803758
 20
7.584169615453747
 30
-0.0000000000000524
 40
0.1889880952380952
 41
0.0
 71
     1
 72
     1
  1
0.060~
  7
SLDTEXTSTYLE0
 73
     1
 44
1.0
1001
ACAD
1000
MTEXTBEGIN
1070
    73
1070
     1
1070
    44
1040
1.0
1070
    74
1070
     0
1000
MTEXTEND
  0
MTEXT
  5
34B
330
340
100
AcDbEntity
  8
0
  6
Continuous
 62
     7
370
     0
100
AcDbMText
 10
12.12514017495708
 20
7.584169615453747
 30
-0.0000000000000524
 40
0.1889880952380952
 41
0.0
 71
     1
 72
     1
  1
0.075
  7
SLDTEXTSTYLE0
 73
     1
 44
1.0
1001
ACAD
1000
MTEXTBEGIN
1070
    73
1070
     1
1070
    44
1040
1.0
1070
    74
1070
     0
1000
MTEXTEND
  0
MTEXT
  5
34C
330
340
100
AcDbEntity
  8
0
  6
Continuous
 62
     7
370
     0
100
AcDbMText
 10
11.1245068621492
 20
7.297011979985767
 30
-0.0000000000000503
 40
0.1889880952380952
 41
0.0
 71
     1
 72
     1
  1
MASK OPENING
  7
SLDTEXTSTYLE0
 73
     1
 44
1.0
1001
ACAD
1000
MTEXTBEGIN
1070
    73
1070
     1
1070
    44
1040
1.0
1070
    74
1070
     0
1000
MTEXTEND
  0
ENDBLK
  5
342
330
340
100
AcDbEntity
  8
0
100
AcDbBlockEnd
  0
BLOCK
  5
350
330
34F
100
AcDbEntity
  8
0
100
AcDbBlockBegin
  2
_D_15
 70
     0
 10
0.0
 20
0.0
 30
0.0
  3
_D_15
  1

  0
SOLID
  5
352
330
34F
100
AcDbEntity
  8
0
  6
Continuous
 62
     7
370
     0
100
AcDbTrace
 10
14.78159320810763
 20
10.77371864849232
 30
0.0
 11
14.92445035096477
 21
10.75586150563518
 31
0.0
 12
14.92445035096477
 22
10.79157579134947
 32
0.0
 13
14.92445035096477
 23
10.79157579134947
 33
0.0
  0
SOLID
  5
353
330
34F
100
AcDbEntity
  8
0
  6
Continuous
 62
     7
370
     0
100
AcDbTrace
 10
17.1030217795362
 20
10.77371864849233
 30
0.0
 11
16.96016463667906
 21
10.79157579134947
 31
0.0
 12
16.96016463667906
 22
10.75586150563519
 32
0.0
 13
16.96016463667906
 23
10.75586150563519
 33
0.0
  0
LINE
  5
354
330
34F
100
AcDbEntity
  8
0
  6
Continuous
 62
     7
370
     0
100
AcDbLine
 10
14.78159320810763
 20
9.800635550287124
 30
0.0
 11
14.78159320810763
 21
10.91657579134946
 31
0.0
  0
LINE
  5
355
330
34F
100
AcDbEntity
  8
0
  6
Continuous
 62
     7
370
     0
100
AcDbLine
 10
17.1030217795362
 20
9.800635550287132
 30
0.0
 11
17.1030217795362
 21
10.91657579134947
 31
0.0
  0
LINE
  5
356
330
34F
100
AcDbEntity
  8
0
  6
Continuous
 62
     7
370
     0
100
AcDbLine
 10
14.78159320810763
 20
10.77371864849232
 30
0.0
 11
15.58961660712241
 21
10.77371864849232
 31
0.0
  0
LINE
  5
357
330
34F
100
AcDbEntity
  8
0
  6
Continuous
 62
     7
370
     0
100
AcDbLine
 10
17.1030217795362
 20
10.77371864849233
 30
0.0
 11
16.29499838052142
 21
10.77371864849233
 31
0.0
  0
MTEXT
  5
358
330
34F
100
AcDbEntity
  8
0
  6
Continuous
 62
     7
370
     0
100
AcDbMText
 10
15.70300946426527
 20
10.87154258887743
 30
-0.0000000000000753
 40
0.1889880952380952
 41
0.0
 71
     1
 72
     1
  1
0.65
  7
SLDTEXTSTYLE0
 73
     1
 44
1.0
1001
ACAD
1000
MTEXTBEGIN
1070
    73
1070
     1
1070
    44
1040
1.0
1070
    74
1070
     0
1000
MTEXTEND
  0
ENDBLK
  5
351
330
34F
100
AcDbEntity
  8
0
100
AcDbBlockEnd
  0
BLOCK
  5
35C
330
35B
100
AcDbEntity
  8
0
100
AcDbBlockBegin
  2
_D_16
 70
     0
 10
0.0
 20
0.0
 30
0.0
  3
_D_16
  1

  0
SOLID
  5
35E
330
35B
100
AcDbEntity
  8
0
  6
Continuous
 62
     7
370
     0
100
AcDbTrace
 10
14.67159953793529
 20
10.00350764492753
 30
0.0
 11
14.65974458142497
 21
10.14698761155167
 31
0.0
 12
14.62479120368704
 22
10.13965470020685
 32
0.0
 13
14.62479120368704
 23
10.13965470020685
 33
0.0
  0
LINE
  5
35F
330
35B
100
AcDbEntity
  8
0
  6
Continuous
 62
     7
370
     0
100
AcDbLine
 10
14.67159953793529
 20
10.00350764492753
 30
0.0
 11
14.38730485537969
 21
11.35863918286272
 31
0.0
  0
LINE
  5
360
330
35B
100
AcDbEntity
  8
0
  6
Continuous
 62
     7
370
     0
100
AcDbLine
 10
14.38730485537969
 20
11.35863918286272
 30
0.0
 11
14.17301914109397
 21
11.35863918286272
 31
0.0
  0
MTEXT
  5
361
330
35B
100
AcDbEntity
  8
0
  6
Continuous
 62
     7
370
     0
100
AcDbMText
 10
13.43745140710383
 20
11.45646312324782
 30
-0.0000000000000794
 40
0.1889880952380952
 41
0.0
 71
     1
 72
     1
  1
R
  7
SLDTEXTSTYLE0
 73
     1
 44
1.0
1001
ACAD
1000
MTEXTBEGIN
1070
    73
1070
     1
1070
    44
1040
1.0
1070
    74
1070
     0
1000
MTEXTEND
  0
MTEXT
  5
362
330
35B
100
AcDbEntity
  8
0
  6
Continuous
 62
     7
370
     0
100
AcDbMText
 10
13.58103022483782
 20
11.45646312324782
 30
-0.0000000000000794
 40
0.1889880952380952
 41
0.0
 71
     1
 72
     1
  1
0.15
  7
SLDTEXTSTYLE0
 73
     1
 44
1.0
1001
ACAD
1000
MTEXTBEGIN
1070
    73
1070
     1
1070
    44
1040
1.0
1070
    74
1070
     0
1000
MTEXTEND
  0
ENDBLK
  5
35D
330
35B
100
AcDbEntity
  8
0
100
AcDbBlockEnd
  0
BLOCK
  5
364
330
363
100
AcDbEntity
  8
0
100
AcDbBlockBegin
  2
SW_NOTE_24
 70
     0
 10
0.0
 20
0.0
 30
0.0
  3
SW_NOTE_24
  1

  0
MTEXT
  5
366
330
363
100
AcDbEntity
  8
0
  6
Continuous
 62
     0
370
     0
100
AcDbMText
 10
0.6520089285714277
 20
0.289683314732143
 30
0.0
 40
0.2267857142857143
 41
0.0
 71
     2
 72
     1
  1
DETAIL A 
  7
SLDTEXTSTYLE0
 73
     1
 44
1.0
1001
ACAD
1000
MTEXTBEGIN
1070
    73
1070
     1
1070
    44
1040
1.0
1070
    74
1070
     0
1000
MTEXTEND
  0
MTEXT
  5
367
330
363
100
AcDbEntity
  8
0
  6
Continuous
 62
     0
370
     0
100
AcDbMText
 10
0.6471268243023327
 20
-0.0085309633186884
 30
0.0
 40
0.2267857142857143
 41
0.0
 71
     2
 72
     1
  1
SCALE 50 : 1
  7
SLDTEXTSTYLE0
 73
     1
 44
1.0
1001
ACAD
1000
MTEXTBEGIN
1070
    73
1070
     1
1070
    44
1040
1.0
1070
    74
1070
     0
1000
MTEXTEND
  0
ENDBLK
  5
365
330
363
100
AcDbEntity
  8
0
100
AcDbBlockEnd
  0
ENDSEC
  0
SECTION
  2
ENTITIES
  0
OLE2FRAME
  5
54
330
1F
100
AcDbEntity
  8
0
100
AcDbOle2Frame
 70
     2
  3
Paintbrush Picture
 10
14.32646370286524
 20
4.216185747064512
 30
0.0
 11
15.67185639056864
 21
3.651120818229085
 31
0.0
 71
     2
 72
     0
 73
     2
 90
    40576
310
805549461E4026A72C407E03E6CB5FDD10400000000000000000AA33928FFD57
310
2F407E03E6CB5FDD10400000000000000000AA33928FFD572F40394FE0D47E35
310
0D40000000000000000049461E4026A72C40394FE0D47E350D40000000000000
310
00000000000001000000000100000100000001000000000001000000009E0000
310
D0CF11E0A1B11AE1000000000000000000000000000000003E000300FEFF0900
310
0600000000000000000000000100000001000000000000000010000002000000
310
01000000FEFFFFFF0000000000000000FFFFFFFFFFFFFFFFFFFFFFFFFFFFFFFF
310
FFFFFFFFFFFFFFFFFFFFFFFFFFFFFFFFFFFFFFFFFFFFFFFFFFFFFFFFFFFFFFFF
310
FFFFFFFFFFFFFFFFFFFFFFFFFFFFFFFFFFFFFFFFFFFFFFFFFFFFFFFFFFFFFFFF
310
FFFFFFFFFFFFFFFFFFFFFFFFFFFFFFFFFFFFFFFFFFFFFFFFFFFFFFFFFFFFFFFF
310
FFFFFFFFFFFFFFFFFFFFFFFFFFFFFFFFFFFFFFFFFFFFFFFFFFFFFFFFFFFFFFFF
310
FFFFFFFFFFFFFFFFFFFFFFFFFFFFFFFFFFFFFFFFFFFFFFFFFFFFFFFFFFFFFFFF
310
FFFFFFFFFFFFFFFFFFFFFFFFFFFFFFFFFFFFFFFFFFFFFFFFFFFFFFFFFFFFFFFF
310
FFFFFFFFFFFFFFFFFFFFFFFFFFFFFFFFFFFFFFFFFFFFFFFFFFFFFFFFFFFFFFFF
310
FFFFFFFFFFFFFFFFFFFFFFFFFFFFFFFFFFFFFFFFFFFFFFFFFFFFFFFFFFFFFFFF
310
FFFFFFFFFFFFFFFFFFFFFFFFFFFFFFFFFFFFFFFFFFFFFFFFFFFFFFFFFFFFFFFF
310
FFFFFFFFFFFFFFFFFFFFFFFFFFFFFFFFFFFFFFFFFFFFFFFFFFFFFFFFFFFFFFFF
310
FFFFFFFFFFFFFFFFFFFFFFFFFFFFFFFFFFFFFFFFFFFFFFFFFFFFFFFFFFFFFFFF
310
FFFFFFFFFFFFFFFFFFFFFFFFFFFFFFFFFFFFFFFFFFFFFFFFFFFFFFFFFFFFFFFF
310
FFFFFFFFFFFFFFFFFFFFFFFFFFFFFFFFFFFFFFFFFFFFFFFFFFFFFFFFFFFFFFFF
310
FDFFFFFFFEFFFFFFFEFFFFFFFEFFFFFF05000000060000000700000008000000
310
090000000A0000000B0000000C0000000D0000000E0000000F00000010000000
310
1100000012000000130000001400000015000000160000001700000018000000
310
190000001A0000001B0000001C0000001D0000001E0000001F00000020000000
310
2100000022000000230000002400000025000000260000002700000028000000
310
290000002A0000002B0000002C0000002D0000002E0000002F00000030000000
310
3100000032000000330000003400000035000000360000003700000038000000
310
390000003A0000003B0000003C0000003D0000003E0000003F00000040000000
310
4100000042000000430000004400000045000000460000004700000048000000
310
490000004A0000004B0000004C0000004D000000FEFFFFFFFFFFFFFFFFFFFFFF
310
FFFFFFFFFFFFFFFFFFFFFFFFFFFFFFFFFFFFFFFFFFFFFFFFFFFFFFFFFFFFFFFF
310
FFFFFFFFFFFFFFFFFFFFFFFFFFFFFFFFFFFFFFFFFFFFFFFFFFFFFFFFFFFFFFFF
310
FFFFFFFFFFFFFFFFFFFFFFFFFFFFFFFFFFFFFFFFFFFFFFFFFFFFFFFFFFFFFFFF
310
FFFFFFFFFFFFFFFFFFFFFFFFFFFFFFFFFFFFFFFFFFFFFFFFFFFFFFFFFFFFFFFF
310
FFFFFFFFFFFFFFFFFFFFFFFFFFFFFFFFFFFFFFFFFFFFFFFFFFFFFFFFFFFFFFFF
310
FFFFFFFFFFFFFFFFFFFFFFFFFFFFFFFFFFFFFFFFFFFFFFFFFFFFFFFFFFFFFFFF
310
52006F006F007400200045006E00740072007900000000000000000000000000
310
0000000000000000000000000000000000000000000000000000000000000000
310
16000500FFFFFFFFFFFFFFFF020000000A00030000000000C000000000000046
310
0000000000000000000000007089E5AB1ED7CD0103000000C000000000000000
310
01004F006C006500310030004E00610074006900760065000000000000000000
310
0000000000000000000000000000000000000000000000000000000000000000
310
1A000200FFFFFFFFFFFFFFFFFFFFFFFF00000000000000000000000000000000
310
000000000000000000000000000000000000000004000000E493000000000000
310
010043006F006D0070004F0062006A0000000000000000000000000000000000
310
0000000000000000000000000000000000000000000000000000000000000000
310
120002010300000001000000FFFFFFFF00000000000000000000000000000000
310
0000000000000000000000000000000000000000000000004D00000000000000
310
01004F006C006500000000000000000000000000000000000000000000000000
310
0000000000000000000000000000000000000000000000000000000000000000
310
0A000200FFFFFFFFFFFFFFFFFFFFFFFF00000000000000000000000000000000
310
0000000000000000000000000000000000000000020000001400000000000000
310
01000000FEFFFFFFFEFFFFFFFFFFFFFFFFFFFFFFFFFFFFFFFFFFFFFFFFFFFFFF
310
FFFFFFFFFFFFFFFFFFFFFFFFFFFFFFFFFFFFFFFFFFFFFFFFFFFFFFFFFFFFFFFF
310
FFFFFFFFFFFFFFFFFFFFFFFFFFFFFFFFFFFFFFFFFFFFFFFFFFFFFFFFFFFFFFFF
310
FFFFFFFFFFFFFFFFFFFFFFFFFFFFFFFFFFFFFFFFFFFFFFFFFFFFFFFFFFFFFFFF
310
FFFFFFFFFFFFFFFFFFFFFFFFFFFFFFFFFFFFFFFFFFFFFFFFFFFFFFFFFFFFFFFF
310
FFFFFFFFFFFFFFFFFFFFFFFFFFFFFFFFFFFFFFFFFFFFFFFFFFFFFFFFFFFFFFFF
310
FFFFFFFFFFFFFFFFFFFFFFFFFFFFFFFFFFFFFFFFFFFFFFFFFFFFFFFFFFFFFFFF
310
FFFFFFFFFFFFFFFFFFFFFFFFFFFFFFFFFFFFFFFFFFFFFFFFFFFFFFFFFFFFFFFF
310
FFFFFFFFFFFFFFFFFFFFFFFFFFFFFFFFFFFFFFFFFFFFFFFFFFFFFFFFFFFFFFFF
310
FFFFFFFFFFFFFFFFFFFFFFFFFFFFFFFFFFFFFFFFFFFFFFFFFFFFFFFFFFFFFFFF
310
FFFFFFFFFFFFFFFFFFFFFFFFFFFFFFFFFFFFFFFFFFFFFFFFFFFFFFFFFFFFFFFF
310
FFFFFFFFFFFFFFFFFFFFFFFFFFFFFFFFFFFFFFFFFFFFFFFFFFFFFFFFFFFFFFFF
310
FFFFFFFFFFFFFFFFFFFFFFFFFFFFFFFFFFFFFFFFFFFFFFFFFFFFFFFFFFFFFFFF
310
FFFFFFFFFFFFFFFFFFFFFFFFFFFFFFFFFFFFFFFFFFFFFFFFFFFFFFFFFFFFFFFF
310
FFFFFFFFFFFFFFFFFFFFFFFFFFFFFFFFFFFFFFFFFFFFFFFFFFFFFFFFFFFFFFFF
310
FFFFFFFFFFFFFFFFFFFFFFFFFFFFFFFFFFFFFFFFFFFFFFFFFFFFFFFFFFFFFFFF
310
0100FEFF030A0000FFFFFFFF0A00030000000000C00000000000004607000000
310
5042727573680007000000504272757368000700000050427275736800F439B2
310
7100000000000000000000000000000000000000000000000000000000000000
310
0000000000000000000000000000000000000000000000000000000000000000
310
0100000200000000000000000000000000000000000000000000000000000000
310
0000000000000000000000000000000000000000000000000000000000000000
310
0000000000000000000000000000000000000000000000000000000000000000
310
0000000000000000000000000000000000000000000000000000000000000000
310
0000000000000000000000000000000000000000000000000000000000000000
310
0000000000000000000000000000000000000000000000000000000000000000
310
0000000000000000000000000000000000000000000000000000000000000000
310
0000000000000000000000000000000000000000000000000000000000000000
310
0000000000000000000000000000000000000000000000000000000000000000
310
0000000000000000000000000000000000000000000000000000000000000000
310
0000000000000000000000000000000000000000000000000000000000000000
310
0000000000000000000000000000000000000000000000000000000000000000
310
E0930000424DDE930000000000003600000028000000960000003F0000000100
310
20000000000000000000C40E0000C40E00000000000000000000D9D7D6FFBEBC
310
BBFFA09D9CFF8F8D8BFF858381FF82807EFF8A8886FF9A9796FFBCB9B8FFEDEC
310
EBFFFFFFFFFFFFFFFFFFFFFFFFFFF7F7F7FFBDBBBAFF949190FF858381FF7E7C
310
7BFF858381FF989694FFC1BFBDFFFDFDFDFFF7F7F7FFA8A6A4FF989694FFA4A1
310
A0FFF4F3F3FFFFFFFFFFEEEEEDFFA09D9CFF989594FFADAAA9FFF7F7F7FFFFFF
310
FFFFE0DFDEFF9D9A99FF989694FFB8B6B5FFFFFFFFFFFEFDFEFFB6B4B2FF9694
310
92FF9E9C9AFFE5E4E4FFFFFFFFFFFFFFFFFFFFFFFFFFD6D5D4FF9E9C9AFF8684
310
83FF817E7DFF858381FF9B9997FFD6D5D4FFFFFFFFFFFFFFFFFFEEEEEDFFABA8
310
A7FF898685FF7D7A79FF7E7C7BFF908E8CFFBCBAB9FFF6F6F6FFFFFFFFFFFFFF
310
FFFFCDCCCBFF989694FF989694FFCBC9C8FFFFFFFFFFFFFFFFFFD9D7D6FF9A97
310
96FF989594FFC2C0BFFFFFFFFFFFFFFFFFFFFCFCFCFFBAB8B6FF868483FF8280
310
7EFF9B9997FFC7C5C4FFA6A4A2FF989694FFABA8A7FFF8F8F8FFFFFFFFFFFFFF
310
FFFFD0CECDFF8C8A88FF82807EFF8D8B89FFBEBCBBFFC3C1C0FF9B9997FF9895
310
94FFD0CECDFFFFFFFFFFFFFFFFFFFFFFFFFFE8E7E6FFABA8A7FF8C8988FF8280
310
7EFF82807EFF949190FFC6C4C3FFFCFCFCFFFFFFFFFFE5E4E3FF9E9C9AFF8C89
310
88FF8A8886FF898685FFD1CFCEFFFFFFFFFFFFFFFFFFD9D7D6FF9B9997FF8381
310
80FF7B7877FF838180FF9D9A99FFD0CECDFFFFFFFFFFFFFFFFFFFCFBFBFFB2B0
310
AEFF969492FFA09D9CFFEAEAE9FFFFFFFFFFFFFFFFFFFFFFFFFFFFFFFFFFFFFF
310
FFFFFFFFFFFFFFFFFFFFFFFFFFFFFFFFFFFFFFFFFFFFFFFFFFFFFFFFFFFFFFFF
310
FFFFFFFFFFFFFFFFFFFFFFFFFFFFFFFFFFFF868483FF6A6766FF646261FF615F
310
5FFF636160FF676564FF646261FF605E5DFF666463FF7B7877FFD6D5D4FFFFFF
310
FFFFF8F8F8FF969492FF646261FF646261FF666463FF6F6D6CFF6E6C6BFF605E
310
5DFF605E5DFFDBDAD9FFFEFDFEFF8D8B89FF605E5DFF666463FFD9D7D6FFFFFF
310
FFFFF2F2F1FF7D7A79FF5D5B5AFF706E6DFFE6E5E5FFFFFFFFFFE8E7E6FF6F6D
310
6CFF615F5FFF7D7A79FFF5F4F4FFFFFFFFFFA8A6A4FF5D5B5AFF605E5DFFBEBC
310
BBFFFFFFFFFFFFFFFFFFD0CECDFF6D6B6AFF676564FF646261FF6C6A69FF6E6C
310
6BFF5A5858FF858381FFFEFDFEFFF7F7F7FF8D8B89FF636160FF666463FF716F
310
6EFF767473FF636160FF636160FF8D8B89FFEDECEBFFFFFFFFFFCCCAC9FF6462
310
61FF605E5DFF989594FFFFFFFFFFFFFFFFFFD9D7D6FF696766FF5D5B5AFF8986
310
85FFFCFCFCFFFFFFFFFFC8C6C5FF646261FF6A6766FF666463FF676564FF6866
310
65FF666463FF666463FF6C6A69FFE4E3E2FFFFFFFFFFF4F3F3FF7A7776FF6664
310
63FF6B6968FF636160FF605E5DFF686665FF686665FF605E5DFF9B9997FFFFFF
310
FFFFFFFFFFFFE8E7E6FF7E7C7BFF636160FF666463FF696766FF706E6DFF605E
310
5DFF6A6867FFE8E7E6FFFFFFFFFF9E9C9AFF605E5DFF6A6867FF6B6968FF6A67
310
66FF9B9997FFFFFFFFFFDEDDDCFF716F6EFF666463FF686665FF787574FF6E6C
310
6BFF615F5FFF686665FFADAAA9FFFBFBFCFFFEFDFEFFA09D9CFF5D5B5AFF615F
310
5FFFC8C6C5FFFFFFFFFFFFFFFFFFFFFFFFFFFFFFFFFFFFFFFFFFFFFFFFFFFFFF
310
FFFFFFFFFFFFFFFFFFFFFFFFFFFFFFFFFFFFFFFFFFFFFFFFFFFFFFFFFFFFFFFF
310
FFFFFFFFFFFFFFFFFFFFADAAA9FF6B6968FF747170FFA4A1A0FFC7C5C4FFD3D1
310
D0FFCDCCCBFFA29F9EFF6F6D6CFF666463FF817E7DFFF2F2F1FFCDCCCBFF6664
310
63FF6B6968FF7E7C7BFFC9C8C6FFE4E3E2FFE3E2E1FFCECDCBFF8F8D8BFFBEBC
310
BBFFFFFFFFFFB2B0AEFF676564FF686665FFB8B6B5FFFFFFFFFFFDFDFDFFA09D
310
9CFF666463FF6A6766FFCECDCBFFFFFFFFFFFCFCFCFF8D8B89FF676564FF716F
310
6EFFDDDBDAFFFFFFFFFFCDCCCBFF6B6968FF666463FFA09D9CFFFFFFFFFFFDFD
310
FDFF8F8D8BFF666463FF6A6867FF9A9796FFDBDAD9FFE0DFDEFFBCB9B8FF8381
310
80FFE8E7E6FFD5D3D2FF676564FF6B6968FF817E7DFFDDDBDAFFE9E9E8FFA6A4
310
A2FF6A6867FF646261FF989694FFFDFDFDFFEDECEBFF787574FF696766FF8583
310
81FFF5F4F4FFFFFFFFFFF0EFEFFF82807EFF686665FF797776FFEEEEEDFFFFFF
310
FFFF9E9C9AFF666463FF6B6968FF949190FFD6D5D4FFCDCCCBFF868483FF6C6A
310
69FF6A6766FFC8C6C5FFFFFFFFFFEBEAEAFF72706FFF6D6B6AFF706E6DFFAFAC
310
ABFFC8C6C5FF9D9A99FF6F6D6CFF6A6867FF858381FFF9F9F9FFFFFFFFFFB0AD
310
ACFF646261FF6C6A69FF868483FFD4D2D1FFE3E2E1FFCCCAC9FF858381FFCCCA
310
C9FFFFFFFFFF989594FF676564FF696766FFB6B4B2FFE7E6E5FFDEDDDCFFFFFF
310
FFFFA8A6A4FF666463FF6A6867FFA09D9CFFECEBEBFFDDDCDBFF858381FF6967
310
66FF676564FFC3C1C0FFFFFFFFFFC7C5C4FF6A6766FF666463FFA8A6A4FFFFFF
310
FFFFFFFFFFFFFFFFFFFFFFFFFFFFFFFFFFFFFFFFFFFFFFFFFFFFFFFFFFFFFFFF
310
FFFFFFFFFFFFFFFFFFFFFFFFFFFFFFFFFFFFFFFFFFFFFFFFFFFFFFFFFFFFFFFF
310
FFFFD9D7D6FFA6A4A2FFE3E2E1FFFFFFFFFFFFFFFFFFFFFFFFFFFFFFFFFFFCFC
310
FCFF817E7DFF6A6867FF6A6867FFD7D6D5FFB8B6B5FF666463FF6A6766FFB8B6
310
B5FFFFFFFFFFFDFDFDFFFDFDFDFFFFFFFFFFF1F0F0FFEDECEBFFFFFFFFFFCECD
310
CBFF6A6867FF686665FF9E9C9AFFFFFFFFFFFFFFFFFFBDBBBAFF686665FF6664
310
63FFAFACABFFFFFFFFFFFFFFFFFFA8A6A4FF676564FF696766FFC2C0BFFFFFFF
310
FFFFE4E3E2FF767473FF666463FF858381FFFCFBFBFFF1F0F0FF7E7C7BFF6B69
310
68FF706E6DFFDEDDDCFFFFFFFFFFFFFFFFFFFFFFFFFFE9E9E8FFF6F5F5FFC1BF
310
BDFF666463FF686665FFA4A1A0FFFFFFFFFFFFFFFFFFF8F8F8FF868483FF6967
310
66FF6B6968FFD7D6D5FFFEFDFEFF8C8A88FF676564FF737170FFDDDCDBFFFFFF
310
FFFFFEFDFEFF9A9796FF686665FF6B6968FFD1CFCEFFFFFFFFFF9B9997FF6664
310
63FF6A6766FFC6C4C3FFFFFFFFFFFFFFFFFFC1BFBDFF686665FF666463FFA8A6
310
A4FFFFFFFFFFF6F5F5FF817E7DFF676564FF767473FFE8E7E6FFFFFFFFFFF9F9
310
F9FF898685FF696766FF72706FFFE4E3E2FFFFFFFFFF989694FF676564FF6A67
310
66FFC2C0BFFFFFFFFFFFFFFFFFFFFFFFFFFFF1F0F0FFEBEAEAFFFFFFFFFFB2B0
310
AEFF686665FF676564FFC2C0BFFFFFFFFFFFFFFFFFFFFCFCFCFF989694FF6866
310
65FF6A6867FFCDCCCBFFFFFFFFFFFFFFFFFFD7D6D5FF716F6EFF676564FF8381
310
80FFFBFAFAFFE1E0DFFF72706FFF666463FF8C8A88FFFEFDFEFFFFFFFFFFFFFF
310
FFFFFFFFFFFFFFFFFFFFFFFFFFFFFFFFFFFFF5F4F7FFDFDBE4FFFFFFFFFFFFFF
310
FFFFDFDBE4FFF8F7FAFFFFFFFFFFFAF9FBFFDFDCE5FFFCFCFCFFFFFFFFFFFFFF
310
FFFFFFFFFFFFFFFFFFFFFFFFFFFFF8F8F8FFDAD9D8FFAFACABFF72706FFF6D6B
310
6AFF6A6766FFD5D3D2FFBAB8B6FF666463FF716E6DFF838180FF8A8886FF8986
310
85FF898685FF8A8886FF8C8A88FF928F8EFFEAEAE9FFEDEDECFF767473FF6967
310
66FF858381FFF5F4F4FFFFFFFFFFD6D5D4FF6E6C6BFF676564FF928F8EFFFFFF
310
FFFFFFFFFFFFC8C6C5FF696766FF676564FFA4A1A0FFFFFFFFFFF8F8F8FF8A88
310
86FF686665FF737170FFE8E7E6FFF7F7F7FF82807EFF6A6867FF72706FFFE4E3
310
E2FFFFFFFFFFFFFFFFFFFFFFFFFFFFFFFFFFFFFFFFFFC8C6C5FF676564FF6866
310
65FF9B9997FFFFFFFFFFFFFFFFFFFFFFFFFFB2B0AEFF676564FF676564FFB0AD
310
ACFFFFFFFFFFABA8A7FF666463FF6A6867FFC6C4C3FFFFFFFFFFFFFFFFFFB6B4
310
B2FF676564FF676564FFB6B4B2FFFFFFFFFFA4A1A0FF666463FF696766FFC1BF
310
BDFFFFFFFFFFFFFFFFFFDEDDDCFF716E6DFF696766FF8D8B89FFFEFDFEFFFEFD
310
FEFF9A9796FF666463FF6D6A6AFFD3D1D0FFFFFFFFFFFFFFFFFFA4A1A0FF6765
310
64FF6A6867FFC7C5C4FFFFFFFFFF9D9A99FF666463FF6A6867FFC9C8C6FFFFFF
310
FFFFFFFFFFFFFFFFFFFFFFFFFFFFFFFFFFFFFFFFFFFFCDCCCBFF6C6A69FF6765
310
64FF9E9C9AFFFFFFFFFFFFFFFFFFFDFDFDFF9E9C9AFF686665FF696766FFC6C4
310
C3FFFFFFFFFFFFFFFFFFF8F8F8FF8C8988FF6A6766FF6D6B6AFFDEDDDCFFF8F8
310
F8FF838180FF696766FF787574FFEDECEBFFFFFFFFFFFFFFFFFFFFFFFFFFFFFF
310
FFFFFFFFFFFFFFFFFFFFECEAEFFF8A769DFFEAE7EDFFFFFFFFFF9584A7FFD1CA
310
D8FFFFFFFFFFFCFBFBFF8F7CA2FFDFDBE4FFFFFFFFFFFFFFFFFFFFFFFFFFE3E2
310
E1FFAFACABFF898685FF716F6EFF686665FF6B6968FF636160FF82807EFFF2F2
310
F1FFCDCCCBFF676564FF6F6D6CFF737170FF7E7C7BFF7B7978FF7D7A79FF7270
310
6FFF676564FF666463FFCCCAC9FFFFFFFFFF8A8886FF666463FF747170FFE3E2
310
E1FFFFFFFFFFF0EFEFFF7E7C7BFF686665FF7B7978FFF6F5F5FFFFFFFFFFE7E6
310
E5FF747170FF666463FF8A8886FFF6F6F6FFFFFFFFFFA4A1A0FF676564FF6967
310
66FFC8C6C5FFFFFFFFFF969492FF676564FF6A6867FFC7C5C4FFFFFFFFFFFFFF
310
FFFFFFFFFFFFFFFFFFFFFFFFFFFFE1E0DFFF6F6D6CFF6A6766FF82807EFFF1F0
310
F0FFFFFFFFFFFFFFFFFFC7C5C4FF696766FF686665FFA09D9CFFFFFFFFFFC9C8
310
C6FF686665FF666463FFA8A6A4FFFFFFFFFFFFFFFFFFD1CFCEFF6B6968FF6866
310
65FF989694FFFFFFFFFFC7C5C4FF676564FF696766FF9D9A99FFFFFFFFFFFFFF
310
FFFFF6F6F6FF838180FF686665FF7A7776FFEAEAE9FFFFFFFFFFB8B6B5FF6866
310
65FF686665FFB6B4B2FFFFFFFFFFFFFFFFFFC2C0BFFF676564FF686665FFABA8
310
A7FFFFFFFFFFB8B6B5FF646261FF686665FFA6A4A2FFFFFFFFFFFFFFFFFFFFFF
310
FFFFFFFFFFFFFFFFFFFFFFFFFFFFE8E7E6FF787675FF686665FF858381FFF8F8
310
F8FFFFFFFFFFFFFFFFFFB6B4B2FF666463FF676564FFA4A1A0FFFFFFFFFFFFFF
310
FFFFFFFFFFFF989694FF696766FF686665FFC9C8C6FFFFFFFFFF9B9997FF6765
310
64FF6B6968FFCECDCBFFFFFFFFFFFFFFFFFFFFFFFFFFFFFFFFFFFFFFFFFFFFFF
310
FFFFFEFDFEFF9786A8FFC9C1D1FFFFFFFFFFA99BB7FFC0B6CAFFC5BCCEFFC5BC
310
CEFFA99BB7FFC0B6CAFFFFFFFFFFFFFFFFFFC9C8C6FF72706FFF666463FF6866
310
65FF646261FF676564FF747170FF9B9997FFE5E4E3FFFFFFFFFFF3F3F2FF817E
310
7DFF646261FF817E7DFFE5E4E3FFFDFDFDFFFFFFFFFFA6A4A2FF676564FF6866
310
65FFC2C0BFFFFFFFFFFFA8A6A4FF666463FF6C6A69FFB0ADACFFF1F0F0FFEBEA
310
EAFF82807EFF6B6968FF6D6B6AFFBDBBBAFFF5F4F4FFE0DFDEFF767473FF6967
310
66FF767473FFE8E7E6FFFFFFFFFFC2C0BFFF686665FF676564FFA8A6A4FFFFFF
310
FFFFD1CFCEFF6A6766FF6A6867FF82807EFFE0DFDEFFFFFFFFFFFFFFFFFFE1E0
310
DFFFB0ADACFFF1F0F0FF9A9796FF666463FF6B6968FFB4B1B0FFFFFFFFFFFFFF
310
FFFFB4B1B0FF686665FF676564FFA29F9EFFFFFFFFFFE5E4E4FF747170FF6765
310
64FF82807EFFDDDBDAFFF9F9F9FFCBC9C8FF6D6B6AFF6A6867FF838180FFF5F4
310
F4FFF5F4F4FF817E7DFF686665FF6F6D6CFFC4C2C0FFFDFDFDFFFFFFFFFF9B99
310
97FF676564FF6C6A69FFD0CECDFFFFFFFFFFD5D3D2FF6E6C6BFF666463FF9694
310
92FFFDFDFDFFFFFFFFFFE0DFDEFF706E6DFF686665FF8F8D8BFFFCFCFCFFEDED
310
ECFF797776FF676564FF716F6EFFCBC9C8FFFFFFFFFFFFFFFFFFF2F2F1FFB0AD
310
ACFFE3E2E1FFFFFFFFFF8D8B89FF686665FF72706FFFE1E0DFFFFFFFFFFFFFFF
310
FFFFE9E8E7FF767473FF696766FF767473FFDDDBDAFFFFFFFFFFFDFDFDFF8D8B
310
89FF6A6867FF686665FFCBC9C8FFFFFFFFFFBAB8B6FF676564FF6D6B6AFF8986
310
85FFB6B4B2FFBDBBBAFFB6B4B2FFECEBEBFFFFFFFFFFFFFFFFFFFFFFFFFFAEA1
310
BBFFA99BB7FFFFFFFFFFCDC6D5FFA394B2FF9584A7FF88749CFFA191B0FFB0A3
310
BDFFFFFFFFFFF0EFEFFF7D7A79FF676564FF6E6C6BFF747170FF9A9796FFC2C0
310
BFFFE3E2E1FFFDFDFDFFFFFFFFFFFFFFFFFFFFFFFFFFCCCAC9FF6B6968FF6361
310
60FF8C8988FFC4C2C0FFC1BFBDFF7E7C7BFF676564FF6D6B6AFFDBDAD9FFFFFF
310
FFFFC6C4C3FF676564FF6D6B6AFF6A6867FF7D7A79FF82807EFF6F6D6CFF6F6D
310
6CFF6B6968FF6B6968FF817E7DFF7E7C7BFF6F6D6CFF6C6A69FF6E6C6BFFE6E5
310
E5FFFFFFFFFFDDDBDAFF6E6C6BFF666463FF8C8988FFFCFCFCFFFEFDFEFFADAA
310
A9FF676564FF646261FF787675FFA4A1A0FFA6A4A2FF7A7776FF646261FFE1E0
310
DFFFE7E6E5FF7B7877FF636160FF6D6B6AFFA4A1A0FFB1AFADFF797776FF6A68
310
67FF646261FFC3C1C0FFFFFFFFFFF3F3F2FF858381FF676564FF6C6A69FF706E
310
6DFF868483FF7B7877FF6F6D6CFF696766FF7D7A79FFF0EFEFFFFFFFFFFFCBC9
310
C8FF6B6968FF666463FF6F6D6CFF9A9796FFA6A4A2FF7B7978FF6D6B6AFF6765
310
64FFB6B4B2FFFFFFFFFFEAEAE9FF7B7877FF646261FF7B7877FFF4F3F3FFFFFF
310
FFFFF4F3F3FF7E7C7BFF646261FF787675FFE8E7E6FFFFFFFFFFC9C8C6FF6C6A
310
69FF646261FF6E6C6BFF9B9997FFABA8A7FF898685FF605E5DFFBCBAB9FFC3C1
310
C0FF787574FF6D6B6AFF6F6D6CFF8F8D8BFF9D9A99FFA29F9EFFF2F2F1FFC3C1
310
C0FF686665FF646261FF7D7A79FFB0ADACFFA29F9EFF6F6D6CFF676564FF7674
310
73FFECEBEBFFFFFFFFFFD7D6D5FF6B6968FF6E6C6BFF6A6867FF615F5FFF6361
310
60FF5D5B5AFFC4C2C0FFFFFFFFFFFFFFFFFFFFFFFFFFCBC4D3FF9482A6FFFEFD
310
FEFFECEAEFFF7F6994FF9280A4FFD8D3DEFF7E6793FF9280A4FFFFFFFFFFE5E4
310
E3FF716F6EFF6B6968FF6F6D6CFFD7D6D5FFFFFFFFFFFFFFFFFFFFFFFFFFFFFF
310
FFFFFCFCFCFFEDEDECFFFEFDFEFFFFFFFFFFCDCCCBFF82807EFF666463FF605E
310
5DFF605E5DFF646261FF6D6B6AFFB0ADACFFFFFFFFFFFFFFFFFFE1E0DFFF716F
310
6EFF666463FF787675FF8C8A88FF676564FF666463FF646261FF8F8D8BFFCBC9
310
C8FF858381FF646261FF666463FF636160FF928F8EFFF6F5F5FFFFFFFFFFF6F6
310
F6FF7E7C7BFF646261FF767473FFE7E6E5FFFFFFFFFFFEFDFEFFBEBCBBFF817E
310
7DFF666463FF5D5B5AFF5D5B5AFF646261FF6B6968FFCDCCCBFFFFFFFFFFE1E0
310
DFFF8F8D8BFF6B6968FF5D5B5AFF5D5B5AFF646261FF6C6A69FFA4A1A0FFF9F9
310
F9FFFFFFFFFFFFFFFFFFA09D9CFF666463FF6B6968FF8C8A88FF767473FF6361
310
60FF666463FF646261FFA6A4A2FFFEFDFEFFFFFFFFFFFFFFFFFFC8C6C5FF7B78
310
77FF666463FF5D5B5AFF605E5DFF6F6D6CFF716F6EFF686665FF989594FFFDFD
310
FDFFFCFCFCFF928F8EFF646261FF6A6867FFD9D7D6FFFFFFFFFFFDFDFDFF9A97
310
96FF636160FF696766FFD1CFCEFFFFFFFFFFFFFFFFFFD3D1D0FF8A8886FF6A68
310
67FF605E5DFF5D5B5AFF615F5FFF676564FFB4B1B0FFB0ADACFF615F5FFF706E
310
6DFF716E6DFF6A6867FF615F5FFF615F5FFFD3D1D0FFFFFFFFFFC6C4C3FF7E7C
310
7BFF646261FF5D5B5AFF605E5DFF676564FF747170FFC7C5C4FFFFFFFFFFFFFF
310
FFFFF2F2F1FF7B7877FF666463FF7B7978FFB1AFADFF858381FF636160FFA4A1
310
A0FFFFFFFFFFFCFCFCFFB9AEC4FF9280A4FF7A628FFF9A89ABFFB9AEC4FF8C78
310
9FFF9A89ABFFFFFFFFFFB6AAC1FF7D6692FFFFFFFFFFF0EFEFFF7D7A79FF6765
310
64FF6F6D6CFFC3C1C0FFF6F5F5FFFBFAFAFFF3F3F2FFD9D7D6FF9B9997FF8C8A
310
88FFF7F7F7FFFFFFFFFFFFFFFFFFF1F0F0FFCDCCCBFFB6B4B2FFB1AFADFFBCB9
310
B8FFDAD9D8FFFFFFFFFFFFFFFFFFFFFFFFFFF9F9F9FFD7D6D5FFD0CECDFFDBDA
310
D9FFF8F8F8FFD1CFCEFFB4B1B0FFBCBAB9FFEBEAEAFFFFFFFFFFF7F7F7FFCCCA
310
C9FFB4B1B0FFBEBCBBFFF0EFEFFFFFFFFFFFFFFFFFFFFFFFFFFFDEDDDCFFD6D5
310
D4FFD9D7D6FFF7F7F7FFFFFFFFFFFFFFFFFFFFFFFFFFEEEEEDFFCDCCCBFFB8B6
310
B5FFB4B1B0FFC1BFBDFFDBDAD9FFF9F9F9FFFFFFFFFFFFFFFFFFF9F9F9FFD5D3
310
D2FFBAB8B6FFB1AFADFFB8B6B5FFD5D3D2FFFCFCFCFFFFFFFFFFFFFFFFFFFFFF
310
FFFFE8E7E6FFD1CFCEFFD1CFCEFFF0EFEFFFE9E8E7FFBEBCBBFFB2B0AEFFC7C5
310
C4FFF6F6F6FFFFFFFFFFFFFFFFFFFFFFFFFFFFFFFFFFE9E8E7FFC3C1C0FFB2B0
310
AEFFC3C1C0FFD1CFCEFF7D7A79FF666463FF7E7C7BFFF1F0F0FFFFFFFFFFE3E2
310
E1FFD1CFCEFFD1CFCEFFEEEEEDFFFFFFFFFFFFFFFFFFE6E5E5FFD0CECDFFD1CF
310
CEFFECEBEBFFFFFFFFFFFFFFFFFFFFFFFFFFF7F7F7FFD5D3D2FFBCBAB9FFB2B0
310
AEFFBCBAB9FFD3D1D0FFF6F5F5FFEFEEEEFFC1BFBDFF72706FFF6A6867FF8381
310
80FFCCCAC9FFD1CFCEFFEBEAEAFFFFFFFFFFFFFFFFFFEDEDECFFC9C8C6FFB6B4
310
B2FFB2B0AEFFBEBCBBFFE5E4E4FFFFFFFFFFFFFFFFFFFFFFFFFFFDFDFDFFDAD9
310
D8FFD0CECDFFD5D3D2FFFDFDFDFFF1F0F0FFD3D1D0FFDDDCDBFFFFFFFFFFFFFF
310
FFFFDBD6E0FFCFC8D6FFD6D1DDFFCDC6D5FFDBD6E0FFE5E2E9FFEAE7EDFFFFFF
310
FFFFFBFAFAFFDDD9E2FFFFFFFFFFFEFDFEFFBDBBBAFF666463FF676564FF6B69
310
68FF82807EFF8A8886FF82807EFF6F6D6CFF615F5FFF6E6C6BFFE9E9E8FFFFFF
310
FFFFFFFFFFFFFFFFFFFFFFFFFFFFFFFFFFFFFFFFFFFFFFFFFFFFFFFFFFFFFFFF
310
FFFFFFFFFFFFFFFFFFFFFFFFFFFFFFFFFFFFFFFFFFFFFFFFFFFFFFFFFFFFFFFF
310
FFFFFFFFFFFFFFFFFFFFFFFFFFFFFFFFFFFFFFFFFFFFFFFFFFFFFFFFFFFFFFFF
310
FFFFFFFFFFFFFFFFFFFFFFFFFFFFFFFFFFFFDBDAD9FFB4B1B0FFB4B1B0FFD1CF
310
CEFFFFFFFFFFFFFFFFFFFFFFFFFFFFFFFFFFFFFFFFFFFFFFFFFFFFFFFFFFFFFF
310
FFFFFFFFFFFFFFFFFFFFFFFFFFFFFFFFFFFFFFFFFFFFFFFFFFFFFFFFFFFFFFFF
310
FFFFFFFFFFFFFFFFFFFFFFFFFFFFFFFFFFFFFFFFFFFFFFFFFFFFFFFFFFFFFFFF
310
FFFFFFFFFFFFFFFFFFFFFFFFFFFFFFFFFFFFFFFFFFFFFFFFFFFFFFFFFFFFFFFF
310
FFFFFFFFFFFFFFFFFFFFFFFFFFFFFFFFFFFFFFFFFFFFFFFFFFFFFFFFFFFFFFFF
310
FFFF949190FF666463FF6F6D6CFFDDDBDAFFFFFFFFFFFFFFFFFFFFFFFFFFFFFF
310
FFFFFFFFFFFFFFFFFFFFFFFFFFFFFFFFFFFFFFFFFFFFFFFFFFFFFFFFFFFFFFFF
310
FFFFFFFFFFFFFFFFFFFFFFFFFFFFFFFFFFFFFFFFFFFFFFFFFFFFFFFFFFFFFFFF
310
FFFFFFFFFFFFFFFFFFFFFBFAFAFF7E7C7BFF5D5B5AFF747170FFECEBEBFFFFFF
310
FFFFFFFFFFFFFFFFFFFFFFFFFFFFFFFFFFFFFFFFFFFFFFFFFFFFFFFFFFFFFFFF
310
FFFFFFFFFFFFFFFFFFFFFFFFFFFFFFFFFFFFFFFFFFFFFFFFFFFFFFFFFFFFFFFF
310
FFFFFFFFFFFFFFFFFFFFFFFFFFFFFFFFFFFFFFFFFFFFFFFFFFFFFFFFFFFFFFFF
310
FFFFFFFFFFFFFFFFFFFFFFFFFFFFFFFFFFFFFFFFFFFFFFFFFFFFFFFFFFFFFFFF
310
FFFFFFFFFFFFFFFFFFFFFFFFFFFFC8C6C5FF868483FF6C6A69FF636160FF6361
310
60FF646261FF676564FF6F6D6CFF858381FFE9E8E7FFFFFFFFFFFFFFFFFFFFFF
310
FFFFFFFFFFFFFFFFFFFFFFFFFFFFFFFFFFFFFFFFFFFFFFFFFFFFFFFFFFFFFFFF
310
FFFFFFFFFFFFFFFFFFFFFFFFFFFFFFFFFFFFFFFFFFFFFFFFFFFFFFFFFFFFFFFF
310
FFFFFFFFFFFFFFFFFFFFFFFFFFFFFFFFFFFFFFFFFFFFFFFFFFFFFFFFFFFFFFFF
310
FFFFFFFFFFFFFFFFFFFFC6C4C3FF5A5858FF545252FF82807EFFF8F8F8FFFFFF
310
FFFFFFFFFFFFFFFFFFFFFFFFFFFFFFFFFFFFFFFFFFFFFFFFFFFFFFFFFFFFFFFF
310
FFFFFFFFFFFFFFFFFFFFFFFFFFFFFFFFFFFFFFFFFFFFFFFFFFFFFFFFFFFFFFFF
310
FFFFFFFFFFFFFFFFFFFFFFFFFFFFFFFFFFFFFFFFFFFFFFFFFFFFFFFFFFFFFFFF
310
FFFFFFFFFFFFFFFFFFFFFFFFFFFFFFFFFFFFFFFFFFFFFFFFFFFFFFFFFFFFFFFF
310
FFFFFFFFFFFFFFFFFFFFFFFFFFFFFFFFFFFFFFFFFFFFFFFFFFFFB0ADACFF605E
310
5DFF5D5B5AFFB8B6B5FFFFFFFFFFFFFFFFFFFFFFFFFFFFFFFFFFFFFFFFFFFFFF
310
FFFFFFFFFFFFFFFFFFFFFFFFFFFFFFFFFFFFFFFFFFFFFFFFFFFFFFFFFFFFFFFF
310
FFFFFFFFFFFFFFFFFFFFFFFFFFFFFFFFFFFFFFFFFFFFFFFFFFFFFFFFFFFFFFFF
310
FFFFFDFDFDFFB0ADACFF858381FF8C8A88FFDDDBDAFFFFFFFFFFFFFFFFFFFFFF
310
FFFFFFFFFFFFFFFFFFFFFFFFFFFFFFFFFFFFFFFFFFFFFFFFFFFFFFFFFFFFFFFF
310
FFFFFFFFFFFFFFFFFFFFFFFFFFFFFFFFFFFFFFFFFFFFFFFFFFFFFFFFFFFFFFFF
310
FFFFFFFFFFFFFFFFFFFFFFFFFFFFFFFFFFFFFFFFFFFFFFFFFFFFFFFFFFFFFFFF
310
FFFFFFFFFFFFFFFFFFFFFFFFFFFFFFFFFFFFFFFFFFFFFFFFFFFFFFFFFFFFFFFF
310
FFFFFFFFFFFFFFFFFFFFF5F4F4FFDDDBDAFFC9C8C6FFBEBCBBFFC1BFBDFFCDCC
310
CBFFE0DFDEFFF2F2F1FFFFFFFFFFFFFFFFFFFFFFFFFFFFFFFFFFFFFFFFFFFFFF
310
FFFFFFFFFFFFFFFFFFFFFFFFFFFFFFFFFFFFFFFFFFFFFFFFFFFFFFFFFFFFFFFF
310
FFFFFFFFFFFFFFFFFFFFFFFFFFFFFFFFFFFFFFFFFFFFFFFFFFFFFFFFFFFFFFFF
310
FFFFFFFFFFFFFFFFFFFFFFFFFFFFFFFFFFFFFFFFFFFFFFFFFFFFFFFFFFFFFFFF
310
FFFFE9E9E8FF989594FF8F8D8BFF9B9997FFF3F3F2FFFFFFFFFFFFFFFFFFFFFF
310
FFFFFFFFFFFFFFFFFFFFFFFFFFFFFFFFFFFFFFFFFFFFFFFFFFFFFFFFFFFFFFFF
310
FFFFFFFFFFFFFFFFFFFFFFFFFFFFFFFFFFFFFFFFFFFFFFFFFFFFFFFFFFFFFFFF
310
FFFFFFFFFFFFFFFFFFFFFFFFFFFFFFFFFFFFFFFFFFFFFFFFFFFFFFFFFFFFFFFF
310
FFFFFFFFFFFFFFFFFFFFFFFFFFFFFFFFFFFFFFFFFFFFFFFFFFFFFFFFFFFFFFFF
310
FFFFFFFFFFFFFFFFFFFFFFFFFFFFFFFFFFFFDAD9D8FF9B9997FF989594FFC1BF
310
BDFFFFFFFFFFFFFFFFFFFFFFFFFFFFFFFFFFFFFFFFFFFFFFFFFFFFFFFFFFFFFF
310
FFFFFFFFFFFFFFFFFFFFFFFFFFFFFFFFFFFFFFFFFFFFFFFFFFFFFFFFFFFFFFFF
310
FFFFFFFFFFFFFFFFFFFFFFFFFFFFFFFFFFFFFFFFFFFFFFFFFFFFFFFFFFFFFBFA
310
FAFFF6F6F6FFF6F6F6FFFBFAFAFFFFFFFFFFFFFFFFFFFFFFFFFFFFFFFFFFFFFF
310
FFFFFFFFFFFFFFFFFFFFFFFFFFFFFFFFFFFFFFFFFFFFFFFFFFFFFFFFFFFFFFFF
310
FFFFFFFFFFFFFFFFFFFFFFFFFFFFFFFFFFFFFFFFFFFFFFFFFFFFFFFFFFFFFFFF
310
FFFFFFFFFFFFFFFFFFFFFFFFFFFFFFFFFFFFFFFFFFFFFFFFFFFFFFFFFFFFFFFF
310
FFFFFFFFFFFFFFFFFFFFFFFFFFFFFFFFFFFFFFFFFFFFFFFFFFFFFFFFFFFFFFFF
310
FFFFFFFFFFFFFFFFFFFFFFFFFFFFFFFFFFFFFFFFFFFFFFFFFFFFFFFFFFFFFFFF
310
FFFFFFFFFFFFFFFFFFFFFFFFFFFFFFFFFFFFFFFFFFFFFFFFFFFFFFFFFFFFFFFF
310
FFFFFFFFFFFFFFFFFFFFFFFFFFFFFFFFFFFFFFFFFFFFFFFFFFFFFFFFFFFFFFFF
310
FFFFFFFFFFFFFFFFFFFFFFFFFFFFFFFFFFFFFFFFFFFFFFFFFFFFFFFFFFFFFFFF
310
FFFFFFFFFFFFFFFFFFFFFFFFFFFFFFFFFFFFFFFFFFFFFFFFFFFFFFFFFFFFFFFF
310
FFFFFFFFFFFFFFFFFFFFFFFFFFFFFFFFFFFFFFFFFFFFFFFFFFFFFFFFFFFFFFFF
310
FFFFFFFFFFFFFFFFFFFFFFFFFFFFFFFFFFFFFFFFFFFFFFFFFFFFFFFFFFFFFFFF
310
FFFFFFFFFFFFFFFFFFFFFFFFFFFFFFFFFFFFFFFFFFFFFFFFFFFFFFFFFFFFFFFF
310
FFFFFFFFFFFFFFFFFFFFFFFFFFFFFFFFFFFFFFFFFFFFFFFFFFFFFFFFFFFFFFFF
310
FFFFFFFFFFFFFFFFFFFFFFFFFFFFFFFFFFFFFFFFFFFFFFFFFFFFFFFFFFFFFFFF
310
FFFFFFFFFFFFFFFFFFFFFFFFFFFFFFFFFFFFFFFFFFFFFFFFFFFFFFFFFFFFFFFF
310
FFFFFFFFFFFFFFFFFFFFFFFFFFFFFFFFFFFFFFFFFFFFFFFFFFFFFFFFFFFFFFFF
310
FFFFFFFFFFFFFFFFFFFFFFFFFFFFFFFFFFFFFFFFFFFFFFFFFFFFFFFFFFFFFFFF
310
FFFFFFFFFFFFFFFFFFFFFFFFFFFFFFFFFFFFFFFFFFFFFFFFFFFFFFFFFFFFFFFF
310
FFFFFFFFFFFFFFFFFFFFFFFFFFFFFFFFFFFFFFFFFFFFFFFFFFFFFFFFFFFFFFFF
310
FFFFFFFFFFFFFFFFFFFFFFFFFFFFFFFFFFFFFFFFFFFFFFFFFFFFFFFFFFFFFFFF
310
FFFFFFFFFFFFFFFFFFFFFFFFFFFFFFFFFFFFFFFFFFFFFFFFFFFFFFFFFFFFFFFF
310
FFFFFFFFFFFFFFFFFFFFFFFFFFFFFFFFFFFFFFFFFFFFFFFFFFFFFFFFFFFFFFFF
310
FFFFFFFFFFFFFFFFFFFFFFFFFFFFFFFFFFFFFFFFFFFFFFFFFFFFFFFFFFFFFFFF
310
FFFFFFFFFFFFFFFFFFFFFFFFFFFFFFFFFFFFFFFFFFFFFFFFFFFFFFFFFFFFFFFF
310
FFFFFFFFFFFFFFFFFFFFFFFFFFFFFFFFFFFFFFFFFFFFFFFFFFFFFFFFFFFFFFFF
310
FFFFFFFFFFFFFFFFFFFFFFFFFFFFFFFFFFFFFFFFFFFFFFFFFFFFFFFFFFFFFFFF
310
FFFFFFFFFFFFFFFFFFFFFFFFFFFFFFFFFFFFFFFFFFFFFFFFFFFFFFFFFFFFFFFF
310
FFFFFFFFFFFFFFFFFFFFFFFFFFFFFFFFFFFFFFFFFFFFFFFFFFFFFFFFFFFFFFFF
310
FFFFFFFFFFFFFFFFFFFFFFFFFFFFFFFFFFFFFFFFFFFFFFFFFFFFFFFFFFFFFFFF
310
FFFFFFFFFFFFFFFFFFFFFFFFFFFFFFFFFFFFFFFFFFFFFFFFFFFFFFFFFFFFFFFF
310
FFFFFFFFFFFFFFFFFFFFFFFFFFFFFFFFFFFFFFFFFFFFFFFFFFFFFFFFFFFFFFFF
310
FFFFFFFFFFFFFFFFFFFFFFFFFFFFFFFFFFFFFFFFFFFFFFFFFFFFFFFFFFFFFFFF
310
FFFFFFFFFFFFFFFFFFFFFFFFFFFFFFFFFFFFFFFFFFFFFFFFFFFFFFFFFFFFFFFF
310
FFFFFFFFFFFFFFFFFFFFFFFFFFFFFFFFFFFFFFFFFFFFFFFFFFFFFFFFFFFFFFFF
310
FFFFFFFFFFFFFFFFFFFFFFFFFFFFFFFFFFFFFFFFFFFFFFFFFFFFFFFFFFFFFFFF
310
FFFFFFFFFFFFFFFFFFFFFFFFFFFFFFFFFFFFFFFFFFFFFFFFFFFFFFFFFFFFFFFF
310
FFFFFFFFFFFFFFFFFFFFFFFFFFFFFFFFFFFFFFFFFFFFFFFFFFFFFFFFFFFFFFFF
310
FFFFFFFFFFFFFFFFFFFFFFFFFFFFFFFFFFFFFFFFFFFFFFFFFFFFFFFFFFFFFFFF
310
FFFFFFFFFFFFFFFFFFFFFFFFFFFFFFFFFFFFFFFFFFFFFFFFFFFFFFFFFFFFFFFF
310
FFFFFFFFFFFFFFFFFFFFFFFFFFFFFFFFFFFFFFFFFFFFFFFFFFFFFFFFFFFFFFFF
310
FFFFFFFFFFFFFFFFFFFFFFFFFFFFFFFFFFFFFFFFFFFFFFFFFFFFFFFFFFFFFFFF
310
FFFFFFFFFFFFFFFFFFFFFFFFFFFFFFFFFFFFFFFFFFFFFFFFFFFFFFFFFFFFFFFF
310
FFFFFFFFFFFFFFFFFFFFFFFFFFFFFFFFFFFFFFFFFFFFFFFFFFFFFFFFFFFFFFFF
310
FFFFFFFFFFFFFFFFFFFFFFFFFFFFFFFFFFFFFFFFFFFFFFFFFFFFFFFFFFFFFFFF
310
FFFFFFFFFFFFFFFFFFFFFFFFFFFFFFFFFFFFFFFFFFFFFFFFFFFFFFFFFFFFFFFF
310
FFFFFFFFFFFFFFFFFFFFFFFFFFFFFFFFFFFFFFFFFFFFFFFFFFFFFFFFFFFFFFFF
310
FFFFFFFFFFFFFFFFFFFFFFFFFFFFFFFFFFFFFFFFFFFFFFFFFFFFFFFFFFFFFFFF
310
FFFFFFFFFFFFFFFFFFFFFFFFFFFFFFFFFFFFFFFFFFFFFFFFFFFFFFFFFFFFFFFF
310
FFFFFFFFFFFFFFFFFFFFFFFFFFFFFFFFFFFFFFFFFFFFFFFFFFFFFFFFFFFFFFFF
310
FFFFFFFFFFFFFFFFFFFFFFFFFFFFFFFFFFFFFFFFFFFFFFFFFFFFFFFFFFFFFFFF
310
FFFFFFFFFFFFFFFFFFFFFFFFFFFFFFFFFFFFFFFFFFFFFFFFFFFFFFFFFFFFFFFF
310
FFFFFFFFFFFFFFFFFFFFFFFFFFFFFFFFFFFFFFFFFFFFFFFFFFFFFFFFFFFFFFFF
310
FFFFFFFFFFFFFFFFFFFFFFFFFFFFFFFFFFFFFFFFFFFFFFFFFFFFFFFFFFFFFFFF
310
FFFFFFFFFFFFFFFFFFFFFFFFFFFFFFFFFFFFFFFFFFFFFFFFFFFFFFFFFFFFFFFF
310
FFFFFFFFFFFFFFFFFFFFFFFFFFFFFFFFFFFFFFFFFFFFFFFFFFFFFFFFFFFFFFFF
310
FFFFFFFFFFFFFFFFFFFFFFFFFFFFFFFFFFFFFFFFFFFFFFFFFFFFFFFFFFFFFFFF
310
FFFFFFFFFFFFFFFFFFFFFFFFFFFFFFFFFFFFFFFFFFFFFFFFFFFFFFFFFFFFFFFF
310
FFFFFFFFFFFFFFFFFFFFFFFFFFFFFFFFFFFFFFFFFFFFFFFFFFFFFFFFFFFFFFFF
310
FFFFFFFFFFFFFFFFFFFFFFFFFFFFFFFFFFFFFFFFFFFFFFFFFFFFFFFFFFFFFFFF
310
FFFFFFFFFFFFFFFFFFFFFFFFFFFFFFFFFFFFFFFFFFFFFFFFFFFFFFFFFFFFFFFF
310
FFFFFFFFFFFFFFFFFFFFFFFFFFFFFFFFFFFFFFFFFFFFFFFFFFFFFFFFFFFFFFFF
310
FFFFFFFFFFFFFFFFFFFFFFFFFFFFFFFFFFFFFFFFFFFFFFFFFFFFFFFFFFFFFFFF
310
FFFFFFFFFFFFFFFFFFFFFFFFFFFFFFFFFFFFFFFFFFFFFFFFFFFFFFFFFFFFFFFF
310
FFFFFFFFFFFFFFFFFFFFFFFFFFFFFFFFFFFFFFFFFFFFFFFFFFFFFFFFFFFFFFFF
310
FFFFFFFFFFFFFFFFFFFFFFFFFFFFFFFFFFFFFFFFFFFFFFFFFFFFFFFFFFFFFFFF
310
FFFFFFFFFFFFFFFFFFFFFFFFFFFFFFFFFFFFFFFFFFFFFFFFFFFFFFFFFFFFFFFF
310
FFFFFFFFFFFFFFFFFFFFFFFFFFFFFFFFFFFFFFFFFFFFFFFFFFFFFEFDFEFFFCFB
310
FBFFFCFCFCFFFCFCFCFFFCFCFCFFFCFCFCFFFCFCFCFFFDFDFDFFFFFFFFFFFFFF
310
FFFFFFFFFFFFFFFFFFFFFFFFFFFFFCFBFBFFFCFBFBFFFCFCFCFFFCFCFCFFFCFC
310
FCFFFCFCFCFFFCFCFCFFFFFFFFFFFFFFFFFFFFFFFFFFFFFFFFFFFFFFFFFFFFFF
310
FFFFFFFFFFFFFFFFFFFFFFFFFFFFFFFFFFFFFFFFFFFFFCFBFBFFFCFBFBFFFCFC
310
FCFFFCFCFCFFFCFCFCFFFCFCFCFFFDFDFDFFFFFFFFFFFFFFFFFFFFFFFFFFFFFF
310
FFFFFFFFFFFFFFFFFFFFFFFFFFFFFFFFFFFFFFFFFFFFFFFFFFFFFFFFFFFFFFFF
310
FFFFFFFFFFFFFFFFFFFFFFFFFFFFFFFFFFFFFFFFFFFFF9F9F9FFD6D5D4FFB8B6
310
B5FFABA8A7FFA8A6A4FFA8A6A4FFB4B1B0FFCBC9C8FFEDEDECFFFFFFFFFFFFFF
310
FFFFFFFFFFFFFFFFFFFFFFFFFFFFFFFFFFFFFFFFFFFFFFFFFFFFFFFFFFFFFFFF
310
FFFFFCFBFBFFFCFBFBFFFCFCFCFFFCFCFCFFFCFCFCFFFCFCFCFFFDFDFDFFFFFF
310
FFFFFFFFFFFFFFFFFFFFFFFFFFFFFFFFFFFFFFFFFFFFFFFFFFFFFFFFFFFFFFFF
310
FFFFFFFFFFFFFFFFFFFFFFFFFFFFFFFFFFFFFFFFFFFFFFFFFFFFFFFFFFFFFFFF
310
FFFFFFFFFFFFFFFFFFFFE2DEE6FF9D8DAEFF9785A8FF9D8DAEFF9D8DAEFF9F8F
310
AFFF9F8FAFFF9D8DAEFF9D8DAEFFE5E2E9FFFFFFFFFFFFFFFFFFFFFFFFFFFFFF
310
FFFFFFFFFFFFFFFFFFFFFFFFFFFFFFFFFFFFFFFFFFFFFFFFFFFFFFFFFFFFFFFF
310
FFFFFFFFFFFFFFFFFFFFFFFFFFFFFFFFFFFFFFFFFFFFFFFFFFFFFFFFFFFFFFFF
310
FFFFFFFFFFFFFFFFFFFFFFFFFFFFD1CAD8FF9786A8FF9F8FAFFF9F8FAFFF9F8F
310
AFFF9F8FAFFF9F8FAFFF9F8FAFFF9F8FAFFF9F8FAFFF9F8FAFFF9786A8FFD1CA
310
D8FFFFFFFFFFFFFFFFFFFFFFFFFFFFFFFFFFFCFCFCFF868483FF525050FF5755
310
55FF5A5858FF5A5858FF4E4C4CFF858381FFFBFAFAFFFFFFFFFFFFFFFFFFFFFF
310
FFFFFFFFFFFFC4C2C0FF565454FF5A5858FF575555FF575555FF565454FF5755
310
55FFD5D3D2FFFFFFFFFFFFFFFFFFFFFFFFFFFFFFFFFFFFFFFFFFFFFFFFFFFFFF
310
FFFFFFFFFFFFFFFFFFFFFFFFFFFFCDCCCBFF5A5858FF5A5858FF575555FF5755
310
55FF565454FF504E4EFFC9C8C6FFFFFFFFFFFFFFFFFFFFFFFFFFFFFFFFFFFFFF
310
FFFFFFFFFFFFFFFFFFFFFFFFFFFFFFFFFFFFFFFFFFFFFFFFFFFFFFFFFFFFFFFF
310
FFFFFFFFFFFFF1F0F0FF9B9997FF4E4C4CFF2F2E30FF252427FF252427FF2524
310
27FF252427FF252427FF252427FF3D3B3CFF72706FFFC1BFBDFFFBFAFAFFFFFF
310
FFFFFFFFFFFFFFFFFFFFFFFFFFFFFFFFFFFFFFFFFFFFFFFFFFFFD0CECDFF5A58
310
58FF5A5858FF565454FF575555FF575555FF525050FFC8C6C5FFFFFFFFFFFFFF
310
FFFFFFFFFFFFFFFFFFFFFFFFFFFFFFFFFFFFFFFFFFFFFFFFFFFFFFFFFFFFFFFF
310
FFFFFFFFFFFFFFFFFFFFFFFFFFFFFFFFFFFFFFFFFFFFFFFFFFFFFFFFFFFFFFFF
310
FFFFFBFBFCFFC5BCCEFF6F5486FF5F3C78FF5F3C78FF62407BFF63427BFF5F3C
310
78FF5F3C78FFBEB4C8FFFFFFFFFFFFFFFFFFFFFFFFFFFFFFFFFFFFFFFFFFFFFF
310
FFFFFFFFFFFFFFFFFFFFFFFFFFFFFFFFFFFFFFFFFFFFFFFFFFFFFFFFFFFFFFFF
310
FFFFFFFFFFFFFFFFFFFFFFFFFFFFFFFFFFFFFFFFFFFFFFFFFFFFFFFFFFFFFFFF
310
FFFFFFFFFFFFC7BFD0FF5F3C78FF62407BFF62407BFF62407BFF62407BFF6240
310
7BFF62407BFF62407BFF62407BFF5F3C78FF5F3C78FF9B8AACFFFFFFFFFFFFFF
310
FFFFFFFFFFFFFFFFFFFFFFFFFFFF7B7978FF252427FF252427FF252427FF2524
310
27FF252427FF434242FFE9E9E8FFFFFFFFFFFFFFFFFFFFFFFFFFFFFFFFFFD4D2
310
D1FF252427FF252427FF252427FF252427FF252427FF252427FFA8A6A4FFFFFF
310
FFFFFFFFFFFFFFFFFFFFFFFFFFFFFFFFFFFFFFFFFFFFFFFFFFFFFFFFFFFFFFFF
310
FFFFFFFFFFFFE3E2E1FF252427FF252427FF252427FF252427FF252427FF2524
310
27FF989694FFFFFFFFFFFFFFFFFFFFFFFFFFFFFFFFFFFFFFFFFFFFFFFFFFFFFF
310
FFFFFFFFFFFFFFFFFFFFFFFFFFFFFFFFFFFFFFFFFFFFFFFFFFFFD1CFCEFF4C4A
310
4AFF252427FF252427FF252427FF252427FF252427FF252427FF252427FF2524
310
27FF252427FF252427FF252427FF252427FF6A6867FFD9D7D6FFFFFFFFFFFFFF
310
FFFFFFFFFFFFFFFFFFFFFFFFFFFFFFFFFFFFE3E2E1FF2A292BFF252427FF2524
310
27FF252427FF252427FF252427FF969492FFFFFFFFFFFFFFFFFFFFFFFFFFFFFF
310
FFFFFFFFFFFFFFFFFFFFFFFFFFFFFFFFFFFFFFFFFFFFFFFFFFFFFFFFFFFFFFFF
310
FFFFFFFFFFFFFFFFFFFFFFFFFFFFFEFDFEFFE2DEE6FFF4F2F5FFFFFFFFFFFFFF
310
FFFFEDEBF0FF9D8DAEFF64457DFF63437CFF684A80FF684A80FF62407BFFA394
310
B2FFFFFFFFFFFFFFFFFFFFFFFFFFFFFFFFFFFFFFFFFFFFFFFFFFFFFFFFFFFFFF
310
FFFFFFFFFFFFFFFFFFFFFFFFFFFFFFFFFFFFFFFFFFFFFFFFFFFFFFFFFFFFFFFF
310
FFFFFFFFFFFFFFFFFFFFFFFFFFFFFFFFFFFFFFFFFFFFFFFFFFFFFFFFFFFFF1EF
310
F3FF715788FF66477EFF684A80FF684A80FF684A80FF684A80FF684A80FF684A
310
80FF684A80FF684A80FF63437CFF846E98FFF5F4F7FFFFFFFFFFFFFFFFFFFFFF
310
FFFFFFFFFFFFB4B1B0FF252427FF252427FF252427FF252427FF252427FF2524
310
27FFCBC9C8FFFFFFFFFFFFFFFFFFFFFFFFFFFFFFFFFFF1F0F0FF504E4EFF2524
310
27FF252427FF252427FF252427FF252427FF797776FFFFFFFFFFFFFFFFFFFFFF
310
FFFFFFFFFFFFFFFFFFFFFFFFFFFFFFFFFFFFFFFFFFFFFFFFFFFFFFFFFFFFF7F7
310
F7FF5A5858FF252427FF252427FF252427FF252427FF252427FF686665FFFFFF
310
FFFFFFFFFFFFFFFFFFFFFFFFFFFFFFFFFFFFFFFFFFFFFFFFFFFFFFFFFFFFFFFF
310
FFFFFFFFFFFFFFFFFFFFFFFFFFFFE0DFDEFF434242FF252427FF252427FF2524
310
27FF252427FF252427FF252427FF252427FF252427FF252427FF252427FF2524
310
27FF252427FF252427FF252427FF2F2E30FFBAB8B6FFFFFFFFFFFFFFFFFFFFFF
310
FFFFFFFFFFFFFFFFFFFFFBFAFAFF5D5B5AFF252427FF252427FF252427FF2524
310
27FF252427FF676564FFFFFFFFFFFFFFFFFFFFFFFFFFFFFFFFFFFFFFFFFFFFFF
310
FFFFFFFFFFFFFFFFFFFFFFFFFFFFFFFFFFFFFFFFFFFFFFFFFFFFFFFFFFFFFFFF
310
FFFFFFFFFFFFFFFFFFFFB9AEC4FF846E98FFDFDCE5FFFFFFFFFFFFFFFFFFFFFF
310
FFFFC5BCCEFF745A8AFF62407BFF67497FFF63427BFF846E98FFF5F4F7FFFFFF
310
FFFFFFFFFFFFFFFFFFFFFFFFFFFFFFFFFFFFFFFFFFFFFFFFFFFFFFFFFFFFFFFF
310
FFFFFFFFFFFFFFFFFFFFFFFFFFFFFFFFFFFFFFFFFFFFFFFFFFFFFFFFFFFFFFFF
310
FFFFFFFFFFFFFFFFFFFFFFFFFFFFFFFFFFFFFFFFFFFFFCFCFCFF86719AFF6342
310
7BFF684A80FF684A80FF684A80FF684A80FF684A80FF684A80FF684A80FF684A
310
80FF64457DFF6F5486FFDFDBE4FFFFFFFFFFFFFFFFFFFFFFFFFFFFFFFFFFDAD9
310
D8FF2A292BFF252427FF252427FF252427FF252427FF252427FFA09D9CFFFFFF
310
FFFFFFFFFFFFFFFFFFFFFFFFFFFFFEFDFEFF6F6D6CFF252427FF252427FF2524
310
27FF252427FF252427FF545252FFF5F4F4FFFFFFFFFFFFFFFFFFFFFFFFFFFFFF
310
FFFFFFFFFFFFFFFFFFFFFFFFFFFFFFFFFFFFFFFFFFFFFFFFFFFF7D7A79FF2524
310
27FF252427FF252427FF252427FF252427FF484747FFEDEDECFFFFFFFFFFFFFF
310
FFFFFFFFFFFFFFFFFFFFFFFFFFFFFFFFFFFFFFFFFFFFFFFFFFFFFFFFFFFFFFFF
310
FFFFFBFAFAFF6A6867FF252427FF252427FF252427FF252427FF252427FF2524
310
27FF252427FF383738FF434242FF2A292BFF252427FF252427FF252427FF2524
310
27FF252427FF252427FF2A292BFFB6B4B2FFFFFFFFFFFFFFFFFFFFFFFFFFFFFF
310
FFFFFFFFFFFF817E7DFF252427FF252427FF252427FF252427FF252427FF4342
310
42FFEDEDECFFFFFFFFFFFFFFFFFFFFFFFFFFFFFFFFFFFFFFFFFFFFFFFFFFFFFF
310
FFFFFFFFFFFFFFFFFFFFFFFFFFFFFFFFFFFFFFFFFFFFFFFFFFFFFFFFFFFFFFFF
310
FFFFD8D3DEFF63427BFF6D5285FFBEB4C8FFFFFFFFFFFFFFFFFFFFFFFFFFE8E5
310
ECFF9785A8FF62407BFF5F3C78FF6F5486FFE2DFE7FFFFFFFFFFFFFFFFFFFFFF
310
FFFFFFFFFFFFFFFFFFFFFFFFFFFFFFFFFFFFFFFFFFFFFFFFFFFFFFFFFFFFFFFF
310
FFFFFFFFFFFFFFFFFFFFFFFFFFFFFFFFFFFFFFFFFFFFFFFFFFFFFFFFFFFFFFFF
310
FFFFFFFFFFFFFFFFFFFFFFFFFFFFFFFFFFFFA394B2FF62407BFF684A80FF684A
310
80FF684A80FF684A80FF684A80FF684A80FF684A80FF684A80FF67487FFF6444
310
7CFFCBC4D3FFFFFFFFFFFFFFFFFFFFFFFFFFFFFFFFFFF9F9F9FF525050FF2524
310
27FF252427FF252427FF252427FF252427FF737170FFFFFFFFFFFFFFFFFFFFFF
310
FFFFFFFFFFFFFFFFFFFFA4A1A0FF252427FF252427FF252427FF252427FF2524
310
27FF343334FFD9D7D6FFFFFFFFFFFFFFFFFFFFFFFFFFFFFFFFFFFFFFFFFFFFFF
310
FFFFFFFFFFFFFFFFFFFFFFFFFFFFFFFFFFFFB1AFADFF252427FF252427FF2524
310
27FF252427FF252427FF2A292BFFCECDCBFFFFFFFFFFFFFFFFFFFFFFFFFFFFFF
310
FFFFFFFFFFFFFFFFFFFFFFFFFFFFFFFFFFFFFFFFFFFFFFFFFFFFD4D2D1FF2F2E
310
30FF252427FF252427FF252427FF252427FF252427FF2A292BFF908E8CFFD6D5
310
D4FFE1E0DFFFCECDCBFF82807EFF252427FF252427FF252427FF252427FF2524
310
27FF252427FF2A292BFFD1CFCEFFFFFFFFFFFFFFFFFFFFFFFFFFFFFFFFFFB4B1
310
B0FF252427FF252427FF252427FF252427FF252427FF2A292BFFCCCAC9FFFFFF
310
FFFFFFFFFFFFFFFFFFFFFFFFFFFFFFFFFFFFFFFFFFFFFFFFFFFFFFFFFFFFFFFF
310
FFFFFFFFFFFFFFFFFFFFFFFFFFFFFFFFFFFFFFFFFFFFFFFFFFFFF4F2F5FF7B64
310
91FF5F3C78FF62407BFF9584A7FFE6E3EAFFFFFFFFFFFFFFFFFFFFFFFFFFBEB4
310
C8FF6F5486FF5F3C78FFCBC4D3FFFFFFFFFFFFFFFFFFFFFFFFFFFFFFFFFFFFFF
310
FFFFFFFFFFFFFFFFFFFFFFFFFFFFFFFFFFFFFFFFFFFFFFFFFFFFFFFFFFFFFFFF
310
FFFFFFFFFFFFFFFFFFFFFFFFFFFFFFFFFFFFFFFFFFFFFFFFFFFFFFFFFFFFFFFF
310
FFFFFFFFFFFFFFFFFFFFC7BFD0FF63437CFF67497FFF684A80FF684A80FF684A
310
80FF684A80FF684A80FF684A80FF684A80FF67497FFF62407BFFAB9DB9FFFFFF
310
FFFFFFFFFFFFFFFFFFFFFFFFFFFFFFFFFFFF72706FFF252427FF252427FF2524
310
27FF252427FF252427FF4C4A4AFFF6F6F6FFFFFFFFFFFFFFFFFFFFFFFFFFFFFF
310
FFFFC9C8C6FF2A292BFF252427FF252427FF252427FF252427FF252427FFBAB8
310
B6FFFFFFFFFFFFFFFFFFFFFFFFFFFFFFFFFFFFFFFFFFFFFFFFFFFFFFFFFFFFFF
310
FFFFFFFFFFFFFFFFFFFFD4D2D1FF2F2E30FF252427FF252427FF252427FF2524
310
27FF252427FFABA8A7FFFFFFFFFFFFFFFFFFFFFFFFFFFFFFFFFFFFFFFFFFFFFF
310
FFFFFFFFFFFFFFFFFFFFFFFFFFFFFFFFFFFF969492FF252427FF252427FF2524
310
27FF252427FF252427FF252427FF8D8B89FFFFFFFFFFFFFFFFFFFFFFFFFFFFFF
310
FFFFFFFFFFFFA6A4A2FF252427FF252427FF252427FF252427FF252427FF2524
310
27FF5A5858FFF7F7F7FFFFFFFFFFFFFFFFFFFFFFFFFFD7D6D5FF2F2E30FF2524
310
27FF252427FF252427FF252427FF252427FFA8A6A4FFFFFFFFFFFFFFFFFFFFFF
310
FFFFFFFFFFFFFFFFFFFFFFFFFFFFFFFFFFFFFFFFFFFFFFFFFFFFFFFFFFFFFFFF
310
FFFFFFFFFFFFFFFFFFFFFFFFFFFFFFFFFFFFFFFFFFFF9482A6FF62407BFF6749
310
7FFF62407BFF725889FFC7BFD0FFFFFFFFFFFFFFFFFFFFFFFFFFE2DFE7FF8671
310
9AFFA394B2FFFFFFFFFFFFFFFFFFFFFFFFFFFFFFFFFFFFFFFFFFFFFFFFFFFFFF
310
FFFFFFFFFFFFFFFFFFFFFFFFFFFFFFFFFFFFFFFFFFFFFFFFFFFFFFFFFFFFFFFF
310
FFFFFFFFFFFFFFFFFFFFFFFFFFFFFFFFFFFFFFFFFFFFFFFFFFFFFFFFFFFFFFFF
310
FFFFDFDBE4FF6C4F83FF64457DFF684A80FF684A80FF684A80FF684A80FF684A
310
80FF684A80FF684A80FF684A80FF62407BFF8A769DFFFBFAFAFFFFFFFFFFFFFF
310
FFFFFFFFFFFFFFFFFFFFA4A1A0FF252427FF252427FF252427FF252427FF2524
310
27FF2A292BFFD6D5D4FFFFFFFFFFFFFFFFFFFFFFFFFFFFFFFFFFE8E7E6FF3D3B
310
3CFF252427FF252427FF252427FF252427FF252427FF858381FFFFFFFFFFFFFF
310
FFFFFFFFFFFFFFFFFFFFFFFFFFFFFFFFFFFFFFFFFFFFFFFFFFFFFFFFFFFFFFFF
310
FFFFF0EFEFFF4C4A4AFF252427FF252427FF252427FF252427FF252427FF7674
310
73FFFFFFFFFFFFFFFFFFFFFFFFFFFFFFFFFFFFFFFFFFFFFFFFFFFFFFFFFFFFFF
310
FFFFFFFFFFFFFFFFFFFF7E7C7BFF252427FF252427FF252427FF252427FF2524
310
27FF2A292BFFD0CECDFFFFFFFFFFFFFFFFFFFFFFFFFFFFFFFFFFFFFFFFFFFFFF
310
FFFF8F8D8BFF252427FF252427FF252427FF252427FF252427FF252427FFADAA
310
A9FFFFFFFFFFFFFFFFFFFFFFFFFFF1F0F0FF4E4C4CFF252427FF252427FF2524
310
27FF252427FF252427FF706E6DFFFEFDFEFFFFFFFFFFFFFFFFFFFFFFFFFFFFFF
310
FFFFFFFFFFFFFFFFFFFFFFFFFFFFFFFFFFFFFFFFFFFFFFFFFFFFFFFFFFFFFFFF
310
FFFFFFFFFFFFFFFFFFFFFFFFFFFFB0A3BDFF62407BFF684A80FF684A80FF6342
310
7BFF64447CFF9A89ABFFEDEBF0FFFFFFFFFFFFFFFFFFF5F4F7FFD4CEDBFFFDFC
310
FEFFFFFFFFFFFFFFFFFFFFFFFFFFFFFFFFFFFFFFFFFFFFFFFFFFFFFFFFFFFFFF
310
FFFFFFFFFFFFFFFFFFFFFFFFFFFFFFFFFFFFFFFFFFFFFFFFFFFFFFFFFFFFFFFF
310
FFFFFFFFFFFFFFFFFFFFFFFFFFFFFFFFFFFFFFFFFFFFFFFFFFFFF2F1F5FF816B
310
96FF63427BFF684A80FF684A80FF684A80FF684A80FF684A80FF684A80FF684A
310
80FF684A80FF65457DFF725889FFF0EEF1FFFFFFFFFFFFFFFFFFFFFFFFFFFFFF
310
FFFFD1CFCEFF2A292BFF252427FF252427FF252427FF252427FF252427FFB2B0
310
AEFFFFFFFFFFFFFFFFFFFFFFFFFFFFFFFFFFFEFDFEFF605E5DFF252427FF2524
310
27FF252427FF252427FF252427FF646261FFFBFAFAFFFFFFFFFFFFFFFFFFFFFF
310
FFFFFFFFFFFFFFFFFFFFFFFFFFFFFFFFFFFFFFFFFFFFFFFFFFFFFFFFFFFF6F6D
310
6CFF252427FF252427FF252427FF252427FF252427FF575555FFF6F5F5FFFFFF
310
FFFFFFFFFFFFFFFFFFFFFFFFFFFFFFFFFFFFFFFFFFFFFFFFFFFFFFFFFFFFFEFD
310
FEFF696766FF252427FF252427FF252427FF252427FF252427FF383738FFE0DF
310
DEFFFFFFFFFFFFFFFFFFFFFFFFFFFFFFFFFFFFFFFFFFFFFFFFFFECEBEBFF3D3B
310
3CFF252427FF252427FF252427FF252427FF252427FF605E5DFFF9F9F9FFFFFF
310
FFFFFFFFFFFFFFFFFFFF716F6EFF252427FF252427FF252427FF252427FF2524
310
27FF565454FFF2F2F1FFFFFFFFFFFFFFFFFFFFFFFFFFFFFFFFFFFFFFFFFFFFFF
310
FFFFFFFFFFFFFFFFFFFFFFFFFFFFFFFFFFFFFFFFFFFFFFFFFFFFFFFFFFFFFFFF
310
FFFFFFFFFFFFD1CBD9FF66477EFF67497FFF684A80FF684A80FF66477EFF5F3C
310
78FF78608EFFCBC4D3FFFFFFFFFFFFFFFFFFFFFFFFFFFFFFFFFFFFFFFFFFFFFF
310
FFFFFFFFFFFFFFFFFFFFFFFFFFFFFFFFFFFFFFFFFFFFFFFFFFFFFFFFFFFFFFFF
310
FFFFFFFFFFFFFFFFFFFFFFFFFFFFFFFFFFFFFFFFFFFFFFFFFFFFFFFFFFFFFFFF
310
FFFFFFFFFFFFFFFFFFFFFFFFFFFFFFFFFFFFFFFFFFFF9D8DAEFF62407BFF684A
310
80FF684A80FF684A80FF684A80FF684A80FF684A80FF684A80FF684A80FF6749
310
7FFF66477EFFD1CBD9FFFFFFFFFFFFFFFFFFFFFFFFFFFFFFFFFFE9E8E7FF4A48
310
48FF252427FF252427FF252427FF252427FF252427FF7E7C7BFFFFFFFFFFFFFF
310
FFFFFFFFFFFFFFFFFFFFFFFFFFFF949190FF252427FF252427FF252427FF2524
310
27FF252427FF3D3B3CFFE9E9E8FFFFFFFFFFFFFFFFFFFFFFFFFFFFFFFFFFFFFF
310
FFFFFFFFFFFFFFFFFFFFFFFFFFFFFFFFFFFFFFFFFFFFA29F9EFF252427FF2524
310
27FF252427FF252427FF252427FF2F2E30FFDEDDDCFFFFFFFFFFFFFFFFFFFFFF
310
FFFFFFFFFFFFFFFFFFFFFFFFFFFFFFFFFFFFFFFFFFFFFEFDFEFF787574FF2524
310
27FF252427FF252427FF252427FF252427FF343334FFDDDCDBFFFFFFFFFFFFFF
310
FFFFFFFFFFFFFFFFFFFFFFFFFFFFFFFFFFFFFFFFFFFF8C8988FF252427FF2524
310
27FF252427FF252427FF252427FF2A292BFFD3D1D0FFFFFFFFFFFFFFFFFFFFFF
310
FFFFA4A1A0FF252427FF252427FF252427FF252427FF252427FF2F2E30FFDAD9
310
D8FFFFFFFFFFFFFFFFFFFFFFFFFFFFFFFFFFFFFFFFFFFFFFFFFFFFFFFFFFFFFF
310
FFFFFFFFFFFFFFFFFFFFFFFFFFFFFFFFFFFFFFFFFFFFFFFFFFFFFFFFFFFFF0EE
310
F1FF725889FF65467DFF684A80FF684A80FF684A80FF684A80FF63427BFF6647
310
7EFFA191B0FFF1EFF3FFFFFFFFFFFFFFFFFFFFFFFFFFFFFFFFFFFFFFFFFFFFFF
310
FFFFFFFFFFFFFFFFFFFFFFFFFFFFFFFFFFFFFFFFFFFFFFFFFFFFFFFFFFFFFFFF
310
FFFFFFFFFFFFFFFFFFFFFFFFFFFFFFFFFFFFFFFFFFFFFFFFFFFFFFFFFFFFFFFF
310
FFFFFFFFFFFFFFFFFFFFFFFFFFFFB9AEC4FF62407BFF684A80FF684A80FF684A
310
80FF684A80FF684A80FF684A80FF684A80FF684A80FF684A80FF62407BFFB1A5
310
BEFFFFFFFFFFFFFFFFFFFFFFFFFFFFFFFFFFFDFDFDFF666463FF252427FF2524
310
27FF252427FF252427FF252427FF5D5B5AFFF7F7F7FFFFFFFFFFFFFFFFFFFFFF
310
FFFFFFFFFFFFB8B6B5FF252427FF252427FF252427FF252427FF252427FF2524
310
27FFC4C2C0FFFFFFFFFFFFFFFFFFFFFFFFFFFFFFFFFFFFFFFFFFFFFFFFFFFFFF
310
FFFFFFFFFFFFFFFFFFFFFFFFFFFFC8C6C5FF252427FF252427FF252427FF2524
310
27FF252427FF252427FFB8B6B5FFFFFFFFFFFFFFFFFFFFFFFFFFFFFFFFFFFFFF
310
FFFFFFFFFFFFFFFFFFFFFFFFFFFFFFFFFFFF7E7C7BFF252427FF252427FF2524
310
27FF252427FF252427FF2F2E30FFD1CFCEFFFFFFFFFFFFFFFFFFFFFFFFFFFFFF
310
FFFFFFFFFFFFFFFFFFFFFFFFFFFFC2C0BFFF252427FF252427FF252427FF2524
310
27FF252427FF252427FFA6A4A2FFFFFFFFFFFFFFFFFFFFFFFFFFC9C8C6FF2524
310
27FF252427FF252427FF252427FF252427FF252427FFB4B1B0FFFFFFFFFFFFFF
310
FFFFFFFFFFFFFFFFFFFFFFFFFFFFFFFFFFFFFFFFFFFFFFFFFFFFFFFFFFFFFFFF
310
FFFFFFFFFFFFFFFFFFFFFFFFFFFFFFFFFFFFFFFFFFFFFBFBFCFF8A769DFF6342
310
7BFF684A80FF684A80FF684A80FF684A80FF684A80FF65467DFF5F3C78FF7D66
310
92FFD1CAD8FFFFFFFFFFFFFFFFFFFFFFFFFFFFFFFFFFFFFFFFFFFFFFFFFFFFFF
310
FFFFFFFFFFFFFEFDFEFFEDEBF0FFEAE7EDFFEAE7EDFFEAE7EDFFEAE7EDFFEAE7
310
EDFFEAE7EDFFEAE7EDFFFDFDFDFFFFFFFFFFFFFFFFFFFFFFFFFFFFFFFFFFFFFF
310
FFFFFFFFFFFFD6D1DDFF684A80FF67487FFF684A80FF684A80FF684A80FF684A
310
80FF684A80FF684A80FF684A80FF684A80FF62407BFF9280A4FFFFFFFFFFFFFF
310
FFFFFFFFFFFFFFFFFFFFFFFFFFFF9A9796FF252427FF252427FF252427FF2524
310
27FF252427FF383738FFE0DFDEFFFFFFFFFFFFFFFFFFFFFFFFFFFFFFFFFFE5E4
310
E3FF383738FF252427FF252427FF252427FF252427FF252427FF949190FFFFFF
310
FFFFFFFFFFFFFFFFFFFFFFFFFFFFFFFFFFFFFFFFFFFFFFFFFFFFFFFFFFFFFFFF
310
FFFFFFFFFFFFF0EFEFFF434242FF252427FF252427FF252427FF252427FF2524
310
27FF868483FFFFFFFFFFFFFFFFFFFFFFFFFFFFFFFFFFFFFFFFFFFFFFFFFFFFFF
310
FFFFFFFFFFFFFFFFFFFFA6A4A2FF252427FF252427FF252427FF252427FF2524
310
27FF252427FFB2B0AEFFFFFFFFFFFFFFFFFFFFFFFFFFFFFFFFFFFFFFFFFFFFFF
310
FFFFFFFFFFFFE3E2E1FF383738FF252427FF252427FF252427FF252427FF2524
310
27FF7B7978FFFFFFFFFFFFFFFFFFFFFFFFFFF1F0F0FF434242FF252427FF2524
310
27FF252427FF252427FF252427FF838180FFFFFFFFFFFFFFFFFFFFFFFFFFFFFF
310
FFFFFFFFFFFFFFFFFFFFFFFFFFFFFFFFFFFFFFFFFFFFFFFFFFFFFFFFFFFFFFFF
310
FFFFFFFFFFFFFFFFFFFFFFFFFFFFFFFFFFFFA99BB7FF62407BFF67497FFF684A
310
80FF684A80FF684A80FF684A80FF684A80FF684A80FF63427BFF65457EFFB9AE
310
C4FFFFFFFFFFFFFFFFFFFFFFFFFFFFFFFFFFFFFFFFFFFFFFFFFFFFFFFFFFE8E5
310
ECFF816B96FF775D8DFF78608EFF78608EFF78608EFF78608EFF78608EFF745A
310
8AFFB9AEC4FFFFFFFFFFFFFFFFFFFFFFFFFFFFFFFFFFFFFFFFFFFFFFFFFFF7F6
310
F8FF775D8DFF64457DFF684A80FF684A80FF684A80FF684A80FF684A80FF684A
310
80FF684A80FF684A80FF64447CFF7B6491FFF4F2F5FFFFFFFFFFFFFFFFFFFFFF
310
FFFFFFFFFFFFC1BFBDFF252427FF252427FF252427FF252427FF252427FF2524
310
27FFC1BFBDFFFFFFFFFFFFFFFFFFFFFFFFFFFFFFFFFFF8F8F8FF545252FF2524
310
27FF252427FF252427FF252427FF252427FF716F6EFFFFFFFFFFFFFFFFFFFFFF
310
FFFFFFFFFFFFFFFFFFFFFFFFFFFFFFFFFFFFFFFFFFFFFFFFFFFFFFFFFFFFFDFD
310
FDFF605E5DFF252427FF252427FF252427FF252427FF252427FF615F5FFFFEFD
310
FEFFFFFFFFFFFFFFFFFFFFFFFFFFFFFFFFFFFFFFFFFFFFFFFFFFFFFFFFFFFFFF
310
FFFFCDCCCBFF2A292BFF252427FF252427FF252427FF252427FF252427FF8A88
310
86FFFFFFFFFFFFFFFFFFFFFFFFFFFFFFFFFFFFFFFFFFFFFFFFFFFFFFFFFFEEEE
310
EDFF434242FF252427FF252427FF252427FF252427FF252427FF706E6DFFFFFF
310
FFFFFFFFFFFFFFFFFFFFFFFFFFFF636160FF252427FF252427FF252427FF2524
310
27FF252427FF615F5FFFFFFFFFFFFFFFFFFFFFFFFFFFFFFFFFFFFFFFFFFFFFFF
310
FFFFFFFFFFFFFFFFFFFFFFFFFFFFFFFFFFFFFFFFFFFFFFFFFFFFFFFFFFFFFFFF
310
FFFFFFFFFFFFFFFFFFFFCBC4D3FF64447CFF67487FFF684A80FF684A80FF684A
310
80FF684A80FF684A80FF684A80FF684A80FF5F3C78FF7A628FFFF1EFF3FFFFFF
310
FFFFFFFFFFFFFFFFFFFFFFFFFFFFFFFFFFFFFFFFFFFFC7BFD0FF5F3C78FF6444
310
7CFF63437CFF63437CFF63437CFF63437CFF63437CFF62407BFF6A4D82FFDDD9
310
E2FFFFFFFFFFFFFFFFFFFFFFFFFFFFFFFFFFFFFFFFFFFFFFFFFF8F7CA2FF6240
310
7BFF684A80FF684A80FF684A80FF684A80FF684A80FF684A80FF684A80FF684A
310
80FF66477EFF6A4D82FFD8D3DEFFFFFFFFFFFFFFFFFFFFFFFFFFFFFFFFFFE5E4
310
E4FF383738FF252427FF252427FF252427FF252427FF252427FF8C8988FFFFFF
310
FFFFFFFFFFFFFFFFFFFFFFFFFFFFFFFFFFFF82807EFF252427FF252427FF2524
310
27FF252427FF252427FF434242FFF6F5F5FFFFFFFFFFFFFFFFFFFFFFFFFFFFFF
310
FFFFFFFFFFFFFFFFFFFFFFFFFFFFFFFFFFFFFFFFFFFFFFFFFFFF8F8D8BFF2524
310
27FF252427FF252427FF252427FF252427FF383738FFEDECEBFFFFFFFFFFFFFF
310
FFFFFFFFFFFFFFFFFFFFFFFFFFFFFFFFFFFFFFFFFFFFFFFFFFFFF1F0F0FF5250
310
50FF252427FF252427FF252427FF252427FF252427FF484747FFEFEEEEFFFFFF
310
FFFFFFFFFFFFFFFFFFFFFFFFFFFFFFFFFFFFFFFFFFFFF3F3F2FF504E4EFF2524
310
27FF252427FF252427FF252427FF252427FF5A5858FFFCFCFCFFFFFFFFFFFFFF
310
FFFFFFFFFFFF928F8EFF252427FF252427FF252427FF252427FF252427FF3837
310
38FFEDECEBFFFFFFFFFFFFFFFFFFFFFFFFFFFFFFFFFFFFFFFFFFFFFFFFFFFFFF
310
FFFFFFFFFFFFFFFFFFFFFFFFFFFFFFFFFFFFFFFFFFFFFFFFFFFFFFFFFFFFFFFF
310
FFFFDFDCE5FF6F5486FF64457DFF684A80FF684A80FF684A80FF684A80FF684A
310
80FF684A80FF684A80FF65467DFF6C4F83FFDBD6E0FFFFFFFFFFFFFFFFFFFFFF
310
FFFFFFFFFFFFFFFFFFFFFFFFFFFFC5BCCEFF64447CFF63427BFF684A80FF684A
310
80FF684A80FF684A80FF684A80FF684A80FF62407BFF8C789FFFF8F7FAFFFFFF
310
FFFFFFFFFFFFFFFFFFFFFFFFFFFFFFFFFFFFAEA1BBFF62407BFF684A80FF684A
310
80FF684A80FF684A80FF684A80FF684A80FF684A80FF684A80FF67497FFF6240
310
7BFFC0B6CAFFFFFFFFFFFFFFFFFFFFFFFFFFFFFFFFFFFEFDFEFF575555FF2524
310
27FF252427FF252427FF252427FF252427FF6A6867FFFFFFFFFFFFFFFFFFFFFF
310
FFFFFFFFFFFFFFFFFFFFB0ADACFF252427FF252427FF252427FF252427FF2524
310
27FF2F2E30FFA4A1A0FFE8E7E6FFFEFDFEFFFFFFFFFFFFFFFFFFFFFFFFFFFFFF
310
FFFFFDFDFDFFFCFCFCFFFFFFFFFFFFFFFFFFBEBCBBFF252427FF252427FF2524
310
27FF252427FF252427FF2A292BFF9B9997FFE6E5E5FFFDFDFDFFFFFFFFFFFFFF
310
FFFFFFFFFFFFFFFFFFFFFDFDFDFFFCFBFBFFFFFFFFFF949190FF252427FF2524
310
27FF252427FF252427FF252427FF252427FFAFACABFFFFFFFFFFFFFFFFFFFFFF
310
FFFFFFFFFFFFFFFFFFFFFFFFFFFFEDEDECFF434242FF252427FF252427FF2524
310
27FF252427FF252427FF636160FFFEFDFEFFFFFFFFFFFFFFFFFFFFFFFFFFBDBB
310
BAFF252427FF252427FF252427FF252427FF252427FF252427FF9B9997FFE5E4
310
E3FFFDFDFDFFFFFFFFFFFFFFFFFFFFFFFFFFFFFFFFFFFDFDFDFFFCFCFCFFFFFF
310
FFFFFFFFFFFFFFFFFFFFFFFFFFFFFFFFFFFFFFFFFFFFFFFFFFFFF5F4F7FF846E
310
98FF63427BFF684A80FF684A80FF684A80FF684A80FF684A80FF684A80FF684A
310
80FF67497FFF62407BFFC1B8CBFFFFFFFFFFFFFFFFFFFFFFFFFFFFFFFFFFFFFF
310
FFFFFFFFFFFFFCFBFBFFCBC4D3FF78608EFF5F3C78FF67487FFF684A80FF684A
310
80FF684A80FF684A80FF67497FFF62407BFFB9AEC4FFFFFFFFFFFFFFFFFFFFFF
310
FFFFFFFFFFFFFFFFFFFFD4CEDBFF65467DFF67487FFF684A80FF684A80FF684A
310
80FF684A80FF684A80FF684A80FF684A80FF684A80FF62407BFFA090B0FFFFFF
310
FFFFFFFFFFFFFFFFFFFFFFFFFFFFFFFFFFFF868483FF252427FF252427FF2524
310
27FF252427FF252427FF3D3B3CFFF1F0F0FFFFFFFFFFFFFFFFFFFFFFFFFFFFFF
310
FFFFD5D3D2FF343334FF252427FF252427FF252427FF252427FF252427FF2524
310
27FF383738FF5A5858FF6E6C6BFF7E7C7BFF7E7C7BFF6E6C6BFF4E4C4CFFABA8
310
A7FFFFFFFFFFFFFFFFFFDEDDDCFF3D3B3CFF252427FF252427FF252427FF2524
310
27FF252427FF252427FF343334FF575555FF6D6B6AFF7D7A79FF7E7C7BFF706E
310
6DFF4E4C4CFF9E9C9AFFFFFFFFFFE9E8E7FF434242FF252427FF252427FF2524
310
27FF252427FF252427FF383738FFDAD9D8FFFFFFFFFFFFFFFFFFFFFFFFFFFFFF
310
FFFFFFFFFFFFCBC9C8FF252427FF252427FF252427FF252427FF252427FF2524
310
27FF706E6DFFFFFFFFFFFFFFFFFFFFFFFFFFFFFFFFFFE0DFDEFF3D3B3CFF2524
310
27FF252427FF252427FF252427FF252427FF252427FF343334FF565454FF6D6A
310
6AFF7D7A79FF7E7C7BFF6F6D6CFF504E4EFF9D9A99FFFFFFFFFFFFFFFFFFFFFF
310
FFFFFFFFFFFFFFFFFFFFFFFFFFFFFFFFFFFFFFFFFFFF9D8DAEFF62407BFF684A
310
80FF684A80FF684A80FF684A80FF684A80FF684A80FF684A80FF684A80FF6240
310
7BFF9F8FAFFFFFFFFFFFFFFFFFFFFFFFFFFFFFFFFFFFFFFFFFFFFFFFFFFFFFFF
310
FFFFFFFFFFFFECEAEFFF9B8AACFF64447CFF64447CFF684A80FF684A80FF684A
310
80FF684A80FF64447DFF6F5486FFE2DFE7FFFFFFFFFFFFFFFFFFFFFFFFFFFFFF
310
FFFFE8E5ECFF725889FF64447CFF684A80FF684A80FF684A80FF684A80FF684A
310
80FF684A80FF684A80FF684A80FF63427BFF816B96FFF4F2F5FFFFFFFFFFFFFF
310
FFFFFFFFFFFFFFFFFFFFB0ADACFF252427FF252427FF252427FF252427FF2524
310
27FF252427FFCBC9C8FFFFFFFFFFFFFFFFFFFFFFFFFFFFFFFFFFEFEEEEFF4847
310
47FF252427FF252427FF252427FF252427FF252427FF252427FF252427FF2524
310
27FF252427FF252427FF252427FF252427FF252427FF767473FFFFFFFFFFFFFF
310
FFFFF6F6F6FF504E4EFF252427FF252427FF252427FF252427FF252427FF2524
310
27FF252427FF252427FF252427FF252427FF252427FF252427FF252427FF6765
310
64FFFFFFFFFFFFFFFFFFABA8A7FF252427FF252427FF252427FF252427FF2524
310
27FF252427FF4C4A4AFFC9C8C6FFFFFFFFFFFFFFFFFFFFFFFFFFE7E6E5FF5755
310
55FF252427FF252427FF252427FF252427FF252427FF252427FF9D9A99FFFFFF
310
FFFFFFFFFFFFFFFFFFFFFFFFFFFFF6F5F5FF545252FF252427FF252427FF2524
310
27FF252427FF252427FF252427FF252427FF252427FF252427FF252427FF2524
310
27FF252427FF252427FF666463FFFEFDFEFFFFFFFFFFFFFFFFFFFFFFFFFFFFFF
310
FFFFFFFFFFFFFFFFFFFFFFFFFFFFBCB1C6FF62407BFF684A80FF684A80FF684A
310
80FF684A80FF684A80FF684A80FF684A80FF684A80FF63427BFF816B96FFFAF9
310
FBFFFFFFFFFFFFFFFFFFFFFFFFFFFFFFFFFFF2F1F5FFE6E3EAFFFFFFFFFFFFFF
310
FFFFFDFDFDFFC3BACCFF745A8AFF5F3C78FF67497FFF684A80FF684A80FF684A
310
80FF62407BFF8F7CA2FFFEFDFEFFFFFFFFFFFFFFFFFFFFFFFFFFF7F6F8FF8A76
310
9DFF62407BFF684A80FF684A80FF684A80FF684A80FF684A80FF684A80FF684A
310
80FF684A80FF65467EFF6D5285FFE6E3EAFFFFFFFFFFFFFFFFFFFFFFFFFFFFFF
310
FFFFDDDBDAFF343334FF252427FF252427FF252427FF252427FF252427FF9D9A
310
99FFFFFFFFFFFFFFFFFFFFFFFFFFFFFFFFFFFFFFFFFF737170FF252427FF2524
310
27FF252427FF252427FF252427FF252427FF252427FF252427FF252427FF2524
310
27FF252427FF252427FF252427FF434242FFF7F6F8FFFFFFFFFFFFFFFFFF8280
310
7EFF252427FF252427FF252427FF252427FF252427FF252427FF252427FF2524
310
27FF252427FF252427FF252427FF252427FF252427FF3D3B3CFFEDEDECFFFFFF
310
FFFFFDFDFDFF858381FF252427FF252427FF252427FF252427FF252427FF2524
310
27FF252427FF666463FF868483FF7B7978FF434242FF252427FF252427FF2524
310
27FF252427FF252427FF252427FF2A292BFFDEDDDCFFFFFFFFFFFFFFFFFFFFFF
310
FFFFFFFFFFFFFFFFFFFF868483FF252427FF252427FF252427FF252427FF2524
310
27FF252427FF252427FF252427FF252427FF252427FF252427FF252427FF2524
310
27FF383738FFEFEEEEFFFFFFFFFFFFFFFFFFFFFFFFFFFFFFFFFFFFFFFFFFFFFF
310
FFFFFFFFFFFFDBD6E0FF6A4D82FF67487FFF684A80FF684A80FF684A80FF684A
310
80FF684A80FF684A80FF684A80FF66477EFF6F5486FFECEAEFFFFFFFFFFFFFFF
310
FFFFFFFFFFFFFFFFFFFFD1CAD8FF6D5285FFBCB1C6FFFDFDFDFFFFFFFFFFFFFF
310
FFFFE6E3EAFF9482A6FF63437CFF64457DFF684A80FF684A80FF67487FFF6240
310
7BFFBEB4C8FFFFFFFFFFFFFFFFFFFFFFFFFFFFFFFFFFA99BB7FF62407BFF684A
310
80FF684A80FF684A80FF684A80FF684A80FF684A80FF684A80FF684A80FF6749
310
7FFF64447CFFC9C1D1FFFFFFFFFFFFFFFFFFFFFFFFFFFFFFFFFFF2F2F1FF4A48
310
48FF252427FF252427FF252427FF252427FF252427FF767473FFFFFFFFFFFFFF
310
FFFFFFFFFFFFFFFFFFFFFFFFFFFF9E9C9AFF252427FF252427FF252427FF2524
310
27FF252427FF2F2E30FF545252FF252427FF252427FF252427FF252427FF2524
310
27FF252427FF2F2E30FFD5D3D2FFFFFFFFFFFFFFFFFFAFACABFF252427FF2524
310
27FF252427FF252427FF252427FF2A292BFF565454FF252427FF252427FF2524
310
27FF252427FF252427FF252427FF2A292BFFC8C6C5FFFFFFFFFFFFFFFFFFF7F7
310
F7FF797776FF252427FF252427FF252427FF252427FF252427FF252427FF2524
310
27FF252427FF252427FF252427FF252427FF252427FF252427FF252427FF2524
310
27FF252427FF908E8CFFFFFFFFFFFFFFFFFFFFFFFFFFFFFFFFFFFFFFFFFFFFFF
310
FFFFB1AFADFF252427FF252427FF252427FF252427FF252427FF2A292BFF5452
310
52FF252427FF252427FF252427FF252427FF252427FF252427FF252427FFC9C8
310
C6FFFFFFFFFFFFFFFFFFFFFFFFFFFFFFFFFFFFFFFFFFFFFFFFFFFFFFFFFFF5F4
310
F7FF78608EFF64447DFF684A80FF684A80FF684A80FF684A80FF684A80FF684A
310
80FF684A80FF67497FFF64457DFFC9C1D1FFFFFFFFFFFFFFFFFFFFFFFFFFFFFF
310
FFFFB9AEC4FF5F3C78FF63427BFF9786A8FFE9E6ECFFFFFFFFFFFFFFFFFFFBFB
310
FCFFBCB1C6FF6F5486FF62407BFF67487FFF684A80FF63437CFF745A8AFFE8E5
310
ECFFFFFFFFFFFFFFFFFFFFFFFFFFC3BACCFF63427BFF67487FFF684A80FF684A
310
80FF684A80FF684A80FF684A80FF684A80FF684A80FF684A80FF62407BFFA799
310
B5FFFFFFFFFFFFFFFFFFFFFFFFFFFFFFFFFFFDFDFDFF767473FF252427FF2524
310
27FF252427FF252427FF252427FF484747FFF1F0F0FFFFFFFFFFFFFFFFFFFFFF
310
FFFFFFFFFFFFC8C6C5FF252427FF252427FF252427FF252427FF252427FF2524
310
27FFB0ADACFFB2B0AEFF3D3B3CFF252427FF252427FF252427FF252427FF2524
310
27FFABA8A7FFFFFFFFFFFFFFFFFFD5D3D2FF2A292BFF252427FF252427FF2524
310
27FF252427FF252427FFA8A6A4FFBAB8B6FF434242FF252427FF252427FF2524
310
27FF252427FF252427FF9A9796FFFFFFFFFFFFFFFFFFFFFFFFFFF9F9F9FF9D9A
310
99FF2F2E30FF252427FF252427FF252427FF252427FF252427FF252427FF2524
310
27FF252427FF252427FF252427FF252427FF252427FF252427FF72706FFFF6F5
310
F5FFFFFFFFFFFFFFFFFFFFFFFFFFFFFFFFFFFFFFFFFFFFFFFFFFD6D5D4FF2A29
310
2BFF252427FF252427FF252427FF252427FF252427FF9E9C9AFFBCBAB9FF4342
310
42FF252427FF252427FF252427FF252427FF252427FF9D9A99FFFFFFFFFFFFFF
310
FFFFFFFFFFFFFFFFFFFFFFFFFFFFFFFFFFFFFFFFFFFFFFFFFFFF9280A4FF6240
310
7BFF684A80FF684A80FF684A80FF684A80FF684A80FF684A80FF684A80FF684A
310
80FF62407BFFA99BB7FFFFFFFFFFFFFFFFFFFFFFFFFFFFFFFFFF9A89ABFF6240
310
7BFF67487FFF5F3C78FF755B8CFFC7BFD0FFFEFDFEFFFFFFFFFFFFFFFFFFE2DE
310
E6FF8F7CA2FF62407BFF65457DFF684A80FF62407BFF9584A7FFFDFDFDFFFFFF
310
FFFFFFFFFFFFDFDBE4FF6D5285FF66477EFF684A80FF684A80FF684A80FF684A
310
80FF684A80FF684A80FF684A80FF684A80FF62407BFF8A769DFFFEFDFEFFFFFF
310
FFFFFFFFFFFFFFFFFFFFFFFFFFFFA6A4A2FF252427FF2A292BFF2A292BFF2A29
310
2BFF252427FF383738FFD3D1D0FFFFFFFFFFFFFFFFFFFFFFFFFFFFFFFFFFEDED
310
ECFF434242FF252427FF2A292BFF2A292BFF2A292BFF252427FF8F8D8BFFFFFF
310
FFFFE9E8E7FF928F8EFF4A4848FF2F2E30FF252427FF252427FF7E7C7BFFFFFF
310
FFFFFFFFFFFFF6F5F5FF4E4C4CFF252427FF2A292BFF2A292BFF2A292BFF2524
310
27FF817E7DFFFFFFFFFFECEBEBFF9A9796FF525050FF2F2E30FF252427FF2524
310
27FF716F6EFFFDFDFDFFFFFFFFFFFFFFFFFFFFFFFFFFFFFFFFFFD6D5D4FF7876
310
75FF343334FF252427FF252427FF252427FF252427FF252427FF252427FF2524
310
27FF252427FF252427FF434242FF989594FFFCFCFCFFFFFFFFFFFFFFFFFFFFFF
310
FFFFFFFFFFFFFFFFFFFFFFFFFFFFFFFFFFFFF7F7F7FF4C4A4AFF252427FF2A29
310
2BFF2A292BFF2A292BFF252427FF7E7C7BFFFFFFFFFFEDEDECFF9B9997FF504E
310
4EFF2F2E30FF252427FF252427FF767473FFFFFFFFFFFFFFFFFFFFFFFFFFFFFF
310
FFFFFFFFFFFFFFFFFFFFFFFFFFFFFFFFFFFFB3A7BFFF62407BFF684A80FF684A
310
80FF684A80FF684A80FF684A80FF684A80FF684A80FF684A80FF62407BFF8C78
310
9FFFFFFFFFFFFFFFFFFFFFFFFFFFFBFBFCFF816B96FF63437CFF684A80FF684A
310
80FF63437CFF64447CFF9D8DAEFFEDEBF0FFFFFFFFFFFFFFFFFFF9F9F9FFB6AA
310
C1FF6C4F83FF62407BFF66477EFF64447CFFC5BCCEFFFFFFFFFFFFFFFFFFFBFB
310
FCFF7F6994FF63437CFF684A80FF684A80FF684A80FF684A80FF684A80FF684A
310
80FF684A80FF684A80FF65467DFF745A8AFFECEAEFFFFFFFFFFFFFFFFFFFFFFF
310
FFFFFFFFFFFFECEBEBFFBEBCBBFFC1BFBDFFC2C0BFFFC2C0BFFFC1BFBDFFBEBC
310
BBFFEAEAE9FFFFFFFFFFFFFFFFFFFFFFFFFFFFFFFFFFFEFDFEFFCCCAC9FFBEBC
310
BBFFC2C0BFFFC2C0BFFFC2C0BFFFBDBBBAFFD3D1D0FFFFFFFFFFFFFFFFFFFFFF
310
FFFFF0EFEFFFCCCAC9FFB6B4B2FFABA8A7FFC9C8C6FFFFFFFFFFFFFFFFFFFFFF
310
FFFFD0CECDFFBEBCBBFFC2C0BFFFC2C0BFFFC2C0BFFFBEBCBBFFCDCCCBFFFFFF
310
FFFFFFFFFFFFFFFFFFFFF3F3F2FFD0CECDFFB8B6B5FFABA8A7FFC4C2C0FFFDFD
310
FDFFFFFFFFFFFFFFFFFFFFFFFFFFFFFFFFFFFFFFFFFFFFFFFFFFDDDBDAFFA8A6
310
A4FF7B7978FF615F5FFF565454FF565454FF565454FF605E5DFF787574FFA8A6
310
A4FFE4E3E2FFFFFFFFFFFFFFFFFFFFFFFFFFFFFFFFFFFFFFFFFFFFFFFFFFFFFF
310
FFFFFFFFFFFFFFFFFFFFFFFFFFFFD1CFCEFFBEBCBBFFC2C0BFFFC2C0BFFFC2C0
310
BFFFBEBCBBFFCDCCCBFFFFFFFFFFFFFFFFFFFFFFFFFFF3F3F2FFD0CECDFFB8B6
310
B5FFABA8A7FFC8C6C5FFFFFFFFFFFFFFFFFFFFFFFFFFFFFFFFFFFFFFFFFFFFFF
310
FFFFFFFFFFFFFFFFFFFFD6D1DDFF65467DFF66477EFF684A80FF684A80FF684A
310
80FF684A80FF684A80FF684A80FF684A80FF64447CFF755B8CFFEAE7EDFFFFFF
310
FFFFFFFFFFFFEDEBF0FF725889FF65467DFF684A80FF684A80FF684A80FF6748
310
7FFF5F3C78FF7A628FFFCBC4D3FFFFFFFFFFFFFFFFFFFFFFFFFFDDD9E2FF8874
310
9CFF5F3C78FF5F3C78FF775D8DFFEAE7EDFFFFFFFFFFFFFFFFFF9786A8FF6240
310
7BFF684A80FF684A80FF684A80FF684A80FF684A80FF684A80FF684A80FF684A
310
80FF67487FFF67487FFFCFC8D6FFFFFFFFFFFFFFFFFFFFFFFFFFFFFFFFFFFFFF
310
FFFFFFFFFFFFFFFFFFFFFFFFFFFFFFFFFFFFFFFFFFFFFFFFFFFFFFFFFFFFFFFF
310
FFFFFFFFFFFFFFFFFFFFFFFFFFFFFFFFFFFFFFFFFFFFFFFFFFFFFFFFFFFFFFFF
310
FFFFFFFFFFFFFFFFFFFFFFFFFFFFFFFFFFFFFFFFFFFFFFFFFFFFFFFFFFFFFFFF
310
FFFFFFFFFFFFFFFFFFFFFFFFFFFFFFFFFFFFFFFFFFFFFFFFFFFFFFFFFFFFFFFF
310
FFFFFFFFFFFFFFFFFFFFFFFFFFFFFFFFFFFFFFFFFFFFFFFFFFFFFFFFFFFFFFFF
310
FFFFFFFFFFFFFFFFFFFFFFFFFFFFFFFFFFFFFFFFFFFFFFFFFFFFFFFFFFFFFFFF
310
FFFFFFFFFFFFFFFFFFFFFFFFFFFFFFFFFFFFFFFFFFFFFFFFFFFFFFFFFFFFF7F7
310
F7FFF3F3F2FFF4F3F3FFF3F3F2FFF6F6F6FFFFFFFFFFFFFFFFFFFFFFFFFFFFFF
310
FFFFFFFFFFFFFFFFFFFFFFFFFFFFFFFFFFFFFFFFFFFFFFFFFFFFFFFFFFFFFFFF
310
FFFFFFFFFFFFFFFFFFFFFFFFFFFFFFFFFFFFFFFFFFFFFFFFFFFFFFFFFFFFFFFF
310
FFFFFFFFFFFFFFFFFFFFFFFFFFFFFFFFFFFFFFFFFFFFFFFFFFFFFFFFFFFFFFFF
310
FFFFFFFFFFFFFFFFFFFFFFFFFFFFFFFFFFFFFFFFFFFFFFFFFFFFFFFFFFFFFFFF
310
FFFFE9E6ECFF745A8AFF64447CFF684A80FF684A80FF684A80FF684A80FF684A
310
80FF684A80FF684A80FF66477EFF67497FFFD1CBD9FFFFFFFFFFFFFFFFFFD1CB
310
D9FF66477EFF67497FFF684A80FF684A80FF684A80FF684A80FF684A80FF6342
310
7BFF63427BFFA191B0FFF0EEF1FFFFFFFFFFFFFFFFFFF7F6F8FFB0A3BDFF694C
310
81FF5F3C78FF9A89ABFFFDFDFDFFFFFFFFFFB9AEC4FF63427BFF684A80FF684A
310
80FF684A80FF684A80FF684A80FF684A80FF684A80FF684A80FF684A80FF6240
310
7BFFB3A7BFFFFFFFFFFFFFFFFFFFFFFFFFFFFFFFFFFFFFFFFFFFF2F2F1FFF0EF
310
EFFFF1F0F0FFF1F0F0FFF1F0F0FFF1F0F0FFF1F0F0FFFDFCFEFFFFFFFFFFFFFF
310
FFFFFFFFFFFFFFFFFFFFFFFFFFFFFFFFFFFFFFFFFFFFFFFFFFFFFFFFFFFFFFFF
310
FFFFFFFFFFFFFFFFFFFFFFFFFFFFFFFFFFFFFFFFFFFFFFFFFFFFFFFFFFFFFFFF
310
FFFFFFFFFFFFFFFFFFFFFFFFFFFFFFFFFFFFFFFFFFFFFFFFFFFFFFFFFFFFFFFF
310
FFFFFFFFFFFFFFFFFFFFFFFFFFFFFFFFFFFFFFFFFFFFFFFFFFFFFFFFFFFFFFFF
310
FFFFFFFFFFFFFFFFFFFFFFFFFFFFFFFFFFFFFFFFFFFFFFFFFFFFFFFFFFFFFFFF
310
FFFFFFFFFFFFFFFFFFFFFFFFFFFFFFFFFFFFFFFFFFFFFFFFFFFFFFFFFFFFFFFF
310
FFFFFFFFFFFFFFFFFFFFFFFFFFFFFFFFFFFFFFFFFFFFFFFFFFFFFFFFFFFFFFFF
310
FFFFFFFFFFFFFFFFFFFFFFFFFFFFFFFFFFFFFFFFFFFFFFFFFFFFFFFFFFFFFFFF
310
FFFFFFFFFFFFFFFFFFFFFFFFFFFFFFFFFFFFFFFFFFFFFFFFFFFFFFFFFFFFFFFF
310
FFFFFFFFFFFFFFFFFFFFFFFFFFFFFFFFFFFFFFFFFFFFFFFFFFFFFFFFFFFFFFFF
310
FFFFFFFFFFFFFFFFFFFFFFFFFFFFFFFFFFFFFFFFFFFFFFFFFFFFF9F8F9FF8C78
310
9FFF62407BFF684A80FF684A80FF684A80FF684A80FF684A80FF684A80FF684A
310
80FF684A80FF5F3C78FFB9AEC4FFFFFFFFFFFFFFFFFFB6AAC1FF62407BFF684A
310
80FF684A80FF684A80FF684A80FF684A80FF684A80FF65467DFF816B96FF6B4E
310
83FF7A628FFFD4CEDBFFFFFFFFFFFFFFFFFFFFFFFFFFD6D1DDFF7E6793FF5F3C
310
78FFC9C1D1FFFFFFFFFFDDD9E2FF684A80FF66477EFF684A80FF684A80FF684A
310
80FF684A80FF684A80FF684A80FF684A80FF684A80FF62407BFF9785A8FFFDFD
310
FDFFFFFFFFFFFFFFFFFFFFFFFFFFFFFFFFFF8A8886FF3D3B3CFF434242FF4342
310
42FF434242FF3D3B3CFF3D3B3CFFD3D1D0FFFFFFFFFFFFFFFFFFFFFFFFFFFFFF
310
FFFFFFFFFFFFFFFFFFFFFFFFFFFFFFFFFFFFFFFFFFFFFFFFFFFFFFFFFFFFFFFF
310
FFFFFFFFFFFFFFFFFFFFFFFFFFFFFFFFFFFFFFFFFFFFFFFFFFFFFFFFFFFFFFFF
310
FFFFFFFFFFFFFFFFFFFFFFFFFFFFFFFFFFFFFFFFFFFFFFFFFFFFFFFFFFFFFFFF
310
FFFFFFFFFFFFFFFFFFFFFFFFFFFFFFFFFFFFFFFFFFFFFFFFFFFFFFFFFFFFFFFF
310
FFFFFFFFFFFFFFFFFFFFFFFFFFFFFFFFFFFFFFFFFFFFFFFFFFFFFFFFFFFFFFFF
310
FFFFFFFFFFFFFFFFFFFFFFFFFFFFFFFFFFFFFFFFFFFFFFFFFFFFFFFFFFFFFFFF
310
FFFFFFFFFFFFFFFFFFFFFFFFFFFFFFFFFFFFFFFFFFFFFFFFFFFFFFFFFFFFFFFF
310
FFFFFFFFFFFFFFFFFFFFFFFFFFFFFFFFFFFFFFFFFFFFFFFFFFFFFFFFFFFFFFFF
310
FFFFFFFFFFFFFFFFFFFFFFFFFFFFFFFFFFFFFFFFFFFFFFFFFFFFFFFFFFFFFFFF
310
FFFFFFFFFFFFFFFFFFFFFFFFFFFFFFFFFFFFFFFFFFFFFFFFFFFFFFFFFFFFFFFF
310
FFFFFFFFFFFFFFFFFFFFFFFFFFFFFFFFFFFFFFFFFFFFA99BB7FF62407BFF684A
310
80FF684A80FF684A80FF684A80FF684A80FF684A80FF684A80FF684A80FF6240
310
7BFF9584A7FFFEFDFEFFFFFFFFFF9D8DAEFF62407BFF684A80FF684A80FF684A
310
80FF684A80FF684A80FF684A80FF62407BFFBCB1C6FFC0B6CAFF5F3C78FF6647
310
7EFFAB9DB9FFF4F2F5FFFFFFFFFFFFFFFFFFF4F2F5FFA090B0FF7A628FFFECEA
310
EFFFF5F4F7FF775D8DFF63437CFF684A80FF684A80FF684A80FF684A80FF684A
310
80FF684A80FF684A80FF684A80FF63437CFF7A628FFFEDEBF0FFFFFFFFFFFFFF
310
FFFFFFFFFFFFFFFFFFFF989594FF252427FF252427FF252427FF252427FF2524
310
27FF252427FF969492FFFFFFFFFFFFFFFFFFFFFFFFFFFFFFFFFFFFFFFFFFFFFF
310
FFFFFFFFFFFFFFFFFFFFFFFFFFFFFFFFFFFFFFFFFFFFFFFFFFFFFFFFFFFFFFFF
310
FFFFFFFFFFFFFFFFFFFFFFFFFFFFFFFFFFFFFFFFFFFFFFFFFFFFFFFFFFFFFFFF
310
FFFFFFFFFFFFFFFFFFFFFFFFFFFFFFFFFFFFFFFFFFFFFFFFFFFFFFFFFFFFFFFF
310
FFFFFFFFFFFFFFFFFFFFFFFFFFFFFFFFFFFFFFFFFFFFFFFFFFFFFFFFFFFFFFFF
310
FFFFFFFFFFFFFFFFFFFFFFFFFFFFFFFFFFFFFFFFFFFFFFFFFFFFFFFFFFFFFFFF
310
FFFFFFFFFFFFFFFFFFFFFFFFFFFFFFFFFFFFFFFFFFFFFFFFFFFFFFFFFFFFFFFF
310
FFFFFFFFFFFFFFFFFFFFFFFFFFFFFFFFFFFFFFFFFFFFFFFFFFFFFFFFFFFFFFFF
310
FFFFFFFFFFFFFFFFFFFFFFFFFFFFFFFFFFFFFFFFFFFFFFFFFFFFFFFFFFFFFFFF
310
FFFFFFFFFFFFFFFFFFFFFFFFFFFFFFFFFFFFFFFFFFFFFFFFFFFFFFFFFFFFFFFF
310
FFFFFFFFFFFFFFFFFFFFFFFFFFFFFFFFFFFFFFFFFFFFFFFFFFFFFFFFFFFFFFFF
310
FFFFFFFFFFFFFFFFFFFFFFFFFFFFC5BCCEFF64447CFF67497FFF684A80FF684A
310
80FF684A80FF684A80FF684A80FF684A80FF684A80FF63437CFF7B6491FFF5F4
310
F7FFFBFBFCFF88749CFF62407BFF684A80FF684A80FF684A80FF684A80FF684A
310
80FF67487FFF65457DFFD6D1DDFFFBFBFCFF8F7CA2FF5F3C78FF62407BFF8671
310
9AFFDBD6E0FFFFFFFFFFFFFFFFFFFFFFFFFFC5BCCEFFBCB1C6FFFBFAFAFF9280
310
A4FF62407BFF684A80FF684A80FF684A80FF684A80FF684A80FF684A80FF684A
310
80FF684A80FF65467DFF694C81FFDDD9E2FFFFFFFFFFFFFFFFFFFFFFFFFFFFFF
310
FFFFC8C6C5FF252427FF252427FF252427FF252427FF252427FF252427FF7674
310
73FFFFFFFFFFFFFFFFFFFFFFFFFFFFFFFFFFFFFFFFFFFFFFFFFFFFFFFFFFFFFF
310
FFFFFFFFFFFFFFFFFFFFFFFFFFFFFFFFFFFFFFFFFFFFFFFFFFFFFFFFFFFFFFFF
310
FFFFFFFFFFFFFFFFFFFFFFFFFFFFFFFFFFFFFFFFFFFFFFFFFFFFFFFFFFFFFFFF
310
FFFFFFFFFFFFFFFFFFFFFFFFFFFFFFFFFFFFFFFFFFFFFFFFFFFFFFFFFFFFFFFF
310
FFFFFFFFFFFFFFFFFFFFFFFFFFFFFFFFFFFFFFFFFFFFFFFFFFFFFFFFFFFFFFFF
310
FFFFFFFFFFFFFFFFFFFFFFFFFFFFFFFFFFFFFFFFFFFFFFFFFFFFFFFFFFFFFFFF
310
FFFFFFFFFFFFFFFFFFFFFFFFFFFFFFFFFFFFFFFFFFFFFFFFFFFFFFFFFFFFFFFF
310
FFFFFFFFFFFFFFFFFFFFFFFFFFFFFFFFFFFFFFFFFFFFFFFFFFFFFFFFFFFFFFFF
310
FFFFFFFFFFFFFFFFFFFFFFFFFFFFFFFFFFFFFFFFFFFFFFFFFFFFFFFFFFFFFFFF
310
FFFFFFFFFFFFFFFFFFFFFFFFFFFFFFFFFFFFFFFFFFFFFFFFFFFFFFFFFFFFFFFF
310
FFFFFFFFFFFFFFFFFFFFFFFFFFFFFFFFFFFFFFFFFFFFFFFFFFFFFFFFFFFFFFFF
310
FFFFFFFFFFFFE2DFE7FF6F5486FF66477EFF684A80FF684A80FF684A80FF684A
310
80FF684A80FF684A80FF684A80FF66477EFF694C81FFE8E5ECFFEDEBF0FF755B
310
8CFF64447CFF684A80FF684A80FF684A80FF684A80FF684A80FF64447CFF7258
310
89FFE8E5ECFFFFFFFFFFE2DEE6FF6F5486FF64447CFF62407BFF6C4F83FFB1A5
310
BEFFF8F7FAFFFFFFFFFFFFFFFFFFF2F1F5FFFEFDFEFFB1A5BEFF5F3C78FF6748
310
7FFF684A80FF684A80FF684A80FF684A80FF684A80FF684A80FF684A80FF6749
310
7FFF62407BFFC0B6CAFFFFFFFFFFFFFFFFFFFFFFFFFFFFFFFFFFECEBEBFF4342
310
42FF252427FF252427FF252427FF252427FF252427FF434242FFF4F3F3FFFFFF
310
FFFFFFFFFFFFFFFFFFFFFFFFFFFFFFFFFFFFFFFFFFFFFFFFFFFFFFFFFFFFFFFF
310
FFFFFFFFFFFFFFFFFFFFFFFFFFFFFFFFFFFFFFFFFFFFFFFFFFFFFFFFFFFFFFFF
310
FFFFFFFFFFFFFFFFFFFFFFFFFFFFFFFFFFFFFFFFFFFFFFFFFFFFFFFFFFFFFFFF
310
FFFFFFFFFFFFFFFFFFFFFFFFFFFFFFFFFFFFFFFFFFFFFFFFFFFFFFFFFFFFFFFF
310
FFFFFFFFFFFFFFFFFFFFFFFFFFFFFFFFFFFFFFFFFFFFFFFFFFFFFFFFFFFFFFFF
310
FFFFFFFFFFFFFFFFFFFFFFFFFFFFFFFFFFFFFFFFFFFFFFFFFFFFFFFFFFFFFFFF
310
FFFFFFFFFFFFFFFFFFFFFFFFFFFFFFFFFFFFFFFFFFFFFFFFFFFFFFFFFFFFFFFF
310
FFFFFFFFFFFFFFFFFFFFFFFFFFFFFFFFFFFFFFFFFFFFFFFFFFFFFFFFFFFFFFFF
310
FFFFFFFFFFFFFFFFFFFFFFFFFFFFFFFFFFFFFFFFFFFFFFFFFFFFFFFFFFFFFFFF
310
FFFFFFFFFFFFFFFFFFFFFFFFFFFFFFFFFFFFFFFFFFFFFFFFFFFFFFFFFFFFFFFF
310
FFFFFFFFFFFFFFFFFFFFFFFFFFFFFFFFFFFFFFFFFFFFFFFFFFFFFFFFFFFFFBFB
310
FCFF816B96FF63437CFF684A80FF684A80FF684A80FF684A80FF684A80FF684A
310
80FF684A80FF684A80FF63427BFFC7BFD0FFDBD6E0FF684A80FF66477EFF684A
310
80FF684A80FF684A80FF684A80FF684A80FF62407BFF86719AFFF5F4F7FFFFFF
310
FFFFFFFFFFFFBCB1C6FF62407BFF67497FFF64457DFF62407BFF8C789FFFDFDB
310
E4FFFFFFFFFFFFFFFFFFFFFFFFFFE2DEE6FF775D8DFF5F3C78FF67487FFF684A
310
80FF684A80FF684A80FF684A80FF684A80FF684A80FF684A80FF62407BFF9B8B
310
ACFFFFFFFFFFFFFFFFFFFFFFFFFFFFFFFFFFFBFAFAFF6D6B6AFF2A292BFF3433
310
34FF343334FF343334FF2F2E30FF3D3B3CFFD5D3D2FFFFFFFFFFFFFFFFFFFFFF
310
FFFFFFFFFFFFFFFFFFFFFFFFFFFFFFFFFFFFFFFFFFFFFFFFFFFFFFFFFFFFFFFF
310
FFFFFFFFFFFFFFFFFFFFFFFFFFFFFFFFFFFFFFFFFFFFFFFFFFFFFFFFFFFFFFFF
310
FFFFFFFFFFFFFFFFFFFFFFFFFFFFFFFFFFFFFFFFFFFFFFFFFFFFFFFFFFFFFFFF
310
FFFFFFFFFFFFFFFFFFFFFFFFFFFFFFFFFFFFFFFFFFFFFFFFFFFFFFFFFFFFFFFF
310
FFFFFFFFFFFFFFFFFFFFFFFFFFFFFFFFFFFFFFFFFFFFFFFFFFFFFFFFFFFFFFFF
310
FFFFFFFFFFFFFFFFFFFFFFFFFFFFFFFFFFFFFFFFFFFFFFFFFFFFFFFFFFFFFFFF
310
FFFFFFFFFFFFFFFFFFFFFFFFFFFFFFFFFFFFFFFFFFFFFFFFFFFFFFFFFFFFFFFF
310
FFFFFFFFFFFFFFFFFFFFFFFFFFFFFFFFFFFFFFFFFFFFFFFFFFFFFFFFFFFFFFFF
310
FFFFFFFFFFFFFFFFFFFFFFFFFFFFFFFFFFFFFFFFFFFFFFFFFFFFFFFFFFFFFFFF
310
FFFFFFFFFFFFFFFFFFFFFFFFFFFFFFFFFFFFFFFFFFFFFFFFFFFFFFFFFFFFFFFF
310
FFFFFFFFFFFFFFFFFFFFFFFFFFFFFFFFFFFFFFFFFFFFFFFFFFFF9B8BACFF6240
310
7BFF684A80FF684A80FF684A80FF684A80FF684A80FF684A80FF684A80FF684A
310
80FF62407BFFA99BB7FFC9C1D1FF62407BFF67487FFF684A80FF684A80FF684A
310
80FF684A80FF684A80FF62407BFFA596B4FFFFFFFFFFFFFFFFFFFFFFFFFFFCFC
310
FCFF9280A4FF5F3C78FF694C81FF67497FFF62407BFF6D5285FFBCB1C6FFFBFB
310
FCFFFFFFFFFFFFFFFFFFEDEBF0FF9A89ABFF64447CFF63427BFF684A80FF684A
310
80FF684A80FF684A80FF684A80FF684A80FF63437CFF816B96FFFCFCFCFFFFFF
310
FFFFFFFFFFFFFFFFFFFFFFFFFFFFE9E9E8FFD9D7D6FFDDDBDAFFDBDAD9FFDDDB
310
DAFFDBDAD9FFDAD9D8FFF2F2F1FFFFFFFFFFFFFFFFFFFFFFFFFFFFFFFFFFFFFF
310
FFFFFFFFFFFFFFFFFFFFFFFFFFFFFFFFFFFFFFFFFFFFFFFFFFFFFFFFFFFFFFFF
310
FFFFFFFFFFFFFFFFFFFFFFFFFFFFFFFFFFFFFFFFFFFFFFFFFFFFFFFFFFFFFFFF
310
FFFFFFFFFFFFFFFFFFFFFFFFFFFFFFFFFFFFFFFFFFFFFFFFFFFFFFFFFFFFFFFF
310
FFFFFFFFFFFFFFFFFFFFFFFFFFFFFFFFFFFFFFFFFFFFFFFFFFFFFFFFFFFFFFFF
310
FFFFFFFFFFFFFFFFFFFFFFFFFFFFFFFFFFFFFFFFFFFFFFFFFFFFFFFFFFFFFFFF
310
FFFFFFFFFFFFFFFFFFFFFFFFFFFFFFFFFFFFFFFFFFFFFFFFFFFFFFFFFFFFFFFF
310
FFFFFFFFFFFFFFFFFFFFFFFFFFFFFFFFFFFFFFFFFFFFFFFFFFFFFFFFFFFFFFFF
310
FFFFFFFFFFFFFFFFFFFFFFFFFFFFFFFFFFFFFFFFFFFFFFFFFFFFFFFFFFFFFFFF
310
FFFFFFFFFFFFFFFFFFFFFFFFFFFFFFFFFFFFFFFFFFFFFFFFFFFFFFFFFFFFFFFF
310
FFFFFFFFFFFFFFFFFFFFFFFFFFFFFFFFFFFFFFFFFFFFFFFFFFFFFFFFFFFFFFFF
310
FFFFFFFFFFFFFFFFFFFFFFFFFFFFFFFFFFFFBEB4C8FF63427BFF684A80FF684A
310
80FF684A80FF684A80FF684A80FF684A80FF684A80FF684A80FF63437CFF8874
310
9CFFA394B2FF62407BFF684A80FF684A80FF684A80FF684A80FF684A80FF6749
310
7FFF63427BFFC0B6CAFFFFFFFFFFFFFFFFFFFFFFFFFFFFFFFFFFE5E2E9FF7157
310
88FF64447CFF684A80FF684A80FF64447CFF62407BFF9280A4FFE5E2E9FFFFFF
310
FFFFFFFFFFFFFFFFFFFFC3BACCFF725889FF62407BFF67497FFF684A80FF684A
310
80FF684A80FF684A80FF67487FFF6D5285FFE5E2E9FFFFFFFFFFFFFFFFFFFFFF
310
FFFFFFFFFFFFFFFFFFFFFFFFFFFFFFFFFFFFFFFFFFFFFFFFFFFFFFFFFFFFFFFF
310
FFFFFFFFFFFFFFFFFFFFFFFFFFFFFFFFFFFFFFFFFFFFFFFFFFFFFFFFFFFFFFFF
310
FFFFFFFFFFFFFFFFFFFFFFFFFFFFFFFFFFFFFFFFFFFFFFFFFFFFFFFFFFFFFFFF
310
FFFFFFFFFFFFFFFFFFFFFFFFFFFFFFFFFFFFFFFFFFFFFFFFFFFFFFFFFFFFFFFF
310
FFFFFFFFFFFFFFFFFFFFFFFFFFFFFFFFFFFFFFFFFFFFFFFFFFFFFFFFFFFFFFFF
310
FFFFFFFFFFFFFFFFFFFFFFFFFFFFFFFFFFFFFFFFFFFFFFFFFFFFFFFFFFFFFFFF
310
FFFFFFFFFFFFFFFFFFFFFFFFFFFFFFFFFFFFFFFFFFFFFFFFFFFFFFFFFFFFFFFF
310
FFFFFFFFFFFFFFFFFFFFFFFFFFFFFFFFFFFFFFFFFFFFFFFFFFFFFFFFFFFFFFFF
310
FFFFFFFFFFFFFFFFFFFFFFFFFFFFFFFFFFFFFFFFFFFFFFFFFFFFFFFFFFFFFFFF
310
FFFFFFFFFFFFFFFFFFFFFFFFFFFFFFFFFFFFFFFFFFFFFFFFFFFFFFFFFFFFFFFF
310
FFFFFFFFFFFFFFFFFFFFFFFFFFFFFFFFFFFFFFFFFFFFFFFFFFFFFFFFFFFFFFFF
310
FFFFFFFFFFFFFFFFFFFFFFFFFFFFFFFFFFFFFFFFFFFFFFFFFFFFFFFFFFFFFFFF
310
FFFFFFFFFFFFFFFFFFFFDFDBE4FF684A80FF66477EFF684A80FF684A80FF684A
310
80FF684A80FF684A80FF684A80FF684A80FF67487FFF715788FF7A628FFF6647
310
7EFF684A80FF684A80FF684A80FF684A80FF684A80FF66477EFF6A4D82FFD6D1
310
DDFFFFFFFFFFFFFFFFFFFFFFFFFFFFFFFFFFFFFFFFFFBEB4C8FF62407BFF6749
310
7FFF684A80FF684A80FF67497FFF62407BFF725889FFC1B8CBFFFFFFFFFFFFFF
310
FFFFFFFFFFFFE5E2E9FF9280A4FF62407BFF64447CFF684A80FF684A80FF684A
310
80FF67497FFF64457DFFC5BCCEFFFFFFFFFFFFFFFFFFFFFFFFFFFFFFFFFFFFFF
310
FFFFFFFFFFFFFFFFFFFFFFFFFFFFFFFFFFFFFFFFFFFFFFFFFFFFFFFFFFFFFFFF
310
FFFFFFFFFFFFFFFFFFFFFFFFFFFFFFFFFFFFFFFFFFFFFFFFFFFFFFFFFFFFFFFF
310
FFFFFFFFFFFFFFFFFFFFFFFFFFFFFFFFFFFFFFFFFFFFFFFFFFFFFFFFFFFFFFFF
310
FFFFFFFFFFFFFFFFFFFFFFFFFFFFFFFFFFFFFFFFFFFFFFFFFFFFFFFFFFFFFFFF
310
FFFFFFFFFFFFFFFFFFFFFFFFFFFFFFFFFFFFFFFFFFFFFFFFFFFFFFFFFFFFFFFF
310
FFFFFFFFFFFFFFFFFFFFFFFFFFFFFFFFFFFFFFFFFFFFFFFFFFFFFFFFFFFFFFFF
310
FFFFFFFFFFFFFFFFFFFFFFFFFFFFFFFFFFFFFFFFFFFFFFFFFFFFFFFFFFFFFFFF
310
FFFFFFFFFFFFFFFFFFFFFFFFFFFFFFFFFFFFFFFFFFFFFFFFFFFFFFFFFFFFFFFF
310
FFFFFFFFFFFFFFFFFFFFFFFFFFFFFFFFFFFFFFFFFFFFFFFFFFFFFFFFFFFFFFFF
310
FFFFFFFFFFFFFFFFFFFFFFFFFFFFFFFFFFFFFFFFFFFFFFFFFFFFFFFFFFFFFFFF
310
FFFFFFFFFFFFFFFFFFFFFFFFFFFFFFFFFFFFFFFFFFFFFFFFFFFFFFFFFFFFFFFF
310
FFFFFFFFFFFFFFFFFFFFFFFFFFFFFFFFFFFFFFFFFFFFFFFFFFFFFFFFFFFFFFFF
310
FFFFF1EFF3FF7A628FFF63427BFF684A80FF684A80FF684A80FF684A80FF684A
310
80FF684A80FF684A80FF684A80FF67497FFF67497FFF684A80FF684A80FF684A
310
80FF684A80FF684A80FF684A80FF64457DFF7A628FFFF4F2F5FFFFFFFFFFFFFF
310
FFFFFFFFFFFFFFFFFFFFFFFFFFFFFCFCFCFF9482A6FF62407BFF684A80FF684A
310
80FF684A80FF684A80FF63437CFF63427BFF9785A8FFEAE7EDFFFFFFFFFFFFFF
310
FFFFFFFFFFFFBCB1C6FF6F5486FF62407BFF67497FFF684A80FF684A80FF6240
310
7BFFA99BB7FFFFFFFFFFFFFFFFFFFFFFFFFFFFFFFFFFFFFFFFFFFFFFFFFFFFFF
310
FFFFFFFFFFFFFFFFFFFFFFFFFFFFFFFFFFFFFFFFFFFFFFFFFFFFFFFFFFFFFFFF
310
FFFFFFFFFFFFFFFFFFFFFFFFFFFFFFFFFFFFFFFFFFFFFFFFFFFFFFFFFFFFFFFF
310
FFFFFFFFFFFFFFFFFFFFFFFFFFFFFFFFFFFFFFFFFFFFFFFFFFFFFFFFFFFFFFFF
310
FFFFFFFFFFFFFFFFFFFFFFFFFFFFFFFFFFFFFFFFFFFFFFFFFFFFFFFFFFFFFFFF
310
FFFFFFFFFFFFFFFFFFFFFFFFFFFFFFFFFFFFFFFFFFFFFFFFFFFFFFFFFFFFFFFF
310
FFFFFFFFFFFFFFFFFFFFFFFFFFFFFFFFFFFFFFFFFFFFFFFFFFFFFFFFFFFFFFFF
310
FFFFFFFFFFFFFFFFFFFFFFFFFFFFFFFFFFFFFFFFFFFFFFFFFFFFFFFFFFFFFFFF
310
FFFFFFFFFFFFFFFFFFFFFFFFFFFFFFFFFFFFFFFFFFFFFFFFFFFFFFFFFFFFFFFF
310
FFFFFFFFFFFFFFFFFFFFFFFFFFFFFFFFFFFFFFFFFFFFFFFFFFFFFFFFFFFFFFFF
310
FFFFFFFFFFFFFFFFFFFFFFFFFFFFFFFFFFFFFFFFFFFFFFFFFFFFFFFFFFFFFFFF
310
FFFFFFFFFFFFFFFFFFFFFFFFFFFFFFFFFFFFFFFFFFFFFFFFFFFFFFFFFFFFFFFF
310
FFFFFFFFFFFFFFFFFFFFFFFFFFFFFFFFFFFFFFFFFFFFFFFFFFFFFDFDFDFF9584
310
A7FF62407BFF684A80FF684A80FF684A80FF684A80FF684A80FF684A80FF684A
310
80FF684A80FF684A80FF684A80FF684A80FF684A80FF684A80FF684A80FF684A
310
80FF684A80FF62407BFF8F7CA2FFFFFFFFFFFFFFFFFFFFFFFFFFFFFFFFFFFFFF
310
FFFFFFFFFFFFFFFFFFFFE5E2E9FF715788FF63427BFF684A80FF684A80FF684A
310
80FF684A80FF67497FFF5F3C78FF78608EFFC7BFD0FFFFFFFFFFFFFFFFFFFFFF
310
FFFFE2DEE6FF8A769DFF62407BFF64447CFF684A80FF62407BFF8C789FFFFBFB
310
FCFFFFFFFFFFFFFFFFFFFFFFFFFFFFFFFFFFFFFFFFFFFFFFFFFFFFFFFFFFFFFF
310
FFFFFFFFFFFFFFFFFFFFFFFFFFFFFFFFFFFFFFFFFFFFFFFFFFFFFFFFFFFFFFFF
310
FFFFFFFFFFFFFFFFFFFFFFFFFFFFFFFFFFFFFFFFFFFFFFFFFFFFFFFFFFFFFFFF
310
FFFFFFFFFFFFFFFFFFFFFFFFFFFFFFFFFFFFFFFFFFFFFFFFFFFFFFFFFFFFFFFF
310
FFFFFFFFFFFFFFFFFFFFFFFFFFFFFFFFFFFFFFFFFFFFFFFFFFFFFFFFFFFFFFFF
310
FFFFFFFFFFFFFFFFFFFFFFFFFFFFFFFFFFFFFFFFFFFFFFFFFFFFFFFFFFFFFFFF
310
FFFFFFFFFFFFFFFFFFFFFFFFFFFFFFFFFFFFFFFFFFFFFFFFFFFFFFFFFFFFFFFF
310
FFFFFFFFFFFFFFFFFFFFFFFFFFFFFFFFFFFFFFFFFFFFFFFFFFFFFFFFFFFFFFFF
310
FFFFFFFFFFFFFFFFFFFFFFFFFFFFFFFFFFFFFFFFFFFFFFFFFFFFFFFFFFFFFFFF
310
FFFFFFFFFFFFFFFFFFFFFFFFFFFFFFFFFFFFFFFFFFFFFFFFFFFFFFFFFFFFFFFF
310
FFFFFFFFFFFFFFFFFFFFFFFFFFFFFFFFFFFFFFFFFFFFFFFFFFFFFFFFFFFFFFFF
310
FFFFFFFFFFFFFFFFFFFFFFFFFFFFFFFFFFFFFFFFFFFFFFFFFFFFFFFFFFFFFFFF
310
FFFFFFFFFFFFFFFFFFFFFFFFFFFFFFFFFFFFFFFFFFFFB6AAC1FF62407BFF6749
310
7FFF684A80FF684A80FF684A80FF684A80FF684A80FF684A80FF684A80FF684A
310
80FF684A80FF684A80FF684A80FF684A80FF684A80FF684A80FF684A80FF6240
310
7BFFA99BB7FFFFFFFFFFFFFFFFFFFFFFFFFFFFFFFFFFFFFFFFFFFFFFFFFFFFFF
310
FFFFFFFFFFFFC1B8CBFF63437CFF67497FFF684A80FF684A80FF684A80FF684A
310
80FF684A80FF62407BFF64447CFF9F8FAFFFEDEBF0FFFFFFFFFFFFFFFFFFFBFA
310
FAFFB6AAC1FF6C4F83FF62407BFF64447CFF745A8AFFE6E3EAFFFFFFFFFFFFFF
310
FFFFFFFFFFFFFFFFFFFFFFFFFFFFFFFFFFFFFFFFFFFFFFFFFFFFFFFFFFFFFFFF
310
FFFFFFFFFFFFFFFFFFFFFFFFFFFFFFFFFFFFFFFFFFFFFFFFFFFFFFFFFFFFFFFF
310
FFFFFFFFFFFFFFFFFFFFFFFFFFFFFFFFFFFFFFFFFFFFFFFFFFFFFFFFFFFFFFFF
310
FFFFFFFFFFFFFFFFFFFFFFFFFFFFFFFFFFFFFFFFFFFFFFFFFFFFFFFFFFFFFFFF
310
FFFFFFFFFFFFFFFFFFFFFFFFFFFFFFFFFFFFFFFFFFFFFFFFFFFFFFFFFFFFFFFF
310
FFFFFFFFFFFFFFFFFFFFFFFFFFFFFFFFFFFFFFFFFFFFFFFFFFFFFFFFFFFFFFFF
310
FFFFFFFFFFFFFFFFFFFFFFFFFFFFFFFFFFFFFFFFFFFFFFFFFFFFFFFFFFFFFFFF
310
FFFFFFFFFFFFFFFFFFFFFFFFFFFFFFFFFFFFFFFFFFFFFFFFFFFFFFFFFFFFFFFF
310
FFFFFFFFFFFFFFFFFFFFFFFFFFFFFFFFFFFFFFFFFFFFFFFFFFFFFFFFFFFFFFFF
310
FFFFFFFFFFFFFFFFFFFFFFFFFFFFFFFFFFFFFFFFFFFFFFFFFFFFFFFFFFFFFFFF
310
FFFFFFFFFFFFFFFFFFFFFFFFFFFFFFFFFFFFFFFFFFFFFFFFFFFFFFFFFFFFFFFF
310
FFFFFFFFFFFFFFFFFFFFFFFFFFFFFFFFFFFFFFFFFFFFFFFFFFFFFFFFFFFFFFFF
310
FFFFFFFFFFFFFFFFFFFFFFFFFFFFCFC8D6FF66477EFF67487FFF684A80FF684A
310
80FF684A80FF684A80FF684A80FF684A80FF684A80FF684A80FF684A80FF684A
310
80FF684A80FF684A80FF684A80FF684A80FF67497FFF64447CFFCBC4D3FFFFFF
310
FFFFFFFFFFFFFFFFFFFFFFFFFFFFFFFFFFFFFFFFFFFFFFFFFFFFFFFFFFFFFFFF
310
FFFF9785A8FF62407BFF684A80FF684A80FF684A80FF684A80FF684A80FF684A
310
80FF66477EFF62407BFF7B6491FFD1CAD8FFFFFFFFFFFFFFFFFFFFFFFFFFDBD6
310
E0FF846E98FF5F3C78FF63437CFFD4CEDBFFFFFFFFFFFFFFFFFFFFFFFFFFFFFF
310
FFFFFFFFFFFFFFFFFFFFFFFFFFFFFFFFFFFFFFFFFFFFFFFFFFFFFFFFFFFFFFFF
310
FFFFFFFFFFFFFFFFFFFFFFFFFFFFFFFFFFFFFFFFFFFFFFFFFFFFFFFFFFFFFFFF
310
FFFFFFFFFFFFFFFFFFFFFFFFFFFFFFFFFFFFFFFFFFFFFFFFFFFFFFFFFFFFFFFF
310
FFFFFFFFFFFFFFFFFFFFFFFFFFFFFFFFFFFFFFFFFFFFFFFFFFFFFFFFFFFFFFFF
310
FFFFFFFFFFFFFFFFFFFFFFFFFFFFFFFFFFFFFFFFFFFFFFFFFFFFFFFFFFFFFFFF
310
FFFFFFFFFFFFFFFFFFFFFFFFFFFFFFFFFFFFFFFFFFFFFFFFFFFFFFFFFFFFFFFF
310
FFFFFFFFFFFFFFFFFFFFFFFFFFFFFFFFFFFFFFFFFFFFFFFFFFFFFFFFFFFFFFFF
310
FFFFFFFFFFFFFFFFFFFFFFFFFFFFFFFFFFFFFFFFFFFFFFFFFFFFFFFFFFFFFFFF
310
FFFFFFFFFFFFFFFFFFFFFFFFFFFFFFFFFFFFFFFFFFFFFFFFFFFFFFFFFFFFFFFF
310
FFFFFFFFFFFFFFFFFFFFFFFFFFFFFFFFFFFFFFFFFFFFFFFFFFFFFFFFFFFFFFFF
310
FFFFFFFFFFFFFFFFFFFFFFFFFFFFFFFFFFFFFFFFFFFFFFFFFFFFFFFFFFFFFFFF
310
FFFFFFFFFFFFFFFFFFFFFFFFFFFFFFFFFFFFFFFFFFFFFFFFFFFFFFFFFFFFFFFF
310
FFFFFFFFFFFFE9E6ECFF745A8AFF64457DFF684A80FF684A80FF684A80FF684A
310
80FF684A80FF684A80FF684A80FF684A80FF684A80FF684A80FF684A80FF684A
310
80FF684A80FF684A80FF65467DFF6C4F83FFE8E5ECFFFFFFFFFFFFFFFFFFFFFF
310
FFFFFFFFFFFFFFFFFFFFFFFFFFFFFFFFFFFFFFFFFFFFFFFFFFFFE5E2E9FF745A
310
8AFF63427BFF684A80FF684A80FF684A80FF684A80FF684A80FF684A80FF684A
310
80FF62407BFF67487FFFA596B4FFF5F4F7FFFFFFFFFFFFFFFFFFF7F6F8FFAB9D
310
B9FF62407BFFAEA1BBFFFFFFFFFFFFFFFFFFFFFFFFFFFFFFFFFFFFFFFFFFFFFF
310
FFFFFFFFFFFFFFFFFFFFFFFFFFFFFFFFFFFFFFFFFFFFFFFFFFFFFFFFFFFFFFFF
310
FFFFFFFFFFFFFFFFFFFFFFFFFFFFFFFFFFFFFFFFFFFFFFFFFFFFFFFFFFFFFFFF
310
FFFFFFFFFFFFFFFFFFFFFFFFFFFFFFFFFFFFFFFFFFFFFFFFFFFFFFFFFFFFFFFF
310
FFFFFFFFFFFFFFFFFFFFFFFFFFFFFFFFFFFFFFFFFFFFFFFFFFFFFFFFFFFFFFFF
310
FFFFFFFFFFFFFFFFFFFFFFFFFFFFFFFFFFFFFFFFFFFFFFFFFFFFFFFFFFFFFFFF
310
FFFFFFFFFFFFFFFFFFFFFFFFFFFFFFFFFFFFFFFFFFFFFFFFFFFFFFFFFFFFFFFF
310
FFFFFFFFFFFFFFFFFFFFFFFFFFFFFFFFFFFFFFFFFFFFFFFFFFFFFFFFFFFFFFFF
310
FFFFFFFFFFFFFFFFFFFFFFFFFFFFFFFFFFFFFFFFFFFFFFFFFFFFFFFFFFFFFFFF
310
FFFFFFFFFFFFFFFFFFFFFFFFFFFFFFFFFFFFFFFFFFFFFFFFFFFFFFFFFFFFFFFF
310
FFFFFFFFFFFFFFFFFFFFFFFFFFFFFFFFFFFFFFFFFFFFFFFFFFFFFFFFFFFFFFFF
310
FFFFFFFFFFFFFFFFFFFFFFFFFFFFFFFFFFFFFFFFFFFFFFFFFFFFFFFFFFFFFFFF
310
FFFFFFFFFFFFFFFFFFFFFFFFFFFFFFFFFFFFFFFFFFFFFFFFFFFFFFFFFFFFFFFF
310
FFFF8C789FFF62407BFF684A80FF684A80FF684A80FF684A80FF684A80FF684A
310
80FF684A80FF684A80FF684A80FF684A80FF684A80FF684A80FF684A80FF684A
310
80FF63427BFF7F6994FFF4F2F5FFFFFFFFFFFFFFFFFFFFFFFFFFFFFFFFFFFFFF
310
FFFFFFFFFFFFFFFFFFFFFFFFFFFFFFFFFFFFFFFFFFFFC5BCCEFF63437CFF6748
310
7FFF684A80FF684A80FF684A80FF684A80FF684A80FF684A80FF684A80FF6546
310
7EFF5F3C78FF816B96FFD6D1DDFFFFFFFFFFFFFFFFFFFFFFFFFFC9C1D1FFAEA1
310
BBFFFCFBFBFFFFFFFFFFFFFFFFFFFFFFFFFFFFFFFFFFFFFFFFFFFFFFFFFFFFFF
310
FFFFFFFFFFFFFFFFFFFFFFFFFFFFFFFFFFFFFFFFFFFFFFFFFFFFFFFFFFFFFFFF
310
FFFFFFFFFFFFFFFFFFFFFFFFFFFFFFFFFFFFFFFFFFFFFFFFFFFFFFFFFFFFFFFF
310
FFFFFFFFFFFFFFFFFFFFFFFFFFFFFFFFFFFFFFFFFFFFFFFFFFFFFFFFFFFFFFFF
310
FFFFFFFFFFFFFFFFFFFFFFFFFFFFFFFFFFFFFFFFFFFFFFFFFFFFFFFFFFFFFFFF
310
FFFFFFFFFFFFFFFFFFFFFFFFFFFFFFFFFFFFFFFFFFFFFFFFFFFFFFFFFFFFFFFF
310
FFFFFFFFFFFFFFFFFFFFFFFFFFFFFFFFFFFFFFFFFFFFFFFFFFFFFFFFFFFFFFFF
310
FFFFFFFFFFFFFFFFFFFFFFFFFFFFFFFFFFFFFFFFFFFFFFFFFFFFFFFFFFFFFFFF
310
FFFFFFFFFFFFFFFFFFFFFFFFFFFFFFFFFFFFFFFFFFFFFFFFFFFFFFFFFFFFFFFF
310
FFFFFFFFFFFFFFFFFFFFFFFFFFFFFFFFFFFFFFFFFFFFFFFFFFFFFFFFFFFFFFFF
310
FFFFFFFFFFFFFFFFFFFFFFFFFFFFFFFFFFFFFFFFFFFFFFFFFFFFFFFFFFFFFFFF
310
FFFFFFFFFFFFFFFFFFFFFFFFFFFFFFFFFFFFFFFFFFFFFFFFFFFFFFFFFFFFFFFF
310
FFFFFFFFFFFFFFFFFFFFFFFFFFFFFFFFFFFFFFFFFFFFFFFFFFFFA799B5FF5F3C
310
78FF684A80FF684A80FF684A80FF684A80FF684A80FF684A80FF684A80FF684A
310
80FF684A80FF684A80FF684A80FF684A80FF684A80FF684A80FF62407BFF9B8A
310
ACFFFEFDFEFFFFFFFFFFFFFFFFFFFFFFFFFFFFFFFFFFFFFFFFFFFFFFFFFFFFFF
310
FFFFFFFFFFFFFFFFFFFFFFFFFFFFFEFDFEFF9786A8FF62407BFF684A80FF684A
310
80FF684A80FF684A80FF684A80FF684A80FF684A80FF684A80FF684A80FF6240
310
7BFF694C81FFAEA1BBFFF9F8FAFFFFFFFFFFFFFFFFFFF9F8FAFFFEFDFEFFFFFF
310
FFFFFFFFFFFFFFFFFFFFFFFFFFFFFFFFFFFFFFFFFFFFFFFFFFFFFFFFFFFFFFFF
310
FFFFFFFFFFFFFFFFFFFFFFFFFFFFFFFFFFFFFFFFFFFFFFFFFFFFFFFFFFFFFFFF
310
FFFFFFFFFFFFFFFFFFFFFFFFFFFFFFFFFFFFFFFFFFFFFFFFFFFFFFFFFFFFFFFF
310
FFFFFFFFFFFFFFFFFFFFFFFFFFFFFFFFFFFFFFFFFFFFFFFFFFFFFFFFFFFFFFFF
310
FFFFFFFFFFFFFFFFFFFFFFFFFFFFFFFFFFFFFFFFFFFFFFFFFFFFFFFFFFFFFFFF
310
FFFFFFFFFFFFFFFFFFFFFFFFFFFFFFFFFFFFFFFFFFFFFFFFFFFFFFFFFFFFFFFF
310
FFFFFFFFFFFFFFFFFFFFFFFFFFFFFFFFFFFFFFFFFFFFFFFFFFFFFFFFFFFFFFFF
310
FFFFFFFFFFFFFFFFFFFFFFFFFFFFFFFFFFFFFFFFFFFFFFFFFFFFFFFFFFFFFFFF
310
FFFFFFFFFFFFFFFFFFFFFFFFFFFFFFFFFFFFFFFFFFFFFFFFFFFFFFFFFFFFFFFF
310
FFFFFFFFFFFFFFFFFFFFFFFFFFFFFFFFFFFFFFFFFFFFFFFFFFFFFFFFFFFFFFFF
310
FFFFFFFFFFFFFFFFFFFFFFFFFFFFFFFFFFFFFFFFFFFFFFFFFFFFFFFFFFFFFFFF
310
FFFFFFFFFFFFFFFFFFFFFFFFFFFFFFFFFFFFFFFFFFFFFFFFFFFFFFFFFFFFFFFF
310
FFFFFFFFFFFFFFFFFFFFFFFFFFFFFFFFFFFFC7BFD0FF64447CFF684A80FF684A
310
80FF684A80FF684A80FF684A80FF684A80FF684A80FF684A80FF684A80FF684A
310
80FF684A80FF684A80FF684A80FF67497FFF62407BFFB9AEC4FFFFFFFFFFFFFF
310
FFFFFFFFFFFFFFFFFFFFFFFFFFFFFFFFFFFFFFFFFFFFFFFFFFFFFFFFFFFFFFFF
310
FFFFFFFFFFFFFFFFFFFFECEAEFFF775D8DFF63427BFF684A80FF684A80FF684A
310
80FF684A80FF684A80FF684A80FF684A80FF684A80FF684A80FF64457DFF5F3C
310
78FF86719AFFDBD6E0FFFFFFFFFFFFFFFFFFFFFFFFFFFFFFFFFFFFFFFFFFFFFF
310
FFFFFFFFFFFFFFFFFFFFFFFFFFFFFFFFFFFFFFFFFFFFFFFFFFFFFFFFFFFFFFFF
310
FFFFFFFFFFFFFFFFFFFFFFFFFFFFFFFFFFFFFFFFFFFFFFFFFFFFFFFFFFFFFFFF
310
FFFFFFFFFFFFFFFFFFFFFFFFFFFFFFFFFFFFFFFFFFFFFFFFFFFFFFFFFFFFFFFF
310
FFFFFFFFFFFFFFFFFFFFFFFFFFFFFFFFFFFFFFFFFFFFFFFFFFFFFFFFFFFFFFFF
310
FFFFFFFFFFFFFFFFFFFFFFFFFFFFFFFFFFFFFFFFFFFFFFFFFFFFFFFFFFFFFFFF
310
FFFFFFFFFFFFFFFFFFFFFFFFFFFFFFFFFFFFFFFFFFFFFFFFFFFFFFFFFFFFFFFF
310
FFFFFFFFFFFFFFFFFFFFFFFFFFFFFFFFFFFFFFFFFFFFFFFFFFFFFFFFFFFFFFFF
310
FFFFFFFFFFFFFFFFFFFFFFFFFFFFFFFFFFFFFFFFFFFFFFFFFFFFFFFFFFFFFFFF
310
FFFFFFFFFFFFFFFFFFFFFFFFFFFFFFFFFFFFFFFFFFFFFFFFFFFFFFFFFFFFFFFF
310
FFFFFFFFFFFFFFFFFFFFFFFFFFFFFFFFFFFFFFFFFFFFFFFFFFFFFFFFFFFFFFFF
310
FFFFFFFFFFFFFFFFFFFFFFFFFFFFFFFFFFFFFFFFFFFFFFFFFFFFFFFFFFFFFFFF
310
FFFFFFFFFFFFFFFFFFFFFFFFFFFFFFFFFFFFFFFFFFFFFFFFFFFFFFFFFFFFFFFF
310
FFFFFFFFFFFFFFFFFFFFE8E5ECFF6C4F83FF66477EFF684A80FF684A80FF684A
310
80FF684A80FF684A80FF684A80FF684A80FF684A80FF684A80FF684A80FF684A
310
80FF684A80FF66477EFF67497FFFD1CAD8FFFFFFFFFFFFFFFFFFFFFFFFFFFFFF
310
FFFFFFFFFFFFFFFFFFFFFFFFFFFFFFFFFFFFFFFFFFFFFFFFFFFFFFFFFFFFFFFF
310
FFFFFFFFFFFFC5BCCEFF64447CFF67487FFF684A80FF684A80FF684A80FF684A
310
80FF684A80FF684A80FF684A80FF684A80FF684A80FF684A80FF62407BFF6C4F
310
83FFB9AEC4FFFBFAFAFFFFFFFFFFFFFFFFFFFFFFFFFFFFFFFFFFFFFFFFFFFFFF
310
FFFFFFFFFFFFFFFFFFFFFFFFFFFFFFFFFFFFFFFFFFFFFFFFFFFFFFFFFFFFFFFF
310
FFFFFFFFFFFFFFFFFFFFFFFFFFFFFFFFFFFFFFFFFFFFFFFFFFFFFFFFFFFFFFFF
310
FFFFFFFFFFFFFFFFFFFFFFFFFFFFFFFFFFFFFFFFFFFFFFFFFFFFFFFFFFFFFFFF
310
FFFFFFFFFFFFFFFFFFFFFFFFFFFFFFFFFFFFFFFFFFFFFFFFFFFFFFFFFFFFFFFF
310
FFFFFFFFFFFFFFFFFFFFFFFFFFFFFFFFFFFFFFFFFFFFFFFFFFFFFFFFFFFFFFFF
310
FFFFFFFFFFFFFFFFFFFFFFFFFFFFFFFFFFFFFFFFFFFFFFFFFFFFFFFFFFFFFFFF
310
FFFFFFFFFFFFFFFFFFFFFFFFFFFFFFFFFFFFFFFFFFFFFFFFFFFFFFFFFFFFFFFF
310
FFFFFFFFFFFFFFFFFFFFFFFFFFFFFFFFFFFFFFFFFFFFFFFFFFFFFFFFFFFFFFFF
310
FFFFFFFFFFFFFFFFFFFFFFFFFFFFFFFFFFFFFFFFFFFFFFFFFFFFFFFFFFFFFFFF
310
FFFFFFFFFFFFFFFFFFFFFFFFFFFFFFFFFFFFFFFFFFFFFFFFFFFFFFFFFFFFFFFF
310
FFFFFFFFFFFFFFFFFFFFFFFFFFFFFFFFFFFFFFFFFFFFFFFFFFFFFFFFFFFFFFFF
310
FFFFFFFFFFFFFFFFFFFFFFFFFFFFFFFFFFFFFFFFFFFFFFFFFFFFFFFFFFFFFFFF
310
FFFFF7F6F8FF7F6994FF63427BFF684A80FF684A80FF684A80FF684A80FF684A
310
80FF684A80FF684A80FF684A80FF684A80FF684A80FF684A80FF684A80FF6445
310
7DFF755B8CFFEAE7EDFFFFFFFFFFFFFFFFFFFFFFFFFFFFFFFFFFFFFFFFFFFFFF
310
FFFFFFFFFFFFFFFFFFFFFFFFFFFFFFFFFFFFFFFFFFFFFFFFFFFFFFFFFFFFFFFF
310
FFFF9B8BACFF5F3C78FF694C81FF684A80FF684A80FF684A80FF684A80FF684A
310
80FF684A80FF684A80FF684A80FF684A80FF684A80FF64447CFF62407BFF8C78
310
9FFFE5E2E9FFFFFFFFFFFFFFFFFFFFFFFFFFFFFFFFFFFFFFFFFFFFFFFFFFFFFF
310
FFFFFFFFFFFFFFFFFFFFFFFFFFFFFFFFFFFFFFFFFFFFFFFFFFFFFFFFFFFFFFFF
310
FFFFFFFFFFFFFFFFFFFFFFFFFFFFFFFFFFFFFFFFFFFFFFFFFFFFFFFFFFFFFFFF
310
FFFFFFFFFFFFFFFFFFFFFFFFFFFFFFFFFFFFFFFFFFFFFFFFFFFFFFFFFFFFFFFF
310
FFFFFFFFFFFFFFFFFFFFFFFFFFFFFFFFFFFFFFFFFFFFFFFFFFFFFFFFFFFFFFFF
310
FFFFFFFFFFFFFFFFFFFFFFFFFFFFFFFFFFFFFFFFFFFFFFFFFFFFFFFFFFFFFFFF
310
FFFFFFFFFFFFFFFFFFFFFFFFFFFFFFFFFFFFFFFFFFFFFFFFFFFFFFFFFFFFFFFF
310
FFFFFFFFFFFFFFFFFFFFFFFFFFFFFFFFFFFFFFFFFFFFFFFFFFFFFFFFFFFFFFFF
310
FFFFFFFFFFFFFFFFFFFFFFFFFFFFFFFFFFFFFFFFFFFFFFFFFFFFFFFFFFFFFFFF
310
FFFFFFFFFFFFFFFFFFFFFFFFFFFFFFFFFFFFFFFFFFFFFFFFFFFFFFFFFFFFFFFF
310
FFFFFFFFFFFFFFFFFFFFFFFFFFFFFFFFFFFFFFFFFFFFFFFFFFFFFFFFFFFFFFFF
310
FFFFFFFFFFFFFFFFFFFFFFFFFFFFFFFFFFFFFFFFFFFFFFFFFFFFFFFFFFFFFFFF
310
FFFFFFFFFFFFFFFFFFFFFFFFFFFFFFFFFFFFFFFFFFFFFFFFFFFFFEFDFEFF9D8D
310
AEFF62407BFF684A80FF684A80FF684A80FF684A80FF684A80FF684A80FF684A
310
80FF684A80FF684A80FF684A80FF684A80FF684A80FF62407BFF88749CFFFDFD
310
FDFFFFFFFFFFFFFFFFFFFFFFFFFFFFFFFFFFFFFFFFFFFFFFFFFFFFFFFFFFFFFF
310
FFFFFFFFFFFFFFFFFFFFFFFFFFFFFFFFFFFFFFFFFFFFFFFFFFFFECEAEFFF775D
310
8DFF63427BFF684A80FF684A80FF684A80FF684A80FF684A80FF684A80FF684A
310
80FF684A80FF684A80FF684A80FF684A80FF67487FFF5F3C78FF86719AFFF9F8
310
F9FFFFFFFFFFFFFFFFFFFFFFFFFFFFFFFFFFFFFFFFFFFFFFFFFFFFFFFFFFFFFF
310
FFFFFFFFFFFFFFFFFFFFFFFFFFFFFFFFFFFFFFFFFFFFFFFFFFFFFFFFFFFFFFFF
310
FFFFFFFFFFFFFFFFFFFFFFFFFFFFFFFFFFFFFFFFFFFFFFFFFFFFFFFFFFFFFFFF
310
FFFFFFFFFFFFFFFFFFFFFFFFFFFFFFFFFFFFFFFFFFFFFFFFFFFFFFFFFFFFFFFF
310
FFFFFFFFFFFFFFFFFFFFFFFFFFFFFFFFFFFFFFFFFFFFFFFFFFFFFFFFFFFFFFFF
310
FFFFFFFFFFFFFFFFFFFFFFFFFFFFFFFFFFFFFFFFFFFFFFFFFFFFFFFFFFFFFFFF
310
FFFFFFFFFFFFFFFFFFFFFFFFFFFFFFFFFFFFFFFFFFFFFFFFFFFFFFFFFFFFFFFF
310
FFFFFFFFFFFFFFFFFFFFFFFFFFFFFFFFFFFFFFFFFFFFFFFFFFFFFFFFFFFFFFFF
310
FFFFFFFFFFFFFFFFFFFFFFFFFFFFFFFFFFFFFFFFFFFFFFFFFFFFFFFFFFFFFFFF
310
FFFFFFFFFFFFFFFFFFFFFFFFFFFFFFFFFFFFFFFFFFFFFFFFFFFFFFFFFFFFFFFF
310
FFFFFFFFFFFFFFFFFFFFFFFFFFFFFFFFFFFFFFFFFFFFFFFFFFFFFFFFFFFFFFFF
310
FFFFFFFFFFFFFFFFFFFFFFFFFFFFFFFFFFFFFFFFFFFFFFFFFFFFFFFFFFFFFFFF
310
FFFFFFFFFFFFFFFFFFFFFFFFFFFFFFFFFFFFFFFFFFFFC0B6CAFF62407BFF6749
310
7FFF684A80FF684A80FF684A80FF684A80FF684A80FF684A80FF684A80FF684A
310
80FF684A80FF684A80FF684A80FF62407BFFA191B0FFFFFFFFFFFFFFFFFFFFFF
310
FFFFFFFFFFFFFFFFFFFFFFFFFFFFFFFFFFFFFFFFFFFFFFFFFFFFFFFFFFFFFFFF
310
FFFFFFFFFFFFFFFFFFFFFFFFFFFFFFFFFFFFFFFFFFFFCBC4D3FF65457DFF6647
310
7EFF684A80FF684A80FF684A80FF684A80FF684A80FF684A80FF684A80FF684A
310
80FF684A80FF684A80FF684A80FF64457DFF6D5285FFDFDBE4FFFFFFFFFFFFFF
310
FFFFFFFFFFFFFFFFFFFFFFFFFFFFFFFFFFFFFFFFFFFFFFFFFFFFFFFFFFFFFFFF
310
FFFFFFFFFFFFFFFFFFFFFFFFFFFFFFFFFFFFFFFFFFFFFFFFFFFFFFFFFFFFFFFF
310
FFFFFFFFFFFFFFFFFFFFFFFFFFFFFFFFFFFFFFFFFFFFFFFFFFFFFFFFFFFFFFFF
310
FFFFFFFFFFFFFFFFFFFFFFFFFFFFFFFFFFFFFFFFFFFFFFFFFFFFFFFFFFFFFFFF
310
FFFFFFFFFFFFFFFFFFFFFFFFFFFFFFFFFFFFFFFFFFFFFFFFFFFFFFFFFFFFFFFF
310
FFFFFFFFFFFFFFFFFFFFFFFFFFFFFFFFFFFFFFFFFFFFFFFFFFFFFFFFFFFFFFFF
310
FFFFFFFFFFFFFFFFFFFFFFFFFFFFFFFFFFFFFFFFFFFFFFFFFFFFFFFFFFFFFFFF
310
FFFFFFFFFFFFFFFFFFFFFFFFFFFFFFFFFFFFFFFFFFFFFFFFFFFFFFFFFFFFFFFF
310
FFFFFFFFFFFFFFFFFFFFFFFFFFFFFFFFFFFFFFFFFFFFFFFFFFFFFFFFFFFFFFFF
310
FFFFFFFFFFFFFFFFFFFFFFFFFFFFFFFFFFFFFFFFFFFFFFFFFFFFFFFFFFFFFFFF
310
FFFFFFFFFFFFFFFFFFFFFFFFFFFFFFFFFFFFFFFFFFFFFFFFFFFFFFFFFFFFFFFF
310
FFFFFFFFFFFFFFFFFFFFFFFFFFFFFFFFFFFFFFFFFFFFFFFFFFFFFFFFFFFFFFFF
310
FFFFFFFFFFFFFFFFFFFFFFFFFFFFD8D3DEFF6A4D82FF65467EFF684A80FF684A
310
80FF684A80FF684A80FF684A80FF684A80FF684A80FF684A80FF684A80FF684A
310
80FF684A80FF63437CFFC1B8CBFFFFFFFFFFFFFFFFFFFFFFFFFFFFFFFFFFFFFF
310
FFFFFFFFFFFFFFFFFFFFFFFFFFFFFFFFFFFFFFFFFFFFFFFFFFFFFFFFFFFFFFFF
310
FFFFFFFFFFFFFFFFFFFFFFFFFFFFFFFFFFFF9F8FAFFF5F3C78FF684A80FF684A
310
80FF684A80FF684A80FF684A80FF684A80FF684A80FF684A80FF684A80FF684A
310
80FF684A80FF67487FFF63437CFFC9C1D1FFFFFFFFFFFFFFFFFFFFFFFFFFFFFF
310
FFFFFFFFFFFFFFFFFFFFFFFFFFFFFFFFFFFFFFFFFFFFFFFFFFFFFFFFFFFFFFFF
310
FFFFFFFFFFFFFFFFFFFFFFFFFFFFFFFFFFFFFFFFFFFFFFFFFFFFFFFFFFFFFFFF
310
FFFFFFFFFFFFFFFFFFFFFFFFFFFFFFFFFFFFFFFFFFFFFFFFFFFFFFFFFFFFFFFF
310
FFFFFFFFFFFFFFFFFFFFFFFFFFFFFFFFFFFFFFFFFFFFFFFFFFFFFFFFFFFFFFFF
310
FFFFFFFFFFFFFFFFFFFFFFFFFFFFFFFFFFFFFFFFFFFFFFFFFFFFFFFFFFFFFFFF
310
FFFFFFFFFFFFFFFFFFFFFFFFFFFFFFFFFFFFFFFFFFFFFFFFFFFFFFFFFFFFFFFF
310
FFFFFFFFFFFFFFFFFFFFFFFFFFFFFFFFFFFFFFFFFFFFFFFFFFFFFFFFFFFFFFFF
310
FFFFFFFFFFFFFFFFFFFFFFFFFFFFFFFFFFFFFFFFFFFFFFFFFFFFFFFFFFFFFFFF
310
FFFFFFFFFFFFFFFFFFFFFFFFFFFFFFFFFFFFFFFFFFFFFFFFFFFFFFFFFFFFFFFF
310
FFFFFFFFFFFFFFFFFFFFFFFFFFFFFFFFFFFFFFFFFFFFFFFFFFFFFFFFFFFFFFFF
310
FFFFFFFFFFFFFFFFFFFFFFFFFFFFFFFFFFFFFFFFFFFFFFFFFFFFFFFFFFFFFFFF
310
FFFFFFFFFFFFFFFFFFFFFFFFFFFFFFFFFFFFFFFFFFFFFFFFFFFFFFFFFFFFFFFF
310
FFFFFFFFFFFFF1EFF3FF7E6793FF63437CFF684A80FF684A80FF684A80FF684A
310
80FF684A80FF684A80FF684A80FF684A80FF684A80FF684A80FF67487FFF6C4F
310
83FFE2DFE7FFFFFFFFFFFFFFFFFFFFFFFFFFFFFFFFFFFFFFFFFFFFFFFFFFFFFF
310
FFFFFFFFFFFFFFFFFFFFFFFFFFFFFFFFFFFFFFFFFFFFFFFFFFFFFFFFFFFFFFFF
310
FFFFFFFFFFFFFFFFFFFFF0EEF1FF7E6793FF65457DFF684A80FF684A80FF684A
310
80FF684A80FF684A80FF684A80FF684A80FF684A80FF684A80FF684A80FF684A
310
80FF62407BFFA799B5FFFEFDFEFFFFFFFFFFFFFFFFFFFFFFFFFFFFFFFFFFFFFF
310
FFFFFFFFFFFFFFFFFFFFFFFFFFFFFFFFFFFFFFFFFFFFFFFFFFFFFFFFFFFFFFFF
310
FFFFFFFFFFFFFFFFFFFFFFFFFFFFFFFFFFFFFFFFFFFFFFFFFFFFFFFFFFFFFFFF
310
FFFFFFFFFFFFFFFFFFFFFFFFFFFFFFFFFFFFFFFFFFFFFFFFFFFFFFFFFFFFFFFF
310
FFFFFFFFFFFFFFFFFFFFFFFFFFFFFFFFFFFFFFFFFFFFFFFFFFFFFFFFFFFFFFFF
310
FFFFFFFFFFFFFFFFFFFFFFFFFFFFFFFFFFFFFFFFFFFFFFFFFFFFFFFFFFFFFFFF
310
FFFFFFFFFFFFFFFFFFFFFFFFFFFFFFFFFFFFFFFFFFFFFFFFFFFFFFFFFFFFFFFF
310
FFFFFFFFFFFFFFFFFFFFFFFFFFFFFFFFFFFFFFFFFFFFFFFFFFFFFFFFFFFFFFFF
310
FFFFFFFFFFFFFFFFFFFFFFFFFFFFFFFFFFFFFFFFFFFFFFFFFFFFFFFFFFFFFFFF
310
FFFFFFFFFFFFFFFFFFFFFFFFFFFFFFFFFFFFFFFFFFFFFFFFFFFFFFFFFFFFFFFF
310
FFFFFFFFFFFFFFFFFFFFFFFFFFFFFFFFFFFFFFFFFFFFFFFFFFFFFFFFFFFFFFFF
310
FFFFFFFFFFFFFFFFFFFFFFFFFFFFFFFFFFFFFFFFFFFFFFFFFFFFFFFFFFFFFFFF
310
FFFFFFFFFFFFFFFFFFFFFFFFFFFFFFFFFFFFFFFFFFFFFFFFFFFFFFFFFFFFFFFF
310
FFFF9280A4FF62407BFF684A80FF684A80FF684A80FF684A80FF684A80FF684A
310
80FF684A80FF684A80FF684A80FF684A80FF64447CFF775D8DFFF4F2F5FFFFFF
310
FFFFFFFFFFFFFFFFFFFFFFFFFFFFFFFFFFFFFFFFFFFFFFFFFFFFFFFFFFFFFFFF
310
FFFFFFFFFFFFFFFFFFFFFFFFFFFFFFFFFFFFFFFFFFFFFFFFFFFFFFFFFFFFFFFF
310
FFFFFFFFFFFFBCB1C6FF63427BFF67487FFF684A80FF684A80FF684A80FF684A
310
80FF684A80FF684A80FF684A80FF684A80FF684A80FF684A80FF62407BFF8F7C
310
A2FFFBFAFAFFFFFFFFFFFFFFFFFFFFFFFFFFFFFFFFFFFFFFFFFFFFFFFFFFFFFF
310
FFFFFFFFFFFFFFFFFFFFFFFFFFFFFFFFFFFFFFFFFFFFFFFFFFFFFFFFFFFFFFFF
310
FFFFFFFFFFFFFFFFFFFFFFFFFFFFFFFFFFFFFFFFFFFFFFFFFFFFFFFFFFFFFFFF
310
FFFFFFFFFFFFFFFFFFFFFFFFFFFFFFFFFFFFFFFFFFFFFFFFFFFFFFFFFFFFFFFF
310
FFFFFFFFFFFFFFFFFFFFFFFFFFFFFFFFFFFFFFFFFFFFFFFFFFFFFFFFFFFFFFFF
310
FFFFFFFFFFFFFFFFFFFFFFFFFFFFFFFFFFFFFFFFFFFFFFFFFFFFFFFFFFFFFFFF
310
FFFFFFFFFFFFFFFFFFFFFFFFFFFFFFFFFFFFFFFFFFFFFFFFFFFFFFFFFFFFFFFF
310
FFFFFFFFFFFFFFFFFFFFFFFFFFFFFFFFFFFFFFFFFFFFFFFFFFFFFFFFFFFFFFFF
310
FFFFFFFFFFFFFFFFFFFFFFFFFFFFFFFFFFFFFFFFFFFFFFFFFFFFFFFFFFFFFFFF
310
FFFFFFFFFFFFFFFFFFFFFFFFFFFFFFFFFFFFFFFFFFFFFFFFFFFFFFFFFFFFFFFF
310
FFFFFFFFFFFFFFFFFFFFFFFFFFFFFFFFFFFFFFFFFFFFFFFFFFFFFFFFFFFFFFFF
310
FFFF000000000000000000000000000000000000000000000000000000000000
  1
OLE
  0
LINE
  5
55
330
1F
100
AcDbEntity
  8
0
  6
Continuous
 62
     7
370
     0
100
AcDbLine
 10
0.5985818428571383
 20
14.86276132404172
 30
0.0
 11
19.2857247
 21
14.8627613240418
 31
0.0
  0
LINE
  5
56
330
1F
100
AcDbEntity
  8
0
  6
Continuous
 62
     7
370
     0
100
AcDbLine
 10
0.5985818428571383
 20
14.86276132404172
 30
0.0
 11
0.5985818428571401
 21
0.7113327526132323
 31
0.0
  0
LINE
  5
57
330
1F
100
AcDbEntity
  8
0
  6
Continuous
 62
     7
370
     0
100
AcDbLine
 10
19.28572469999999
 20
0.7113327526132346
 30
0.0
 11
0.5985818428571401
 21
0.7113327526132323
 31
0.0
  0
LINE
  5
58
330
1F
100
AcDbEntity
  8
0
  6
Continuous
 62
     7
370
     0
100
AcDbLine
 10
19.28572469999999
 20
0.7113327526132346
 30
0.0
 11
19.2857247
 21
14.8627613240418
 31
0.0
  0
LINE
  5
59
330
1F
100
AcDbEntity
  8
0
  6
Continuous
 62
     7
370
     0
100
AcDbLine
 10
14.28061842228268
 20
4.275221204977539
 30
0.0
 11
14.28061842228268
 21
0.7113327526132438
 31
0.0
  0
LINE
  5
5A
330
1F
100
AcDbEntity
  8
0
  6
Continuous
 62
     7
370
     0
100
AcDbLine
 10
14.28061842228268
 20
1.097568489749789
 30
0.0
 11
19.28572469999999
 21
1.09756848974978
 31
0.0
  0
LINE
  5
5B
330
1F
100
AcDbEntity
  8
0
  6
Continuous
 62
     7
370
     0
100
AcDbLine
 10
14.28061842228268
 20
2.017370045704948
 30
0.0
 11
19.28572469999999
 21
2.017370045704939
 31
0.0
  0
LINE
  5
5C
330
1F
100
AcDbEntity
  8
0
  6
Continuous
 62
     7
370
     0
100
AcDbLine
 10
14.28061842228268
 20
3.609104815684454
 30
0.0
 11
19.28572469999999
 21
3.609104815684446
 31
0.0
  0
LINE
  5
5D
330
1F
100
AcDbEntity
  8
0
  6
Continuous
 62
     7
370
     0
100
AcDbLine
 10
15.36359886595711
 20
2.017370045704948
 30
0.0
 11
15.36359886595711
 21
1.09756848974978
 31
0.0
  0
LINE
  5
5E
330
1F
100
AcDbEntity
  8
0
  6
Continuous
 62
     7
370
     0
100
AcDbLine
 10
16.01411563417938
 20
2.017370045704948
 30
0.0
 11
16.01411563417938
 21
1.09756848974978
 31
0.0
  0
LINE
  5
5F
330
1F
100
AcDbEntity
  8
0
  6
Continuous
 62
     7
370
     0
100
AcDbLine
 10
18.06052677446633
 20
2.017370045704948
 30
0.0
 11
18.06052677446633
 21
1.09756848974978
 31
0.0
  0
LINE
  5
60
330
1F
100
AcDbEntity
  8
0
  6
Continuous
 62
     7
370
     0
100
AcDbLine
 10
17.53734956019316
 20
1.09756848974978
 30
0.0
 11
17.53734956019316
 21
0.7113327526132347
 31
0.0
  0
LINE
  5
61
330
1F
100
AcDbEntity
  8
0
  6
Continuous
 62
     7
370
     0
100
AcDbLine
 10
14.28061842228268
 20
4.275221204977539
 30
0.0
 11
19.28572469999999
 21
4.275221204977539
 31
0.0
  0
INSERT
  5
68
330
1F
100
AcDbEntity
  8
0
  6
Continuous
 62
     7
370
     0
100
AcDbBlockReference
  2
SW_NOTE_18
 10
15.15008467445613
 20
2.429149592280102
 30
0.0
  0
MTEXT
  5
69
330
1F
100
AcDbEntity
  8
0
  6
Continuous
 62
     7
370
     0
100
AcDbMText
 10
9.199838965416638
 20
11.08424624080961
 30
0.0
 40
0.2078869047619047
 41
0.0
 71
     1
 72
     1
  1
COMPONENT PAD
  7
SLDTEXTSTYLE0
 73
     1
 44
1.0
1001
ACAD
1000
MTEXTBEGIN
1070
    73
1070
     1
1070
    44
1040
1.0
1070
    74
1070
     0
1000
MTEXTEND
  0
LEADER
  5
6B
330
1F
100
AcDbEntity
  8
0
  6
Continuous
 62
     7
370
     0
100
AcDbLeader
  3
SLDDIMSTYLE0
 76
     3
 10
6.825135031175205
 20
10.02915352285473
 30
0.0
 10
8.942987539843525
 20
10.98956824108954
 30
0.0
 10
9.157273254129236
 20
10.98956824108954
 30
0.0
  0
INSERT
  5
91
330
1F
100
AcDbEntity
  8
0
  6
Continuous
 62
     7
370
     0
100
AcDbBlockReference
  2
SW_NOTE_19
 10
0.7765423754306035
 20
5.427155914600931
 30
0.0
  0
INSERT
  5
97
330
1F
100
AcDbEntity
  8
0
  6
Continuous
 62
     7
370
     0
100
AcDbBlockReference
  2
SW_NOTE_20
 10
14.91564787606165
 20
3.198631730945213
 30
0.0
  0
MTEXT
  5
98
330
1F
100
AcDbEntity
  8
0
  6
Continuous
 62
     7
370
     0
100
AcDbMText
 10
17.70221766767719
 20
1.000127819821361
 30
0.0
 40
0.1814285714285714
 41
0.0
 71
     1
 72
     1
  1
SHEET 4 OF 4
  7
SLDTEXTSTYLE0
 73
     1
 44
1.0
1001
ACAD
1000
MTEXTBEGIN
1070
    73
1070
     1
1070
    44
1040
1.0
1070
    74
1070
     0
1000
MTEXTEND
  0
MTEXT
  5
9A
330
1F
100
AcDbEntity
  8
0
  6
Continuous
 62
     7
370
     0
100
AcDbMText
 10
14.81998405378205
 20
1.559943347383592
 30
0.0
 40
0.2645833333333333
 41
0.0
 71
     2
 72
     1
  1
14:1
  7
SLDTEXTSTYLE1
 73
     1
 44
1.0
1001
ACAD
1000
MTEXTBEGIN
1070
    73
1070
     1
1070
    44
1040
1.0
1070
    74
1070
     0
1000
MTEXTEND
  0
MTEXT
  5
9B
330
1F
100
AcDbEntity
  8
0
  6
Continuous
 62
     7
370
     0
100
AcDbMText
 10
17.05352181658257
 20
1.939003622818818
 30
0.0
 40
0.1814285714285714
 41
0.0
 71
     2
 72
     1
  1
DWG.  NO.
  7
SLDTEXTSTYLE0
 73
     1
 44
1.0
1001
ACAD
1000
MTEXTBEGIN
1070
    73
1070
     1
1070
    44
1040
1.0
1070
    74
1070
     0
1000
MTEXTEND
  0
MTEXT
  5
9C
330
1F
100
AcDbEntity
  8
0
  6
Continuous
 62
     7
370
     0
100
AcDbMText
 10
15.47645466430365
 20
1.598598665156622
 30
0.0
 40
0.4535714285714286
 41
0.0
 71
     1
 72
     1
  1
A
  7
SLDTEXTSTYLE1
 73
     1
 44
1.0
1001
ACAD
1000
MTEXTBEGIN
1070
    73
1070
     1
1070
    44
1040
1.0
1070
    74
1070
     0
1000
MTEXTEND
  0
MTEXT
  5
9D
330
1F
100
AcDbEntity
  8
0
  6
Continuous
 62
     7
370
     0
100
AcDbMText
 10
15.49419592695031
 20
1.939003622818818
 30
0.0
 40
0.1814285714285714
 41
0.0
 71
     1
 72
     1
  1
SIZE
  7
SLDTEXTSTYLE0
 73
     1
 44
1.0
1001
ACAD
1000
MTEXTBEGIN
1070
    73
1070
     1
1070
    44
1040
1.0
1070
    74
1070
     0
1000
MTEXTEND
  0
MTEXT
  5
9E
330
1F
100
AcDbEntity
  8
0
  6
Continuous
 62
     7
370
     0
100
AcDbMText
 10
14.3638277578343
 20
3.544417080724882
 30
0.0
 40
0.1814285714285714
 41
0.0
 71
     1
 72
     1
  1
TITLE:
  7
SLDTEXTSTYLE0
 73
     1
 44
1.0
1001
ACAD
1000
MTEXTBEGIN
1070
    73
1070
     1
1070
    44
1040
1.0
1070
    74
1070
     0
1000
MTEXTEND
  0
MTEXT
  5
9F
330
1F
100
AcDbEntity
  8
0
  6
Continuous
 62
     7
370
     0
100
AcDbMText
 10
14.43071720497693
 20
1.00012781982136
 30
0.0
 40
0.1814285714285714
 41
0.0
 71
     1
 72
     1
  1
DO NOT SCALE DRAWING
  7
SLDTEXTSTYLE0
 73
     1
 44
1.0
1001
ACAD
1000
MTEXTBEGIN
1070
    73
1070
     1
1070
    44
1040
1.0
1070
    74
1070
     0
1000
MTEXTEND
  0
MTEXT
  5
A0
330
1F
100
AcDbEntity
  8
0
  6
Continuous
 62
     7
370
     0
100
AcDbMText
 10
14.79778494579877
 20
1.939003622818818
 30
0.0
 40
0.1814285714285714
 41
0.0
 71
     2
 72
     1
  1
SCALE
  7
SLDTEXTSTYLE0
 73
     1
 44
1.0
1001
ACAD
1000
MTEXTBEGIN
1070
    73
1070
     1
1070
    44
1040
1.0
1070
    74
1070
     0
1000
MTEXTEND
  0
MTEXT
  5
A1
330
1F
100
AcDbEntity
  8
0
  6
Continuous
 62
     7
370
     0
100
AcDbMText
 10
18.69702500205532
 20
1.939003622818818
 30
0.0
 40
0.1814285714285714
 41
0.0
 71
     2
 72
     1
  1
REV
  7
SLDTEXTSTYLE0
 73
     1
 44
1.0
1001
ACAD
1000
MTEXTBEGIN
1070
    73
1070
     1
1070
    44
1040
1.0
1070
    74
1070
     0
1000
MTEXTEND
  0
MTEXT
  5
A2
330
1F
100
AcDbEntity
  8
0
  6
Continuous
 62
     7
370
     0
100
AcDbMText
 10
18.69880335075412
 20
1.657010825784122
 30
0.0
 40
0.4535714285714286
 41
0.0
 71
     2
 72
     1
  1
A
  7
SLDTEXTSTYLE0
 73
     1
 44
1.0
1001
ACAD
1000
MTEXTBEGIN
1070
    73
1070
     1
1070
    44
1040
1.0
1070
    74
1070
     0
1000
MTEXTEND
  0
INSERT
  5
A8
330
1F
100
AcDbEntity
  8
0
  6
Continuous
 62
     7
370
     0
100
AcDbBlockReference
  2
SW_NOTE_21
 10
16.54608869991553
 20
1.395050804083341
 30
0.0
  0
MTEXT
  5
AA
330
1F
100
AcDbEntity
  8
0
  6
Continuous
 62
     7
370
     0
100
AcDbMText
 10
16.35258567600945
 20
4.053421840090058
 30
0.0
 40
0.1889880952380952
 41
0.0
 71
     1
 72
     1
  1
www.MirrorSemi.com
  7
SLDTEXTSTYLE2
 73
     1
 44
1.0
1001
ACAD
1000
MTEXTBEGIN
1070
    73
1070
     1
1070
    44
1040
1.0
1070
    74
1070
     0
1000
MTEXTEND
  0
ARC
  5
AB
330
1F
100
AcDbEntity
  8
0
  6
Continuous
 62
     7
100
AcDbCircle
 10
3.596283498632831
 20
11.13385454575775
 30
0.0
 40
0.2250000000000014
100
AcDbArc
 50
270.0000000000013
 51
90.00000000000046
  0
ARC
  5
AC
330
1F
100
AcDbEntity
  8
0
  6
Continuous
 62
     7
100
AcDbCircle
 10
3.596283498632836
 20
10.48385454575775
 30
0.0
 40
0.2249999999999996
100
AcDbArc
 50
270.0000000000013
 51
90.00000000000046
  0
ARC
  5
AD
330
1F
100
AcDbEntity
  8
0
  6
Continuous
 62
     7
100
AcDbCircle
 10
3.596283498632841
 20
9.833854545757755
 30
0.0
 40
0.2250000000000014
100
AcDbArc
 50
270.0000000000011
 51
90.00000000000056
  0
ARC
  5
AE
330
1F
100
AcDbEntity
  8
0
  6
Continuous
 62
     7
100
AcDbCircle
 10
3.596283498632845
 20
9.183854545757755
 30
0.0
 40
0.2249999999999996
100
AcDbArc
 50
270.0000000000013
 51
90.00000000000046
  0
ARC
  5
AF
330
1F
100
AcDbEntity
  8
0
  6
Continuous
 62
     7
100
AcDbCircle
 10
3.59628349863285
 20
8.533854545757755
 30
0.0
 40
0.2250000000000014
100
AcDbArc
 50
270.0000000000013
 51
90.00000000000046
  0
ARC
  5
B0
330
1F
100
AcDbEntity
  8
0
  6
Continuous
 62
     7
100
AcDbCircle
 10
4.546283498632849
 20
7.583854545757766
 30
0.0
 40
0.2250000000000005
100
AcDbArc
 50
0.000000000000302
 51
180.0000000000011
  0
ARC
  5
B1
330
1F
100
AcDbEntity
  8
0
  6
Continuous
 62
     7
100
AcDbCircle
 10
5.196283498632848
 20
7.583854545757768
 30
0.0
 40
0.2250000000000005
100
AcDbArc
 50
0.0000000000003018
 51
180.0000000000011
  0
ARC
  5
B2
330
1F
100
AcDbEntity
  8
0
  6
Continuous
 62
     7
100
AcDbCircle
 10
5.846283498632849
 20
7.583854545757771
 30
0.0
 40
0.2250000000000005
100
AcDbArc
 50
0.0000000000002001
 51
180.0000000000013
  0
ARC
  5
B3
330
1F
100
AcDbEntity
  8
0
  6
Continuous
 62
     7
100
AcDbCircle
 10
6.496283498632848
 20
7.583854545757773
 30
0.0
 40
0.2250000000000005
100
AcDbArc
 50
0.0000000000003021
 51
180.0000000000011
  0
ARC
  5
B4
330
1F
100
AcDbEntity
  8
0
  6
Continuous
 62
     7
100
AcDbCircle
 10
7.146283498632849
 20
7.583854545757775
 30
0.0
 40
0.2250000000000005
100
AcDbArc
 50
0.0000000000004946
 51
179.9999999999998
  0
ARC
  5
B5
330
1F
100
AcDbEntity
  8
0
  6
Continuous
 62
     7
100
AcDbCircle
 10
8.096283498632859
 20
8.533854545757803
 30
0.0
 40
0.2249999999999996
100
AcDbArc
 50
90.00000000000046
 51
270.0000000000017
  0
ARC
  5
B6
330
1F
100
AcDbEntity
  8
0
  6
Continuous
 62
     7
100
AcDbCircle
 10
8.096283498632852
 20
9.183854545757803
 30
0.0
 40
0.2250000000000014
100
AcDbArc
 50
90.00000000000136
 51
270.0000000000013
  0
ARC
  5
B7
330
1F
100
AcDbEntity
  8
0
  6
Continuous
 62
     7
100
AcDbCircle
 10
8.096283498632841
 20
9.833854545757803
 30
0.0
 40
0.2250000000000014
100
AcDbArc
 50
90.0000000000009
 51
270.0000000000017
  0
ARC
  5
B8
330
1F
100
AcDbEntity
  8
0
  6
Continuous
 62
     7
100
AcDbCircle
 10
8.096283498632832
 20
10.4838545457578
 30
0.0
 40
0.2249999999999996
100
AcDbArc
 50
90.0000000000009
 51
270.0000000000017
  0
ARC
  5
B9
330
1F
100
AcDbEntity
  8
0
  6
Continuous
 62
     7
100
AcDbCircle
 10
8.096283498632823
 20
11.1338545457578
 30
0.0
 40
0.2249999999999996
100
AcDbArc
 50
90.0000000000009
 51
270.0000000000013
  0
ARC
  5
BA
330
1F
100
AcDbEntity
  8
0
  6
Continuous
 62
     7
100
AcDbCircle
 10
7.146283498632833
 20
12.08385454575777
 30
0.0
 40
0.2250000000000005
100
AcDbArc
 50
180.0000000000013
 51
0.0000000000002001
  0
ARC
  5
BB
330
1F
100
AcDbEntity
  8
0
  6
Continuous
 62
     7
100
AcDbCircle
 10
6.496283498632832
 20
12.08385454575777
 30
0.0
 40
0.2250000000000005
100
AcDbArc
 50
179.9999999999998
 51
0.0000000000004947
  0
ARC
  5
BC
330
1F
100
AcDbEntity
  8
0
  6
Continuous
 62
     7
100
AcDbCircle
 10
5.846283498632833
 20
12.08385454575777
 30
0.0
 40
0.2249999999999996
100
AcDbArc
 50
179.9999999999998
 51
0.0000000000004946
  0
ARC
  5
BD
330
1F
100
AcDbEntity
  8
0
  6
Continuous
 62
     7
100
AcDbCircle
 10
5.196283498632833
 20
12.08385454575777
 30
0.0
 40
0.2250000000000005
100
AcDbArc
 50
179.9999999999998
 51
0.0000000000001999
  0
ARC
  5
BE
330
1F
100
AcDbEntity
  8
0
  6
Continuous
 62
     7
100
AcDbCircle
 10
4.546283498632833
 20
12.08385454575777
 30
0.0
 40
0.2250000000000005
100
AcDbArc
 50
180.0000000000017
 51
0.0000000000002001
  0
ARC
  5
BF
330
1F
100
AcDbEntity
  8
0
  6
Continuous
 62
     7
100
AcDbCircle
 10
3.596283498632831
 20
11.13385454575775
 30
0.0
 40
0.2250000000000014
100
AcDbArc
 50
270.0000000000013
 51
90.00000000000046
  0
ARC
  5
C0
330
1F
100
AcDbEntity
  8
0
  6
Continuous
 62
     7
100
AcDbCircle
 10
3.596283498632836
 20
10.48385454575775
 30
0.0
 40
0.2249999999999996
100
AcDbArc
 50
270.0000000000013
 51
90.00000000000046
  0
ARC
  5
C1
330
1F
100
AcDbEntity
  8
0
  6
Continuous
 62
     7
100
AcDbCircle
 10
3.596283498632841
 20
9.833854545757755
 30
0.0
 40
0.2250000000000014
100
AcDbArc
 50
270.0000000000011
 51
90.00000000000056
  0
ARC
  5
C2
330
1F
100
AcDbEntity
  8
0
  6
Continuous
 62
     7
100
AcDbCircle
 10
3.596283498632845
 20
9.183854545757755
 30
0.0
 40
0.2249999999999996
100
AcDbArc
 50
270.0000000000013
 51
90.00000000000046
  0
ARC
  5
C3
330
1F
100
AcDbEntity
  8
0
  6
Continuous
 62
     7
100
AcDbCircle
 10
3.59628349863285
 20
8.533854545757755
 30
0.0
 40
0.2250000000000014
100
AcDbArc
 50
270.0000000000013
 51
90.00000000000046
  0
ARC
  5
C4
330
1F
100
AcDbEntity
  8
0
  6
Continuous
 62
     7
100
AcDbCircle
 10
4.546283498632849
 20
7.583854545757766
 30
0.0
 40
0.2250000000000005
100
AcDbArc
 50
0.000000000000302
 51
180.0000000000011
  0
ARC
  5
C5
330
1F
100
AcDbEntity
  8
0
  6
Continuous
 62
     7
100
AcDbCircle
 10
5.196283498632848
 20
7.583854545757768
 30
0.0
 40
0.2250000000000005
100
AcDbArc
 50
0.0000000000003018
 51
180.0000000000011
  0
ARC
  5
C6
330
1F
100
AcDbEntity
  8
0
  6
Continuous
 62
     7
100
AcDbCircle
 10
5.846283498632849
 20
7.583854545757771
 30
0.0
 40
0.2250000000000005
100
AcDbArc
 50
0.0000000000002001
 51
180.0000000000013
  0
ARC
  5
C7
330
1F
100
AcDbEntity
  8
0
  6
Continuous
 62
     7
100
AcDbCircle
 10
6.496283498632848
 20
7.583854545757773
 30
0.0
 40
0.2250000000000005
100
AcDbArc
 50
0.0000000000003021
 51
180.0000000000011
  0
ARC
  5
C8
330
1F
100
AcDbEntity
  8
0
  6
Continuous
 62
     7
100
AcDbCircle
 10
7.146283498632849
 20
7.583854545757775
 30
0.0
 40
0.2250000000000005
100
AcDbArc
 50
0.0000000000004946
 51
179.9999999999998
  0
ARC
  5
C9
330
1F
100
AcDbEntity
  8
0
  6
Continuous
 62
     7
100
AcDbCircle
 10
8.096283498632859
 20
8.533854545757803
 30
0.0
 40
0.2249999999999996
100
AcDbArc
 50
90.00000000000046
 51
270.0000000000017
  0
ARC
  5
CA
330
1F
100
AcDbEntity
  8
0
  6
Continuous
 62
     7
100
AcDbCircle
 10
8.096283498632852
 20
9.183854545757803
 30
0.0
 40
0.2250000000000014
100
AcDbArc
 50
90.00000000000136
 51
270.0000000000013
  0
ARC
  5
CB
330
1F
100
AcDbEntity
  8
0
  6
Continuous
 62
     7
100
AcDbCircle
 10
8.096283498632841
 20
9.833854545757803
 30
0.0
 40
0.2250000000000014
100
AcDbArc
 50
90.0000000000009
 51
270.0000000000017
  0
ARC
  5
CC
330
1F
100
AcDbEntity
  8
0
  6
Continuous
 62
     7
100
AcDbCircle
 10
8.096283498632832
 20
10.4838545457578
 30
0.0
 40
0.2249999999999996
100
AcDbArc
 50
90.0000000000009
 51
270.0000000000017
  0
ARC
  5
CD
330
1F
100
AcDbEntity
  8
0
  6
Continuous
 62
     7
100
AcDbCircle
 10
8.096283498632823
 20
11.1338545457578
 30
0.0
 40
0.2249999999999996
100
AcDbArc
 50
90.0000000000009
 51
270.0000000000013
  0
ARC
  5
CE
330
1F
100
AcDbEntity
  8
0
  6
Continuous
 62
     7
100
AcDbCircle
 10
7.146283498632833
 20
12.08385454575777
 30
0.0
 40
0.2250000000000005
100
AcDbArc
 50
180.0000000000013
 51
0.0000000000002001
  0
ARC
  5
CF
330
1F
100
AcDbEntity
  8
0
  6
Continuous
 62
     7
100
AcDbCircle
 10
6.496283498632832
 20
12.08385454575777
 30
0.0
 40
0.2250000000000005
100
AcDbArc
 50
179.9999999999998
 51
0.0000000000004947
  0
ARC
  5
D0
330
1F
100
AcDbEntity
  8
0
  6
Continuous
 62
     7
100
AcDbCircle
 10
5.846283498632833
 20
12.08385454575777
 30
0.0
 40
0.2249999999999996
100
AcDbArc
 50
179.9999999999998
 51
0.0000000000004946
  0
ARC
  5
D1
330
1F
100
AcDbEntity
  8
0
  6
Continuous
 62
     7
100
AcDbCircle
 10
5.196283498632833
 20
12.08385454575777
 30
0.0
 40
0.2250000000000005
100
AcDbArc
 50
179.9999999999998
 51
0.0000000000001999
  0
ARC
  5
D2
330
1F
100
AcDbEntity
  8
0
  6
Continuous
 62
     7
100
AcDbCircle
 10
4.546283498632833
 20
12.08385454575777
 30
0.0
 40
0.2250000000000005
100
AcDbArc
 50
180.0000000000017
 51
0.0000000000002001
  0
LINE
  5
D3
330
1F
100
AcDbEntity
  8
0
  6
Continuous
 62
     7
100
AcDbLine
 10
4.221283498632836
 20
11.45885454575776
 30
0.0
 11
4.221283498632847
 21
8.208854545757764
 31
0.0
  0
LINE
  5
D4
330
1F
100
AcDbEntity
  8
0
  6
Continuous
 62
     7
100
AcDbLine
 10
3.346283498632849
 20
7.333854545757762
 30
0.0
 11
8.34628349863285
 21
7.333854545757779
 31
0.0
  0
LINE
  5
D5
330
1F
100
AcDbEntity
  8
0
  6
Continuous
 62
     7
100
AcDbLine
 10
3.346283498632849
 20
7.333854545757762
 30
0.0
 11
3.346283498632832
 21
12.33385454575776
 31
0.0
  0
LINE
  5
D6
330
1F
100
AcDbEntity
  8
0
  6
Continuous
 62
     7
100
AcDbLine
 10
3.346283498632832
 20
12.33385454575776
 30
0.0
 11
8.346283498632832
 21
12.33385454575778
 31
0.0
  0
LINE
  5
D7
330
1F
100
AcDbEntity
  8
0
  6
Continuous
 62
     7
100
AcDbLine
 10
8.34628349863285
 20
7.333854545757779
 30
0.0
 11
8.346283498632832
 21
12.33385454575778
 31
0.0
  0
LINE
  5
D8
330
1F
100
AcDbEntity
  8
0
  6
Continuous
 62
     7
100
AcDbLine
 10
4.221283498632847
 20
8.208854545757764
 30
0.0
 11
7.471283498632846
 21
8.208854545757775
 31
0.0
  0
LINE
  5
D9
330
1F
100
AcDbEntity
  8
0
  6
Continuous
 62
     7
100
AcDbLine
 10
7.471283498632846
 20
8.208854545757775
 30
0.0
 11
7.471283498632836
 21
11.45885454575777
 31
0.0
  0
LINE
  5
DA
330
1F
100
AcDbEntity
  8
0
  6
Continuous
 62
     7
100
AcDbLine
 10
7.471283498632836
 20
11.45885454575777
 30
0.0
 11
4.221283498632836
 21
11.45885454575776
 31
0.0
  0
LINE
  5
DB
330
1F
100
AcDbEntity
  8
0
  6
Continuous
 62
     7
100
AcDbLine
 10
7.614283498632842
 20
9.548854545757777
 30
0.0
 11
7.61428349863284
 21
10.11885454575778
 31
0.0
  0
LINE
  5
DC
330
1F
100
AcDbEntity
  8
0
  6
Continuous
 62
     7
100
AcDbLine
 10
7.614283498632844
 20
8.798854545757777
 30
0.0
 11
7.614283498632842
 21
9.368854545757779
 31
0.0
  0
LINE
  5
DD
330
1F
100
AcDbEntity
  8
0
  6
Continuous
 62
     7
100
AcDbLine
 10
3.071283498632833
 20
10.90885454575775
 30
0.0
 11
3.596283498632833
 21
10.90885454575776
 31
0.0
  0
LINE
  5
DE
330
1F
100
AcDbEntity
  8
0
  6
Continuous
 62
     7
100
AcDbLine
 10
3.596283498632829
 20
11.35885454575775
 30
0.0
 11
3.07128349863283
 21
11.35885454575775
 31
0.0
  0
LINE
  5
DF
330
1F
100
AcDbEntity
  8
0
  6
Continuous
 62
     7
100
AcDbLine
 10
3.07128349863283
 20
11.35885454575775
 30
0.0
 11
3.071283498632833
 21
10.90885454575775
 31
0.0
  0
LINE
  5
E0
330
1F
100
AcDbEntity
  8
0
  6
Continuous
 62
     7
100
AcDbLine
 10
3.071283498632839
 20
10.25885454575775
 30
0.0
 11
3.596283498632837
 21
10.25885454575775
 31
0.0
  0
LINE
  5
E1
330
1F
100
AcDbEntity
  8
0
  6
Continuous
 62
     7
100
AcDbLine
 10
3.596283498632834
 20
10.70885454575775
 30
0.0
 11
3.071283498632836
 21
10.70885454575775
 31
0.0
  0
LINE
  5
E2
330
1F
100
AcDbEntity
  8
0
  6
Continuous
 62
     7
100
AcDbLine
 10
3.071283498632836
 20
10.70885454575775
 30
0.0
 11
3.071283498632839
 21
10.25885454575775
 31
0.0
  0
LINE
  5
E3
330
1F
100
AcDbEntity
  8
0
  6
Continuous
 62
     7
100
AcDbLine
 10
3.071283498632843
 20
9.608854545757752
 30
0.0
 11
3.596283498632842
 21
9.608854545757756
 31
0.0
  0
LINE
  5
E4
330
1F
100
AcDbEntity
  8
0
  6
Continuous
 62
     7
100
AcDbLine
 10
3.596283498632839
 20
10.05885454575776
 30
0.0
 11
3.07128349863284
 21
10.05885454575775
 31
0.0
  0
LINE
  5
E5
330
1F
100
AcDbEntity
  8
0
  6
Continuous
 62
     7
100
AcDbLine
 10
3.07128349863284
 20
10.05885454575775
 30
0.0
 11
3.071283498632843
 21
9.608854545757752
 31
0.0
  0
LINE
  5
E6
330
1F
100
AcDbEntity
  8
0
  6
Continuous
 62
     7
100
AcDbLine
 10
3.071283498632848
 20
8.958854545757752
 30
0.0
 11
3.596283498632847
 21
8.958854545757757
 31
0.0
  0
LINE
  5
E7
330
1F
100
AcDbEntity
  8
0
  6
Continuous
 62
     7
100
AcDbLine
 10
3.596283498632843
 20
9.408854545757755
 30
0.0
 11
3.071283498632844
 21
9.408854545757753
 31
0.0
  0
LINE
  5
E8
330
1F
100
AcDbEntity
  8
0
  6
Continuous
 62
     7
100
AcDbLine
 10
3.071283498632844
 20
9.408854545757753
 30
0.0
 11
3.071283498632848
 21
8.958854545757752
 31
0.0
  0
LINE
  5
E9
330
1F
100
AcDbEntity
  8
0
  6
Continuous
 62
     7
100
AcDbLine
 10
3.071283498632853
 20
8.308854545757752
 30
0.0
 11
3.596283498632852
 21
8.308854545757755
 31
0.0
  0
LINE
  5
EA
330
1F
100
AcDbEntity
  8
0
  6
Continuous
 62
     7
100
AcDbLine
 10
3.596283498632848
 20
8.758854545757756
 30
0.0
 11
3.071283498632849
 21
8.758854545757751
 31
0.0
  0
LINE
  5
EB
330
1F
100
AcDbEntity
  8
0
  6
Continuous
 62
     7
100
AcDbLine
 10
7.614283498632847
 20
8.065854545757778
 30
0.0
 11
7.614283498632845
 21
8.618854545757777
 31
0.0
  0
LINE
  5
EC
330
1F
100
AcDbEntity
  8
0
  6
Continuous
 62
     7
100
AcDbLine
 10
7.061283498632847
 20
8.065854545757776
 30
0.0
 11
7.614283498632847
 21
8.065854545757778
 31
0.0
  0
LINE
  5
ED
330
1F
100
AcDbEntity
  8
0
  6
Continuous
 62
     7
100
AcDbLine
 10
7.061283498632847
 20
8.245854545757776
 30
0.0
 11
7.061283498632847
 21
8.065854545757776
 31
0.0
  0
LINE
  5
EE
330
1F
100
AcDbEntity
  8
0
  6
Continuous
 62
     7
100
AcDbLine
 10
6.881283498632846
 20
8.245854545757774
 30
0.0
 11
7.061283498632847
 21
8.245854545757776
 31
0.0
  0
LINE
  5
EF
330
1F
100
AcDbEntity
  8
0
  6
Continuous
 62
     7
100
AcDbLine
 10
6.881283498632847
 20
8.065854545757774
 30
0.0
 11
6.881283498632846
 21
8.245854545757774
 31
0.0
  0
LINE
  5
F0
330
1F
100
AcDbEntity
  8
0
  6
Continuous
 62
     7
100
AcDbLine
 10
6.311283498632846
 20
8.065854545757773
 30
0.0
 11
6.881283498632847
 21
8.065854545757774
 31
0.0
  0
LINE
  5
F1
330
1F
100
AcDbEntity
  8
0
  6
Continuous
 62
     7
100
AcDbLine
 10
6.311283498632846
 20
8.245854545757772
 30
0.0
 11
6.311283498632846
 21
8.065854545757773
 31
0.0
  0
LINE
  5
F2
330
1F
100
AcDbEntity
  8
0
  6
Continuous
 62
     7
100
AcDbLine
 10
6.131283498632845
 20
8.245854545757772
 30
0.0
 11
6.311283498632846
 21
8.245854545757772
 31
0.0
  0
LINE
  5
F3
330
1F
100
AcDbEntity
  8
0
  6
Continuous
 62
     7
100
AcDbLine
 10
6.131283498632847
 20
8.065854545757771
 30
0.0
 11
6.131283498632845
 21
8.245854545757772
 31
0.0
  0
LINE
  5
F4
330
1F
100
AcDbEntity
  8
0
  6
Continuous
 62
     7
100
AcDbLine
 10
3.071283498632849
 20
8.758854545757751
 30
0.0
 11
3.071283498632853
 21
8.308854545757752
 31
0.0
  0
LINE
  5
F5
330
1F
100
AcDbEntity
  8
0
  6
Continuous
 62
     7
100
AcDbLine
 10
5.561283498632846
 20
8.065854545757769
 30
0.0
 11
6.131283498632847
 21
8.065854545757771
 31
0.0
  0
LINE
  5
F6
330
1F
100
AcDbEntity
  8
0
  6
Continuous
 62
     7
100
AcDbLine
 10
5.561283498632846
 20
8.24585454575777
 30
0.0
 11
5.561283498632846
 21
8.065854545757769
 31
0.0
  0
LINE
  5
F7
330
1F
100
AcDbEntity
  8
0
  6
Continuous
 62
     7
100
AcDbLine
 10
5.381283498632845
 20
8.245854545757769
 30
0.0
 11
5.561283498632846
 21
8.24585454575777
 31
0.0
  0
LINE
  5
F8
330
1F
100
AcDbEntity
  8
0
  6
Continuous
 62
     7
100
AcDbLine
 10
5.381283498632846
 20
8.065854545757769
 30
0.0
 11
5.381283498632845
 21
8.245854545757769
 31
0.0
  0
LINE
  5
F9
330
1F
100
AcDbEntity
  8
0
  6
Continuous
 62
     7
100
AcDbLine
 10
4.811283498632846
 20
8.065854545757767
 30
0.0
 11
5.381283498632846
 21
8.065854545757769
 31
0.0
  0
LINE
  5
FA
330
1F
100
AcDbEntity
  8
0
  6
Continuous
 62
     7
100
AcDbLine
 10
4.811283498632846
 20
8.245854545757767
 30
0.0
 11
4.811283498632846
 21
8.065854545757767
 31
0.0
  0
LINE
  5
FB
330
1F
100
AcDbEntity
  8
0
  6
Continuous
 62
     7
100
AcDbLine
 10
4.631283498632845
 20
8.245854545757765
 30
0.0
 11
4.811283498632846
 21
8.245854545757767
 31
0.0
  0
LINE
  5
FC
330
1F
100
AcDbEntity
  8
0
  6
Continuous
 62
     7
100
AcDbLine
 10
4.631283498632847
 20
8.065854545757765
 30
0.0
 11
4.631283498632845
 21
8.245854545757765
 31
0.0
  0
LINE
  5
FD
330
1F
100
AcDbEntity
  8
0
  6
Continuous
 62
     7
100
AcDbLine
 10
4.078283498632847
 20
8.065854545757764
 30
0.0
 11
4.631283498632847
 21
8.065854545757765
 31
0.0
  0
LINE
  5
FE
330
1F
100
AcDbEntity
  8
0
  6
Continuous
 62
     7
100
AcDbLine
 10
4.078283498632846
 20
8.618854545757763
 30
0.0
 11
4.078283498632847
 21
8.065854545757764
 31
0.0
  0
LINE
  5
FF
330
1F
100
AcDbEntity
  8
0
  6
Continuous
 62
     7
100
AcDbLine
 10
4.258283498632846
 20
8.618854545757763
 30
0.0
 11
4.078283498632846
 21
8.618854545757763
 31
0.0
  0
LINE
  5
100
330
1F
100
AcDbEntity
  8
0
  6
Continuous
 62
     7
100
AcDbLine
 10
4.258283498632846
 20
8.798854545757762
 30
0.0
 11
4.258283498632846
 21
8.618854545757763
 31
0.0
  0
LINE
  5
101
330
1F
100
AcDbEntity
  8
0
  6
Continuous
 62
     7
100
AcDbLine
 10
4.078283498632844
 20
8.798854545757762
 30
0.0
 11
4.258283498632846
 21
8.798854545757762
 31
0.0
  0
LINE
  5
102
330
1F
100
AcDbEntity
  8
0
  6
Continuous
 62
     7
100
AcDbLine
 10
4.078283498632843
 20
9.368854545757764
 30
0.0
 11
4.078283498632844
 21
8.798854545757762
 31
0.0
  0
LINE
  5
103
330
1F
100
AcDbEntity
  8
0
  6
Continuous
 62
     7
100
AcDbLine
 10
4.258283498632843
 20
9.368854545757763
 30
0.0
 11
4.078283498632843
 21
9.368854545757764
 31
0.0
  0
LINE
  5
104
330
1F
100
AcDbEntity
  8
0
  6
Continuous
 62
     7
100
AcDbLine
 10
4.258283498632843
 20
9.548854545757764
 30
0.0
 11
4.258283498632843
 21
9.368854545757763
 31
0.0
  0
LINE
  5
105
330
1F
100
AcDbEntity
  8
0
  6
Continuous
 62
     7
100
AcDbLine
 10
4.078283498632841
 20
9.548854545757764
 30
0.0
 11
4.258283498632843
 21
9.548854545757764
 31
0.0
  0
LINE
  5
106
330
1F
100
AcDbEntity
  8
0
  6
Continuous
 62
     7
100
AcDbLine
 10
4.07828349863284
 20
10.11885454575776
 30
0.0
 11
4.078283498632841
 21
9.548854545757764
 31
0.0
  0
LINE
  5
107
330
1F
100
AcDbEntity
  8
0
  6
Continuous
 62
     7
100
AcDbLine
 10
4.258283498632841
 20
10.11885454575776
 30
0.0
 11
4.07828349863284
 21
10.11885454575776
 31
0.0
  0
LINE
  5
108
330
1F
100
AcDbEntity
  8
0
  6
Continuous
 62
     7
100
AcDbLine
 10
4.258283498632841
 20
10.29885454575776
 30
0.0
 11
4.258283498632841
 21
10.11885454575776
 31
0.0
  0
LINE
  5
109
330
1F
100
AcDbEntity
  8
0
  6
Continuous
 62
     7
100
AcDbLine
 10
4.078283498632839
 20
10.29885454575776
 30
0.0
 11
4.258283498632841
 21
10.29885454575776
 31
0.0
  0
LINE
  5
10A
330
1F
100
AcDbEntity
  8
0
  6
Continuous
 62
     7
100
AcDbLine
 10
4.078283498632838
 20
10.85185454575776
 30
0.0
 11
4.078283498632839
 21
10.29885454575776
 31
0.0
  0
LINE
  5
10B
330
1F
100
AcDbEntity
  8
0
  6
Continuous
 62
     7
100
AcDbLine
 10
4.828283498632836
 20
11.60185454575777
 30
0.0
 11
4.078283498632838
 21
10.85185454575776
 31
0.0
  0
LINE
  5
10C
330
1F
100
AcDbEntity
  8
0
  6
Continuous
 62
     7
100
AcDbLine
 10
5.381283498632836
 20
11.60185454575777
 30
0.0
 11
4.828283498632836
 21
11.60185454575777
 31
0.0
  0
LINE
  5
10D
330
1F
100
AcDbEntity
  8
0
  6
Continuous
 62
     7
100
AcDbLine
 10
5.381283498632837
 20
11.42185454575777
 30
0.0
 11
5.381283498632836
 21
11.60185454575777
 31
0.0
  0
LINE
  5
10E
330
1F
100
AcDbEntity
  8
0
  6
Continuous
 62
     7
100
AcDbLine
 10
5.561283498632837
 20
11.42185454575777
 30
0.0
 11
5.381283498632837
 21
11.42185454575777
 31
0.0
  0
LINE
  5
10F
330
1F
100
AcDbEntity
  8
0
  6
Continuous
 62
     7
100
AcDbLine
 10
5.561283498632835
 20
11.60185454575777
 30
0.0
 11
5.561283498632837
 21
11.42185454575777
 31
0.0
  0
LINE
  5
110
330
1F
100
AcDbEntity
  8
0
  6
Continuous
 62
     7
100
AcDbLine
 10
6.131283498632836
 20
11.60185454575777
 30
0.0
 11
5.561283498632835
 21
11.60185454575777
 31
0.0
  0
LINE
  5
111
330
1F
100
AcDbEntity
  8
0
  6
Continuous
 62
     7
100
AcDbLine
 10
6.131283498632837
 20
11.42185454575777
 30
0.0
 11
6.131283498632836
 21
11.60185454575777
 31
0.0
  0
LINE
  5
112
330
1F
100
AcDbEntity
  8
0
  6
Continuous
 62
     7
100
AcDbLine
 10
6.311283498632837
 20
11.42185454575777
 30
0.0
 11
6.131283498632837
 21
11.42185454575777
 31
0.0
  0
LINE
  5
113
330
1F
100
AcDbEntity
  8
0
  6
Continuous
 62
     7
100
AcDbLine
 10
6.311283498632836
 20
11.60185454575777
 30
0.0
 11
6.311283498632837
 21
11.42185454575777
 31
0.0
  0
LINE
  5
114
330
1F
100
AcDbEntity
  8
0
  6
Continuous
 62
     7
100
AcDbLine
 10
6.881283498632836
 20
11.60185454575777
 30
0.0
 11
6.311283498632836
 21
11.60185454575777
 31
0.0
  0
LINE
  5
115
330
1F
100
AcDbEntity
  8
0
  6
Continuous
 62
     7
100
AcDbLine
 10
6.881283498632837
 20
11.42185454575777
 30
0.0
 11
6.881283498632836
 21
11.60185454575777
 31
0.0
  0
LINE
  5
116
330
1F
100
AcDbEntity
  8
0
  6
Continuous
 62
     7
100
AcDbLine
 10
7.061283498632836
 20
11.42185454575777
 30
0.0
 11
6.881283498632837
 21
11.42185454575777
 31
0.0
  0
LINE
  5
117
330
1F
100
AcDbEntity
  8
0
  6
Continuous
 62
     7
100
AcDbLine
 10
7.061283498632835
 20
11.60185454575777
 30
0.0
 11
7.061283498632836
 21
11.42185454575777
 31
0.0
  0
LINE
  5
118
330
1F
100
AcDbEntity
  8
0
  6
Continuous
 62
     7
100
AcDbLine
 10
7.614283498632845
 20
8.618854545757777
 30
0.0
 11
7.434283498632844
 21
8.618854545757777
 31
0.0
  0
LINE
  5
119
330
1F
100
AcDbEntity
  8
0
  6
Continuous
 62
     7
100
AcDbLine
 10
7.614283498632834
 20
11.60185454575778
 30
0.0
 11
7.061283498632835
 21
11.60185454575777
 31
0.0
  0
LINE
  5
11A
330
1F
100
AcDbEntity
  8
0
  6
Continuous
 62
     7
100
AcDbLine
 10
7.614283498632836
 20
11.04885454575778
 30
0.0
 11
7.614283498632834
 21
11.60185454575778
 31
0.0
  0
LINE
  5
11B
330
1F
100
AcDbEntity
  8
0
  6
Continuous
 62
     7
100
AcDbLine
 10
7.61428349863284
 20
10.29885454575778
 30
0.0
 11
7.614283498632836
 21
10.86885454575778
 31
0.0
  0
LINE
  5
11C
330
1F
100
AcDbEntity
  8
0
  6
Continuous
 62
     7
100
AcDbLine
 10
7.434283498632837
 20
11.04885454575778
 30
0.0
 11
7.614283498632836
 21
11.04885454575778
 31
0.0
  0
LINE
  5
11D
330
1F
100
AcDbEntity
  8
0
  6
Continuous
 62
     7
100
AcDbLine
 10
7.434283498632837
 20
10.86885454575778
 30
0.0
 11
7.434283498632837
 21
11.04885454575778
 31
0.0
  0
LINE
  5
11E
330
1F
100
AcDbEntity
  8
0
  6
Continuous
 62
     7
100
AcDbLine
 10
7.614283498632836
 20
10.86885454575778
 30
0.0
 11
7.434283498632837
 21
10.86885454575778
 31
0.0
  0
LINE
  5
11F
330
1F
100
AcDbEntity
  8
0
  6
Continuous
 62
     7
100
AcDbLine
 10
7.434283498632839
 20
10.29885454575778
 30
0.0
 11
7.61428349863284
 21
10.29885454575778
 31
0.0
  0
LINE
  5
120
330
1F
100
AcDbEntity
  8
0
  6
Continuous
 62
     7
100
AcDbLine
 10
7.43428349863284
 20
10.11885454575778
 30
0.0
 11
7.434283498632839
 21
10.29885454575778
 31
0.0
  0
LINE
  5
121
330
1F
100
AcDbEntity
  8
0
  6
Continuous
 62
     7
100
AcDbLine
 10
7.61428349863284
 20
10.11885454575778
 30
0.0
 11
7.43428349863284
 21
10.11885454575778
 31
0.0
  0
LINE
  5
122
330
1F
100
AcDbEntity
  8
0
  6
Continuous
 62
     7
100
AcDbLine
 10
7.434283498632842
 20
9.548854545757777
 30
0.0
 11
7.614283498632842
 21
9.548854545757777
 31
0.0
  0
LINE
  5
123
330
1F
100
AcDbEntity
  8
0
  6
Continuous
 62
     7
100
AcDbLine
 10
7.434283498632843
 20
9.368854545757779
 30
0.0
 11
7.434283498632842
 21
9.548854545757777
 31
0.0
  0
LINE
  5
124
330
1F
100
AcDbEntity
  8
0
  6
Continuous
 62
     7
100
AcDbLine
 10
7.614283498632842
 20
9.368854545757779
 30
0.0
 11
7.434283498632843
 21
9.368854545757779
 31
0.0
  0
LINE
  5
125
330
1F
100
AcDbEntity
  8
0
  6
Continuous
 62
     7
100
AcDbLine
 10
7.434283498632844
 20
8.798854545757777
 30
0.0
 11
7.614283498632844
 21
8.798854545757777
 31
0.0
  0
LINE
  5
126
330
1F
100
AcDbEntity
  8
0
  6
Continuous
 62
     7
100
AcDbLine
 10
7.434283498632844
 20
8.618854545757777
 30
0.0
 11
7.434283498632844
 21
8.798854545757777
 31
0.0
  0
LINE
  5
127
330
1F
100
AcDbEntity
  8
0
  6
Continuous
 62
     7
100
AcDbLine
 10
4.77128349863285
 20
7.058854545757768
 30
0.0
 11
4.771283498632848
 21
7.583854545757767
 31
0.0
  0
LINE
  5
128
330
1F
100
AcDbEntity
  8
0
  6
Continuous
 62
     7
100
AcDbLine
 10
4.321283498632848
 20
7.583854545757765
 30
0.0
 11
4.32128349863285
 21
7.058854545757767
 31
0.0
  0
LINE
  5
129
330
1F
100
AcDbEntity
  8
0
  6
Continuous
 62
     7
100
AcDbLine
 10
4.32128349863285
 20
7.058854545757767
 30
0.0
 11
4.77128349863285
 21
7.058854545757768
 31
0.0
  0
LINE
  5
12A
330
1F
100
AcDbEntity
  8
0
  6
Continuous
 62
     7
100
AcDbLine
 10
5.421283498632851
 20
7.058854545757769
 30
0.0
 11
5.421283498632849
 21
7.583854545757769
 31
0.0
  0
LINE
  5
12B
330
1F
100
AcDbEntity
  8
0
  6
Continuous
 62
     7
100
AcDbLine
 10
4.971283498632849
 20
7.583854545757767
 30
0.0
 11
4.971283498632851
 21
7.058854545757768
 31
0.0
  0
LINE
  5
12C
330
1F
100
AcDbEntity
  8
0
  6
Continuous
 62
     7
100
AcDbLine
 10
4.971283498632851
 20
7.058854545757768
 30
0.0
 11
5.421283498632851
 21
7.058854545757769
 31
0.0
  0
LINE
  5
12D
330
1F
100
AcDbEntity
  8
0
  6
Continuous
 62
     7
100
AcDbLine
 10
6.07128349863285
 20
7.058854545757773
 30
0.0
 11
6.071283498632848
 21
7.583854545757771
 31
0.0
  0
LINE
  5
12E
330
1F
100
AcDbEntity
  8
0
  6
Continuous
 62
     7
100
AcDbLine
 10
5.621283498632848
 20
7.58385454575777
 30
0.0
 11
5.621283498632851
 21
7.058854545757771
 31
0.0
  0
LINE
  5
12F
330
1F
100
AcDbEntity
  8
0
  6
Continuous
 62
     7
100
AcDbLine
 10
5.621283498632851
 20
7.058854545757771
 30
0.0
 11
6.07128349863285
 21
7.058854545757773
 31
0.0
  0
LINE
  5
130
330
1F
100
AcDbEntity
  8
0
  6
Continuous
 62
     7
100
AcDbLine
 10
6.721283498632851
 20
7.058854545757776
 30
0.0
 11
6.721283498632849
 21
7.583854545757774
 31
0.0
  0
LINE
  5
131
330
1F
100
AcDbEntity
  8
0
  6
Continuous
 62
     7
100
AcDbLine
 10
6.271283498632849
 20
7.583854545757772
 30
0.0
 11
6.27128349863285
 21
7.058854545757773
 31
0.0
  0
LINE
  5
132
330
1F
100
AcDbEntity
  8
0
  6
Continuous
 62
     7
100
AcDbLine
 10
6.27128349863285
 20
7.058854545757773
 30
0.0
 11
6.721283498632851
 21
7.058854545757776
 31
0.0
  0
LINE
  5
133
330
1F
100
AcDbEntity
  8
0
  6
Continuous
 62
     7
100
AcDbLine
 10
7.37128349863285
 20
7.058854545757777
 30
0.0
 11
7.371283498632848
 21
7.583854545757777
 31
0.0
  0
LINE
  5
134
330
1F
100
AcDbEntity
  8
0
  6
Continuous
 62
     7
100
AcDbLine
 10
6.921283498632848
 20
7.583854545757775
 30
0.0
 11
6.92128349863285
 21
7.058854545757776
 31
0.0
  0
LINE
  5
135
330
1F
100
AcDbEntity
  8
0
  6
Continuous
 62
     7
100
AcDbLine
 10
6.92128349863285
 20
7.058854545757776
 30
0.0
 11
7.37128349863285
 21
7.058854545757777
 31
0.0
  0
LINE
  5
136
330
1F
100
AcDbEntity
  8
0
  6
Continuous
 62
     7
100
AcDbLine
 10
8.621283498632857
 20
8.758854545757809
 30
0.0
 11
8.096283498632857
 21
8.758854545757802
 31
0.0
  0
LINE
  5
137
330
1F
100
AcDbEntity
  8
0
  6
Continuous
 62
     7
100
AcDbLine
 10
8.096283498632862
 20
8.308854545757803
 30
0.0
 11
8.621283498632863
 21
8.30885454575781
 31
0.0
  0
LINE
  5
138
330
1F
100
AcDbEntity
  8
0
  6
Continuous
 62
     7
100
AcDbLine
 10
8.621283498632863
 20
8.30885454575781
 30
0.0
 11
8.621283498632857
 21
8.758854545757809
 31
0.0
  0
LINE
  5
139
330
1F
100
AcDbEntity
  8
0
  6
Continuous
 62
     7
100
AcDbLine
 10
8.621283498632847
 20
9.40885454575781
 30
0.0
 11
8.096283498632846
 21
9.408854545757803
 31
0.0
  0
LINE
  5
13A
330
1F
100
AcDbEntity
  8
0
  6
Continuous
 62
     7
100
AcDbLine
 10
8.096283498632853
 20
8.958854545757802
 30
0.0
 11
8.621283498632852
 21
8.958854545757811
 31
0.0
  0
LINE
  5
13B
330
1F
100
AcDbEntity
  8
0
  6
Continuous
 62
     7
100
AcDbLine
 10
8.621283498632852
 20
8.958854545757811
 30
0.0
 11
8.621283498632847
 21
9.40885454575781
 31
0.0
  0
LINE
  5
13C
330
1F
100
AcDbEntity
  8
0
  6
Continuous
 62
     7
100
AcDbLine
 10
8.621283498632836
 20
10.05885454575781
 30
0.0
 11
8.096283498632837
 21
10.0588545457578
 31
0.0
  0
LINE
  5
13D
330
1F
100
AcDbEntity
  8
0
  6
Continuous
 62
     7
100
AcDbLine
 10
8.096283498632844
 20
9.608854545757802
 30
0.0
 11
8.621283498632843
 21
9.608854545757809
 31
0.0
  0
LINE
  5
13E
330
1F
100
AcDbEntity
  8
0
  6
Continuous
 62
     7
100
AcDbLine
 10
8.621283498632843
 20
9.608854545757809
 30
0.0
 11
8.621283498632836
 21
10.05885454575781
 31
0.0
  0
LINE
  5
13F
330
1F
100
AcDbEntity
  8
0
  6
Continuous
 62
     7
100
AcDbLine
 10
8.621283498632829
 20
10.70885454575781
 30
0.0
 11
8.096283498632828
 21
10.7088545457578
 31
0.0
  0
LINE
  5
140
330
1F
100
AcDbEntity
  8
0
  6
Continuous
 62
     7
100
AcDbLine
 10
8.096283498632836
 20
10.2588545457578
 30
0.0
 11
8.621283498632834
 21
10.25885454575781
 31
0.0
  0
LINE
  5
141
330
1F
100
AcDbEntity
  8
0
  6
Continuous
 62
     7
100
AcDbLine
 10
8.621283498632834
 20
10.25885454575781
 30
0.0
 11
8.621283498632829
 21
10.70885454575781
 31
0.0
  0
LINE
  5
142
330
1F
100
AcDbEntity
  8
0
  6
Continuous
 62
     7
100
AcDbLine
 10
8.621283498632818
 20
11.35885454575781
 30
0.0
 11
8.09628349863282
 21
11.3588545457578
 31
0.0
  0
LINE
  5
143
330
1F
100
AcDbEntity
  8
0
  6
Continuous
 62
     7
100
AcDbLine
 10
8.096283498632825
 20
10.9088545457578
 30
0.0
 11
8.621283498632825
 21
10.90885454575781
 31
0.0
  0
LINE
  5
144
330
1F
100
AcDbEntity
  8
0
  6
Continuous
 62
     7
100
AcDbLine
 10
8.621283498632825
 20
10.90885454575781
 30
0.0
 11
8.621283498632818
 21
11.35885454575781
 31
0.0
  0
LINE
  5
145
330
1F
100
AcDbEntity
  8
0
  6
Continuous
 62
     7
100
AcDbLine
 10
6.921283498632831
 20
12.60885454575777
 30
0.0
 11
6.921283498632833
 21
12.08385454575777
 31
0.0
  0
LINE
  5
146
330
1F
100
AcDbEntity
  8
0
  6
Continuous
 62
     7
100
AcDbLine
 10
7.371283498632833
 20
12.08385454575777
 30
0.0
 11
7.371283498632831
 21
12.60885454575777
 31
0.0
  0
LINE
  5
147
330
1F
100
AcDbEntity
  8
0
  6
Continuous
 62
     7
100
AcDbLine
 10
7.371283498632831
 20
12.60885454575777
 30
0.0
 11
6.921283498632831
 21
12.60885454575777
 31
0.0
  0
LINE
  5
148
330
1F
100
AcDbEntity
  8
0
  6
Continuous
 62
     7
100
AcDbLine
 10
6.271283498632831
 20
12.60885454575777
 30
0.0
 11
6.271283498632833
 21
12.08385454575777
 31
0.0
  0
LINE
  5
149
330
1F
100
AcDbEntity
  8
0
  6
Continuous
 62
     7
100
AcDbLine
 10
6.721283498632833
 20
12.08385454575777
 30
0.0
 11
6.721283498632831
 21
12.60885454575777
 31
0.0
  0
LINE
  5
14A
330
1F
100
AcDbEntity
  8
0
  6
Continuous
 62
     7
100
AcDbLine
 10
6.721283498632831
 20
12.60885454575777
 30
0.0
 11
6.271283498632831
 21
12.60885454575777
 31
0.0
  0
LINE
  5
14B
330
1F
100
AcDbEntity
  8
0
  6
Continuous
 62
     7
100
AcDbLine
 10
5.621283498632831
 20
12.60885454575777
 30
0.0
 11
5.621283498632833
 21
12.08385454575777
 31
0.0
  0
LINE
  5
14C
330
1F
100
AcDbEntity
  8
0
  6
Continuous
 62
     7
100
AcDbLine
 10
6.071283498632833
 20
12.08385454575777
 30
0.0
 11
6.071283498632831
 21
12.60885454575777
 31
0.0
  0
LINE
  5
14D
330
1F
100
AcDbEntity
  8
0
  6
Continuous
 62
     7
100
AcDbLine
 10
6.071283498632831
 20
12.60885454575777
 30
0.0
 11
5.621283498632831
 21
12.60885454575777
 31
0.0
  0
LINE
  5
14E
330
1F
100
AcDbEntity
  8
0
  6
Continuous
 62
     7
100
AcDbLine
 10
4.971283498632831
 20
12.60885454575777
 30
0.0
 11
4.971283498632833
 21
12.08385454575777
 31
0.0
  0
LINE
  5
14F
330
1F
100
AcDbEntity
  8
0
  6
Continuous
 62
     7
100
AcDbLine
 10
5.421283498632833
 20
12.08385454575777
 30
0.0
 11
5.421283498632831
 21
12.60885454575777
 31
0.0
  0
LINE
  5
150
330
1F
100
AcDbEntity
  8
0
  6
Continuous
 62
     7
100
AcDbLine
 10
5.421283498632831
 20
12.60885454575777
 30
0.0
 11
4.971283498632831
 21
12.60885454575777
 31
0.0
  0
LINE
  5
151
330
1F
100
AcDbEntity
  8
0
  6
Continuous
 62
     7
100
AcDbLine
 10
4.321283498632832
 20
12.60885454575776
 30
0.0
 11
4.321283498632833
 21
12.08385454575776
 31
0.0
  0
LINE
  5
152
330
1F
100
AcDbEntity
  8
0
  6
Continuous
 62
     7
100
AcDbLine
 10
4.771283498632834
 20
12.08385454575777
 30
0.0
 11
4.771283498632831
 21
12.60885454575777
 31
0.0
  0
LINE
  5
153
330
1F
100
AcDbEntity
  8
0
  6
Continuous
 62
     7
100
AcDbLine
 10
4.771283498632831
 20
12.60885454575777
 30
0.0
 11
4.321283498632832
 21
12.60885454575776
 31
0.0
  0
LINE
  5
154
330
1F
100
AcDbEntity
  8
0
  6
Continuous
 62
     7
100
AcDbLine
 10
4.221283498632836
 20
11.45885454575776
 30
0.0
 11
4.221283498632847
 21
8.208854545757764
 31
0.0
  0
LINE
  5
155
330
1F
100
AcDbEntity
  8
0
  6
Continuous
 62
     7
100
AcDbLine
 10
3.346283498632849
 20
7.333854545757762
 30
0.0
 11
8.34628349863285
 21
7.333854545757779
 31
0.0
  0
LINE
  5
156
330
1F
100
AcDbEntity
  8
0
  6
Continuous
 62
     7
100
AcDbLine
 10
3.346283498632849
 20
7.333854545757762
 30
0.0
 11
3.346283498632832
 21
12.33385454575776
 31
0.0
  0
LINE
  5
157
330
1F
100
AcDbEntity
  8
0
  6
Continuous
 62
     7
100
AcDbLine
 10
3.346283498632832
 20
12.33385454575776
 30
0.0
 11
8.346283498632832
 21
12.33385454575778
 31
0.0
  0
LINE
  5
158
330
1F
100
AcDbEntity
  8
0
  6
Continuous
 62
     7
100
AcDbLine
 10
8.34628349863285
 20
7.333854545757779
 30
0.0
 11
8.346283498632832
 21
12.33385454575778
 31
0.0
  0
LINE
  5
159
330
1F
100
AcDbEntity
  8
0
  6
Continuous
 62
     7
100
AcDbLine
 10
4.221283498632847
 20
8.208854545757764
 30
0.0
 11
7.471283498632846
 21
8.208854545757775
 31
0.0
  0
LINE
  5
15A
330
1F
100
AcDbEntity
  8
0
  6
Continuous
 62
     7
100
AcDbLine
 10
7.471283498632846
 20
8.208854545757775
 30
0.0
 11
7.471283498632836
 21
11.45885454575777
 31
0.0
  0
LINE
  5
15B
330
1F
100
AcDbEntity
  8
0
  6
Continuous
 62
     7
100
AcDbLine
 10
7.471283498632836
 20
11.45885454575777
 30
0.0
 11
4.221283498632836
 21
11.45885454575776
 31
0.0
  0
LINE
  5
15C
330
1F
100
AcDbEntity
  8
0
  6
Continuous
 62
     7
100
AcDbLine
 10
7.614283498632842
 20
9.548854545757777
 30
0.0
 11
7.61428349863284
 21
10.11885454575778
 31
0.0
  0
LINE
  5
15D
330
1F
100
AcDbEntity
  8
0
  6
Continuous
 62
     7
100
AcDbLine
 10
7.614283498632844
 20
8.798854545757777
 30
0.0
 11
7.614283498632842
 21
9.368854545757779
 31
0.0
  0
LINE
  5
15E
330
1F
100
AcDbEntity
  8
0
  6
Continuous
 62
     7
100
AcDbLine
 10
3.071283498632833
 20
10.90885454575775
 30
0.0
 11
3.596283498632833
 21
10.90885454575776
 31
0.0
  0
LINE
  5
15F
330
1F
100
AcDbEntity
  8
0
  6
Continuous
 62
     7
100
AcDbLine
 10
3.596283498632829
 20
11.35885454575775
 30
0.0
 11
3.07128349863283
 21
11.35885454575775
 31
0.0
  0
LINE
  5
160
330
1F
100
AcDbEntity
  8
0
  6
Continuous
 62
     7
100
AcDbLine
 10
3.07128349863283
 20
11.35885454575775
 30
0.0
 11
3.071283498632833
 21
10.90885454575775
 31
0.0
  0
LINE
  5
161
330
1F
100
AcDbEntity
  8
0
  6
Continuous
 62
     7
100
AcDbLine
 10
3.071283498632839
 20
10.25885454575775
 30
0.0
 11
3.596283498632837
 21
10.25885454575775
 31
0.0
  0
LINE
  5
162
330
1F
100
AcDbEntity
  8
0
  6
Continuous
 62
     7
100
AcDbLine
 10
3.596283498632834
 20
10.70885454575775
 30
0.0
 11
3.071283498632836
 21
10.70885454575775
 31
0.0
  0
LINE
  5
163
330
1F
100
AcDbEntity
  8
0
  6
Continuous
 62
     7
100
AcDbLine
 10
3.071283498632836
 20
10.70885454575775
 30
0.0
 11
3.071283498632839
 21
10.25885454575775
 31
0.0
  0
LINE
  5
164
330
1F
100
AcDbEntity
  8
0
  6
Continuous
 62
     7
100
AcDbLine
 10
3.071283498632843
 20
9.608854545757752
 30
0.0
 11
3.596283498632842
 21
9.608854545757756
 31
0.0
  0
LINE
  5
165
330
1F
100
AcDbEntity
  8
0
  6
Continuous
 62
     7
100
AcDbLine
 10
3.596283498632839
 20
10.05885454575776
 30
0.0
 11
3.07128349863284
 21
10.05885454575775
 31
0.0
  0
LINE
  5
166
330
1F
100
AcDbEntity
  8
0
  6
Continuous
 62
     7
100
AcDbLine
 10
3.07128349863284
 20
10.05885454575775
 30
0.0
 11
3.071283498632843
 21
9.608854545757752
 31
0.0
  0
LINE
  5
167
330
1F
100
AcDbEntity
  8
0
  6
Continuous
 62
     7
100
AcDbLine
 10
3.071283498632848
 20
8.958854545757752
 30
0.0
 11
3.596283498632847
 21
8.958854545757757
 31
0.0
  0
LINE
  5
168
330
1F
100
AcDbEntity
  8
0
  6
Continuous
 62
     7
100
AcDbLine
 10
3.596283498632843
 20
9.408854545757755
 30
0.0
 11
3.071283498632844
 21
9.408854545757753
 31
0.0
  0
LINE
  5
169
330
1F
100
AcDbEntity
  8
0
  6
Continuous
 62
     7
100
AcDbLine
 10
3.071283498632844
 20
9.408854545757753
 30
0.0
 11
3.071283498632848
 21
8.958854545757752
 31
0.0
  0
LINE
  5
16A
330
1F
100
AcDbEntity
  8
0
  6
Continuous
 62
     7
100
AcDbLine
 10
3.071283498632853
 20
8.308854545757752
 30
0.0
 11
3.596283498632852
 21
8.308854545757755
 31
0.0
  0
LINE
  5
16B
330
1F
100
AcDbEntity
  8
0
  6
Continuous
 62
     7
100
AcDbLine
 10
3.596283498632848
 20
8.758854545757756
 30
0.0
 11
3.071283498632849
 21
8.758854545757751
 31
0.0
  0
LINE
  5
16C
330
1F
100
AcDbEntity
  8
0
  6
Continuous
 62
     7
100
AcDbLine
 10
7.614283498632847
 20
8.065854545757778
 30
0.0
 11
7.614283498632845
 21
8.618854545757777
 31
0.0
  0
LINE
  5
16D
330
1F
100
AcDbEntity
  8
0
  6
Continuous
 62
     7
100
AcDbLine
 10
7.061283498632847
 20
8.065854545757776
 30
0.0
 11
7.614283498632847
 21
8.065854545757778
 31
0.0
  0
LINE
  5
16E
330
1F
100
AcDbEntity
  8
0
  6
Continuous
 62
     7
100
AcDbLine
 10
7.061283498632847
 20
8.245854545757776
 30
0.0
 11
7.061283498632847
 21
8.065854545757776
 31
0.0
  0
LINE
  5
16F
330
1F
100
AcDbEntity
  8
0
  6
Continuous
 62
     7
100
AcDbLine
 10
6.881283498632846
 20
8.245854545757774
 30
0.0
 11
7.061283498632847
 21
8.245854545757776
 31
0.0
  0
LINE
  5
170
330
1F
100
AcDbEntity
  8
0
  6
Continuous
 62
     7
100
AcDbLine
 10
6.881283498632847
 20
8.065854545757774
 30
0.0
 11
6.881283498632846
 21
8.245854545757774
 31
0.0
  0
LINE
  5
171
330
1F
100
AcDbEntity
  8
0
  6
Continuous
 62
     7
100
AcDbLine
 10
6.311283498632846
 20
8.065854545757773
 30
0.0
 11
6.881283498632847
 21
8.065854545757774
 31
0.0
  0
LINE
  5
172
330
1F
100
AcDbEntity
  8
0
  6
Continuous
 62
     7
100
AcDbLine
 10
6.311283498632846
 20
8.245854545757772
 30
0.0
 11
6.311283498632846
 21
8.065854545757773
 31
0.0
  0
LINE
  5
173
330
1F
100
AcDbEntity
  8
0
  6
Continuous
 62
     7
100
AcDbLine
 10
6.131283498632845
 20
8.245854545757772
 30
0.0
 11
6.311283498632846
 21
8.245854545757772
 31
0.0
  0
LINE
  5
174
330
1F
100
AcDbEntity
  8
0
  6
Continuous
 62
     7
100
AcDbLine
 10
6.131283498632847
 20
8.065854545757771
 30
0.0
 11
6.131283498632845
 21
8.245854545757772
 31
0.0
  0
LINE
  5
175
330
1F
100
AcDbEntity
  8
0
  6
Continuous
 62
     7
100
AcDbLine
 10
3.071283498632849
 20
8.758854545757751
 30
0.0
 11
3.071283498632853
 21
8.308854545757752
 31
0.0
  0
LINE
  5
176
330
1F
100
AcDbEntity
  8
0
  6
Continuous
 62
     7
100
AcDbLine
 10
5.561283498632846
 20
8.065854545757769
 30
0.0
 11
6.131283498632847
 21
8.065854545757771
 31
0.0
  0
LINE
  5
177
330
1F
100
AcDbEntity
  8
0
  6
Continuous
 62
     7
100
AcDbLine
 10
5.561283498632846
 20
8.24585454575777
 30
0.0
 11
5.561283498632846
 21
8.065854545757769
 31
0.0
  0
LINE
  5
178
330
1F
100
AcDbEntity
  8
0
  6
Continuous
 62
     7
100
AcDbLine
 10
5.381283498632845
 20
8.245854545757769
 30
0.0
 11
5.561283498632846
 21
8.24585454575777
 31
0.0
  0
LINE
  5
179
330
1F
100
AcDbEntity
  8
0
  6
Continuous
 62
     7
100
AcDbLine
 10
5.381283498632846
 20
8.065854545757769
 30
0.0
 11
5.381283498632845
 21
8.245854545757769
 31
0.0
  0
LINE
  5
17A
330
1F
100
AcDbEntity
  8
0
  6
Continuous
 62
     7
100
AcDbLine
 10
4.811283498632846
 20
8.065854545757767
 30
0.0
 11
5.381283498632846
 21
8.065854545757769
 31
0.0
  0
LINE
  5
17B
330
1F
100
AcDbEntity
  8
0
  6
Continuous
 62
     7
100
AcDbLine
 10
4.811283498632846
 20
8.245854545757767
 30
0.0
 11
4.811283498632846
 21
8.065854545757767
 31
0.0
  0
LINE
  5
17C
330
1F
100
AcDbEntity
  8
0
  6
Continuous
 62
     7
100
AcDbLine
 10
4.631283498632845
 20
8.245854545757765
 30
0.0
 11
4.811283498632846
 21
8.245854545757767
 31
0.0
  0
LINE
  5
17D
330
1F
100
AcDbEntity
  8
0
  6
Continuous
 62
     7
100
AcDbLine
 10
4.631283498632847
 20
8.065854545757765
 30
0.0
 11
4.631283498632845
 21
8.245854545757765
 31
0.0
  0
LINE
  5
17E
330
1F
100
AcDbEntity
  8
0
  6
Continuous
 62
     7
100
AcDbLine
 10
4.078283498632847
 20
8.065854545757764
 30
0.0
 11
4.631283498632847
 21
8.065854545757765
 31
0.0
  0
LINE
  5
17F
330
1F
100
AcDbEntity
  8
0
  6
Continuous
 62
     7
100
AcDbLine
 10
4.078283498632846
 20
8.618854545757763
 30
0.0
 11
4.078283498632847
 21
8.065854545757764
 31
0.0
  0
LINE
  5
180
330
1F
100
AcDbEntity
  8
0
  6
Continuous
 62
     7
100
AcDbLine
 10
4.258283498632846
 20
8.618854545757763
 30
0.0
 11
4.078283498632846
 21
8.618854545757763
 31
0.0
  0
LINE
  5
181
330
1F
100
AcDbEntity
  8
0
  6
Continuous
 62
     7
100
AcDbLine
 10
4.258283498632846
 20
8.798854545757762
 30
0.0
 11
4.258283498632846
 21
8.618854545757763
 31
0.0
  0
LINE
  5
182
330
1F
100
AcDbEntity
  8
0
  6
Continuous
 62
     7
100
AcDbLine
 10
4.078283498632844
 20
8.798854545757762
 30
0.0
 11
4.258283498632846
 21
8.798854545757762
 31
0.0
  0
LINE
  5
183
330
1F
100
AcDbEntity
  8
0
  6
Continuous
 62
     7
100
AcDbLine
 10
4.078283498632843
 20
9.368854545757764
 30
0.0
 11
4.078283498632844
 21
8.798854545757762
 31
0.0
  0
LINE
  5
184
330
1F
100
AcDbEntity
  8
0
  6
Continuous
 62
     7
100
AcDbLine
 10
4.258283498632843
 20
9.368854545757763
 30
0.0
 11
4.078283498632843
 21
9.368854545757764
 31
0.0
  0
LINE
  5
185
330
1F
100
AcDbEntity
  8
0
  6
Continuous
 62
     7
100
AcDbLine
 10
4.258283498632843
 20
9.548854545757764
 30
0.0
 11
4.258283498632843
 21
9.368854545757763
 31
0.0
  0
LINE
  5
186
330
1F
100
AcDbEntity
  8
0
  6
Continuous
 62
     7
100
AcDbLine
 10
4.078283498632841
 20
9.548854545757764
 30
0.0
 11
4.258283498632843
 21
9.548854545757764
 31
0.0
  0
LINE
  5
187
330
1F
100
AcDbEntity
  8
0
  6
Continuous
 62
     7
100
AcDbLine
 10
4.07828349863284
 20
10.11885454575776
 30
0.0
 11
4.078283498632841
 21
9.548854545757764
 31
0.0
  0
LINE
  5
188
330
1F
100
AcDbEntity
  8
0
  6
Continuous
 62
     7
100
AcDbLine
 10
4.258283498632841
 20
10.11885454575776
 30
0.0
 11
4.07828349863284
 21
10.11885454575776
 31
0.0
  0
LINE
  5
189
330
1F
100
AcDbEntity
  8
0
  6
Continuous
 62
     7
100
AcDbLine
 10
4.258283498632841
 20
10.29885454575776
 30
0.0
 11
4.258283498632841
 21
10.11885454575776
 31
0.0
  0
LINE
  5
18A
330
1F
100
AcDbEntity
  8
0
  6
Continuous
 62
     7
100
AcDbLine
 10
4.078283498632839
 20
10.29885454575776
 30
0.0
 11
4.258283498632841
 21
10.29885454575776
 31
0.0
  0
LINE
  5
18B
330
1F
100
AcDbEntity
  8
0
  6
Continuous
 62
     7
100
AcDbLine
 10
4.078283498632838
 20
10.85185454575776
 30
0.0
 11
4.078283498632839
 21
10.29885454575776
 31
0.0
  0
LINE
  5
18C
330
1F
100
AcDbEntity
  8
0
  6
Continuous
 62
     7
100
AcDbLine
 10
4.828283498632836
 20
11.60185454575777
 30
0.0
 11
4.078283498632838
 21
10.85185454575776
 31
0.0
  0
LINE
  5
18D
330
1F
100
AcDbEntity
  8
0
  6
Continuous
 62
     7
100
AcDbLine
 10
5.381283498632836
 20
11.60185454575777
 30
0.0
 11
4.828283498632836
 21
11.60185454575777
 31
0.0
  0
LINE
  5
18E
330
1F
100
AcDbEntity
  8
0
  6
Continuous
 62
     7
100
AcDbLine
 10
5.381283498632837
 20
11.42185454575777
 30
0.0
 11
5.381283498632836
 21
11.60185454575777
 31
0.0
  0
LINE
  5
18F
330
1F
100
AcDbEntity
  8
0
  6
Continuous
 62
     7
100
AcDbLine
 10
5.561283498632837
 20
11.42185454575777
 30
0.0
 11
5.381283498632837
 21
11.42185454575777
 31
0.0
  0
LINE
  5
190
330
1F
100
AcDbEntity
  8
0
  6
Continuous
 62
     7
100
AcDbLine
 10
5.561283498632835
 20
11.60185454575777
 30
0.0
 11
5.561283498632837
 21
11.42185454575777
 31
0.0
  0
LINE
  5
191
330
1F
100
AcDbEntity
  8
0
  6
Continuous
 62
     7
100
AcDbLine
 10
6.131283498632836
 20
11.60185454575777
 30
0.0
 11
5.561283498632835
 21
11.60185454575777
 31
0.0
  0
LINE
  5
192
330
1F
100
AcDbEntity
  8
0
  6
Continuous
 62
     7
100
AcDbLine
 10
6.131283498632837
 20
11.42185454575777
 30
0.0
 11
6.131283498632836
 21
11.60185454575777
 31
0.0
  0
LINE
  5
193
330
1F
100
AcDbEntity
  8
0
  6
Continuous
 62
     7
100
AcDbLine
 10
6.311283498632837
 20
11.42185454575777
 30
0.0
 11
6.131283498632837
 21
11.42185454575777
 31
0.0
  0
LINE
  5
194
330
1F
100
AcDbEntity
  8
0
  6
Continuous
 62
     7
100
AcDbLine
 10
6.311283498632836
 20
11.60185454575777
 30
0.0
 11
6.311283498632837
 21
11.42185454575777
 31
0.0
  0
LINE
  5
195
330
1F
100
AcDbEntity
  8
0
  6
Continuous
 62
     7
100
AcDbLine
 10
6.881283498632836
 20
11.60185454575777
 30
0.0
 11
6.311283498632836
 21
11.60185454575777
 31
0.0
  0
LINE
  5
196
330
1F
100
AcDbEntity
  8
0
  6
Continuous
 62
     7
100
AcDbLine
 10
6.881283498632837
 20
11.42185454575777
 30
0.0
 11
6.881283498632836
 21
11.60185454575777
 31
0.0
  0
LINE
  5
197
330
1F
100
AcDbEntity
  8
0
  6
Continuous
 62
     7
100
AcDbLine
 10
7.061283498632836
 20
11.42185454575777
 30
0.0
 11
6.881283498632837
 21
11.42185454575777
 31
0.0
  0
LINE
  5
198
330
1F
100
AcDbEntity
  8
0
  6
Continuous
 62
     7
100
AcDbLine
 10
7.061283498632835
 20
11.60185454575777
 30
0.0
 11
7.061283498632836
 21
11.42185454575777
 31
0.0
  0
LINE
  5
199
330
1F
100
AcDbEntity
  8
0
  6
Continuous
 62
     7
100
AcDbLine
 10
7.614283498632845
 20
8.618854545757777
 30
0.0
 11
7.434283498632844
 21
8.618854545757777
 31
0.0
  0
LINE
  5
19A
330
1F
100
AcDbEntity
  8
0
  6
Continuous
 62
     7
100
AcDbLine
 10
7.614283498632834
 20
11.60185454575778
 30
0.0
 11
7.061283498632835
 21
11.60185454575777
 31
0.0
  0
LINE
  5
19B
330
1F
100
AcDbEntity
  8
0
  6
Continuous
 62
     7
100
AcDbLine
 10
7.614283498632836
 20
11.04885454575778
 30
0.0
 11
7.614283498632834
 21
11.60185454575778
 31
0.0
  0
LINE
  5
19C
330
1F
100
AcDbEntity
  8
0
  6
Continuous
 62
     7
100
AcDbLine
 10
7.61428349863284
 20
10.29885454575778
 30
0.0
 11
7.614283498632836
 21
10.86885454575778
 31
0.0
  0
LINE
  5
19D
330
1F
100
AcDbEntity
  8
0
  6
Continuous
 62
     7
100
AcDbLine
 10
7.434283498632837
 20
11.04885454575778
 30
0.0
 11
7.614283498632836
 21
11.04885454575778
 31
0.0
  0
LINE
  5
19E
330
1F
100
AcDbEntity
  8
0
  6
Continuous
 62
     7
100
AcDbLine
 10
7.434283498632837
 20
10.86885454575778
 30
0.0
 11
7.434283498632837
 21
11.04885454575778
 31
0.0
  0
LINE
  5
19F
330
1F
100
AcDbEntity
  8
0
  6
Continuous
 62
     7
100
AcDbLine
 10
7.614283498632836
 20
10.86885454575778
 30
0.0
 11
7.434283498632837
 21
10.86885454575778
 31
0.0
  0
LINE
  5
1A0
330
1F
100
AcDbEntity
  8
0
  6
Continuous
 62
     7
100
AcDbLine
 10
7.434283498632839
 20
10.29885454575778
 30
0.0
 11
7.61428349863284
 21
10.29885454575778
 31
0.0
  0
LINE
  5
1A1
330
1F
100
AcDbEntity
  8
0
  6
Continuous
 62
     7
100
AcDbLine
 10
7.43428349863284
 20
10.11885454575778
 30
0.0
 11
7.434283498632839
 21
10.29885454575778
 31
0.0
  0
LINE
  5
1A2
330
1F
100
AcDbEntity
  8
0
  6
Continuous
 62
     7
100
AcDbLine
 10
7.61428349863284
 20
10.11885454575778
 30
0.0
 11
7.43428349863284
 21
10.11885454575778
 31
0.0
  0
LINE
  5
1A3
330
1F
100
AcDbEntity
  8
0
  6
Continuous
 62
     7
100
AcDbLine
 10
7.434283498632842
 20
9.548854545757777
 30
0.0
 11
7.614283498632842
 21
9.548854545757777
 31
0.0
  0
LINE
  5
1A4
330
1F
100
AcDbEntity
  8
0
  6
Continuous
 62
     7
100
AcDbLine
 10
7.434283498632843
 20
9.368854545757779
 30
0.0
 11
7.434283498632842
 21
9.548854545757777
 31
0.0
  0
LINE
  5
1A5
330
1F
100
AcDbEntity
  8
0
  6
Continuous
 62
     7
100
AcDbLine
 10
7.614283498632842
 20
9.368854545757779
 30
0.0
 11
7.434283498632843
 21
9.368854545757779
 31
0.0
  0
LINE
  5
1A6
330
1F
100
AcDbEntity
  8
0
  6
Continuous
 62
     7
100
AcDbLine
 10
7.434283498632844
 20
8.798854545757777
 30
0.0
 11
7.614283498632844
 21
8.798854545757777
 31
0.0
  0
LINE
  5
1A7
330
1F
100
AcDbEntity
  8
0
  6
Continuous
 62
     7
100
AcDbLine
 10
7.434283498632844
 20
8.618854545757777
 30
0.0
 11
7.434283498632844
 21
8.798854545757777
 31
0.0
  0
LINE
  5
1A8
330
1F
100
AcDbEntity
  8
0
  6
Continuous
 62
     7
100
AcDbLine
 10
4.77128349863285
 20
7.058854545757768
 30
0.0
 11
4.771283498632848
 21
7.583854545757767
 31
0.0
  0
LINE
  5
1A9
330
1F
100
AcDbEntity
  8
0
  6
Continuous
 62
     7
100
AcDbLine
 10
4.321283498632848
 20
7.583854545757765
 30
0.0
 11
4.32128349863285
 21
7.058854545757767
 31
0.0
  0
LINE
  5
1AA
330
1F
100
AcDbEntity
  8
0
  6
Continuous
 62
     7
100
AcDbLine
 10
4.32128349863285
 20
7.058854545757767
 30
0.0
 11
4.77128349863285
 21
7.058854545757768
 31
0.0
  0
LINE
  5
1AB
330
1F
100
AcDbEntity
  8
0
  6
Continuous
 62
     7
100
AcDbLine
 10
5.421283498632851
 20
7.058854545757769
 30
0.0
 11
5.421283498632849
 21
7.583854545757769
 31
0.0
  0
LINE
  5
1AC
330
1F
100
AcDbEntity
  8
0
  6
Continuous
 62
     7
100
AcDbLine
 10
4.971283498632849
 20
7.583854545757767
 30
0.0
 11
4.971283498632851
 21
7.058854545757768
 31
0.0
  0
LINE
  5
1AD
330
1F
100
AcDbEntity
  8
0
  6
Continuous
 62
     7
100
AcDbLine
 10
4.971283498632851
 20
7.058854545757768
 30
0.0
 11
5.421283498632851
 21
7.058854545757769
 31
0.0
  0
LINE
  5
1AE
330
1F
100
AcDbEntity
  8
0
  6
Continuous
 62
     7
100
AcDbLine
 10
6.07128349863285
 20
7.058854545757773
 30
0.0
 11
6.071283498632848
 21
7.583854545757771
 31
0.0
  0
LINE
  5
1AF
330
1F
100
AcDbEntity
  8
0
  6
Continuous
 62
     7
100
AcDbLine
 10
5.621283498632848
 20
7.58385454575777
 30
0.0
 11
5.621283498632851
 21
7.058854545757771
 31
0.0
  0
LINE
  5
1B0
330
1F
100
AcDbEntity
  8
0
  6
Continuous
 62
     7
100
AcDbLine
 10
5.621283498632851
 20
7.058854545757771
 30
0.0
 11
6.07128349863285
 21
7.058854545757773
 31
0.0
  0
LINE
  5
1B1
330
1F
100
AcDbEntity
  8
0
  6
Continuous
 62
     7
100
AcDbLine
 10
6.721283498632851
 20
7.058854545757776
 30
0.0
 11
6.721283498632849
 21
7.583854545757774
 31
0.0
  0
LINE
  5
1B2
330
1F
100
AcDbEntity
  8
0
  6
Continuous
 62
     7
100
AcDbLine
 10
6.271283498632849
 20
7.583854545757772
 30
0.0
 11
6.27128349863285
 21
7.058854545757773
 31
0.0
  0
LINE
  5
1B3
330
1F
100
AcDbEntity
  8
0
  6
Continuous
 62
     7
100
AcDbLine
 10
6.27128349863285
 20
7.058854545757773
 30
0.0
 11
6.721283498632851
 21
7.058854545757776
 31
0.0
  0
LINE
  5
1B4
330
1F
100
AcDbEntity
  8
0
  6
Continuous
 62
     7
100
AcDbLine
 10
7.37128349863285
 20
7.058854545757777
 30
0.0
 11
7.371283498632848
 21
7.583854545757777
 31
0.0
  0
LINE
  5
1B5
330
1F
100
AcDbEntity
  8
0
  6
Continuous
 62
     7
100
AcDbLine
 10
6.921283498632848
 20
7.583854545757775
 30
0.0
 11
6.92128349863285
 21
7.058854545757776
 31
0.0
  0
LINE
  5
1B6
330
1F
100
AcDbEntity
  8
0
  6
Continuous
 62
     7
100
AcDbLine
 10
6.92128349863285
 20
7.058854545757776
 30
0.0
 11
7.37128349863285
 21
7.058854545757777
 31
0.0
  0
LINE
  5
1B7
330
1F
100
AcDbEntity
  8
0
  6
Continuous
 62
     7
100
AcDbLine
 10
8.621283498632857
 20
8.758854545757809
 30
0.0
 11
8.096283498632857
 21
8.758854545757802
 31
0.0
  0
LINE
  5
1B8
330
1F
100
AcDbEntity
  8
0
  6
Continuous
 62
     7
100
AcDbLine
 10
8.096283498632862
 20
8.308854545757803
 30
0.0
 11
8.621283498632863
 21
8.30885454575781
 31
0.0
  0
LINE
  5
1B9
330
1F
100
AcDbEntity
  8
0
  6
Continuous
 62
     7
100
AcDbLine
 10
8.621283498632863
 20
8.30885454575781
 30
0.0
 11
8.621283498632857
 21
8.758854545757809
 31
0.0
  0
LINE
  5
1BA
330
1F
100
AcDbEntity
  8
0
  6
Continuous
 62
     7
100
AcDbLine
 10
8.621283498632847
 20
9.40885454575781
 30
0.0
 11
8.096283498632846
 21
9.408854545757803
 31
0.0
  0
LINE
  5
1BB
330
1F
100
AcDbEntity
  8
0
  6
Continuous
 62
     7
100
AcDbLine
 10
8.096283498632853
 20
8.958854545757802
 30
0.0
 11
8.621283498632852
 21
8.958854545757811
 31
0.0
  0
LINE
  5
1BC
330
1F
100
AcDbEntity
  8
0
  6
Continuous
 62
     7
100
AcDbLine
 10
8.621283498632852
 20
8.958854545757811
 30
0.0
 11
8.621283498632847
 21
9.40885454575781
 31
0.0
  0
LINE
  5
1BD
330
1F
100
AcDbEntity
  8
0
  6
Continuous
 62
     7
100
AcDbLine
 10
8.621283498632836
 20
10.05885454575781
 30
0.0
 11
8.096283498632837
 21
10.0588545457578
 31
0.0
  0
LINE
  5
1BE
330
1F
100
AcDbEntity
  8
0
  6
Continuous
 62
     7
100
AcDbLine
 10
8.096283498632844
 20
9.608854545757802
 30
0.0
 11
8.621283498632843
 21
9.608854545757809
 31
0.0
  0
LINE
  5
1BF
330
1F
100
AcDbEntity
  8
0
  6
Continuous
 62
     7
100
AcDbLine
 10
8.621283498632843
 20
9.608854545757809
 30
0.0
 11
8.621283498632836
 21
10.05885454575781
 31
0.0
  0
LINE
  5
1C0
330
1F
100
AcDbEntity
  8
0
  6
Continuous
 62
     7
100
AcDbLine
 10
8.621283498632829
 20
10.70885454575781
 30
0.0
 11
8.096283498632828
 21
10.7088545457578
 31
0.0
  0
LINE
  5
1C1
330
1F
100
AcDbEntity
  8
0
  6
Continuous
 62
     7
100
AcDbLine
 10
8.096283498632836
 20
10.2588545457578
 30
0.0
 11
8.621283498632834
 21
10.25885454575781
 31
0.0
  0
LINE
  5
1C2
330
1F
100
AcDbEntity
  8
0
  6
Continuous
 62
     7
100
AcDbLine
 10
8.621283498632834
 20
10.25885454575781
 30
0.0
 11
8.621283498632829
 21
10.70885454575781
 31
0.0
  0
LINE
  5
1C3
330
1F
100
AcDbEntity
  8
0
  6
Continuous
 62
     7
100
AcDbLine
 10
8.621283498632818
 20
11.35885454575781
 30
0.0
 11
8.09628349863282
 21
11.3588545457578
 31
0.0
  0
LINE
  5
1C4
330
1F
100
AcDbEntity
  8
0
  6
Continuous
 62
     7
100
AcDbLine
 10
8.096283498632825
 20
10.9088545457578
 30
0.0
 11
8.621283498632825
 21
10.90885454575781
 31
0.0
  0
LINE
  5
1C5
330
1F
100
AcDbEntity
  8
0
  6
Continuous
 62
     7
100
AcDbLine
 10
8.621283498632825
 20
10.90885454575781
 30
0.0
 11
8.621283498632818
 21
11.35885454575781
 31
0.0
  0
LINE
  5
1C6
330
1F
100
AcDbEntity
  8
0
  6
Continuous
 62
     7
100
AcDbLine
 10
6.921283498632831
 20
12.60885454575777
 30
0.0
 11
6.921283498632833
 21
12.08385454575777
 31
0.0
  0
LINE
  5
1C7
330
1F
100
AcDbEntity
  8
0
  6
Continuous
 62
     7
100
AcDbLine
 10
7.371283498632833
 20
12.08385454575777
 30
0.0
 11
7.371283498632831
 21
12.60885454575777
 31
0.0
  0
LINE
  5
1C8
330
1F
100
AcDbEntity
  8
0
  6
Continuous
 62
     7
100
AcDbLine
 10
7.371283498632831
 20
12.60885454575777
 30
0.0
 11
6.921283498632831
 21
12.60885454575777
 31
0.0
  0
LINE
  5
1C9
330
1F
100
AcDbEntity
  8
0
  6
Continuous
 62
     7
100
AcDbLine
 10
6.271283498632831
 20
12.60885454575777
 30
0.0
 11
6.271283498632833
 21
12.08385454575777
 31
0.0
  0
LINE
  5
1CA
330
1F
100
AcDbEntity
  8
0
  6
Continuous
 62
     7
100
AcDbLine
 10
6.721283498632833
 20
12.08385454575777
 30
0.0
 11
6.721283498632831
 21
12.60885454575777
 31
0.0
  0
LINE
  5
1CB
330
1F
100
AcDbEntity
  8
0
  6
Continuous
 62
     7
100
AcDbLine
 10
6.721283498632831
 20
12.60885454575777
 30
0.0
 11
6.271283498632831
 21
12.60885454575777
 31
0.0
  0
LINE
  5
1CC
330
1F
100
AcDbEntity
  8
0
  6
Continuous
 62
     7
100
AcDbLine
 10
5.621283498632831
 20
12.60885454575777
 30
0.0
 11
5.621283498632833
 21
12.08385454575777
 31
0.0
  0
LINE
  5
1CD
330
1F
100
AcDbEntity
  8
0
  6
Continuous
 62
     7
100
AcDbLine
 10
6.071283498632833
 20
12.08385454575777
 30
0.0
 11
6.071283498632831
 21
12.60885454575777
 31
0.0
  0
LINE
  5
1CE
330
1F
100
AcDbEntity
  8
0
  6
Continuous
 62
     7
100
AcDbLine
 10
6.071283498632831
 20
12.60885454575777
 30
0.0
 11
5.621283498632831
 21
12.60885454575777
 31
0.0
  0
LINE
  5
1CF
330
1F
100
AcDbEntity
  8
0
  6
Continuous
 62
     7
100
AcDbLine
 10
4.971283498632831
 20
12.60885454575777
 30
0.0
 11
4.971283498632833
 21
12.08385454575777
 31
0.0
  0
LINE
  5
1D0
330
1F
100
AcDbEntity
  8
0
  6
Continuous
 62
     7
100
AcDbLine
 10
5.421283498632833
 20
12.08385454575777
 30
0.0
 11
5.421283498632831
 21
12.60885454575777
 31
0.0
  0
LINE
  5
1D1
330
1F
100
AcDbEntity
  8
0
  6
Continuous
 62
     7
100
AcDbLine
 10
5.421283498632831
 20
12.60885454575777
 30
0.0
 11
4.971283498632831
 21
12.60885454575777
 31
0.0
  0
LINE
  5
1D2
330
1F
100
AcDbEntity
  8
0
  6
Continuous
 62
     7
100
AcDbLine
 10
4.321283498632832
 20
12.60885454575776
 30
0.0
 11
4.321283498632833
 21
12.08385454575776
 31
0.0
  0
LINE
  5
1D3
330
1F
100
AcDbEntity
  8
0
  6
Continuous
 62
     7
100
AcDbLine
 10
4.771283498632834
 20
12.08385454575777
 30
0.0
 11
4.771283498632831
 21
12.60885454575777
 31
0.0
  0
LINE
  5
1D4
330
1F
100
AcDbEntity
  8
0
  6
Continuous
 62
     7
100
AcDbLine
 10
4.771283498632831
 20
12.60885454575777
 30
0.0
 11
4.321283498632832
 21
12.60885454575776
 31
0.0
  0
ARC
  5
1D5
330
1F
100
AcDbEntity
  8
0
  6
Continuous
 62
     7
370
    15
100
AcDbCircle
 10
3.596283498632836
 20
11.13385454575776
 30
0.0
 40
0.1500000000000003
100
AcDbArc
 50
270.0000000000008
 51
90.00000000000033
  0
LINE
  5
1D6
330
1F
100
AcDbEntity
  8
0
  6
Continuous
 62
     7
370
    15
100
AcDbLine
 10
3.146283498632836
 20
11.28385454575776
 30
0.0
 11
3.146283498632837
 21
10.98385454575776
 31
0.0
  0
LINE
  5
1D7
330
1F
100
AcDbEntity
  8
0
  6
Continuous
 62
     7
370
    15
100
AcDbLine
 10
3.146283498632837
 20
10.98385454575776
 30
0.0
 11
3.596283498632836
 21
10.98385454575776
 31
0.0
  0
LINE
  5
1D8
330
1F
100
AcDbEntity
  8
0
  6
Continuous
 62
     7
370
    15
100
AcDbLine
 10
3.596283498632835
 20
11.28385454575776
 30
0.0
 11
3.146283498632836
 21
11.28385454575776
 31
0.0
  0
LINE
  5
1D9
330
1F
100
AcDbEntity
  8
0
  6
Continuous
 62
     7
370
    15
100
AcDbLine
 10
8.546283498632842
 20
9.6838545457578
 30
0.0
 11
8.546283498632838
 21
9.9838545457578
 31
0.0
  0
LINE
  5
1DA
330
1F
100
AcDbEntity
  8
0
  6
Continuous
 62
     7
370
    15
100
AcDbLine
 10
8.096283498632843
 20
9.683854545757796
 30
0.0
 11
8.546283498632842
 21
9.6838545457578
 31
0.0
  0
ARC
  5
1DB
330
1F
100
AcDbEntity
  8
0
  6
Continuous
 62
     7
370
    15
100
AcDbCircle
 10
8.096283498632841
 20
9.833854545757795
 30
0.0
 40
0.1500000000000003
100
AcDbArc
 50
90.00000000000069
 51
270.0000000000015
  0
LINE
  5
1DC
330
1F
100
AcDbEntity
  8
0
  6
Continuous
 62
     7
370
    15
100
AcDbLine
 10
8.546283498632838
 20
9.9838545457578
 30
0.0
 11
8.096283498632839
 21
9.983854545757795
 31
0.0
  0
LINE
  5
1DD
330
1F
100
AcDbEntity
  8
0
  6
Continuous
 62
     7
370
    15
100
AcDbLine
 10
5.696283498632841
 20
7.133854545757772
 30
0.0
 11
5.996283498632841
 21
7.133854545757772
 31
0.0
  0
LINE
  5
1DE
330
1F
100
AcDbEntity
  8
0
  6
Continuous
 62
     7
370
    15
100
AcDbLine
 10
5.696283498632841
 20
7.583854545757771
 30
0.0
 11
5.696283498632841
 21
7.133854545757772
 31
0.0
  0
ARC
  5
1DF
330
1F
100
AcDbEntity
  8
0
  6
Continuous
 62
     7
370
    15
100
AcDbCircle
 10
5.846283498632841
 20
7.583854545757771
 30
0.0
 40
0.1500000000000003
100
AcDbArc
 50
0.0
 51
180.0
  0
LINE
  5
1E0
330
1F
100
AcDbEntity
  8
0
  6
Continuous
 62
     7
370
    15
100
AcDbLine
 10
5.996283498632841
 20
7.133854545757772
 30
0.0
 11
5.996283498632841
 21
7.583854545757771
 31
0.0
  0
ARC
  5
1E1
330
1F
100
AcDbEntity
  8
0
  6
Continuous
 62
     7
370
    15
100
AcDbCircle
 10
3.59628349863284
 20
9.833854545757763
 30
0.0
 40
0.1500000000000003
100
AcDbArc
 50
270.0000000000009
 51
90.00000000000033
  0
LINE
  5
1E2
330
1F
100
AcDbEntity
  8
0
  6
Continuous
 62
     7
370
    15
100
AcDbLine
 10
3.146283498632842
 20
9.683854545757762
 30
0.0
 11
3.596283498632841
 21
9.683854545757764
 31
0.0
  0
LINE
  5
1E3
330
1F
100
AcDbEntity
  8
0
  6
Continuous
 62
     7
370
    15
100
AcDbLine
 10
3.146283498632841
 20
9.983854545757763
 30
0.0
 11
3.146283498632842
 21
9.683854545757762
 31
0.0
  0
LINE
  5
1E4
330
1F
100
AcDbEntity
  8
0
  6
Continuous
 62
     7
370
    15
100
AcDbLine
 10
3.59628349863284
 20
9.983854545757763
 30
0.0
 11
3.146283498632841
 21
9.983854545757763
 31
0.0
  0
LINE
  5
1E5
330
1F
100
AcDbEntity
  8
0
  6
Continuous
 62
     7
370
    15
100
AcDbLine
 10
8.546283498632835
 20
10.3338545457578
 30
0.0
 11
8.546283498632831
 21
10.6338545457578
 31
0.0
  0
LINE
  5
1E6
330
1F
100
AcDbEntity
  8
0
  6
Continuous
 62
     7
370
    15
100
AcDbLine
 10
8.096283498632836
 20
10.33385454575779
 30
0.0
 11
8.546283498632835
 21
10.3338545457578
 31
0.0
  0
ARC
  5
1E7
330
1F
100
AcDbEntity
  8
0
  6
Continuous
 62
     7
370
    15
100
AcDbCircle
 10
8.096283498632834
 20
10.48385454575779
 30
0.0
 40
0.1500000000000003
100
AcDbArc
 50
90.0
 51
270.0000000000015
  0
LINE
  5
1E8
330
1F
100
AcDbEntity
  8
0
  6
Continuous
 62
     7
370
    15
100
AcDbLine
 10
8.546283498632831
 20
10.6338545457578
 30
0.0
 11
8.096283498632834
 21
10.63385454575779
 31
0.0
  0
LINE
  5
1E9
330
1F
100
AcDbEntity
  8
0
  6
Continuous
 62
     7
370
    15
100
AcDbLine
 10
6.646283498632841
 20
7.133854545757772
 30
0.0
 11
6.646283498632841
 21
7.583854545757771
 31
0.0
  0
LINE
  5
1EA
330
1F
100
AcDbEntity
  8
0
  6
Continuous
 62
     7
370
    15
100
AcDbLine
 10
6.34628349863284
 20
7.133854545757772
 30
0.0
 11
6.646283498632841
 21
7.133854545757772
 31
0.0
  0
LINE
  5
1EB
330
1F
100
AcDbEntity
  8
0
  6
Continuous
 62
     7
370
    15
100
AcDbLine
 10
6.34628349863284
 20
7.583854545757771
 30
0.0
 11
6.34628349863284
 21
7.133854545757772
 31
0.0
  0
ARC
  5
1EC
330
1F
100
AcDbEntity
  8
0
  6
Continuous
 62
     7
370
    15
100
AcDbCircle
 10
6.49628349863284
 20
7.583854545757771
 30
0.0
 40
0.1500000000000003
100
AcDbArc
 50
0.0
 51
180.0
  0
ARC
  5
1ED
330
1F
100
AcDbEntity
  8
0
  6
Continuous
 62
     7
370
    15
100
AcDbCircle
 10
3.596283498632843
 20
9.183854545757764
 30
0.0
 40
0.1500000000000003
100
AcDbArc
 50
270.0000000000008
 51
90.00000000000019
  0
LINE
  5
1EE
330
1F
100
AcDbEntity
  8
0
  6
Continuous
 62
     7
370
    15
100
AcDbLine
 10
3.146283498632843
 20
9.333854545757761
 30
0.0
 11
3.146283498632844
 21
9.033854545757762
 31
0.0
  0
LINE
  5
1EF
330
1F
100
AcDbEntity
  8
0
  6
Continuous
 62
     7
370
    15
100
AcDbLine
 10
3.146283498632844
 20
9.033854545757762
 30
0.0
 11
3.596283498632843
 21
9.033854545757764
 31
0.0
  0
LINE
  5
1F0
330
1F
100
AcDbEntity
  8
0
  6
Continuous
 62
     7
370
    15
100
AcDbLine
 10
3.596283498632842
 20
9.333854545757763
 30
0.0
 11
3.146283498632843
 21
9.333854545757761
 31
0.0
  0
LINE
  5
1F1
330
1F
100
AcDbEntity
  8
0
  6
Continuous
 62
     7
370
    15
100
AcDbLine
 10
8.546283498632828
 20
10.9838545457578
 30
0.0
 11
8.546283498632824
 21
11.2838545457578
 31
0.0
  0
LINE
  5
1F2
330
1F
100
AcDbEntity
  8
0
  6
Continuous
 62
     7
370
    15
100
AcDbLine
 10
8.096283498632828
 20
10.98385454575779
 30
0.0
 11
8.546283498632828
 21
10.9838545457578
 31
0.0
  0
ARC
  5
1F3
330
1F
100
AcDbEntity
  8
0
  6
Continuous
 62
     7
370
    15
100
AcDbCircle
 10
8.096283498632827
 20
11.13385454575779
 30
0.0
 40
0.1500000000000003
100
AcDbArc
 50
90.00000000000069
 51
270.0000000000015
  0
LINE
  5
1F4
330
1F
100
AcDbEntity
  8
0
  6
Continuous
 62
     7
370
    15
100
AcDbLine
 10
8.546283498632824
 20
11.2838545457578
 30
0.0
 11
8.096283498632825
 21
11.28385454575779
 31
0.0
  0
LINE
  5
1F5
330
1F
100
AcDbEntity
  8
0
  6
Continuous
 62
     7
370
    15
100
AcDbLine
 10
7.296283498632841
 20
7.133854545757772
 30
0.0
 11
7.296283498632841
 21
7.583854545757771
 31
0.0
  0
ARC
  5
1F6
330
1F
100
AcDbEntity
  8
0
  6
Continuous
 62
     7
370
    15
100
AcDbCircle
 10
7.146283498632841
 20
7.583854545757771
 30
0.0
 40
0.1500000000000003
100
AcDbArc
 50
0.0
 51
180.0
  0
LINE
  5
1F7
330
1F
100
AcDbEntity
  8
0
  6
Continuous
 62
     7
370
    15
100
AcDbLine
 10
6.996283498632841
 20
7.583854545757771
 30
0.0
 11
6.996283498632841
 21
7.133854545757772
 31
0.0
  0
LINE
  5
1F8
330
1F
100
AcDbEntity
  8
0
  6
Continuous
 62
     7
370
    15
100
AcDbLine
 10
6.996283498632841
 20
7.133854545757772
 30
0.0
 11
7.296283498632841
 21
7.133854545757772
 31
0.0
  0
ARC
  5
1F9
330
1F
100
AcDbEntity
  8
0
  6
Continuous
 62
     7
370
    15
100
AcDbCircle
 10
3.596283498632845
 20
8.533854545757764
 30
0.0
 40
0.1500000000000003
100
AcDbArc
 50
270.0000000000011
 51
90.00000000000019
  0
LINE
  5
1FA
330
1F
100
AcDbEntity
  8
0
  6
Continuous
 62
     7
370
    15
100
AcDbLine
 10
3.146283498632847
 20
8.383854545757762
 30
0.0
 11
3.596283498632846
 21
8.383854545757763
 31
0.0
  0
LINE
  5
1FB
330
1F
100
AcDbEntity
  8
0
  6
Continuous
 62
     7
370
    15
100
AcDbLine
 10
3.146283498632846
 20
8.683854545757762
 30
0.0
 11
3.146283498632847
 21
8.383854545757762
 31
0.0
  0
LINE
  5
1FC
330
1F
100
AcDbEntity
  8
0
  6
Continuous
 62
     7
370
    15
100
AcDbLine
 10
3.596283498632845
 20
8.683854545757762
 30
0.0
 11
3.146283498632846
 21
8.683854545757762
 31
0.0
  0
LINE
  5
1FD
330
1F
100
AcDbEntity
  8
0
  6
Continuous
 62
     7
370
    15
100
AcDbLine
 10
8.546283498632849
 20
9.033854545757799
 30
0.0
 11
8.546283498632845
 21
9.333854545757798
 31
0.0
  0
LINE
  5
1FE
330
1F
100
AcDbEntity
  8
0
  6
Continuous
 62
     7
370
    15
100
AcDbLine
 10
8.09628349863285
 20
9.033854545757794
 30
0.0
 11
8.546283498632849
 21
9.033854545757799
 31
0.0
  0
ARC
  5
1FF
330
1F
100
AcDbEntity
  8
0
  6
Continuous
 62
     7
370
    15
100
AcDbCircle
 10
8.096283498632848
 20
9.183854545757796
 30
0.0
 40
0.1500000000000021
100
AcDbArc
 50
90.00000000000069
 51
270.0000000000015
  0
LINE
  5
200
330
1F
100
AcDbEntity
  8
0
  6
Continuous
 62
     7
370
    15
100
AcDbLine
 10
8.546283498632845
 20
9.333854545757798
 30
0.0
 11
8.096283498632846
 21
9.333854545757795
 31
0.0
  0
ARC
  5
201
330
1F
100
AcDbEntity
  8
0
  6
Continuous
 62
     7
370
    15
100
AcDbCircle
 10
5.196283498632841
 20
7.583854545757771
 30
0.0
 40
0.1500000000000003
100
AcDbArc
 50
0.0
 51
180.0
  0
LINE
  5
202
330
1F
100
AcDbEntity
  8
0
  6
Continuous
 62
     7
370
    15
100
AcDbLine
 10
5.34628349863284
 20
7.133854545757771
 30
0.0
 11
5.34628349863284
 21
7.583854545757771
 31
0.0
  0
LINE
  5
203
330
1F
100
AcDbEntity
  8
0
  6
Continuous
 62
     7
370
    15
100
AcDbLine
 10
5.046283498632841
 20
7.583854545757771
 30
0.0
 11
5.046283498632841
 21
7.133854545757771
 31
0.0
  0
LINE
  5
204
330
1F
100
AcDbEntity
  8
0
  6
Continuous
 62
     7
370
    15
100
AcDbLine
 10
5.046283498632841
 20
7.133854545757771
 30
0.0
 11
5.34628349863284
 21
7.133854545757771
 31
0.0
  0
ARC
  5
205
330
1F
100
AcDbEntity
  8
0
  6
Continuous
 62
     7
370
    15
100
AcDbCircle
 10
3.596283498632838
 20
10.48385454575776
 30
0.0
 40
0.1499999999999986
100
AcDbArc
 50
270.0000000000009
 51
90.00000000000019
  0
LINE
  5
206
330
1F
100
AcDbEntity
  8
0
  6
Continuous
 62
     7
370
    15
100
AcDbLine
 10
3.146283498632839
 20
10.33385454575776
 30
0.0
 11
3.596283498632838
 21
10.33385454575776
 31
0.0
  0
LINE
  5
207
330
1F
100
AcDbEntity
  8
0
  6
Continuous
 62
     7
370
    15
100
AcDbLine
 10
3.596283498632837
 20
10.63385454575776
 30
0.0
 11
3.146283498632838
 21
10.63385454575776
 31
0.0
  0
LINE
  5
208
330
1F
100
AcDbEntity
  8
0
  6
Continuous
 62
     7
370
    15
100
AcDbLine
 10
3.146283498632838
 20
10.63385454575776
 30
0.0
 11
3.146283498632839
 21
10.33385454575776
 31
0.0
  0
LINE
  5
209
330
1F
100
AcDbEntity
  8
0
  6
Continuous
 62
     7
370
    15
100
AcDbLine
 10
7.296283498632841
 20
12.53385454575777
 30
0.0
 11
6.996283498632841
 21
12.53385454575777
 31
0.0
  0
LINE
  5
20A
330
1F
100
AcDbEntity
  8
0
  6
Continuous
 62
     7
370
    15
100
AcDbLine
 10
7.296283498632841
 20
12.08385454575777
 30
0.0
 11
7.296283498632841
 21
12.53385454575777
 31
0.0
  0
ARC
  5
20B
330
1F
100
AcDbEntity
  8
0
  6
Continuous
 62
     7
370
    15
100
AcDbCircle
 10
7.146283498632841
 20
12.08385454575777
 30
0.0
 40
0.1500000000000003
100
AcDbArc
 50
180.0
 51
0.0
  0
LINE
  5
20C
330
1F
100
AcDbEntity
  8
0
  6
Continuous
 62
     7
370
    15
100
AcDbLine
 10
6.996283498632841
 20
12.53385454575777
 30
0.0
 11
6.996283498632841
 21
12.08385454575777
 31
0.0
  0
LINE
  5
20D
330
1F
100
AcDbEntity
  8
0
  6
Continuous
 62
     7
370
    15
100
AcDbLine
 10
6.646283498632841
 20
12.08385454575777
 30
0.0
 11
6.646283498632841
 21
12.53385454575777
 31
0.0
  0
LINE
  5
20E
330
1F
100
AcDbEntity
  8
0
  6
Continuous
 62
     7
370
    15
100
AcDbLine
 10
6.34628349863284
 20
12.53385454575777
 30
0.0
 11
6.34628349863284
 21
12.08385454575777
 31
0.0
  0
LINE
  5
20F
330
1F
100
AcDbEntity
  8
0
  6
Continuous
 62
     7
370
    15
100
AcDbLine
 10
6.646283498632841
 20
12.53385454575777
 30
0.0
 11
6.34628349863284
 21
12.53385454575777
 31
0.0
  0
ARC
  5
210
330
1F
100
AcDbEntity
  8
0
  6
Continuous
 62
     7
370
    15
100
AcDbCircle
 10
6.49628349863284
 20
12.08385454575777
 30
0.0
 40
0.1500000000000003
100
AcDbArc
 50
180.0
 51
0.0
  0
LINE
  5
211
330
1F
100
AcDbEntity
  8
0
  6
Continuous
 62
     7
370
    15
100
AcDbLine
 10
5.996283498632841
 20
12.08385454575777
 30
0.0
 11
5.996283498632841
 21
12.53385454575777
 31
0.0
  0
LINE
  5
212
330
1F
100
AcDbEntity
  8
0
  6
Continuous
 62
     7
370
    15
100
AcDbLine
 10
5.696283498632841
 20
12.53385454575777
 30
0.0
 11
5.696283498632841
 21
12.08385454575777
 31
0.0
  0
ARC
  5
213
330
1F
100
AcDbEntity
  8
0
  6
Continuous
 62
     7
370
    15
100
AcDbCircle
 10
5.846283498632841
 20
12.08385454575777
 30
0.0
 40
0.1500000000000003
100
AcDbArc
 50
180.0
 51
0.0
  0
LINE
  5
214
330
1F
100
AcDbEntity
  8
0
  6
Continuous
 62
     7
370
    15
100
AcDbLine
 10
5.996283498632841
 20
12.53385454575777
 30
0.0
 11
5.696283498632841
 21
12.53385454575777
 31
0.0
  0
LINE
  5
215
330
1F
100
AcDbEntity
  8
0
  6
Continuous
 62
     7
370
    15
100
AcDbLine
 10
5.34628349863284
 20
12.08385454575777
 30
0.0
 11
5.34628349863284
 21
12.53385454575777
 31
0.0
  0
LINE
  5
216
330
1F
100
AcDbEntity
  8
0
  6
Continuous
 62
     7
370
    15
100
AcDbLine
 10
5.34628349863284
 20
12.53385454575777
 30
0.0
 11
5.046283498632841
 21
12.53385454575777
 31
0.0
  0
LINE
  5
217
330
1F
100
AcDbEntity
  8
0
  6
Continuous
 62
     7
370
    15
100
AcDbLine
 10
5.046283498632841
 20
12.53385454575777
 30
0.0
 11
5.046283498632841
 21
12.08385454575777
 31
0.0
  0
ARC
  5
218
330
1F
100
AcDbEntity
  8
0
  6
Continuous
 62
     7
370
    15
100
AcDbCircle
 10
5.196283498632841
 20
12.08385454575777
 30
0.0
 40
0.1500000000000003
100
AcDbArc
 50
180.0
 51
0.0
  0
LINE
  5
219
330
1F
100
AcDbEntity
  8
0
  6
Continuous
 62
     7
370
    15
100
AcDbLine
 10
4.696283498632841
 20
12.08385454575777
 30
0.0
 11
4.696283498632841
 21
12.53385454575777
 31
0.0
  0
LINE
  5
21A
330
1F
100
AcDbEntity
  8
0
  6
Continuous
 62
     7
370
    15
100
AcDbLine
 10
4.396283498632841
 20
12.53385454575777
 30
0.0
 11
4.396283498632841
 21
12.08385454575777
 31
0.0
  0
ARC
  5
21B
330
1F
100
AcDbEntity
  8
0
  6
Continuous
 62
     7
370
    15
100
AcDbCircle
 10
4.546283498632841
 20
12.08385454575777
 30
0.0
 40
0.1500000000000003
100
AcDbArc
 50
180.0
 51
0.0
  0
LINE
  5
21C
330
1F
100
AcDbEntity
  8
0
  6
Continuous
 62
     7
370
    15
100
AcDbLine
 10
4.696283498632841
 20
12.53385454575777
 30
0.0
 11
4.396283498632841
 21
12.53385454575777
 31
0.0
  0
LINE
  5
21D
330
1F
100
AcDbEntity
  8
0
  6
Continuous
 62
     7
370
    15
100
AcDbLine
 10
8.546283498632856
 20
8.383854545757801
 30
0.0
 11
8.546283498632853
 21
8.6838545457578
 31
0.0
  0
LINE
  5
21E
330
1F
100
AcDbEntity
  8
0
  6
Continuous
 62
     7
370
    15
100
AcDbLine
 10
8.096283498632857
 20
8.383854545757795
 30
0.0
 11
8.546283498632856
 21
8.383854545757801
 31
0.0
  0
ARC
  5
21F
330
1F
100
AcDbEntity
  8
0
  6
Continuous
 62
     7
370
    15
100
AcDbCircle
 10
8.096283498632855
 20
8.533854545757796
 30
0.0
 40
0.1500000000000003
100
AcDbArc
 50
90.00000000000069
 51
270.0000000000015
  0
LINE
  5
220
330
1F
100
AcDbEntity
  8
0
  6
Continuous
 62
     7
370
    15
100
AcDbLine
 10
8.546283498632853
 20
8.6838545457578
 30
0.0
 11
8.096283498632853
 21
8.683854545757794
 31
0.0
  0
ARC
  5
221
330
1F
100
AcDbEntity
  8
0
  6
Continuous
 62
     7
370
    15
100
AcDbCircle
 10
4.546283498632841
 20
7.583854545757771
 30
0.0
 40
0.1500000000000003
100
AcDbArc
 50
0.0
 51
180.0
  0
LINE
  5
222
330
1F
100
AcDbEntity
  8
0
  6
Continuous
 62
     7
370
    15
100
AcDbLine
 10
4.696283498632841
 20
7.133854545757771
 30
0.0
 11
4.696283498632841
 21
7.583854545757771
 31
0.0
  0
LINE
  5
223
330
1F
100
AcDbEntity
  8
0
  6
Continuous
 62
     7
370
    15
100
AcDbLine
 10
4.396283498632841
 20
7.133854545757771
 30
0.0
 11
4.696283498632841
 21
7.133854545757771
 31
0.0
  0
LINE
  5
224
330
1F
100
AcDbEntity
  8
0
  6
Continuous
 62
     7
370
    15
100
AcDbLine
 10
4.396283498632841
 20
7.583854545757771
 30
0.0
 11
4.396283498632841
 21
7.133854545757771
 31
0.0
  0
DIMENSION
  5
225
330
1F
100
AcDbEntity
  8
0
  6
Continuous
 62
     7
370
     0
100
AcDbDimension
  2
_D
 10
1.574854927204244
 20
12.33385454575775
 30
0.0
 11
1.574854927204253
 21
9.833854545757757
 31
0.0
 70
   160
  1
<>
 71
     2
 42
-1.0
  3
SLDDIMSTYLE1
100
AcDbAlignedDimension
 13
3.346283498632849
 23
7.333854545757762
 33
0.0
 14
3.346283498632832
 24
12.33385454575776
 34
0.0
 50
90.00000000000019
100
AcDbRotatedDimension
  0
DIMENSION
  5
231
330
1F
100
AcDbEntity
  8
0
  6
Continuous
 62
     7
370
     0
100
AcDbDimension
  2
_D_1
 10
1.059851417297573
 20
7.133854545757754
 30
0.0
 11
1.059851417297564
 21
9.833854545757755
 31
0.0
 70
   160
  1
<>
 71
     2
 42
-1.0
  3
SLDDIMSTYLE2
100
AcDbAlignedDimension
 13
4.396283498632832
 23
12.53385454575776
 33
0.0
 14
4.39628349863285
 24
7.133854545757766
 34
0.0
 50
90.00000000000019
100
AcDbRotatedDimension
  0
DIMENSION
  5
23D
330
1F
100
AcDbEntity
  8
0
  6
Continuous
 62
     7
370
     0
100
AcDbDimension
  2
_D_2
 10
11.93827745039787
 20
11.45885454575779
 30
0.0
 11
11.93827745039788
 21
9.833854545757793
 31
0.0
 70
   160
  1
<>
 71
     2
 42
-1.0
  3
SLDDIMSTYLE1
100
AcDbAlignedDimension
 13
7.471283498632846
 23
8.208854545757775
 33
0.0
 14
7.471283498632836
 24
11.45885454575777
 34
0.0
 50
90.00000000000019
100
AcDbRotatedDimension
  0
DIMENSION
  5
248
330
1F
100
AcDbEntity
  8
0
  6
Continuous
 62
     7
370
     0
100
AcDbDimension
  2
_D_3
 10
8.346283498632827
 20
13.78823430165123
 30
0.0
 11
5.846283498632827
 21
13.78823430165122
 31
0.0
 70
   160
  1
<>
 71
     2
 42
-1.0
  3
SLDDIMSTYLE1
100
AcDbAlignedDimension
 13
3.346283498632832
 23
12.33385454575776
 33
0.0
 14
8.346283498632832
 24
12.33385454575778
 34
0.0
 50
0.0000000000002036
100
AcDbRotatedDimension
  0
DIMENSION
  5
253
330
1F
100
AcDbEntity
  8
0
  6
Continuous
 62
     7
370
     0
100
AcDbDimension
  2
_D_4
 10
8.546283498632778
 20
14.35286002620556
 30
0.0
 11
5.846283498632783
 21
14.35286002620552
 31
0.0
 70
   160
  1
<>
 71
     2
 42
-1.0
  3
SLDDIMSTYLE2
100
AcDbAlignedDimension
 13
3.146283498632831
 23
11.28385454575775
 33
0.0
 14
8.546283498632819
 24
11.28385454575781
 34
0.0
 50
0.0000000000007539
100
AcDbRotatedDimension
  0
DIMENSION
  5
25E
330
1F
100
AcDbEntity
  8
0
  6
Continuous
 62
     7
370
     0
100
AcDbDimension
  2
_D_5
 10
7.146283498632826
 20
13.2481402600435
 30
0.0
 11
5.846283498632827
 21
13.24814026004349
 31
0.0
 70
   160
  1
<>
 71
     2
 42
-1.0
  3
SLDDIMSTYLE2
100
AcDbAlignedDimension
 13
4.546283498632829
 23
12.74814026004347
 33
0.0
 14
7.146283498632828
 24
12.74814026004349
 34
0.0
 50
0.0000000000002349
100
AcDbRotatedDimension
  0
DIMENSION
  5
269
330
1F
100
AcDbEntity
  8
0
  6
Continuous
 62
     7
370
     0
100
AcDbDimension
  2
_D_6
 10
2.148549447682962
 20
8.533854545757742
 30
0.0
 11
2.148549447682954
 21
9.833854545757743
 31
0.0
 70
   160
  1
<>
 71
     2
 42
-1.0
  3
SLDDIMSTYLE2
100
AcDbAlignedDimension
 13
2.931997784347116
 23
11.13385454575775
 33
0.0
 14
2.931997784347135
 24
8.533854545757748
 34
0.0
 50
90.00000000000019
100
AcDbRotatedDimension
  0
DIMENSION
  5
274
330
1F
100
AcDbEntity
  8
0
  6
Continuous
 62
     7
370
     0
100
AcDbDimension
  2
_D_7
 10
2.634905483006279
 20
11.13385454575774
 30
0.0
 11
2.634905483006281
 21
10.80885454575774
 31
0.0
 70
   160
  1
<>
 71
     2
 42
-1.0
  3
SLDDIMSTYLE3
100
AcDbAlignedDimension
 13
2.931997784347121
 23
10.48385454575774
 33
0.0
 14
2.931997784347116
 24
11.13385454575775
 34
0.0
 50
90.00000000000019
100
AcDbRotatedDimension
  0
DIMENSION
  5
280
330
1F
100
AcDbEntity
  8
0
  6
Continuous
 62
     7
370
     0
100
AcDbDimension
  2
_D_8
 10
2.634905483006274
 20
8.383854545757749
 30
0.0
 11
2.634905483006277
 21
7.976278219499786
 31
0.0
 70
   160
  1
<>
 71
     2
 42
-1.0
  3
SLDDIMSTYLE4
100
AcDbAlignedDimension
 13
3.14628349863285
 23
8.683854545757752
 33
0.0
 14
3.146283498632852
 24
8.383854545757753
 34
0.0
 50
90.00000000000019
100
AcDbRotatedDimension
  0
DIMENSION
  5
28D
330
1F
100
AcDbEntity
  8
0
  6
Continuous
 62
     7
370
     0
100
AcDbDimension
  2
_D_9
 10
12.68914064149001
 20
8.065854545757796
 30
0.0
 11
12.68914064149001
 21
9.833854545757795
 31
0.0
 70
   160
  1
<>
 71
     2
 42
-1.0
  3
SLDDIMSTYLE1
100
AcDbAlignedDimension
 13
7.614283498632834
 23
11.60185454575778
 33
0.0
 14
7.614283498632847
 24
8.065854545757778
 34
0.0
 50
90.00000000000019
100
AcDbRotatedDimension
  0
INSERT
  5
29D
102
{ACAD_REACTORS
330
29E
102
}
330
1F
100
AcDbEntity
  8
0
  6
Continuous
 62
     7
370
     0
100
AcDbBlockReference
  2
SW_NOTE_22
 10
9.186250362213851
 20
8.859750796870473
 30
0.0
  0
LEADER
  5
29E
330
1F
100
AcDbEntity
  8
0
  6
Continuous
 62
     7
370
     0
100
AcDbLeader
  3
SLDDIMSTYLE0
 73
     2
 76
     3
 10
7.471283498632844
 20
8.763465660820234
 30
0.0
 10
8.971964647928137
 20
8.859750796870473
 30
0.0
 10
9.186250362213851
 20
8.859750796870473
 30
0.0
340
29D
  0
INSERT
  5
2A5
102
{ACAD_REACTORS
330
2A6
102
}
330
1F
100
AcDbEntity
  8
0
  6
Continuous
 62
     7
370
     0
100
AcDbBlockReference
  2
SW_NOTE_23
 10
9.157273254129236
 20
10.3593161402492
 30
0.0
  0
LEADER
  5
2A6
330
1F
100
AcDbEntity
  8
0
  6
Continuous
 62
     7
370
     0
100
AcDbLeader
  3
SLDDIMSTYLE0
 73
     2
 76
     3
 10
7.614283498632842
 20
9.715474808118038
 30
0.0
 10
8.942987539843525
 20
10.3593161402492
 30
0.0
 10
9.157273254129236
 20
10.3593161402492
 30
0.0
340
2A5
  0
MTEXT
  5
2A7
330
1F
100
AcDbEntity
  8
0
  6
Continuous
 62
     7
370
     0
100
AcDbMText
 10
9.194434846497159
 20
11.94601315023188
 30
0.0
 40
0.2078869047619047
 41
0.0
 71
     1
 72
     1
  1
PCB PAD
  7
SLDTEXTSTYLE0
 73
     1
 44
1.0
1001
ACAD
1000
MTEXTBEGIN
1070
    73
1070
     1
1070
    44
1040
1.0
1070
    74
1070
     0
1000
MTEXTEND
  0
LEADER
  5
2B1
330
1F
100
AcDbEntity
  8
0
  6
Continuous
 62
     7
370
     0
100
AcDbLeader
  3
SLDDIMSTYLE5
 76
     3
 10
8.466508429302546
 20
11.10680938853941
 30
0.0
 10
8.942987539843525
 20
11.85163720660678
 30
0.0
 10
9.157273254129236
 20
11.85163720660678
 30
0.0
  0
MTEXT
  5
2B2
330
1F
100
AcDbEntity
  8
0
  6
Continuous
 62
     7
370
     0
100
AcDbMText
 10
9.194434846497159
 20
12.3254393517603
 30
0.0
 40
0.2078869047619047
 41
0.0
 71
     1
 72
     1
  1
COMPONENT PAD
  7
SLDTEXTSTYLE0
 73
     1
 44
1.0
1001
ACAD
1000
MTEXTBEGIN
1070
    73
1070
     1
1070
    44
1040
1.0
1070
    74
1070
     0
1000
MTEXTEND
  0
LEADER
  5
2B3
330
1F
100
AcDbEntity
  8
0
  6
Continuous
 62
     7
370
     0
100
AcDbLeader
  3
SLDDIMSTYLE5
 76
     3
 10
8.177601927211732
 20
11.09046545401892
 30
0.0
 10
8.942987539843525
 20
12.22833961170675
 30
0.0
 10
9.157273254129236
 20
12.22833961170675
 30
0.0
  0
MTEXT
  5
2B4
330
1F
100
AcDbEntity
  8
0
  6
Continuous
 62
     7
370
     0
100
AcDbMText
 10
9.194434846497159
 20
12.74201656643522
 30
0.0
 40
0.2267857142857143
 41
0.0
 71
     1
 72
     1
  1
SOLDER MASK OPENING
  7
SLDTEXTSTYLE0
 73
     1
 44
1.0
1001
ACAD
1000
MTEXTBEGIN
1070
    73
1070
     1
1070
    44
1040
1.0
1070
    74
1070
     0
1000
MTEXTEND
  0
LEADER
  5
2B5
330
1F
100
AcDbEntity
  8
0
  6
Continuous
 62
     7
370
     0
100
AcDbLeader
  3
SLDDIMSTYLE0
 76
     3
 10
8.09628349863282
 20
11.3588545457578
 30
0.0
 10
8.942987539843525
 20
12.63401912489134
 30
0.0
 10
9.157273254129236
 20
12.63401912489134
 30
0.0
  0
ARC
  5
2B6
330
1F
100
AcDbEntity
  8
0
  6
Continuous
 62
     7
370
     0
100
AcDbCircle
 10
6.841512083952515
 20
7.393686916524858
 30
0.0
 40
0.6734991863874011
100
AcDbArc
 50
276.3118624720315
 51
257.1923639284814
  0
SOLID
  5
2B7
330
1F
100
AcDbEntity
  8
0
  6
Continuous
 62
     7
370
     0
100
AcDbTrace
 10
6.915556650246307
 20
6.724270337504846
 30
0.0
 11
7.058923698495308
 21
6.737420633801709
 31
0.0
 12
7.051275408691496
 22
6.772306359638482
 32
0.0
 13
7.051275408691496
 23
6.772306359638482
 33
0.0
  0
SOLID
  5
2B8
330
1F
100
AcDbEntity
  8
0
  6
Continuous
 62
     7
370
     0
100
AcDbTrace
 10
6.692211822660101
 20
6.736944511892336
 30
0.0
 11
6.562798662530265
 21
6.800026005228624
 31
0.0
 12
6.551252853713021
 22
6.766229489094009
 32
0.0
 13
6.551252853713021
 23
6.766229489094009
 33
0.0
  0
MTEXT
  5
2B9
330
1F
100
AcDbEntity
  8
0
  6
Continuous
 62
     7
370
     0
100
AcDbMText
 10
6.692211822660101
 20
6.865194581280787
 30
-0.000000000000049
 40
0.2267857142857143
 41
0.0
 71
     1
 72
     1
  1
A
  7
SLDTEXTSTYLE0
 73
     1
 44
1.0
1001
ACAD
1000
MTEXTBEGIN
1070
    73
1070
     1
1070
    44
1040
1.0
1070
    74
1070
     0
1000
MTEXTEND
  0
LINE
  5
2BA
330
1F
100
AcDbEntity
  8
0
  6
CENTERX2
 62
     7
370
     0
100
AcDbLine
 10
2.931997784347116
 20
11.13385454575775
 30
0.0
 11
3.810569212918543
 21
11.13385454575775
 31
0.0
  0
LINE
  5
2BB
330
1F
100
AcDbEntity
  8
0
  6
CENTERX2
 62
     7
370
     0
100
AcDbLine
 10
2.93199778434712
 20
10.48385454575774
 30
0.0
 11
3.810569212918548
 21
10.48385454575775
 31
0.0
  0
LINE
  5
2BC
330
1F
100
AcDbEntity
  8
0
  6
CENTERX2
 62
     7
370
     0
100
AcDbLine
 10
2.931997784347135
 20
8.533854545757748
 30
0.0
 11
3.810569212918562
 21
8.533854545757753
 31
0.0
  0
LINE
  5
2BD
330
1F
100
AcDbEntity
  8
0
  6
CENTERX2
 62
     7
370
     0
100
AcDbLine
 10
4.546283498632832
 20
11.86956883147205
 30
0.0
 11
4.546283498632829
 21
12.74814026004347
 31
0.0
  0
LINE
  5
2BE
330
1F
100
AcDbEntity
  8
0
  6
CENTERX2
 62
     7
370
     0
100
AcDbLine
 10
7.146283498632833
 20
11.86956883147206
 30
0.0
 11
7.146283498632828
 21
12.74814026004349
 31
0.0
  0
LINE
  5
2BF
330
1F
100
AcDbEntity
  8
0
  6
CENTERX2
 62
     7
100
AcDbLine
 10
13.61870871528141
 20
8.586350035570522
 30
0.0
 11
18.41039620742956
 21
8.586350035570537
 31
0.0
  0
LINE
  5
2C0
330
1F
100
AcDbEntity
  8
0
  6
CENTERX2
 62
     7
100
AcDbLine
 10
16.15659308224605
 20
11.20063569940517
 30
0.0
 11
16.15659308224605
 21
11.20119366141193
 31
0.0
  0
LINE
  5
2C1
330
1F
100
AcDbEntity
  8
0
  6
CENTERX2
 62
     7
100
AcDbLine
 10
15.86337614808452
 20
11.20063569940517
 30
0.0
 11
16.15659308224605
 21
11.20063569940517
 31
0.0
  0
LINE
  5
2C2
330
1F
100
AcDbEntity
  8
0
  6
CENTERX2
 62
     7
100
AcDbLine
 10
15.58516473313749
 20
7.604207183749513
 30
0.0
 11
15.58516473313749
 21
9.479207324778361
 31
0.0
  0
LINE
  5
2C3
330
1F
100
AcDbEntity
  8
0
  6
CENTERX2
 62
     7
100
AcDbLine
 10
13.97802179965944
 20
9.479207324778355
 30
0.0
 11
13.97802179965945
 21
7.604207183749507
 31
0.0
  0
LINE
  5
2C4
330
1F
100
AcDbEntity
  8
0
  6
CENTERX2
 62
     7
100
AcDbLine
 10
13.97802179965945
 20
7.604207183749507
 30
0.0
 11
15.58516473313749
 21
7.604207183749513
 31
0.0
  0
LINE
  5
2C5
330
1F
100
AcDbEntity
  8
0
  6
CENTERX2
 62
     7
100
AcDbLine
 10
17.90659310300125
 20
7.604207183749521
 30
0.0
 11
17.90659310300124
 21
9.479207324778368
 31
0.0
  0
LINE
  5
2C6
330
1F
100
AcDbEntity
  8
0
  6
CENTERX2
 62
     7
100
AcDbLine
 10
16.29945048134995
 20
9.479207324778364
 30
0.0
 11
16.29945048134996
 21
7.604207183749517
 31
0.0
  0
LINE
  5
2C7
330
1F
100
AcDbEntity
  8
0
  6
CENTERX2
 62
     7
100
AcDbLine
 10
16.29945048134996
 20
7.604207183749517
 30
0.0
 11
17.90659310300125
 21
7.604207183749521
 31
0.0
  0
LINE
  5
2C8
330
1F
100
AcDbEntity
  8
0
  6
CENTERX2
 62
     7
100
AcDbLine
 10
15.58516473313749
 20
9.479207324778361
 30
0.0
 11
15.5807625708964
 21
9.563203474090533
 31
0.0
  0
LINE
  5
2C9
330
1F
100
AcDbEntity
  8
0
  6
CENTERX2
 62
     7
100
AcDbLine
 10
15.5807625708964
 20
9.563203474090533
 30
0.0
 11
15.56760472914691
 21
9.646279110822259
 31
0.0
  0
LINE
  5
2CA
330
1F
100
AcDbEntity
  8
0
  6
CENTERX2
 62
     7
100
AcDbLine
 10
15.56760472914691
 20
9.646279110822259
 30
0.0
 11
15.54583506396528
 21
9.727524532387265
 31
0.0
  0
LINE
  5
2CB
330
1F
100
AcDbEntity
  8
0
  6
CENTERX2
 62
     7
100
AcDbLine
 10
15.54583506396528
 20
9.727524532387265
 30
0.0
 11
15.51569222676124
 21
9.806049161573572
 31
0.0
  0
LINE
  5
2CC
330
1F
100
AcDbEntity
  8
0
  6
CENTERX2
 62
     7
100
AcDbLine
 10
15.51569222676124
 20
9.806049161573572
 30
0.0
 11
15.47750654601048
 21
9.880992356537673
 31
0.0
  0
LINE
  5
2CD
330
1F
100
AcDbEntity
  8
0
  6
CENTERX2
 62
     7
100
AcDbLine
 10
15.47750654601048
 20
9.880992356537673
 30
0.0
 11
15.43169607744906
 21
9.951534220798704
 31
0.0
  0
LINE
  5
2CE
330
1F
100
AcDbEntity
  8
0
  6
CENTERX2
 62
     7
100
AcDbLine
 10
15.43169607744906
 20
9.951534220798704
 30
0.0
 11
15.37876307003687
 21
10.01690142400453
 31
0.0
  0
LINE
  5
2CF
330
1F
100
AcDbEntity
  8
0
  6
CENTERX2
 62
     7
100
AcDbLine
 10
15.37876307003687
 20
10.01690142400453
 30
0.0
 11
15.31928752153801
 21
10.0763771803879
 31
0.0
  0
LINE
  5
2D0
330
1F
100
AcDbEntity
  8
0
  6
CENTERX2
 62
     7
100
AcDbLine
 10
15.31928752153801
 20
10.0763771803879
 30
0.0
 11
15.25392073410119
 21
10.12930956414658
 31
0.0
  0
LINE
  5
2D1
330
1F
100
AcDbEntity
  8
0
  6
CENTERX2
 62
     7
100
AcDbLine
 10
15.25392073410119
 20
10.12930956414658
 30
0.0
 11
15.18337886984016
 21
10.1751206563615
 31
0.0
  0
LINE
  5
2D2
330
1F
100
AcDbEntity
  8
0
  6
CENTERX2
 62
     7
100
AcDbLine
 10
15.18337886984016
 20
10.1751206563615
 30
0.0
 11
15.10843505122255
 21
10.21330571345875
 31
0.0
  0
LINE
  5
2D3
330
1F
100
AcDbEntity
  8
0
  6
CENTERX2
 62
     7
100
AcDbLine
 10
15.10843505122255
 20
10.21330571345875
 30
0.0
 11
15.02991042203624
 21
10.24344896643179
 31
0.0
  0
LINE
  5
2D4
330
1F
100
AcDbEntity
  8
0
  6
CENTERX2
 62
     7
100
AcDbLine
 10
15.02991042203624
 20
10.24344896643179
 30
0.0
 11
14.94866500047124
 21
10.26521863161343
 31
0.0
  0
LINE
  5
2D5
330
1F
100
AcDbEntity
  8
0
  6
CENTERX2
 62
     7
100
AcDbLine
 10
14.94866500047124
 20
10.26521863161343
 30
0.0
 11
14.86558936373951
 21
10.27837605759391
 31
0.0
  0
LINE
  5
2D6
330
1F
100
AcDbEntity
  8
0
  6
CENTERX2
 62
     7
100
AcDbLine
 10
14.86558936373951
 20
10.27837605759391
 30
0.0
 11
14.78159321442734
 21
10.282778219835
 31
0.0
  0
LINE
  5
2D7
330
1F
100
AcDbEntity
  8
0
  6
CENTERX2
 62
     7
100
AcDbLine
 10
14.78159321442734
 20
10.282778219835
 30
0.0
 11
14.69759706511516
 21
10.27837605759391
 31
0.0
  0
LINE
  5
2D8
330
1F
100
AcDbEntity
  8
0
  6
CENTERX2
 62
     7
100
AcDbLine
 10
14.69759706511516
 20
10.27837605759391
 30
0.0
 11
14.61452122049893
 21
10.26521863161343
 31
0.0
  0
LINE
  5
2D9
330
1F
100
AcDbEntity
  8
0
  6
CENTERX2
 62
     7
100
AcDbLine
 10
14.61452122049893
 20
10.26521863161343
 30
0.0
 11
14.53327600681843
 21
10.24344896643179
 31
0.0
  0
LINE
  5
2DA
330
1F
100
AcDbEntity
  8
0
  6
CENTERX2
 62
     7
100
AcDbLine
 10
14.53327600681843
 20
10.24344896643179
 30
0.0
 11
14.45475116974762
 21
10.21330571345874
 31
0.0
  0
LINE
  5
2DB
330
1F
100
AcDbEntity
  8
0
  6
CENTERX2
 62
     7
100
AcDbLine
 10
14.45475116974762
 20
10.21330571345874
 30
0.0
 11
14.37980755901451
 21
10.1751206563615
 31
0.0
  0
LINE
  5
2DC
330
1F
100
AcDbEntity
  8
0
  6
CENTERX2
 62
     7
100
AcDbLine
 10
14.37980755901451
 20
10.1751206563615
 30
0.0
 11
14.30926569475348
 21
10.12930956414657
 31
0.0
  0
LINE
  5
2DD
330
1F
100
AcDbEntity
  8
0
  6
CENTERX2
 62
     7
100
AcDbLine
 10
14.30926569475348
 20
10.12930956414657
 30
0.0
 11
14.24389890731666
 21
10.07637718038789
 31
0.0
  0
LINE
  5
2DE
330
1F
100
AcDbEntity
  8
0
  6
CENTERX2
 62
     7
100
AcDbLine
 10
14.24389890731666
 20
10.07637718038789
 30
0.0
 11
14.18442325487555
 21
10.01690142400452
 31
0.0
  0
LINE
  5
2DF
330
1F
100
AcDbEntity
  8
0
  6
CENTERX2
 62
     7
100
AcDbLine
 10
14.18442325487555
 20
10.01690142400452
 30
0.0
 11
14.13149024746336
 21
9.9515342207987
 31
0.0
  0
LINE
  5
2E0
330
1F
100
AcDbEntity
  8
0
  6
CENTERX2
 62
     7
100
AcDbLine
 10
14.13149024746336
 20
9.9515342207987
 30
0.0
 11
14.08567998678645
 21
9.880992356537669
 31
0.0
  0
LINE
  5
2E1
330
1F
100
AcDbEntity
  8
0
  6
CENTERX2
 62
     7
100
AcDbLine
 10
14.08567998678645
 20
9.880992356537669
 30
0.0
 11
14.04749420209344
 21
9.806049161573566
 31
0.0
  0
LINE
  5
2E2
330
1F
100
AcDbEntity
  8
0
  6
CENTERX2
 62
     7
100
AcDbLine
 10
14.04749420209344
 20
9.806049161573566
 30
0.0
 11
14.0173513648894
 21
9.72752453238726
 31
0.0
  0
LINE
  5
2E3
330
1F
100
AcDbEntity
  8
0
  6
CENTERX2
 62
     7
100
AcDbLine
 10
14.0173513648894
 20
9.72752453238726
 30
0.0
 11
13.99558169970776
 21
9.646279110822256
 31
0.0
  0
LINE
  5
2E4
330
1F
100
AcDbEntity
  8
0
  6
CENTERX2
 62
     7
100
AcDbLine
 10
13.99558169970776
 20
9.646279110822256
 30
0.0
 11
13.98242385795827
 21
9.56320347409053
 31
0.0
  0
LINE
  5
2E5
330
1F
100
AcDbEntity
  8
0
  6
CENTERX2
 62
     7
100
AcDbLine
 10
13.98242385795827
 20
9.56320347409053
 30
0.0
 11
13.97802179965944
 21
9.479207324778355
 31
0.0
  0
LINE
  5
2E6
330
1F
100
AcDbEntity
  8
0
  6
CENTERX2
 62
     7
100
AcDbLine
 10
17.90659310300124
 20
9.479207324778368
 30
0.0
 11
17.90219135652917
 21
9.56320347409054
 31
0.0
  0
LINE
  5
2E7
330
1F
100
AcDbEntity
  8
0
  6
CENTERX2
 62
     7
100
AcDbLine
 10
17.90219135652917
 20
9.56320347409054
 30
0.0
 11
17.88903309901067
 21
9.646279110822268
 31
0.0
  0
LINE
  5
2E8
330
1F
100
AcDbEntity
  8
0
  6
CENTERX2
 62
     7
100
AcDbLine
 10
17.88903309901067
 20
9.646279110822268
 30
0.0
 11
17.86726343382903
 21
9.727524532387272
 31
0.0
  0
LINE
  5
2E9
330
1F
100
AcDbEntity
  8
0
  6
CENTERX2
 62
     7
100
AcDbLine
 10
17.86726343382903
 20
9.727524532387272
 30
0.0
 11
17.837121012394
 21
9.806049161573579
 31
0.0
  0
LINE
  5
2EA
330
1F
100
AcDbEntity
  8
0
  6
CENTERX2
 62
     7
100
AcDbLine
 10
17.837121012394
 20
9.806049161573579
 30
0.0
 11
17.79893512375874
 21
9.880992356537682
 31
0.0
  0
LINE
  5
2EB
330
1F
100
AcDbEntity
  8
0
  6
CENTERX2
 62
     7
100
AcDbLine
 10
17.79893512375874
 20
9.880992356537682
 30
0.0
 11
17.75312486308183
 21
9.951534220798713
 31
0.0
  0
LINE
  5
2EC
330
1F
100
AcDbEntity
  8
0
  6
CENTERX2
 62
     7
100
AcDbLine
 10
17.75312486308183
 20
9.951534220798713
 30
0.0
 11
17.70019164778513
 21
10.01690142400454
 31
0.0
  0
LINE
  5
2ED
330
1F
100
AcDbEntity
  8
0
  6
CENTERX2
 62
     7
100
AcDbLine
 10
17.70019164778513
 20
10.01690142400454
 30
0.0
 11
17.64071589140177
 21
10.0763771803879
 31
0.0
  0
LINE
  5
2EE
330
1F
100
AcDbEntity
  8
0
  6
CENTERX2
 62
     7
100
AcDbLine
 10
17.64071589140177
 20
10.0763771803879
 30
0.0
 11
17.57534910396495
 21
10.12930956414658
 31
0.0
  0
LINE
  5
2EF
330
1F
100
AcDbEntity
  8
0
  6
CENTERX2
 62
     7
100
AcDbLine
 10
17.57534910396495
 20
10.12930956414658
 30
0.0
 11
17.50480765547292
 21
10.17512065636151
 31
0.0
  0
LINE
  5
2F0
330
1F
100
AcDbEntity
  8
0
  6
CENTERX2
 62
     7
100
AcDbLine
 10
17.50480765547292
 20
10.17512065636151
 30
0.0
 11
17.42986362897081
 21
10.21330571345876
 31
0.0
  0
LINE
  5
2F1
330
1F
100
AcDbEntity
  8
0
  6
CENTERX2
 62
     7
100
AcDbLine
 10
17.42986362897081
 20
10.21330571345876
 30
0.0
 11
17.3513389997845
 21
10.2434489664318
 31
0.0
  0
LINE
  5
2F2
330
1F
100
AcDbEntity
  8
0
  6
CENTERX2
 62
     7
100
AcDbLine
 10
17.3513389997845
 20
10.2434489664318
 30
0.0
 11
17.2700935782195
 21
10.26521863161344
 31
0.0
  0
LINE
  5
2F3
330
1F
100
AcDbEntity
  8
0
  6
CENTERX2
 62
     7
100
AcDbLine
 10
17.2700935782195
 20
10.26521863161344
 30
0.0
 11
17.18701794148777
 21
10.27837605759392
 31
0.0
  0
LINE
  5
2F4
330
1F
100
AcDbEntity
  8
0
  6
CENTERX2
 62
     7
100
AcDbLine
 10
17.18701794148777
 20
10.27837605759392
 30
0.0
 11
17.1030217921756
 21
10.282778219835
 31
0.0
  0
LINE
  5
2F5
330
1F
100
AcDbEntity
  8
0
  6
CENTERX2
 62
     7
100
AcDbLine
 10
17.1030217921756
 20
10.282778219835
 30
0.0
 11
17.01902564286342
 21
10.27837605759392
 31
0.0
  0
LINE
  5
2F6
330
1F
100
AcDbEntity
  8
0
  6
CENTERX2
 62
     7
100
AcDbLine
 10
17.01902564286342
 20
10.27837605759392
 30
0.0
 11
16.9359500061317
 21
10.26521863161344
 31
0.0
  0
LINE
  5
2F7
330
1F
100
AcDbEntity
  8
0
  6
CENTERX2
 62
     7
100
AcDbLine
 10
16.9359500061317
 20
10.26521863161344
 30
0.0
 11
16.85470458456669
 21
10.2434489664318
 31
0.0
  0
LINE
  5
2F8
330
1F
100
AcDbEntity
  8
0
  6
CENTERX2
 62
     7
100
AcDbLine
 10
16.85470458456669
 20
10.2434489664318
 30
0.0
 11
16.77617995538039
 21
10.21330571345876
 31
0.0
  0
LINE
  5
2F9
330
1F
100
AcDbEntity
  8
0
  6
CENTERX2
 62
     7
100
AcDbLine
 10
16.77617995538039
 20
10.21330571345876
 30
0.0
 11
16.70123592887827
 21
10.17512065636151
 31
0.0
  0
LINE
  5
2FA
330
1F
100
AcDbEntity
  8
0
  6
CENTERX2
 62
     7
100
AcDbLine
 10
16.70123592887827
 20
10.17512065636151
 30
0.0
 11
16.63069448038625
 21
10.12930956414658
 31
0.0
  0
LINE
  5
2FB
330
1F
100
AcDbEntity
  8
0
  6
CENTERX2
 62
     7
100
AcDbLine
 10
16.63069448038625
 20
10.12930956414658
 30
0.0
 11
16.56532769294943
 21
10.0763771803879
 31
0.0
  0
LINE
  5
2FC
330
1F
100
AcDbEntity
  8
0
  6
CENTERX2
 62
     7
100
AcDbLine
 10
16.56532769294943
 20
10.0763771803879
 30
0.0
 11
16.50585193656606
 21
10.01690142400453
 31
0.0
  0
LINE
  5
2FD
330
1F
100
AcDbEntity
  8
0
  6
CENTERX2
 62
     7
100
AcDbLine
 10
16.50585193656606
 20
10.01690142400453
 30
0.0
 11
16.45291872126937
 21
9.951534220798709
 31
0.0
  0
LINE
  5
2FE
330
1F
100
AcDbEntity
  8
0
  6
CENTERX2
 62
     7
100
AcDbLine
 10
16.45291872126937
 20
9.951534220798709
 30
0.0
 11
16.40710846059246
 21
9.880992356537678
 31
0.0
  0
LINE
  5
2FF
330
1F
100
AcDbEntity
  8
0
  6
CENTERX2
 62
     7
100
AcDbLine
 10
16.40710846059246
 20
9.880992356537678
 30
0.0
 11
16.36892257195719
 21
9.806049161573575
 31
0.0
  0
LINE
  5
300
330
1F
100
AcDbEntity
  8
0
  6
CENTERX2
 62
     7
100
AcDbLine
 10
16.36892257195719
 20
9.806049161573575
 30
0.0
 11
16.33877973475315
 21
9.727524532387269
 31
0.0
  0
LINE
  5
301
330
1F
100
AcDbEntity
  8
0
  6
CENTERX2
 62
     7
100
AcDbLine
 10
16.33877973475315
 20
9.727524532387269
 30
0.0
 11
16.31701048534053
 21
9.646279110822263
 31
0.0
  0
LINE
  5
302
330
1F
100
AcDbEntity
  8
0
  6
CENTERX2
 62
     7
100
AcDbLine
 10
16.31701048534053
 20
9.646279110822263
 30
0.0
 11
16.30385222782203
 21
9.563203474090537
 31
0.0
  0
LINE
  5
303
330
1F
100
AcDbEntity
  8
0
  6
CENTERX2
 62
     7
100
AcDbLine
 10
16.30385222782203
 20
9.563203474090537
 30
0.0
 11
16.29945048134995
 21
9.479207324778364
 31
0.0
  0
CIRCLE
  5
304
330
1F
100
AcDbEntity
  8
0
  6
Continuous
 62
     7
370
     0
100
AcDbCircle
 10
16.01455250080957
 20
8.800039581358516
 30
0.0
 40
2.405354347096988
  0
LINE
  5
305
330
1F
100
AcDbEntity
  8
0
  6
Continuous
 62
     7
370
    15
100
AcDbLine
 10
15.31730742164441
 20
7.872063871589046
 30
0.0
 11
15.31730742164441
 21
9.47920732477835
 31
0.0
  0
LINE
  5
306
330
1F
100
AcDbEntity
  8
0
  6
Continuous
 62
     7
370
    15
100
AcDbLine
 10
14.24587900721022
 20
7.872063871589046
 30
0.0
 11
15.31730742164441
 21
7.872063871589046
 31
0.0
  0
LINE
  5
307
330
1F
100
AcDbEntity
  8
0
  6
Continuous
 62
     7
370
    15
100
AcDbLine
 10
14.24587900721022
 20
9.47920732477835
 30
0.0
 11
14.24587900721022
 21
7.872063871589046
 31
0.0
  0
ARC
  5
308
330
1F
100
AcDbEntity
  8
0
  6
Continuous
 62
     7
370
    15
100
AcDbCircle
 10
14.78159321442731
 20
9.479207324778348
 30
0.0
 40
0.5357142072170973
100
AcDbArc
 50
0.00000000000019
 51
179.9999999999998
  0
LINE
  5
309
330
1F
100
AcDbEntity
  8
0
  6
Continuous
 62
     7
370
    15
100
AcDbLine
 10
17.63873599939267
 20
7.872063871589046
 30
0.0
 11
17.63873599939267
 21
9.47920732477835
 31
0.0
  0
ARC
  5
30A
330
1F
100
AcDbEntity
  8
0
  6
Continuous
 62
     7
370
    15
100
AcDbCircle
 10
17.10302179217557
 20
9.479207324778348
 30
0.0
 40
0.5357142072170973
100
AcDbArc
 50
0.00000000000019
 51
179.9999999999998
  0
LINE
  5
30B
330
1F
100
AcDbEntity
  8
0
  6
Continuous
 62
     7
370
    15
100
AcDbLine
 10
16.56730758495848
 20
9.47920732477835
 30
0.0
 11
16.56730758495848
 21
7.872063871589046
 31
0.0
  0
LINE
  5
30C
330
1F
100
AcDbEntity
  8
0
  6
Continuous
 62
     7
370
    15
100
AcDbLine
 10
16.56730758495848
 20
7.872063871589046
 30
0.0
 11
17.63873599939267
 21
7.872063871589046
 31
0.0
  0
DIMENSION
  5
30D
330
1F
100
AcDbEntity
  8
0
  6
Continuous
 62
     7
370
     0
100
AcDbDimension
  2
_D_10
 10
18.80012518663484
 20
10.01492126457284
 30
0.0
 11
18.80012518663485
 21
8.943492693144277
 31
0.0
 70
   160
  1
<>
 71
     2
 42
-1.0
  3
SLDDIMSTYLE6
100
AcDbAlignedDimension
 13
17.63873606525049
 23
7.872064121715703
 33
0.0
 14
17.1030217795362
 24
10.01492126457284
 34
0.0
 50
90.00000000000019
100
AcDbRotatedDimension
  0
DIMENSION
  5
319
330
1F
100
AcDbEntity
  8
0
  6
Continuous
 62
     7
370
     0
100
AcDbDimension
  2
_D_11
 10
18.16324542933966
 20
7.872064121715705
 30
0.0
 11
18.16324542933966
 21
7.539239973714808
 31
0.0
 70
   160
  1
<>
 71
     2
 42
-1.0
  3
SLDDIMSTYLE6
100
AcDbAlignedDimension
 13
18.41039620742953
 23
8.586349836001414
 33
0.0
 14
17.63873606525049
 24
7.872064121715703
 34
0.0
 50
90.00000000000019
100
AcDbRotatedDimension
  0
DIMENSION
  5
324
330
1F
100
AcDbEntity
  8
0
  6
Continuous
 62
     7
370
     0
100
AcDbDimension
  2
_D_12
 10
17.63873606525049
 20
7.342766857334648
 30
0.0
 11
17.1030217795362
 21
7.342766857334646
 31
0.0
 70
   160
  1
<>
 71
     2
 42
-1.0
  3
SLDDIMSTYLE7
100
AcDbAlignedDimension
 13
16.56730749382192
 23
7.872064121715697
 33
0.0
 14
17.63873606525049
 24
7.872064121715705
 34
0.0
 50
0.00000000000019
100
AcDbRotatedDimension
  0
DIMENSION
  5
330
330
1F
100
AcDbEntity
  8
0
  6
Continuous
 62
     7
370
     0
100
AcDbDimension
  2
_D_13
 10
16.29945035096478
 20
6.72920697885852
 30
0.0
 11
13.15500689042198
 21
6.729206978858509
 31
0.0
 70
   160
  1
0.185~<> MIN.
 71
     2
 42
-1.0
  3
SLDDIMSTYLE8
100
AcDbAlignedDimension
 13
15.58516463667906
 23
7.60420697885855
 33
0.0
 14
16.29945035096478
 24
7.604206978858556
 34
0.0
 50
0.0000000000002137
100
AcDbRotatedDimension
  0
DIMENSION
  5
33E
330
1F
100
AcDbEntity
  8
0
  6
Continuous
 62
     7
370
     0
100
AcDbDimension
  2
_D_14
 10
13.33822145574525
 20
7.604206978858541
 30
0.0
 11
13.33822145574526
 21
7.342766857334654
 31
0.0
 70
   160
  1
0.060~<>\PMASK OPENING
 71
     2
 42
-1.0
  3
SLDDIMSTYLE9
100
AcDbAlignedDimension
 13
14.24587892239335
 23
7.872064121715689
 33
0.0
 14
13.97802177953621
 24
7.604206978858544
 34
0.0
 50
90.00000000000019
100
AcDbRotatedDimension
  0
DIMENSION
  5
34D
330
1F
100
AcDbEntity
  8
0
  6
Continuous
 62
     7
370
     0
100
AcDbDimension
  2
_D_15
 10
17.1030217795362
 20
10.77371864849233
 30
0.0
 11
15.94230749382192
 21
10.77371864849233
 31
0.0
 70
   160
  1
<>
 71
     2
 42
-1.0
  3
SLDDIMSTYLE10
100
AcDbAlignedDimension
 13
14.78159320810763
 23
9.693492693144266
 33
0.0
 14
17.1030217795362
 24
9.693492693144277
 34
0.0
 50
0.0000000000001754
100
AcDbRotatedDimension
  0
DIMENSION
  5
359
330
1F
100
AcDbEntity
  8
0
  6
Continuous
 62
     7
370
     0
100
AcDbDimension
  2
_D_16
 10
14.78159320810763
 20
9.479206978858544
 30
0.0
 11
13.74853884552747
 21
11.35863918286272
 31
0.0
 70
   164
  1
<>
 42
-1.0
  3
SLDDIMSTYLE11
100
AcDbRadialDimension
 15
14.67159953793529
 25
10.00350764492753
 35
0.0
 40
0.0
  0
INSERT
  5
368
330
1F
100
AcDbEntity
  8
0
  6
Continuous
 62
     7
370
     0
100
AcDbBlockReference
  2
SW_NOTE_24
 10
15.42705263969321
 20
5.699563699730149
 30
0.0
  0
LINE
  5
369
330
1F
100
AcDbEntity
  8
0
  6
CENTERX2
 62
     7
370
     0
100
AcDbLine
 10
14.78159321442731
 20
7.657778188702207
 30
0.0
 11
14.78159321442731
 21
9.693493007665189
 31
0.0
  0
LINE
  5
36A
330
1F
100
AcDbEntity
  8
0
  6
CENTERX2
 62
     7
370
     0
100
AcDbLine
 10
17.10302179217557
 20
7.657778188702207
 30
0.0
 11
17.10302179217557
 21
9.693493007665189
 31
0.0
  0
ENDSEC
  0
SECTION
  2
OBJECTS
  0
DICTIONARY
  5
C
330
0
100
AcDbDictionary
281
     1
  3
ACAD_2007HEADERVARS_RT
350
3B7
  3
ACAD_COLOR
350
39C
  3
ACAD_GROUP
350
D
  3
ACAD_LAYOUT
350
1A
  3
ACAD_MATERIAL
350
3B
  3
ACAD_MLEADERSTYLE
350
390
  3
ACAD_MLINESTYLE
350
17
  3
ACAD_PLOTSETTINGS
350
19
  3
ACAD_PLOTSTYLENAME
350
E
  3
ACAD_SCALELIST
350
36B
  3
ACAD_TABLESTYLE
350
38F
  3
ACAD_VISUALSTYLE
350
2A
  3
ACDB_RECOMPOSE_DATA
350
3B5
  3
AcDbVariableDictionary
350
38D
  3
DWGPROPS
350
3B6
  0
DICTIONARY
  5
3B7
102
{ACAD_REACTORS
330
C
102
}
330
C
100
AcDbDictionary
281
     1
  3
INTERFERECOLOR
350
3B8
  0
DICTIONARY
  5
39C
102
{ACAD_REACTORS
330
C
102
}
330
C
100
AcDbDictionary
281
     1
  0
DICTIONARY
  5
D
102
{ACAD_REACTORS
330
C
102
}
330
C
100
AcDbDictionary
281
     1
  0
DICTIONARY
  5
1A
102
{ACAD_REACTORS
330
C
102
}
330
C
100
AcDbDictionary
281
     1
  3
Layout1
350
1E
  3
Layout2
350
26
  3
Model
350
22
  0
DICTIONARY
  5
3B
102
{ACAD_REACTORS
330
C
102
}
330
C
100
AcDbDictionary
281
     1
  3
ByBlock
350
3D
  3
ByLayer
350
3C
  3
Global
350
3E
  0
DICTIONARY
  5
390
102
{ACAD_REACTORS
330
C
102
}
330
C
100
AcDbDictionary
281
     1
  3
Standard
350
39E
  0
DICTIONARY
  5
17
102
{ACAD_REACTORS
330
C
102
}
330
C
100
AcDbDictionary
281
     1
  3
Standard
350
18
  0
DICTIONARY
  5
19
102
{ACAD_REACTORS
330
C
102
}
330
C
100
AcDbDictionary
281
     1
  0
ACDBDICTIONARYWDFLT
  5
E
102
{ACAD_REACTORS
330
C
102
}
330
C
100
AcDbDictionary
281
     1
  3
Normal
350
F
100
AcDbDictionaryWithDefault
340
F
  0
DICTIONARY
  5
36B
102
{ACAD_REACTORS
330
C
102
}
330
C
100
AcDbDictionary
281
     1
  3
A0
350
36C
  3
A1
350
36D
  3
A2
350
36E
  3
A3
350
36F
  3
A4
350
370
  3
A5
350
371
  3
A6
350
372
  3
A7
350
373
  3
A8
350
374
  3
A9
350
375
  3
B0
350
376
  3
B1
350
377
  3
B2
350
378
  3
B3
350
379
  3
B4
350
37A
  3
B5
350
37B
  3
B6
350
37C
  3
B7
350
37D
  3
B8
350
37E
  3
B9
350
37F
  3
C0
350
380
  3
C1
350
381
  3
C2
350
382
  3
C3
350
383
  3
C4
350
384
  3
C5
350
385
  3
C6
350
386
  3
C7
350
387
  3
C8
350
388
  3
C9
350
389
  3
D0
350
38A
  3
D1
350
38B
  3
D2
350
38C
  0
DICTIONARY
  5
38F
102
{ACAD_REACTORS
330
C
102
}
330
C
100
AcDbDictionary
281
     1
  3
Standard
350
39D
  0
DICTIONARY
  5
2A
102
{ACAD_REACTORS
330
C
102
}
330
C
100
AcDbDictionary
281
     1
  3
2dWireframe
350
2F
  3
3D Hidden
350
31
  3
3dWireframe
350
30
  3
Basic
350
32
  3
Brighten
350
36
  3
ColorChange
350
3A
  3
Conceptual
350
34
  3
Dim
350
35
  3
EdgeColorOff
350
39B
  3
Facepattern
350
39
  3
Flat
350
2B
  3
FlatWithEdges
350
2C
  3
Gouraud
350
2D
  3
GouraudWithEdges
350
2E
  3
Hidden
350
393
  3
JitterOff
350
399
  3
Linepattern
350
38
  3
OverhangOff
350
39A
  3
Realistic
350
33
  3
Shaded
350
398
  3
Shaded with edges
350
397
  3
Shades of Gray
350
394
  3
Sketchy
350
395
  3
Thicken
350
37
  3
Wireframe
350
392
  3
X-Ray
350
396
  0
XRECORD
  5
3B5
102
{ACAD_REACTORS
330
C
102
}
330
C
100
AcDbXrecord
280
     1
 90
        1
330
39D
  0
DICTIONARY
  5
38D
102
{ACAD_REACTORS
330
C
102
}
330
C
100
AcDbDictionary
281
     1
  3
CANNOSCALE
350
38E
  3
CMLEADERSTYLE
350
3A6
  3
CTABLESTYLE
350
3A5
  3
DGNFRAME
350
3AF
  3
DIMASSOC
350
3AE
  3
HIDETEXT
350
3AD
  3
INDEXCTL
350
3AC
  3
LAYEREVAL
350
3A9
  3
LAYERNOTIFY
350
3AA
  3
LIGHTINGUNITS
350
3A8
  3
MSLTSCALE
350
3A7
  3
PSOLHEIGHT
350
3B1
  3
PSOLWIDTH
350
3B0
  3
SORTENTS
350
3AB
  3
XCLIPFRAME
350
3B2
  0
XRECORD
  5
3B6
102
{ACAD_REACTORS
330
C
102
}
330
C
100
AcDbXrecord
280
     1
  1
DWGPROPS COOKIE
  2

  3

  4

  6

  7

  8
admin
  9

300
=
301
=
302
=
303
=
304
=
305
=
306
=
307
=
308
=
309
=
 40
0.0001052893518519
 41
2456183.727434132
 42
2456272.568282234
  1

 90
        0
  0
XRECORD
  5
3B8
102
{ACAD_REACTORS
330
3B7
102
}
330
3B7
100
AcDbXrecord
280
     1
1004
1800000001000000000000C0000000000000000000000000
  0
LAYOUT
  5
1E
102
{ACAD_XDICTIONARY
360
3B9
102
}
102
{ACAD_REACTORS
330
1A
102
}
330
1A
100
AcDbPlotSettings
  1

  2
none_device
  4

  6

 40
0.0
 41
0.0
 42
0.0
 43
0.0
 44
0.0
 45
0.0
 46
0.0
 47
0.0
 48
0.0
 49
0.0
140
0.0
141
0.0
142
1.0
143
1.0
 70
   688
 72
     0
 73
     0
 74
     5
  7

 75
    16
147
1.0
148
0.0
149
0.0
100
AcDbLayout
  1
Layout1
 70
     1
 71
     1
 10
0.0
 20
0.0
 11
420.0
 21
297.0
 12
0.0
 22
0.0
 32
0.0
 14
1.000000000000000E+20
 24
1.000000000000000E+20
 34
1.000000000000000E+20
 15
-1.000000000000000E+20
 25
-1.000000000000000E+20
 35
-1.000000000000000E+20
146
0.0
 13
0.0
 23
0.0
 33
0.0
 16
1.0
 26
0.0
 36
0.0
 17
0.0
 27
1.0
 37
0.0
 76
     0
330
1B
  0
LAYOUT
  5
26
102
{ACAD_XDICTIONARY
360
3BD
102
}
102
{ACAD_REACTORS
330
1A
102
}
330
1A
100
AcDbPlotSettings
  1

  2
none_device
  4

  6

 40
0.0
 41
0.0
 42
0.0
 43
0.0
 44
0.0
 45
0.0
 46
0.0
 47
0.0
 48
0.0
 49
0.0
140
0.0
141
0.0
142
1.0
143
1.0
 70
   688
 72
     0
 73
     0
 74
     5
  7

 75
    16
147
1.0
148
0.0
149
0.0
100
AcDbLayout
  1
Layout2
 70
     1
 71
     2
 10
0.0
 20
0.0
 11
0.0
 21
0.0
 12
0.0
 22
0.0
 32
0.0
 14
0.0
 24
0.0
 34
0.0
 15
0.0
 25
0.0
 35
0.0
146
0.0
 13
0.0
 23
0.0
 33
0.0
 16
1.0
 26
0.0
 36
0.0
 17
0.0
 27
1.0
 37
0.0
 76
     0
330
23
  0
LAYOUT
  5
22
102
{ACAD_XDICTIONARY
360
3BB
102
}
102
{ACAD_REACTORS
330
1A
102
}
330
1A
100
AcDbPlotSettings
  1

  2
none_device
  4

  6

 40
0.0
 41
0.0
 42
0.0
 43
0.0
 44
0.0
 45
0.0
 46
0.0
 47
0.0
 48
0.0
 49
0.0
140
0.0
141
0.0
142
1.0
143
1.0
 70
  1712
 72
     0
 73
     0
 74
     0
  7

 75
     0
147
1.0
148
0.0
149
0.0
100
AcDbLayout
  1
Model
 70
     1
 71
     0
 10
0.0
 20
0.0
 11
19.95714285714285
 21
15.42142857142857
 12
0.0
 22
0.0
 32
0.0
 14
0.0
 24
0.0
 34
0.0
 15
19.95714285714285
 25
15.42142857142857
 35
0.0
146
0.0
 13
0.0
 23
0.0
 33
0.0
 16
1.0
 26
0.0
 36
0.0
 17
0.0
 27
1.0
 37
0.0
 76
     0
330
1F
331
29
  0
MATERIAL
  5
3D
102
{ACAD_XDICTIONARY
360
3E1
102
}
102
{ACAD_REACTORS
330
3B
102
}
330
3B
100
AcDbMaterial
  1
ByBlock
 73
     1
 78
     1
172
     1
176
     1
270
     1
274
     1
  0
MATERIAL
  5
3C
102
{ACAD_XDICTIONARY
360
3DF
102
}
102
{ACAD_REACTORS
330
3B
102
}
330
3B
100
AcDbMaterial
  1
ByLayer
 73
     1
 78
     1
172
     1
176
     1
270
     1
274
     1
  0
MATERIAL
  5
3E
102
{ACAD_XDICTIONARY
360
3E3
102
}
102
{ACAD_REACTORS
330
3B
102
}
330
3B
100
AcDbMaterial
  1
Global
 73
     1
 78
     1
172
     1
176
     1
270
     1
274
     1
  0
MLEADERSTYLE
  5
39E
102
{ACAD_REACTORS
330
390
102
}
330
390
100
AcDbMLeaderStyle
170
     2
171
     1
172
     0
 90
        2
 40
0.0
 41
0.0
173
     1
 91
-1056964608
340
14
 92
       -2
290
     1
 42
2.0
291
     1
 43
0.36
  3
Standard
 44
4.0
300

342
11
174
     1
178
     6
175
     1
176
     0
 93
-1056964608
 45
4.0
292
     0
297
     0
 46
4.0
 94
-1056964608
 47
1.0
 49
1.0
140
1.0
293
     1
141
0.0
294
     1
177
     0
142
1.0
295
     0
296
     0
143
0.125
1001
ACAD_MLEADERVER
1070
     2
  0
MLINESTYLE
  5
18
102
{ACAD_REACTORS
330
17
102
}
330
17
100
AcDbMlineStyle
  2
STANDARD
 70
     0
  3

 62
   256
 51
90.0
 52
90.0
 71
     2
 49
0.5
 62
   256
  6
BYLAYER
 49
-0.5
 62
   256
  6
BYLAYER
  0
ACDBPLACEHOLDER
  5
F
102
{ACAD_REACTORS
330
E
102
}
330
E
  0
SCALE
  5
36C
102
{ACAD_REACTORS
330
36B
102
}
330
36B
100
AcDbScale
 70
     0
300
1:1
140
1.0
141
1.0
290
     1
  0
SCALE
  5
36D
102
{ACAD_REACTORS
330
36B
102
}
330
36B
100
AcDbScale
 70
     0
300
1:2
140
1.0
141
2.0
290
     0
  0
SCALE
  5
36E
102
{ACAD_REACTORS
330
36B
102
}
330
36B
100
AcDbScale
 70
     0
300
1:4
140
1.0
141
4.0
290
     0
  0
SCALE
  5
36F
102
{ACAD_REACTORS
330
36B
102
}
330
36B
100
AcDbScale
 70
     0
300
1:5
140
1.0
141
5.0
290
     0
  0
SCALE
  5
370
102
{ACAD_REACTORS
330
36B
102
}
330
36B
100
AcDbScale
 70
     0
300
1:8
140
1.0
141
8.0
290
     0
  0
SCALE
  5
371
102
{ACAD_REACTORS
330
36B
102
}
330
36B
100
AcDbScale
 70
     0
300
1:10
140
1.0
141
10.0
290
     0
  0
SCALE
  5
372
102
{ACAD_REACTORS
330
36B
102
}
330
36B
100
AcDbScale
 70
     0
300
1:16
140
1.0
141
16.0
290
     0
  0
SCALE
  5
373
102
{ACAD_REACTORS
330
36B
102
}
330
36B
100
AcDbScale
 70
     0
300
1:20
140
1.0
141
20.0
290
     0
  0
SCALE
  5
374
102
{ACAD_REACTORS
330
36B
102
}
330
36B
100
AcDbScale
 70
     0
300
1:30
140
1.0
141
30.0
290
     0
  0
SCALE
  5
375
102
{ACAD_REACTORS
330
36B
102
}
330
36B
100
AcDbScale
 70
     0
300
1:40
140
1.0
141
40.0
290
     0
  0
SCALE
  5
376
102
{ACAD_REACTORS
330
36B
102
}
330
36B
100
AcDbScale
 70
     0
300
1:50
140
1.0
141
50.0
290
     0
  0
SCALE
  5
377
102
{ACAD_REACTORS
330
36B
102
}
330
36B
100
AcDbScale
 70
     0
300
1:100
140
1.0
141
100.0
290
     0
  0
SCALE
  5
378
102
{ACAD_REACTORS
330
36B
102
}
330
36B
100
AcDbScale
 70
     0
300
2:1
140
2.0
141
1.0
290
     0
  0
SCALE
  5
379
102
{ACAD_REACTORS
330
36B
102
}
330
36B
100
AcDbScale
 70
     0
300
4:1
140
4.0
141
1.0
290
     0
  0
SCALE
  5
37A
102
{ACAD_REACTORS
330
36B
102
}
330
36B
100
AcDbScale
 70
     0
300
8:1
140
8.0
141
1.0
290
     0
  0
SCALE
  5
37B
102
{ACAD_REACTORS
330
36B
102
}
330
36B
100
AcDbScale
 70
     0
300
10:1
140
10.0
141
1.0
290
     0
  0
SCALE
  5
37C
102
{ACAD_REACTORS
330
36B
102
}
330
36B
100
AcDbScale
 70
     0
300
100:1
140
100.0
141
1.0
290
     0
  0
SCALE
  5
37D
102
{ACAD_REACTORS
330
36B
102
}
330
36B
100
AcDbScale
 70
     0
300
1/128" = 1'-0"
140
0.0078125
141
12.0
290
     0
  0
SCALE
  5
37E
102
{ACAD_REACTORS
330
36B
102
}
330
36B
100
AcDbScale
 70
     0
300
1/64" = 1'-0"
140
0.015625
141
12.0
290
     0
  0
SCALE
  5
37F
102
{ACAD_REACTORS
330
36B
102
}
330
36B
100
AcDbScale
 70
     0
300
1/32" = 1'-0"
140
0.03125
141
12.0
290
     0
  0
SCALE
  5
380
102
{ACAD_REACTORS
330
36B
102
}
330
36B
100
AcDbScale
 70
     0
300
1/16" = 1'-0"
140
0.0625
141
12.0
290
     0
  0
SCALE
  5
381
102
{ACAD_REACTORS
330
36B
102
}
330
36B
100
AcDbScale
 70
     0
300
3/32" = 1'-0"
140
0.09375
141
12.0
290
     0
  0
SCALE
  5
382
102
{ACAD_REACTORS
330
36B
102
}
330
36B
100
AcDbScale
 70
     0
300
1/8" = 1'-0"
140
0.125
141
12.0
290
     0
  0
SCALE
  5
383
102
{ACAD_REACTORS
330
36B
102
}
330
36B
100
AcDbScale
 70
     0
300
3/16" = 1'-0"
140
0.1875
141
12.0
290
     0
  0
SCALE
  5
384
102
{ACAD_REACTORS
330
36B
102
}
330
36B
100
AcDbScale
 70
     0
300
1/4" = 1'-0"
140
0.25
141
12.0
290
     0
  0
SCALE
  5
385
102
{ACAD_REACTORS
330
36B
102
}
330
36B
100
AcDbScale
 70
     0
300
3/8" = 1'-0"
140
0.375
141
12.0
290
     0
  0
SCALE
  5
386
102
{ACAD_REACTORS
330
36B
102
}
330
36B
100
AcDbScale
 70
     0
300
1/2" = 1'-0"
140
0.5
141
12.0
290
     0
  0
SCALE
  5
387
102
{ACAD_REACTORS
330
36B
102
}
330
36B
100
AcDbScale
 70
     0
300
3/4" = 1'-0"
140
0.75
141
12.0
290
     0
  0
SCALE
  5
388
102
{ACAD_REACTORS
330
36B
102
}
330
36B
100
AcDbScale
 70
     0
300
1" = 1'-0"
140
1.0
141
12.0
290
     0
  0
SCALE
  5
389
102
{ACAD_REACTORS
330
36B
102
}
330
36B
100
AcDbScale
 70
     0
300
1-1/2" = 1'-0"
140
1.5
141
12.0
290
     0
  0
SCALE
  5
38A
102
{ACAD_REACTORS
330
36B
102
}
330
36B
100
AcDbScale
 70
     0
300
3" = 1'-0"
140
3.0
141
12.0
290
     0
  0
SCALE
  5
38B
102
{ACAD_REACTORS
330
36B
102
}
330
36B
100
AcDbScale
 70
     0
300
6" = 1'-0"
140
6.0
141
12.0
290
     0
  0
SCALE
  5
38C
102
{ACAD_REACTORS
330
36B
102
}
330
36B
100
AcDbScale
 70
     0
300
1'-0" = 1'-0"
140
12.0
141
12.0
290
     0
  0
TABLESTYLE
  5
39D
102
{ACAD_XDICTIONARY
360
3B3
102
}
102
{ACAD_REACTORS
330
38F
102
}
330
38F
100
AcDbTableStyle
  3
Standard
 70
     0
 71
     0
 40
1.5
 41
1.5
280
     0
281
     0
  7
STANDARD
140
4.5
170
     2
 62
     0
 63
     7
283
     0
274
    -2
284
     1
 64
     0
275
    -2
285
     1
 65
     0
276
    -2
286
     1
 66
     0
277
    -2
287
     1
 67
     0
278
    -2
288
     1
 68
     0
279
    -2
289
     1
 69
     0
  7
STANDARD
140
6.0
170
     5
 62
     0
 63
     7
283
     0
274
    -2
284
     1
 64
     0
275
    -2
285
     1
 65
     0
276
    -2
286
     1
 66
     0
277
    -2
287
     1
 67
     0
278
    -2
288
     1
 68
     0
279
    -2
289
     1
 69
     0
  7
STANDARD
140
4.5
170
     5
 62
     0
 63
     7
283
     0
274
    -2
284
     1
 64
     0
275
    -2
285
     1
 65
     0
276
    -2
286
     1
 66
     0
277
    -2
287
     1
 67
     0
278
    -2
288
     1
 68
     0
279
    -2
289
     1
 69
     0
  0
VISUALSTYLE
  5
2F
102
{ACAD_XDICTIONARY
360
3C7
102
}
102
{ACAD_REACTORS
330
2A
102
}
330
2A
100
AcDbVisualStyle
  2
2dWireframe
 70
     4
 71
     0
 72
     2
 73
     0
 90
        0
 40
-0.6
 41
-30.0
 62
     5
 63
     7
 74
     1
 91
        4
 64
     7
 65
   257
 75
     1
175
     1
 42
1.0
 92
        0
 66
   257
 43
1.0
 76
     1
 77
     6
 78
     2
 67
     7
 79
     5
170
     0
171
     0
290
     0
174
     0
 93
        1
 44
0.0
173
     0
291
     0
 45
0.0
1001
ACAD
1000
AcDbSavedByObjectVersion
1070
     0
  0
VISUALSTYLE
  5
31
102
{ACAD_XDICTIONARY
360
3CB
102
}
102
{ACAD_REACTORS
330
2A
102
}
330
2A
100
AcDbVisualStyle
  2
3D Hidden
 70
     6
 71
     1
 72
     2
 73
     2
 90
        0
 40
-0.6
 41
-30.0
 62
     5
 63
     7
 74
     2
 91
        2
 64
     7
 65
   257
 75
     2
175
     1
 42
40.0
 92
        0
 66
   257
 43
1.0
 76
     1
 77
     6
 78
     2
 67
     7
 79
     3
170
     0
171
     0
290
     0
174
     0
 93
        1
 44
0.0
173
     0
291
     0
 45
0.0
1001
ACAD
1000
AcDbSavedByObjectVersion
1070
     0
  0
VISUALSTYLE
  5
30
102
{ACAD_XDICTIONARY
360
3C9
102
}
102
{ACAD_REACTORS
330
2A
102
}
330
2A
100
AcDbVisualStyle
  2
3dWireframe
 70
     5
 71
     0
 72
     2
 73
     0
 90
        0
 40
-0.6
 41
-30.0
 62
     5
 63
     7
 74
     1
 91
        4
 64
     7
 65
   257
 75
     1
175
     1
 42
1.0
 92
        0
 66
   257
 43
1.0
 76
     1
 77
     6
 78
     2
 67
     7
 79
     5
170
     0
171
     0
290
     0
174
     0
 93
        1
 44
0.0
173
     0
291
     0
 45
0.0
1001
ACAD
1000
AcDbSavedByObjectVersion
1070
     0
  0
VISUALSTYLE
  5
32
102
{ACAD_XDICTIONARY
360
3CD
102
}
102
{ACAD_REACTORS
330
2A
102
}
330
2A
100
AcDbVisualStyle
  2
Basic
 70
     7
 71
     1
 72
     0
 73
     1
 90
        0
 40
-0.6
 41
-30.0
 62
     5
 63
     7
 74
     0
 91
        4
 64
     7
 65
   257
 75
     1
175
     1
 42
1.0
 92
        8
 66
     7
 43
1.0
 76
     1
 77
     6
 78
     2
 67
     7
 79
     5
170
     0
171
     0
290
     0
174
     0
 93
        1
 44
0.0
173
     0
291
     1
 45
0.0
1001
ACAD
1000
AcDbSavedByObjectVersion
1070
     0
  0
VISUALSTYLE
  5
36
102
{ACAD_XDICTIONARY
360
3D5
102
}
102
{ACAD_REACTORS
330
2A
102
}
330
2A
100
AcDbVisualStyle
  2
Brighten
 70
    12
 71
     2
 72
     2
 73
     0
 90
        0
 40
-0.6
 41
-30.0
 62
     5
 63
     7
 74
     1
 91
        4
 64
     7
 65
   257
 75
     1
175
     1
 42
1.0
 92
        8
 66
     7
 43
1.0
 76
     1
 77
     6
 78
     2
 67
     7
 79
     5
170
     0
171
     0
290
     0
174
     0
 93
        1
 44
50.0
173
     0
291
     1
 45
0.0
1001
ACAD
1000
AcDbSavedByObjectVersion
1070
     0
  0
VISUALSTYLE
  5
3A
102
{ACAD_XDICTIONARY
360
3DD
102
}
102
{ACAD_REACTORS
330
2A
102
}
330
2A
100
AcDbVisualStyle
  2
ColorChange
 70
    16
 71
     2
 72
     2
 73
     3
 90
        0
 40
-0.6
 41
-30.0
 62
     5
 63
     8
 74
     1
 91
        4
 64
     7
 65
   257
 75
     1
175
     1
 42
1.0
 92
        8
 66
     8
 43
1.0
 76
     1
 77
     6
 78
     2
 67
     7
 79
     5
170
     0
171
     0
290
     0
174
     0
 93
        1
 44
0.0
173
     0
291
     1
 45
0.0
1001
ACAD
1000
AcDbSavedByObjectVersion
1070
     0
  0
VISUALSTYLE
  5
34
102
{ACAD_XDICTIONARY
360
3D1
102
}
102
{ACAD_REACTORS
330
2A
102
}
330
2A
100
AcDbVisualStyle
  2
Conceptual
 70
     9
 71
     3
 72
     2
 73
     0
 90
        0
 40
-0.6
 41
-30.0
 62
     5
 63
     7
 74
     2
 91
        2
 64
     7
 65
   257
 75
     1
175
     1
 42
40.0
 92
        8
 66
     7
 43
1.0
 76
     1
 77
     6
 78
     2
 67
     7
 79
     3
170
     0
171
     0
290
     0
174
     0
 93
        1
 44
0.0
173
     0
291
     0
 45
0.0
1001
ACAD
1000
AcDbSavedByObjectVersion
1070
     0
  0
VISUALSTYLE
  5
35
102
{ACAD_XDICTIONARY
360
3D3
102
}
102
{ACAD_REACTORS
330
2A
102
}
330
2A
100
AcDbVisualStyle
  2
Dim
 70
    11
 71
     2
 72
     2
 73
     0
 90
        0
 40
-0.6
 41
-30.0
 62
     5
 63
     7
 74
     1
 91
        4
 64
     7
 65
   257
 75
     1
175
     1
 42
1.0
 92
        8
 66
     7
 43
1.0
 76
     1
 77
     6
 78
     2
 67
     7
 79
     5
170
     0
171
     0
290
     0
174
     0
 93
        1
 44
-50.0
173
     0
291
     1
 45
0.0
1001
ACAD
1000
AcDbSavedByObjectVersion
1070
     0
  0
VISUALSTYLE
  5
39B
102
{ACAD_XDICTIONARY
360
3F7
102
}
102
{ACAD_REACTORS
330
2A
102
}
330
2A
100
AcDbVisualStyle
  2
EdgeColorOff
 70
    22
 71
     2
 72
     2
 73
     0
 90
        0
 40
-0.6
 41
-30.0
 62
     5
 63
     7
 74
     1
 91
        4
 64
     7
 65
   257
 75
     1
175
     1
 42
1.0
 92
        8
 66
     7
 43
1.0
 76
     1
 77
     6
 78
     2
 67
     7
 79
     5
170
     0
171
     0
290
     0
174
     0
 93
        1
 44
0.0
173
     0
291
     1
 45
0.0
1001
ACAD
1000
AcDbSavedByObjectVersion
1070
     0
  0
VISUALSTYLE
  5
39
102
{ACAD_XDICTIONARY
360
3DB
102
}
102
{ACAD_REACTORS
330
2A
102
}
330
2A
100
AcDbVisualStyle
  2
Facepattern
 70
    15
 71
     2
 72
     2
 73
     0
 90
        0
 40
-0.6
 41
-30.0
 62
     5
 63
     7
 74
     1
 91
        4
 64
     7
 65
   257
 75
     1
175
     1
 42
1.0
 92
        8
 66
     7
 43
1.0
 76
     1
 77
     6
 78
     2
 67
     7
 79
     5
170
     0
171
     0
290
     0
174
     0
 93
        1
 44
0.0
173
     0
291
     1
 45
0.0
1001
ACAD
1000
AcDbSavedByObjectVersion
1070
     0
  0
VISUALSTYLE
  5
2B
102
{ACAD_XDICTIONARY
360
3BF
102
}
102
{ACAD_REACTORS
330
2A
102
}
330
2A
100
AcDbVisualStyle
  2
Flat
 70
     0
 71
     2
 72
     1
 73
     1
 90
        2
 40
-0.6
 41
30.0
 62
     5
 63
     7
 74
     0
 91
        4
 64
     7
 65
   257
 75
     1
175
     1
 42
1.0
 92
        8
 66
     7
 43
1.0
 76
     1
 77
     6
 78
     2
 67
     7
 79
     5
170
     0
171
     0
290
     0
174
     0
 93
       13
 44
0.0
173
     0
291
     1
 45
0.0
1001
ACAD
1000
AcDbSavedByObjectVersion
1070
     0
  0
VISUALSTYLE
  5
2C
102
{ACAD_XDICTIONARY
360
3C1
102
}
102
{ACAD_REACTORS
330
2A
102
}
330
2A
100
AcDbVisualStyle
  2
FlatWithEdges
 70
     1
 71
     2
 72
     1
 73
     1
 90
        2
 40
-0.6
 41
30.0
 62
     5
 63
     7
 74
     1
 91
        4
 64
     7
 65
   257
 75
     1
175
     1
 42
1.0
 92
        0
 66
   257
 43
1.0
 76
     1
 77
     6
 78
     2
 67
     7
 79
     5
170
     0
171
     0
290
     0
174
     0
 93
       13
 44
0.0
173
     0
291
     1
 45
0.0
1001
ACAD
1000
AcDbSavedByObjectVersion
1070
     0
  0
VISUALSTYLE
  5
2D
102
{ACAD_XDICTIONARY
360
3C3
102
}
102
{ACAD_REACTORS
330
2A
102
}
330
2A
100
AcDbVisualStyle
  2
Gouraud
 70
     2
 71
     2
 72
     2
 73
     1
 90
        2
 40
-0.6
 41
30.0
 62
     5
 63
     7
 74
     0
 91
        4
 64
     7
 65
   257
 75
     1
175
     1
 42
1.0
 92
        0
 66
     7
 43
1.0
 76
     1
 77
     6
 78
     2
 67
     7
 79
     5
170
     0
171
     0
290
     0
174
     0
 93
       13
 44
0.0
173
     0
291
     1
 45
0.0
1001
ACAD
1000
AcDbSavedByObjectVersion
1070
     0
  0
VISUALSTYLE
  5
2E
102
{ACAD_XDICTIONARY
360
3C5
102
}
102
{ACAD_REACTORS
330
2A
102
}
330
2A
100
AcDbVisualStyle
  2
GouraudWithEdges
 70
     3
 71
     2
 72
     2
 73
     1
 90
        2
 40
-0.6
 41
30.0
 62
     5
 63
     7
 74
     1
 91
        4
 64
     7
 65
   257
 75
     1
175
     1
 42
1.0
 92
        0
 66
   257
 43
1.0
 76
     1
 77
     6
 78
     2
 67
     7
 79
     5
170
     0
171
     0
290
     0
174
     0
 93
       13
 44
0.0
173
     0
291
     1
 45
0.0
1001
ACAD
1000
AcDbSavedByObjectVersion
1070
     0
  0
VISUALSTYLE
  5
393
102
{ACAD_XDICTIONARY
360
3E7
102
}
102
{ACAD_REACTORS
330
2A
102
}
330
2A
100
AcDbVisualStyle
  2
Hidden
 70
     6
 71
     1
 72
     2
 73
     2
 90
        0
 40
-0.6
 41
-30.0
 62
     5
 63
     7
 74
     2
 91
        2
 64
     7
 65
   257
 75
     2
175
     1
 42
40.0
 92
        0
 66
   257
 43
1.0
 76
     1
 77
     6
 78
     2
 67
     7
 79
     3
170
     0
171
     0
290
     0
174
     0
 93
        1
 44
0.0
173
     0
291
     0
 45
0.0
1001
ACAD
1000
AcDbSavedByObjectVersion
1070
     0
  0
VISUALSTYLE
  5
399
102
{ACAD_XDICTIONARY
360
3F3
102
}
102
{ACAD_REACTORS
330
2A
102
}
330
2A
100
AcDbVisualStyle
  2
JitterOff
 70
    20
 71
     2
 72
     2
 73
     0
 90
        0
 40
-0.6
 41
-30.0
 62
     5
 63
     7
 74
     1
 91
        4
 64
     7
 65
   257
 75
     1
175
     1
 42
1.0
 92
       10
 66
     7
 43
1.0
 76
     1
 77
     6
 78
     2
 67
     7
 79
     5
170
     0
171
     0
290
     0
174
     0
 93
        1
 44
0.0
173
     0
291
     1
 45
0.0
1001
ACAD
1000
AcDbSavedByObjectVersion
1070
     0
  0
VISUALSTYLE
  5
38
102
{ACAD_XDICTIONARY
360
3D9
102
}
102
{ACAD_REACTORS
330
2A
102
}
330
2A
100
AcDbVisualStyle
  2
Linepattern
 70
    14
 71
     2
 72
     2
 73
     0
 90
        0
 40
-0.6
 41
-30.0
 62
     5
 63
     7
 74
     1
 91
        4
 64
     7
 65
   257
 75
     7
175
     7
 42
1.0
 92
        8
 66
     7
 43
1.0
 76
     1
 77
     6
 78
     2
 67
     7
 79
     5
170
     0
171
     0
290
     0
174
     0
 93
        1
 44
0.0
173
     0
291
     1
 45
0.0
1001
ACAD
1000
AcDbSavedByObjectVersion
1070
     0
  0
VISUALSTYLE
  5
39A
102
{ACAD_XDICTIONARY
360
3F5
102
}
102
{ACAD_REACTORS
330
2A
102
}
330
2A
100
AcDbVisualStyle
  2
OverhangOff
 70
    21
 71
     2
 72
     2
 73
     0
 90
        0
 40
-0.6
 41
-30.0
 62
     5
 63
     7
 74
     1
 91
        4
 64
     7
 65
   257
 75
     1
175
     1
 42
1.0
 92
        9
 66
     7
 43
1.0
 76
     1
 77
     6
 78
     2
 67
     7
 79
     5
170
     0
171
     0
290
     0
174
     0
 93
        1
 44
0.0
173
     0
291
     1
 45
0.0
1001
ACAD
1000
AcDbSavedByObjectVersion
1070
     0
  0
VISUALSTYLE
  5
33
102
{ACAD_XDICTIONARY
360
3CF
102
}
102
{ACAD_REACTORS
330
2A
102
}
330
2A
100
AcDbVisualStyle
  2
Realistic
 70
     8
 71
     2
 72
     2
 73
     0
 90
        0
 40
-0.6
 41
-30.0
 62
     5
 63
     7
 74
     1
 91
        0
 64
     7
 65
   257
 75
     1
175
     1
 42
1.0
 92
        8
 66
     8
 43
1.0
 76
     1
 77
     6
 78
     2
 67
     7
 79
     5
170
     0
171
     0
290
     0
174
     0
 93
       13
 44
0.0
173
     0
291
     0
 45
0.0
1001
ACAD
1000
AcDbSavedByObjectVersion
1070
     0
  0
VISUALSTYLE
  5
398
102
{ACAD_XDICTIONARY
360
3F1
102
}
102
{ACAD_REACTORS
330
2A
102
}
330
2A
100
AcDbVisualStyle
  2
Shaded
 70
    27
 71
     2
 72
     2
 73
     1
 90
        2
 40
-0.6
 41
30.0
 62
     5
 63
     7
 74
     0
 91
        4
 64
     7
 65
   257
 75
     1
175
     1
 42
1.0
 92
        8
 66
   257
 43
1.0
 76
     1
 77
     6
 78
     2
 67
     8
 79
     3
170
     0
171
     0
290
     0
174
     0
 93
        5
 44
0.0
173
     0
291
     0
 45
0.0
1001
ACAD
1000
AcDbSavedByObjectVersion
1070
     0
  0
VISUALSTYLE
  5
397
102
{ACAD_XDICTIONARY
360
3EF
102
}
102
{ACAD_REACTORS
330
2A
102
}
330
2A
100
AcDbVisualStyle
  2
Shaded with edges
 70
    26
 71
     2
 72
     2
 73
     1
 90
        2
 40
-0.6
 41
30.0
 62
     5
 63
     7
 74
     1
 91
       10
 64
     7
 65
   257
 75
     2
175
     1
 42
1.0
 92
        8
 66
   257
 43
1.0
 76
     1
 77
     6
 78
     2
 67
     7
 79
     3
170
     0
171
     0
290
     0
174
     0
 93
        5
 44
0.0
173
     0
291
     0
 45
0.0
1001
ACAD
1000
AcDbSavedByObjectVersion
1070
     0
  0
VISUALSTYLE
  5
394
102
{ACAD_XDICTIONARY
360
3E9
102
}
102
{ACAD_REACTORS
330
2A
102
}
330
2A
100
AcDbVisualStyle
  2
Shades of Gray
 70
    23
 71
     2
 72
     2
 73
     3
 90
        0
 40
-0.6
 41
-30.0
 62
     5
 63
     7
 74
     2
 91
        2
 64
     7
 65
     7
 75
     1
175
     1
 42
40.0
 92
        8
 66
     7
 43
1.0
 76
     1
 77
     6
 78
     2
 67
     7
 79
     3
170
     0
171
     0
290
     0
174
     0
 93
        1
 44
0.0
173
     0
291
     0
 45
0.0
1001
ACAD
1000
AcDbSavedByObjectVersion
1070
     0
  0
VISUALSTYLE
  5
395
102
{ACAD_XDICTIONARY
360
3EB
102
}
102
{ACAD_REACTORS
330
2A
102
}
330
2A
100
AcDbVisualStyle
  2
Sketchy
 70
    24
 71
     1
 72
     2
 73
     2
 90
        0
 40
-0.6
 41
-30.0
 62
     5
 63
     7
 74
     2
 91
        2
 64
     7
 65
     7
 75
     1
175
     1
 42
40.0
 92
       11
 66
     7
 43
1.0
 76
     1
 77
     6
 78
     2
 67
     7
 79
     6
170
     0
171
     0
290
     0
174
     0
 93
        1
 44
0.0
173
     0
291
     0
 45
0.0
1001
ACAD
1000
AcDbSavedByObjectVersion
1070
     0
  0
VISUALSTYLE
  5
37
102
{ACAD_XDICTIONARY
360
3D7
102
}
102
{ACAD_REACTORS
330
2A
102
}
330
2A
100
AcDbVisualStyle
  2
Thicken
 70
    13
 71
     2
 72
     2
 73
     0
 90
        0
 40
-0.6
 41
-30.0
 62
     5
 63
     7
 74
     1
 91
        4
 64
     7
 65
   257
 75
     1
175
     1
 42
1.0
 92
       12
 66
     7
 43
1.0
 76
     1
 77
     6
 78
     2
 67
     7
 79
     5
170
     0
171
     0
290
     0
174
     0
 93
        1
 44
0.0
173
     0
291
     1
 45
0.0
1001
ACAD
1000
AcDbSavedByObjectVersion
1070
     0
  0
VISUALSTYLE
  5
392
102
{ACAD_XDICTIONARY
360
3E5
102
}
102
{ACAD_REACTORS
330
2A
102
}
330
2A
100
AcDbVisualStyle
  2
Wireframe
 70
     5
 71
     0
 72
     2
 73
     0
 90
        0
 40
-0.6
 41
-30.0
 62
     5
 63
     7
 74
     1
 91
        4
 64
     7
 65
   257
 75
     1
175
     1
 42
1.0
 92
        0
 66
   257
 43
1.0
 76
     1
 77
     6
 78
     2
 67
     7
 79
     3
170
     0
171
     0
290
     0
174
     0
 93
        1
 44
0.0
173
     0
291
     0
 45
0.0
1001
ACAD
1000
AcDbSavedByObjectVersion
1070
     0
  0
VISUALSTYLE
  5
396
102
{ACAD_XDICTIONARY
360
3ED
102
}
102
{ACAD_REACTORS
330
2A
102
}
330
2A
100
AcDbVisualStyle
  2
X-Ray
 70
    25
 71
     2
 72
     2
 73
     1
 90
        1
 40
0.5
 41
-30.0
 62
     5
 63
     7
 74
     1
 91
        0
 64
     7
 65
   257
 75
     1
175
     1
 42
1.0
 92
        8
 66
     7
 43
1.0
 76
     1
 77
     6
 78
     2
 67
     7
 79
     3
170
     0
171
     0
290
     0
174
     0
 93
       13
 44
0.0
173
     0
291
     0
 45
0.0
1001
ACAD
1000
AcDbSavedByObjectVersion
1070
     0
  0
DICTIONARYVAR
  5
38E
102
{ACAD_REACTORS
330
38D
102
}
330
38D
100
DictionaryVariables
280
     0
  1
1:1
  0
DICTIONARYVAR
  5
3A6
102
{ACAD_REACTORS
330
38D
102
}
330
38D
100
DictionaryVariables
280
     0
  1
STANDARD
  0
DICTIONARYVAR
  5
3A5
102
{ACAD_REACTORS
330
38D
102
}
330
38D
100
DictionaryVariables
280
     0
  1
STANDARD
  0
DICTIONARYVAR
  5
3AF
102
{ACAD_REACTORS
330
38D
102
}
330
38D
100
DictionaryVariables
280
     0
  1
2
  0
DICTIONARYVAR
  5
3AE
102
{ACAD_REACTORS
330
38D
102
}
330
38D
100
DictionaryVariables
280
     0
  1
2
  0
DICTIONARYVAR
  5
3AD
102
{ACAD_REACTORS
330
38D
102
}
330
38D
100
DictionaryVariables
280
     0
  1
1
  0
DICTIONARYVAR
  5
3AC
102
{ACAD_REACTORS
330
38D
102
}
330
38D
100
DictionaryVariables
280
     0
  1
0
  0
DICTIONARYVAR
  5
3A9
102
{ACAD_REACTORS
330
38D
102
}
330
38D
100
DictionaryVariables
280
     0
  1
0
  0
DICTIONARYVAR
  5
3AA
102
{ACAD_REACTORS
330
38D
102
}
330
38D
100
DictionaryVariables
280
     0
  1
0
  0
DICTIONARYVAR
  5
3A8
102
{ACAD_REACTORS
330
38D
102
}
330
38D
100
DictionaryVariables
280
     0
  1
2
  0
DICTIONARYVAR
  5
3A7
102
{ACAD_REACTORS
330
38D
102
}
330
38D
100
DictionaryVariables
280
     0
  1
1
  0
DICTIONARYVAR
  5
3B1
102
{ACAD_REACTORS
330
38D
102
}
330
38D
100
DictionaryVariables
280
     0
  1
80.000000
  0
DICTIONARYVAR
  5
3B0
102
{ACAD_REACTORS
330
38D
102
}
330
38D
100
DictionaryVariables
280
     0
  1
5.000000
  0
DICTIONARYVAR
  5
3AB
102
{ACAD_REACTORS
330
38D
102
}
330
38D
100
DictionaryVariables
280
     0
  1
127
  0
DICTIONARYVAR
  5
3B2
102
{ACAD_REACTORS
330
38D
102
}
330
38D
100
DictionaryVariables
280
     0
  1
2
  0
DICTIONARY
  5
3B9
330
1E
100
AcDbDictionary
280
     1
281
     1
  3
ACAD_XREC_ROUNDTRIP
360
3BA
  0
DICTIONARY
  5
3BD
330
26
100
AcDbDictionary
280
     1
281
     1
  3
ACAD_XREC_ROUNDTRIP
360
3BE
  0
DICTIONARY
  5
3BB
330
22
100
AcDbDictionary
280
     1
281
     1
  3
ACAD_XREC_ROUNDTRIP
360
3BC
  0
DICTIONARY
  5
3E1
330
3D
100
AcDbDictionary
280
     1
281
     1
  3
ACAD_XREC_ROUNDTRIP
360
3E2
  0
DICTIONARY
  5
3DF
330
3C
100
AcDbDictionary
280
     1
281
     1
  3
ACAD_XREC_ROUNDTRIP
360
3E0
  0
DICTIONARY
  5
3E3
330
3E
100
AcDbDictionary
280
     1
281
     1
  3
ACAD_XREC_ROUNDTRIP
360
3E4
  0
DICTIONARY
  5
3B3
330
39D
100
AcDbDictionary
280
     1
281
     1
  3
ACAD_ROUNDTRIP_2008_TABLESTYLE_CELLSTYLEMAP
360
3B4
  3
ACAD_XREC_ROUNDTRIP
360
3F9
  0
DICTIONARY
  5
3C7
330
2F
100
AcDbDictionary
280
     1
281
     1
  3
ACAD_XREC_ROUNDTRIP
360
3C8
  0
DICTIONARY
  5
3CB
330
31
100
AcDbDictionary
280
     1
281
     1
  3
ACAD_XREC_ROUNDTRIP
360
3CC
  0
DICTIONARY
  5
3C9
330
30
100
AcDbDictionary
280
     1
281
     1
  3
ACAD_XREC_ROUNDTRIP
360
3CA
  0
DICTIONARY
  5
3CD
330
32
100
AcDbDictionary
280
     1
281
     1
  3
ACAD_XREC_ROUNDTRIP
360
3CE
  0
DICTIONARY
  5
3D5
330
36
100
AcDbDictionary
280
     1
281
     1
  3
ACAD_XREC_ROUNDTRIP
360
3D6
  0
DICTIONARY
  5
3DD
330
3A
100
AcDbDictionary
280
     1
281
     1
  3
ACAD_XREC_ROUNDTRIP
360
3DE
  0
DICTIONARY
  5
3D1
330
34
100
AcDbDictionary
280
     1
281
     1
  3
ACAD_XREC_ROUNDTRIP
360
3D2
  0
DICTIONARY
  5
3D3
330
35
100
AcDbDictionary
280
     1
281
     1
  3
ACAD_XREC_ROUNDTRIP
360
3D4
  0
DICTIONARY
  5
3F7
330
39B
100
AcDbDictionary
280
     1
281
     1
  3
ACAD_XREC_ROUNDTRIP
360
3F8
  0
DICTIONARY
  5
3DB
330
39
100
AcDbDictionary
280
     1
281
     1
  3
ACAD_XREC_ROUNDTRIP
360
3DC
  0
DICTIONARY
  5
3BF
330
2B
100
AcDbDictionary
280
     1
281
     1
  3
ACAD_XREC_ROUNDTRIP
360
3C0
  0
DICTIONARY
  5
3C1
330
2C
100
AcDbDictionary
280
     1
281
     1
  3
ACAD_XREC_ROUNDTRIP
360
3C2
  0
DICTIONARY
  5
3C3
330
2D
100
AcDbDictionary
280
     1
281
     1
  3
ACAD_XREC_ROUNDTRIP
360
3C4
  0
DICTIONARY
  5
3C5
330
2E
100
AcDbDictionary
280
     1
281
     1
  3
ACAD_XREC_ROUNDTRIP
360
3C6
  0
DICTIONARY
  5
3E7
330
393
100
AcDbDictionary
280
     1
281
     1
  3
ACAD_XREC_ROUNDTRIP
360
3E8
  0
DICTIONARY
  5
3F3
330
399
100
AcDbDictionary
280
     1
281
     1
  3
ACAD_XREC_ROUNDTRIP
360
3F4
  0
DICTIONARY
  5
3D9
330
38
100
AcDbDictionary
280
     1
281
     1
  3
ACAD_XREC_ROUNDTRIP
360
3DA
  0
DICTIONARY
  5
3F5
330
39A
100
AcDbDictionary
280
     1
281
     1
  3
ACAD_XREC_ROUNDTRIP
360
3F6
  0
DICTIONARY
  5
3CF
330
33
100
AcDbDictionary
280
     1
281
     1
  3
ACAD_XREC_ROUNDTRIP
360
3D0
  0
DICTIONARY
  5
3F1
330
398
100
AcDbDictionary
280
     1
281
     1
  3
ACAD_XREC_ROUNDTRIP
360
3F2
  0
DICTIONARY
  5
3EF
330
397
100
AcDbDictionary
280
     1
281
     1
  3
ACAD_XREC_ROUNDTRIP
360
3F0
  0
DICTIONARY
  5
3E9
330
394
100
AcDbDictionary
280
     1
281
     1
  3
ACAD_XREC_ROUNDTRIP
360
3EA
  0
DICTIONARY
  5
3EB
330
395
100
AcDbDictionary
280
     1
281
     1
  3
ACAD_XREC_ROUNDTRIP
360
3EC
  0
DICTIONARY
  5
3D7
330
37
100
AcDbDictionary
280
     1
281
     1
  3
ACAD_XREC_ROUNDTRIP
360
3D8
  0
DICTIONARY
  5
3E5
330
392
100
AcDbDictionary
280
     1
281
     1
  3
ACAD_XREC_ROUNDTRIP
360
3E6
  0
DICTIONARY
  5
3ED
330
396
100
AcDbDictionary
280
     1
281
     1
  3
ACAD_XREC_ROUNDTRIP
360
3EE
  0
XRECORD
  5
3BA
102
{ACAD_REACTORS
330
3B9
102
}
330
3B9
100
AcDbXrecord
280
     1
102
SHADEPLOT
 70
     0
102
SHADEPLOTRESLEVEL
 70
     2
102
SHADEPLOTCUSTOMDPI
 70
   300
  0
XRECORD
  5
3BE
102
{ACAD_REACTORS
330
3BD
102
}
330
3BD
100
AcDbXrecord
280
     1
102
SHADEPLOT
 70
     0
102
SHADEPLOTRESLEVEL
 70
     2
102
SHADEPLOTCUSTOMDPI
 70
   300
  0
XRECORD
  5
3BC
102
{ACAD_REACTORS
330
3BB
102
}
330
3BB
100
AcDbXrecord
280
     1
102
SHADEPLOT
 70
     0
102
SHADEPLOTRESLEVEL
 70
     2
102
SHADEPLOTCUSTOMDPI
 70
   300
  0
XRECORD
  5
3E2
102
{ACAD_REACTORS
330
3E1
102
}
330
3E1
100
AcDbXrecord
280
     1
102
MATERIAL
148
0.0
149
0.0
149
0.0
 93
        0
 94
      127
282
     0
 72
     1
 77
     1
171
     1
175
     1
179
     1
273
     0
  0
XRECORD
  5
3E0
102
{ACAD_REACTORS
330
3DF
102
}
330
3DF
100
AcDbXrecord
280
     1
102
MATERIAL
148
0.0
149
0.0
149
0.0
 93
        0
 94
      127
282
     0
 72
     1
 77
     1
171
     1
175
     1
179
     1
273
     0
  0
XRECORD
  5
3E4
102
{ACAD_REACTORS
330
3E3
102
}
330
3E3
100
AcDbXrecord
280
     1
102
MATERIAL
148
0.0
149
0.0
149
0.0
 93
        0
 94
      127
282
     0
 72
     1
 77
     1
171
     1
175
     1
179
     1
273
     0
  0
CELLSTYLEMAP
  5
3B4
102
{ACAD_REACTORS
330
3B3
102
}
330
3B3
100
AcDbCellStyleMap
 90
        3
300
CELLSTYLE
  1
TABLEFORMAT_BEGIN
 90
        5
170
     1
 91
        0
 92
    32768
 62
   257
 93
        1
300
CONTENTFORMAT
  1
CONTENTFORMAT_BEGIN
 90
        0
 91
        0
 92
      512
 93
        0
300

 40
0.0
140
1.0
 94
        5
 62
     0
340
11
144
6.0
309
CONTENTFORMAT_END
171
     1
301
MARGIN
  1
CELLMARGIN_BEGIN
 40
1.5
 40
1.5
 40
1.5
 40
1.5
 40
4.5
 40
4.5
309
CELLMARGIN_END
 94
        6
 95
        1
302
GRIDFORMAT
  1
GRIDFORMAT_BEGIN
 90
        0
 91
        1
 62
     0
 92
       -2
340
0
 93
        0
 40
1.125
309
GRIDFORMAT_END
 95
        2
302
GRIDFORMAT
  1
GRIDFORMAT_BEGIN
 90
        0
 91
        1
 62
     0
 92
       -2
340
0
 93
        0
 40
1.125
309
GRIDFORMAT_END
 95
        4
302
GRIDFORMAT
  1
GRIDFORMAT_BEGIN
 90
        0
 91
        1
 62
     0
 92
       -2
340
0
 93
        0
 40
1.125
309
GRIDFORMAT_END
 95
        8
302
GRIDFORMAT
  1
GRIDFORMAT_BEGIN
 90
        0
 91
        1
 62
     0
 92
       -2
340
0
 93
        0
 40
1.125
309
GRIDFORMAT_END
 95
       16
302
GRIDFORMAT
  1
GRIDFORMAT_BEGIN
 90
        0
 91
        1
 62
     0
 92
       -2
340
0
 93
        0
 40
1.125
309
GRIDFORMAT_END
 95
       32
302
GRIDFORMAT
  1
GRIDFORMAT_BEGIN
 90
        0
 91
        1
 62
     0
 92
       -2
340
0
 93
        0
 40
1.125
309
GRIDFORMAT_END
309
TABLEFORMAT_END
  1
CELLSTYLE_BEGIN
 90
        1
 91
        1
300
_TITLE
309
CELLSTYLE_END
300
CELLSTYLE
  1
TABLEFORMAT_BEGIN
 90
        5
170
     1
 91
        0
 92
        0
 62
   257
 93
        1
300
CONTENTFORMAT
  1
CONTENTFORMAT_BEGIN
 90
        0
 91
        0
 92
      512
 93
        0
300

 40
0.0
140
1.0
 94
        5
 62
     0
340
11
144
4.5
309
CONTENTFORMAT_END
171
     1
301
MARGIN
  1
CELLMARGIN_BEGIN
 40
1.5
 40
1.5
 40
1.5
 40
1.5
 40
4.5
 40
4.5
309
CELLMARGIN_END
 94
        6
 95
        1
302
GRIDFORMAT
  1
GRIDFORMAT_BEGIN
 90
        0
 91
        1
 62
     0
 92
       -2
340
0
 93
        0
 40
1.125
309
GRIDFORMAT_END
 95
        2
302
GRIDFORMAT
  1
GRIDFORMAT_BEGIN
 90
        0
 91
        1
 62
     0
 92
       -2
340
0
 93
        0
 40
1.125
309
GRIDFORMAT_END
 95
        4
302
GRIDFORMAT
  1
GRIDFORMAT_BEGIN
 90
        0
 91
        1
 62
     0
 92
       -2
340
0
 93
        0
 40
1.125
309
GRIDFORMAT_END
 95
        8
302
GRIDFORMAT
  1
GRIDFORMAT_BEGIN
 90
        0
 91
        1
 62
     0
 92
       -2
340
0
 93
        0
 40
1.125
309
GRIDFORMAT_END
 95
       16
302
GRIDFORMAT
  1
GRIDFORMAT_BEGIN
 90
        0
 91
        1
 62
     0
 92
       -2
340
0
 93
        0
 40
1.125
309
GRIDFORMAT_END
 95
       32
302
GRIDFORMAT
  1
GRIDFORMAT_BEGIN
 90
        0
 91
        1
 62
     0
 92
       -2
340
0
 93
        0
 40
1.125
309
GRIDFORMAT_END
309
TABLEFORMAT_END
  1
CELLSTYLE_BEGIN
 90
        2
 91
        1
300
_HEADER
309
CELLSTYLE_END
300
CELLSTYLE
  1
TABLEFORMAT_BEGIN
 90
        5
170
     1
 91
        0
 92
        0
 62
   257
 93
        1
300
CONTENTFORMAT
  1
CONTENTFORMAT_BEGIN
 90
        0
 91
        0
 92
      512
 93
        0
300

 40
0.0
140
1.0
 94
        2
 62
     0
340
11
144
4.5
309
CONTENTFORMAT_END
171
     1
301
MARGIN
  1
CELLMARGIN_BEGIN
 40
1.5
 40
1.5
 40
1.5
 40
1.5
 40
4.5
 40
4.5
309
CELLMARGIN_END
 94
        6
 95
        1
302
GRIDFORMAT
  1
GRIDFORMAT_BEGIN
 90
        0
 91
        1
 62
     0
 92
       -2
340
0
 93
        0
 40
1.125
309
GRIDFORMAT_END
 95
        2
302
GRIDFORMAT
  1
GRIDFORMAT_BEGIN
 90
        0
 91
        1
 62
     0
 92
       -2
340
0
 93
        0
 40
1.125
309
GRIDFORMAT_END
 95
        4
302
GRIDFORMAT
  1
GRIDFORMAT_BEGIN
 90
        0
 91
        1
 62
     0
 92
       -2
340
0
 93
        0
 40
1.125
309
GRIDFORMAT_END
 95
        8
302
GRIDFORMAT
  1
GRIDFORMAT_BEGIN
 90
        0
 91
        1
 62
     0
 92
       -2
340
0
 93
        0
 40
1.125
309
GRIDFORMAT_END
 95
       16
302
GRIDFORMAT
  1
GRIDFORMAT_BEGIN
 90
        0
 91
        1
 62
     0
 92
       -2
340
0
 93
        0
 40
1.125
309
GRIDFORMAT_END
 95
       32
302
GRIDFORMAT
  1
GRIDFORMAT_BEGIN
 90
        0
 91
        1
 62
     0
 92
       -2
340
0
 93
        0
 40
1.125
309
GRIDFORMAT_END
309
TABLEFORMAT_END
  1
CELLSTYLE_BEGIN
 90
        3
 91
        2
300
_DATA
309
CELLSTYLE_END
  0
XRECORD
  5
3F9
102
{ACAD_REACTORS
330
3B3
102
}
330
3B3
100
AcDbXrecord
280
     1
102
ACAD_ROUNDTRIP_PRE2007_TABLESTYLE
 90
      512
 91
        0
  1

 92
      512
 93
        0
  2

 94
      512
 95
        0
  3

  0
XRECORD
  5
3C8
102
{ACAD_REACTORS
330
3C7
102
}
330
3C7
100
AcDbXrecord
280
     1
102
RTVSPropertyOp0
 70
     1
102
RTVSPropertyOp1
 70
     1
102
RTVSPropertyOp2
 70
     1
102
RTVSPropertyOp3
 70
     1
102
RTVSPropertyOp4
 70
     1
102
RTVSPropertyOp5
 70
     1
102
RTVSPropertyOp6
 70
     1
102
RTVSPropertyOp7
 70
     1
102
RTVSPropertyOp8
 70
     1
102
RTVSPropertyOp9
 70
     1
102
RTVSPropertyOp10
 70
     1
102
RTVSPropertyOp11
 70
     1
102
RTVSPropertyOp12
 70
     1
102
RTVSPropertyOp13
 70
     1
102
RTVSPropertyOp14
 70
     1
102
RTVSPropertyOp15
 70
     1
102
RTVSPropertyOp16
 70
     1
102
RTVSPropertyOp17
 70
     1
102
RTVSPropertyOp18
 70
     1
102
RTVSPropertyOp19
 70
     1
102
RTVSPropertyOp20
 70
     1
102
RTVSPropertyOp21
 70
     1
102
RTVSPropertyOp22
 70
     1
102
RTVSPropertyOp23
 70
     1
102
RTVSPropertyOp24
 70
     1
102
RTVSPropertyOp25
 70
     1
102
RTVSPropertyOp26
 70
     1
102
RTVSPropertyOp27
 70
     1
102
RTVSPropertyOp28
 70
     1
102
RTVSPropertyOp29
 70
     1
102
RTVSPropertyOp30
 70
     1
102
RTVSPropertyOp31
 70
     1
102
RTVSPropertyOp32
 70
     1
  0
XRECORD
  5
3CC
102
{ACAD_REACTORS
330
3CB
102
}
330
3CB
100
AcDbXrecord
280
     1
102
RTVSPropertyOp0
 70
     1
102
RTVSPropertyOp1
 70
     1
102
RTVSPropertyOp2
 70
     1
102
RTVSPropertyOp3
 70
     1
102
RTVSPropertyOp4
 70
     1
102
RTVSPropertyOp5
 70
     1
102
RTVSPropertyOp6
 70
     1
102
RTVSPropertyOp7
 70
     1
102
RTVSPropertyOp8
 70
     1
102
RTVSPropertyOp9
 70
     1
102
RTVSPropertyOp10
 70
     1
102
RTVSPropertyOp11
 70
     1
102
RTVSPropertyOp12
 70
     1
102
RTVSPropertyOp13
 70
     1
102
RTVSPropertyOp14
 70
     1
102
RTVSPropertyOp15
 70
     1
102
RTVSPropertyOp16
 70
     1
102
RTVSPropertyOp17
 70
     1
102
RTVSPropertyOp18
 70
     1
102
RTVSPropertyOp19
 70
     1
102
RTVSPropertyOp20
 70
     1
102
RTVSPropertyOp21
 70
     1
102
RTVSPropertyOp22
 70
     1
102
RTVSPropertyOp23
 70
     1
102
RTVSPropertyOp24
 70
     1
102
RTVSPropertyOp25
 70
     1
102
RTVSPropertyOp26
 70
     1
102
RTVSPropertyOp27
 70
     1
102
RTVSPropertyOp28
 70
     1
102
RTVSPropertyOp29
 70
     1
102
RTVSPropertyOp30
 70
     1
102
RTVSPropertyOp31
 70
     1
102
RTVSPropertyOp32
 70
     1
  0
XRECORD
  5
3CA
102
{ACAD_REACTORS
330
3C9
102
}
330
3C9
100
AcDbXrecord
280
     1
102
RTVSPropertyOp0
 70
     1
102
RTVSPropertyOp1
 70
     1
102
RTVSPropertyOp2
 70
     1
102
RTVSPropertyOp3
 70
     1
102
RTVSPropertyOp4
 70
     1
102
RTVSPropertyOp5
 70
     1
102
RTVSPropertyOp6
 70
     1
102
RTVSPropertyOp7
 70
     1
102
RTVSPropertyOp8
 70
     1
102
RTVSPropertyOp9
 70
     1
102
RTVSPropertyOp10
 70
     1
102
RTVSPropertyOp11
 70
     1
102
RTVSPropertyOp12
 70
     1
102
RTVSPropertyOp13
 70
     1
102
RTVSPropertyOp14
 70
     1
102
RTVSPropertyOp15
 70
     1
102
RTVSPropertyOp16
 70
     1
102
RTVSPropertyOp17
 70
     1
102
RTVSPropertyOp18
 70
     1
102
RTVSPropertyOp19
 70
     1
102
RTVSPropertyOp20
 70
     1
102
RTVSPropertyOp21
 70
     1
102
RTVSPropertyOp22
 70
     1
102
RTVSPropertyOp23
 70
     1
102
RTVSPropertyOp24
 70
     1
102
RTVSPropertyOp25
 70
     1
102
RTVSPropertyOp26
 70
     1
102
RTVSPropertyOp27
 70
     1
102
RTVSPropertyOp28
 70
     1
102
RTVSPropertyOp29
 70
     1
102
RTVSPropertyOp30
 70
     1
102
RTVSPropertyOp31
 70
     1
102
RTVSPropertyOp32
 70
     1
  0
XRECORD
  5
3CE
102
{ACAD_REACTORS
330
3CD
102
}
330
3CD
100
AcDbXrecord
280
     1
102
RTVSPropertyOp0
 70
     1
102
RTVSPropertyOp1
 70
     1
102
RTVSPropertyOp2
 70
     1
102
RTVSPropertyOp3
 70
     1
102
RTVSPropertyOp4
 70
     1
102
RTVSPropertyOp5
 70
     1
102
RTVSPropertyOp6
 70
     1
102
RTVSPropertyOp7
 70
     1
102
RTVSPropertyOp8
 70
     1
102
RTVSPropertyOp9
 70
     1
102
RTVSPropertyOp10
 70
     1
102
RTVSPropertyOp11
 70
     1
102
RTVSPropertyOp12
 70
     1
102
RTVSPropertyOp13
 70
     1
102
RTVSPropertyOp14
 70
     1
102
RTVSPropertyOp15
 70
     1
102
RTVSPropertyOp16
 70
     1
102
RTVSPropertyOp17
 70
     1
102
RTVSPropertyOp18
 70
     1
102
RTVSPropertyOp19
 70
     1
102
RTVSPropertyOp20
 70
     1
102
RTVSPropertyOp21
 70
     1
102
RTVSPropertyOp22
 70
     1
102
RTVSPropertyOp23
 70
     1
102
RTVSPropertyOp24
 70
     1
102
RTVSPropertyOp25
 70
     1
102
RTVSPropertyOp26
 70
     1
102
RTVSPropertyOp27
 70
     1
102
RTVSPropertyOp28
 70
     1
102
RTVSPropertyOp29
 70
     1
102
RTVSPropertyOp30
 70
     1
102
RTVSPropertyOp31
 70
     1
102
RTVSPropertyOp32
 70
     1
  0
XRECORD
  5
3D6
102
{ACAD_REACTORS
330
3D5
102
}
330
3D5
100
AcDbXrecord
280
     1
102
RTVSPropertyOp0
 70
     1
102
RTVSPropertyOp1
 70
     1
102
RTVSPropertyOp2
 70
     1
102
RTVSPropertyOp3
 70
     1
102
RTVSPropertyOp4
 70
     1
102
RTVSPropertyOp5
 70
     1
102
RTVSPropertyOp6
 70
     1
102
RTVSPropertyOp7
 70
     1
102
RTVSPropertyOp8
 70
     1
102
RTVSPropertyOp9
 70
     1
102
RTVSPropertyOp10
 70
     1
102
RTVSPropertyOp11
 70
     1
102
RTVSPropertyOp12
 70
     1
102
RTVSPropertyOp13
 70
     1
102
RTVSPropertyOp14
 70
     1
102
RTVSPropertyOp15
 70
     1
102
RTVSPropertyOp16
 70
     1
102
RTVSPropertyOp17
 70
     1
102
RTVSPropertyOp18
 70
     1
102
RTVSPropertyOp19
 70
     1
102
RTVSPropertyOp20
 70
     1
102
RTVSPropertyOp21
 70
     1
102
RTVSPropertyOp22
 70
     1
102
RTVSPropertyOp23
 70
     1
102
RTVSPropertyOp24
 70
     1
102
RTVSPropertyOp25
 70
     1
102
RTVSPropertyOp26
 70
     1
102
RTVSPropertyOp27
 70
     1
102
RTVSPropertyOp28
 70
     1
102
RTVSPropertyOp29
 70
     1
102
RTVSPropertyOp30
 70
     1
102
RTVSPropertyOp31
 70
     1
102
RTVSPropertyOp32
 70
     1
  0
XRECORD
  5
3DE
102
{ACAD_REACTORS
330
3DD
102
}
330
3DD
100
AcDbXrecord
280
     1
102
RTVSPropertyOp0
 70
     1
102
RTVSPropertyOp1
 70
     1
102
RTVSPropertyOp2
 70
     1
102
RTVSPropertyOp3
 70
     1
102
RTVSPropertyOp4
 70
     1
102
RTVSPropertyOp5
 70
     1
102
RTVSPropertyOp6
 70
     1
102
RTVSPropertyOp7
 70
     1
102
RTVSPropertyOp8
 70
     1
102
RTVSPropertyOp9
 70
     1
102
RTVSPropertyOp10
 70
     1
102
RTVSPropertyOp11
 70
     1
102
RTVSPropertyOp12
 70
     1
102
RTVSPropertyOp13
 70
     1
102
RTVSPropertyOp14
 70
     1
102
RTVSPropertyOp15
 70
     1
102
RTVSPropertyOp16
 70
     1
102
RTVSPropertyOp17
 70
     1
102
RTVSPropertyOp18
 70
     1
102
RTVSPropertyOp19
 70
     1
102
RTVSPropertyOp20
 70
     1
102
RTVSPropertyOp21
 70
     1
102
RTVSPropertyOp22
 70
     1
102
RTVSPropertyOp23
 70
     1
102
RTVSPropertyOp24
 70
     1
102
RTVSPropertyOp25
 70
     1
102
RTVSPropertyOp26
 70
     1
102
RTVSPropertyOp27
 70
     1
102
RTVSPropertyOp28
 70
     1
102
RTVSPropertyOp29
 70
     1
102
RTVSPropertyOp30
 70
     1
102
RTVSPropertyOp31
 70
     1
102
RTVSPropertyOp32
 70
     1
  0
XRECORD
  5
3D2
102
{ACAD_REACTORS
330
3D1
102
}
330
3D1
100
AcDbXrecord
280
     1
102
RTVSPropertyOp0
 70
     1
102
RTVSPropertyOp1
 70
     1
102
RTVSPropertyOp2
 70
     1
102
RTVSPropertyOp3
 70
     1
102
RTVSPropertyOp4
 70
     1
102
RTVSPropertyOp5
 70
     1
102
RTVSPropertyOp6
 70
     1
102
RTVSPropertyOp7
 70
     1
102
RTVSPropertyOp8
 70
     1
102
RTVSPropertyOp9
 70
     1
102
RTVSPropertyOp10
 70
     1
102
RTVSPropertyOp11
 70
     1
102
RTVSPropertyOp12
 70
     1
102
RTVSPropertyOp13
 70
     1
102
RTVSPropertyOp14
 70
     1
102
RTVSPropertyOp15
 70
     1
102
RTVSPropertyOp16
 70
     1
102
RTVSPropertyOp17
 70
     1
102
RTVSPropertyOp18
 70
     1
102
RTVSPropertyOp19
 70
     1
102
RTVSPropertyOp20
 70
     1
102
RTVSPropertyOp21
 70
     1
102
RTVSPropertyOp22
 70
     1
102
RTVSPropertyOp23
 70
     1
102
RTVSPropertyOp24
 70
     1
102
RTVSPropertyOp25
 70
     1
102
RTVSPropertyOp26
 70
     1
102
RTVSPropertyOp27
 70
     1
102
RTVSPropertyOp28
 70
     1
102
RTVSPropertyOp29
 70
     1
102
RTVSPropertyOp30
 70
     1
102
RTVSPropertyOp31
 70
     1
102
RTVSPropertyOp32
 70
     1
  0
XRECORD
  5
3D4
102
{ACAD_REACTORS
330
3D3
102
}
330
3D3
100
AcDbXrecord
280
     1
102
RTVSPropertyOp0
 70
     1
102
RTVSPropertyOp1
 70
     1
102
RTVSPropertyOp2
 70
     1
102
RTVSPropertyOp3
 70
     1
102
RTVSPropertyOp4
 70
     1
102
RTVSPropertyOp5
 70
     1
102
RTVSPropertyOp6
 70
     1
102
RTVSPropertyOp7
 70
     1
102
RTVSPropertyOp8
 70
     1
102
RTVSPropertyOp9
 70
     1
102
RTVSPropertyOp10
 70
     1
102
RTVSPropertyOp11
 70
     1
102
RTVSPropertyOp12
 70
     1
102
RTVSPropertyOp13
 70
     1
102
RTVSPropertyOp14
 70
     1
102
RTVSPropertyOp15
 70
     1
102
RTVSPropertyOp16
 70
     1
102
RTVSPropertyOp17
 70
     1
102
RTVSPropertyOp18
 70
     1
102
RTVSPropertyOp19
 70
     1
102
RTVSPropertyOp20
 70
     1
102
RTVSPropertyOp21
 70
     1
102
RTVSPropertyOp22
 70
     1
102
RTVSPropertyOp23
 70
     1
102
RTVSPropertyOp24
 70
     1
102
RTVSPropertyOp25
 70
     1
102
RTVSPropertyOp26
 70
     1
102
RTVSPropertyOp27
 70
     1
102
RTVSPropertyOp28
 70
     1
102
RTVSPropertyOp29
 70
     1
102
RTVSPropertyOp30
 70
     1
102
RTVSPropertyOp31
 70
     1
102
RTVSPropertyOp32
 70
     1
  0
XRECORD
  5
3F8
102
{ACAD_REACTORS
330
3F7
102
}
330
3F7
100
AcDbXrecord
280
     1
102
RTVSPropertyOp0
 70
     0
102
RTVSPropertyOp1
 70
     0
102
RTVSPropertyOp2
 70
     0
102
RTVSPropertyOp3
 70
     0
102
RTVSPropertyOp4
 70
     0
102
RTVSPropertyOp5
 70
     0
102
RTVSPropertyOp6
 70
     0
102
RTVSPropertyOp7
 70
     0
102
RTVSPropertyOp8
 70
     0
102
RTVSPropertyOp9
 70
     0
102
RTVSPropertyOp10
 70
     0
102
RTVSPropertyOp11
 70
     0
102
RTVSPropertyOp12
 70
     0
102
RTVSPropertyOp13
 70
     0
102
RTVSPropertyOp14
 70
     2
102
RTVSPropertyOp15
 70
     0
102
RTVSPropertyOp16
 70
     0
102
RTVSPropertyOp17
 70
     0
102
RTVSPropertyOp18
 70
     0
102
RTVSPropertyOp19
 70
     0
102
RTVSPropertyOp20
 70
     0
102
RTVSPropertyOp21
 70
     0
102
RTVSPropertyOp22
 70
     0
102
RTVSPropertyOp23
 70
     0
102
RTVSPropertyOp24
 70
     0
102
RTVSPropertyOp25
 70
     0
102
RTVSPropertyOp26
 70
     0
102
RTVSPropertyOp27
 70
     0
102
RTVSPropertyOp28
 70
     0
102
RTVSPropertyOp29
 70
     0
102
RTVSPropertyOp30
 70
     0
102
RTVSPropertyOp31
 70
     0
102
RTVSPropertyOp32
 70
     0
  0
XRECORD
  5
3DC
102
{ACAD_REACTORS
330
3DB
102
}
330
3DB
100
AcDbXrecord
280
     1
102
RTVSPropertyOp0
 70
     1
102
RTVSPropertyOp1
 70
     1
102
RTVSPropertyOp2
 70
     1
102
RTVSPropertyOp3
 70
     1
102
RTVSPropertyOp4
 70
     1
102
RTVSPropertyOp5
 70
     1
102
RTVSPropertyOp6
 70
     1
102
RTVSPropertyOp7
 70
     1
102
RTVSPropertyOp8
 70
     1
102
RTVSPropertyOp9
 70
     1
102
RTVSPropertyOp10
 70
     1
102
RTVSPropertyOp11
 70
     1
102
RTVSPropertyOp12
 70
     1
102
RTVSPropertyOp13
 70
     1
102
RTVSPropertyOp14
 70
     1
102
RTVSPropertyOp15
 70
     1
102
RTVSPropertyOp16
 70
     1
102
RTVSPropertyOp17
 70
     1
102
RTVSPropertyOp18
 70
     1
102
RTVSPropertyOp19
 70
     1
102
RTVSPropertyOp20
 70
     1
102
RTVSPropertyOp21
 70
     1
102
RTVSPropertyOp22
 70
     1
102
RTVSPropertyOp23
 70
     1
102
RTVSPropertyOp24
 70
     1
102
RTVSPropertyOp25
 70
     1
102
RTVSPropertyOp26
 70
     1
102
RTVSPropertyOp27
 70
     1
102
RTVSPropertyOp28
 70
     1
102
RTVSPropertyOp29
 70
     1
102
RTVSPropertyOp30
 70
     1
102
RTVSPropertyOp31
 70
     1
102
RTVSPropertyOp32
 70
     1
  0
XRECORD
  5
3C0
102
{ACAD_REACTORS
330
3BF
102
}
330
3BF
100
AcDbXrecord
280
     1
102
RTVSPropertyOp0
 70
     1
102
RTVSPropertyOp1
 70
     1
102
RTVSPropertyOp2
 70
     1
102
RTVSPropertyOp3
 70
     1
102
RTVSPropertyOp4
 70
     1
102
RTVSPropertyOp5
 70
     1
102
RTVSPropertyOp6
 70
     1
102
RTVSPropertyOp7
 70
     1
102
RTVSPropertyOp8
 70
     1
102
RTVSPropertyOp9
 70
     1
102
RTVSPropertyOp10
 70
     1
102
RTVSPropertyOp11
 70
     1
102
RTVSPropertyOp12
 70
     1
102
RTVSPropertyOp13
 70
     1
102
RTVSPropertyOp14
 70
     1
102
RTVSPropertyOp15
 70
     1
102
RTVSPropertyOp16
 70
     1
102
RTVSPropertyOp17
 70
     1
102
RTVSPropertyOp18
 70
     1
102
RTVSPropertyOp19
 70
     1
102
RTVSPropertyOp20
 70
     1
102
RTVSPropertyOp21
 70
     1
102
RTVSPropertyOp22
 70
     1
102
RTVSPropertyOp23
 70
     1
102
RTVSPropertyOp24
 70
     1
102
RTVSPropertyOp25
 70
     1
102
RTVSPropertyOp26
 70
     1
102
RTVSPropertyOp27
 70
     1
102
RTVSPropertyOp28
 70
     1
102
RTVSPropertyOp29
 70
     1
102
RTVSPropertyOp30
 70
     1
102
RTVSPropertyOp31
 70
     1
102
RTVSPropertyOp32
 70
     1
  0
XRECORD
  5
3C2
102
{ACAD_REACTORS
330
3C1
102
}
330
3C1
100
AcDbXrecord
280
     1
102
RTVSPropertyOp0
 70
     1
102
RTVSPropertyOp1
 70
     1
102
RTVSPropertyOp2
 70
     1
102
RTVSPropertyOp3
 70
     1
102
RTVSPropertyOp4
 70
     1
102
RTVSPropertyOp5
 70
     1
102
RTVSPropertyOp6
 70
     1
102
RTVSPropertyOp7
 70
     1
102
RTVSPropertyOp8
 70
     1
102
RTVSPropertyOp9
 70
     1
102
RTVSPropertyOp10
 70
     1
102
RTVSPropertyOp11
 70
     1
102
RTVSPropertyOp12
 70
     1
102
RTVSPropertyOp13
 70
     1
102
RTVSPropertyOp14
 70
     1
102
RTVSPropertyOp15
 70
     1
102
RTVSPropertyOp16
 70
     1
102
RTVSPropertyOp17
 70
     1
102
RTVSPropertyOp18
 70
     1
102
RTVSPropertyOp19
 70
     1
102
RTVSPropertyOp20
 70
     1
102
RTVSPropertyOp21
 70
     1
102
RTVSPropertyOp22
 70
     1
102
RTVSPropertyOp23
 70
     1
102
RTVSPropertyOp24
 70
     1
102
RTVSPropertyOp25
 70
     1
102
RTVSPropertyOp26
 70
     1
102
RTVSPropertyOp27
 70
     1
102
RTVSPropertyOp28
 70
     1
102
RTVSPropertyOp29
 70
     1
102
RTVSPropertyOp30
 70
     1
102
RTVSPropertyOp31
 70
     1
102
RTVSPropertyOp32
 70
     1
  0
XRECORD
  5
3C4
102
{ACAD_REACTORS
330
3C3
102
}
330
3C3
100
AcDbXrecord
280
     1
102
RTVSPropertyOp0
 70
     1
102
RTVSPropertyOp1
 70
     1
102
RTVSPropertyOp2
 70
     1
102
RTVSPropertyOp3
 70
     1
102
RTVSPropertyOp4
 70
     1
102
RTVSPropertyOp5
 70
     1
102
RTVSPropertyOp6
 70
     1
102
RTVSPropertyOp7
 70
     1
102
RTVSPropertyOp8
 70
     1
102
RTVSPropertyOp9
 70
     1
102
RTVSPropertyOp10
 70
     1
102
RTVSPropertyOp11
 70
     1
102
RTVSPropertyOp12
 70
     1
102
RTVSPropertyOp13
 70
     1
102
RTVSPropertyOp14
 70
     1
102
RTVSPropertyOp15
 70
     1
102
RTVSPropertyOp16
 70
     1
102
RTVSPropertyOp17
 70
     1
102
RTVSPropertyOp18
 70
     1
102
RTVSPropertyOp19
 70
     1
102
RTVSPropertyOp20
 70
     1
102
RTVSPropertyOp21
 70
     1
102
RTVSPropertyOp22
 70
     1
102
RTVSPropertyOp23
 70
     1
102
RTVSPropertyOp24
 70
     1
102
RTVSPropertyOp25
 70
     1
102
RTVSPropertyOp26
 70
     1
102
RTVSPropertyOp27
 70
     1
102
RTVSPropertyOp28
 70
     1
102
RTVSPropertyOp29
 70
     1
102
RTVSPropertyOp30
 70
     1
102
RTVSPropertyOp31
 70
     1
102
RTVSPropertyOp32
 70
     1
  0
XRECORD
  5
3C6
102
{ACAD_REACTORS
330
3C5
102
}
330
3C5
100
AcDbXrecord
280
     1
102
RTVSPropertyOp0
 70
     1
102
RTVSPropertyOp1
 70
     1
102
RTVSPropertyOp2
 70
     1
102
RTVSPropertyOp3
 70
     1
102
RTVSPropertyOp4
 70
     1
102
RTVSPropertyOp5
 70
     1
102
RTVSPropertyOp6
 70
     1
102
RTVSPropertyOp7
 70
     1
102
RTVSPropertyOp8
 70
     1
102
RTVSPropertyOp9
 70
     1
102
RTVSPropertyOp10
 70
     1
102
RTVSPropertyOp11
 70
     1
102
RTVSPropertyOp12
 70
     1
102
RTVSPropertyOp13
 70
     1
102
RTVSPropertyOp14
 70
     1
102
RTVSPropertyOp15
 70
     1
102
RTVSPropertyOp16
 70
     1
102
RTVSPropertyOp17
 70
     1
102
RTVSPropertyOp18
 70
     1
102
RTVSPropertyOp19
 70
     1
102
RTVSPropertyOp20
 70
     1
102
RTVSPropertyOp21
 70
     1
102
RTVSPropertyOp22
 70
     1
102
RTVSPropertyOp23
 70
     1
102
RTVSPropertyOp24
 70
     1
102
RTVSPropertyOp25
 70
     1
102
RTVSPropertyOp26
 70
     1
102
RTVSPropertyOp27
 70
     1
102
RTVSPropertyOp28
 70
     1
102
RTVSPropertyOp29
 70
     1
102
RTVSPropertyOp30
 70
     1
102
RTVSPropertyOp31
 70
     1
102
RTVSPropertyOp32
 70
     1
  0
XRECORD
  5
3E8
102
{ACAD_REACTORS
330
3E7
102
}
330
3E7
100
AcDbXrecord
280
     1
102
RTVSPropertyOp0
 70
     1
102
RTVSPropertyOp1
 70
     1
102
RTVSPropertyOp2
 70
     1
102
RTVSPropertyOp3
 70
     1
102
RTVSPropertyOp4
 70
     1
102
RTVSPropertyOp5
 70
     1
102
RTVSPropertyOp6
 70
     1
102
RTVSPropertyOp7
 70
     1
102
RTVSPropertyOp8
 70
     1
102
RTVSPropertyOp9
 70
     1
102
RTVSPropertyOp10
 70
     1
102
RTVSPropertyOp11
 70
     1
102
RTVSPropertyOp12
 70
     1
102
RTVSPropertyOp13
 70
     1
102
RTVSPropertyOp14
 70
     1
102
RTVSPropertyOp15
 70
     1
102
RTVSPropertyOp16
 70
     1
102
RTVSPropertyOp17
 70
     1
102
RTVSPropertyOp18
 70
     1
102
RTVSPropertyOp19
 70
     1
102
RTVSPropertyOp20
 70
     1
102
RTVSPropertyOp21
 70
     1
102
RTVSPropertyOp22
 70
     1
102
RTVSPropertyOp23
 70
     1
102
RTVSPropertyOp24
 70
     1
102
RTVSPropertyOp25
 70
     1
102
RTVSPropertyOp26
 70
     1
102
RTVSPropertyOp27
 70
     1
102
RTVSPropertyOp28
 70
     1
102
RTVSPropertyOp29
 70
     1
102
RTVSPropertyOp30
 70
     1
102
RTVSPropertyOp31
 70
     1
102
RTVSPropertyOp32
 70
     1
  0
XRECORD
  5
3F4
102
{ACAD_REACTORS
330
3F3
102
}
330
3F3
100
AcDbXrecord
280
     1
102
RTVSPropertyOp0
 70
     0
102
RTVSPropertyOp1
 70
     0
102
RTVSPropertyOp2
 70
     0
102
RTVSPropertyOp3
 70
     0
102
RTVSPropertyOp4
 70
     0
102
RTVSPropertyOp5
 70
     0
102
RTVSPropertyOp6
 70
     0
102
RTVSPropertyOp7
 70
     0
102
RTVSPropertyOp8
 70
     0
102
RTVSPropertyOp9
 70
     0
102
RTVSPropertyOp10
 70
     0
102
RTVSPropertyOp11
 70
     0
102
RTVSPropertyOp12
 70
     0
102
RTVSPropertyOp13
 70
     0
102
RTVSPropertyOp14
 70
     2
102
RTVSPropertyOp15
 70
     0
102
RTVSPropertyOp16
 70
     0
102
RTVSPropertyOp17
 70
     0
102
RTVSPropertyOp18
 70
     0
102
RTVSPropertyOp19
 70
     0
102
RTVSPropertyOp20
 70
     0
102
RTVSPropertyOp21
 70
     0
102
RTVSPropertyOp22
 70
     0
102
RTVSPropertyOp23
 70
     0
102
RTVSPropertyOp24
 70
     0
102
RTVSPropertyOp25
 70
     0
102
RTVSPropertyOp26
 70
     0
102
RTVSPropertyOp27
 70
     0
102
RTVSPropertyOp28
 70
     0
102
RTVSPropertyOp29
 70
     0
102
RTVSPropertyOp30
 70
     0
102
RTVSPropertyOp31
 70
     0
102
RTVSPropertyOp32
 70
     0
  0
XRECORD
  5
3DA
102
{ACAD_REACTORS
330
3D9
102
}
330
3D9
100
AcDbXrecord
280
     1
102
RTVSPropertyOp0
 70
     1
102
RTVSPropertyOp1
 70
     1
102
RTVSPropertyOp2
 70
     1
102
RTVSPropertyOp3
 70
     1
102
RTVSPropertyOp4
 70
     1
102
RTVSPropertyOp5
 70
     1
102
RTVSPropertyOp6
 70
     1
102
RTVSPropertyOp7
 70
     1
102
RTVSPropertyOp8
 70
     1
102
RTVSPropertyOp9
 70
     1
102
RTVSPropertyOp10
 70
     1
102
RTVSPropertyOp11
 70
     1
102
RTVSPropertyOp12
 70
     1
102
RTVSPropertyOp13
 70
     1
102
RTVSPropertyOp14
 70
     1
102
RTVSPropertyOp15
 70
     1
102
RTVSPropertyOp16
 70
     1
102
RTVSPropertyOp17
 70
     1
102
RTVSPropertyOp18
 70
     1
102
RTVSPropertyOp19
 70
     1
102
RTVSPropertyOp20
 70
     1
102
RTVSPropertyOp21
 70
     1
102
RTVSPropertyOp22
 70
     1
102
RTVSPropertyOp23
 70
     1
102
RTVSPropertyOp24
 70
     1
102
RTVSPropertyOp25
 70
     1
102
RTVSPropertyOp26
 70
     1
102
RTVSPropertyOp27
 70
     1
102
RTVSPropertyOp28
 70
     1
102
RTVSPropertyOp29
 70
     1
102
RTVSPropertyOp30
 70
     1
102
RTVSPropertyOp31
 70
     1
102
RTVSPropertyOp32
 70
     1
  0
XRECORD
  5
3F6
102
{ACAD_REACTORS
330
3F5
102
}
330
3F5
100
AcDbXrecord
280
     1
102
RTVSPropertyOp0
 70
     0
102
RTVSPropertyOp1
 70
     0
102
RTVSPropertyOp2
 70
     0
102
RTVSPropertyOp3
 70
     0
102
RTVSPropertyOp4
 70
     0
102
RTVSPropertyOp5
 70
     0
102
RTVSPropertyOp6
 70
     0
102
RTVSPropertyOp7
 70
     0
102
RTVSPropertyOp8
 70
     0
102
RTVSPropertyOp9
 70
     0
102
RTVSPropertyOp10
 70
     0
102
RTVSPropertyOp11
 70
     0
102
RTVSPropertyOp12
 70
     0
102
RTVSPropertyOp13
 70
     0
102
RTVSPropertyOp14
 70
     2
102
RTVSPropertyOp15
 70
     0
102
RTVSPropertyOp16
 70
     0
102
RTVSPropertyOp17
 70
     0
102
RTVSPropertyOp18
 70
     0
102
RTVSPropertyOp19
 70
     0
102
RTVSPropertyOp20
 70
     0
102
RTVSPropertyOp21
 70
     0
102
RTVSPropertyOp22
 70
     0
102
RTVSPropertyOp23
 70
     0
102
RTVSPropertyOp24
 70
     0
102
RTVSPropertyOp25
 70
     0
102
RTVSPropertyOp26
 70
     0
102
RTVSPropertyOp27
 70
     0
102
RTVSPropertyOp28
 70
     0
102
RTVSPropertyOp29
 70
     0
102
RTVSPropertyOp30
 70
     0
102
RTVSPropertyOp31
 70
     0
102
RTVSPropertyOp32
 70
     0
  0
XRECORD
  5
3D0
102
{ACAD_REACTORS
330
3CF
102
}
330
3CF
100
AcDbXrecord
280
     1
102
RTVSPropertyOp0
 70
     1
102
RTVSPropertyOp1
 70
     1
102
RTVSPropertyOp2
 70
     1
102
RTVSPropertyOp3
 70
     1
102
RTVSPropertyOp4
 70
     1
102
RTVSPropertyOp5
 70
     1
102
RTVSPropertyOp6
 70
     1
102
RTVSPropertyOp7
 70
     1
102
RTVSPropertyOp8
 70
     1
102
RTVSPropertyOp9
 70
     1
102
RTVSPropertyOp10
 70
     1
102
RTVSPropertyOp11
 70
     1
102
RTVSPropertyOp12
 70
     1
102
RTVSPropertyOp13
 70
     1
102
RTVSPropertyOp14
 70
     1
102
RTVSPropertyOp15
 70
     1
102
RTVSPropertyOp16
 70
     1
102
RTVSPropertyOp17
 70
     1
102
RTVSPropertyOp18
 70
     1
102
RTVSPropertyOp19
 70
     1
102
RTVSPropertyOp20
 70
     1
102
RTVSPropertyOp21
 70
     1
102
RTVSPropertyOp22
 70
     1
102
RTVSPropertyOp23
 70
     1
102
RTVSPropertyOp24
 70
     1
102
RTVSPropertyOp25
 70
     1
102
RTVSPropertyOp26
 70
     1
102
RTVSPropertyOp27
 70
     1
102
RTVSPropertyOp28
 70
     1
102
RTVSPropertyOp29
 70
     1
102
RTVSPropertyOp30
 70
     1
102
RTVSPropertyOp31
 70
     1
102
RTVSPropertyOp32
 70
     1
  0
XRECORD
  5
3F2
102
{ACAD_REACTORS
330
3F1
102
}
330
3F1
100
AcDbXrecord
280
     1
102
RTVSPropertyOp0
 70
     1
102
RTVSPropertyOp1
 70
     1
102
RTVSPropertyOp2
 70
     1
102
RTVSPropertyOp3
 70
     1
102
RTVSPropertyOp4
 70
     1
102
RTVSPropertyOp5
 70
     1
102
RTVSPropertyOp6
 70
     1
102
RTVSPropertyOp7
 70
     1
102
RTVSPropertyOp8
 70
     1
102
RTVSPropertyOp9
 70
     1
102
RTVSPropertyOp10
 70
     1
102
RTVSPropertyOp11
 70
     1
102
RTVSPropertyOp12
 70
     1
102
RTVSPropertyOp13
 70
     1
102
RTVSPropertyOp14
 70
     1
102
RTVSPropertyOp15
 70
     1
102
RTVSPropertyOp16
 70
     1
102
RTVSPropertyOp17
 70
     1
102
RTVSPropertyOp18
 70
     1
102
RTVSPropertyOp19
 70
     1
102
RTVSPropertyOp20
 70
     1
102
RTVSPropertyOp21
 70
     1
102
RTVSPropertyOp22
 70
     1
102
RTVSPropertyOp23
 70
     1
102
RTVSPropertyOp24
 70
     1
102
RTVSPropertyOp25
 70
     1
102
RTVSPropertyOp26
 70
     1
102
RTVSPropertyOp27
 70
     1
102
RTVSPropertyOp28
 70
     1
102
RTVSPropertyOp29
 70
     1
102
RTVSPropertyOp30
 70
     1
102
RTVSPropertyOp31
 70
     1
102
RTVSPropertyOp32
 70
     1
  0
XRECORD
  5
3F0
102
{ACAD_REACTORS
330
3EF
102
}
330
3EF
100
AcDbXrecord
280
     1
102
RTVSPropertyOp0
 70
     1
102
RTVSPropertyOp1
 70
     1
102
RTVSPropertyOp2
 70
     1
102
RTVSPropertyOp3
 70
     1
102
RTVSPropertyOp4
 70
     1
102
RTVSPropertyOp5
 70
     1
102
RTVSPropertyOp6
 70
     1
102
RTVSPropertyOp7
 70
     1
102
RTVSPropertyOp8
 70
     1
102
RTVSPropertyOp9
 70
     1
102
RTVSPropertyOp10
 70
     1
102
RTVSPropertyOp11
 70
     1
102
RTVSPropertyOp12
 70
     1
102
RTVSPropertyOp13
 70
     1
102
RTVSPropertyOp14
 70
     1
102
RTVSPropertyOp15
 70
     1
102
RTVSPropertyOp16
 70
     1
102
RTVSPropertyOp17
 70
     1
102
RTVSPropertyOp18
 70
     1
102
RTVSPropertyOp19
 70
     1
102
RTVSPropertyOp20
 70
     1
102
RTVSPropertyOp21
 70
     1
102
RTVSPropertyOp22
 70
     1
102
RTVSPropertyOp23
 70
     1
102
RTVSPropertyOp24
 70
     1
102
RTVSPropertyOp25
 70
     1
102
RTVSPropertyOp26
 70
     1
102
RTVSPropertyOp27
 70
     1
102
RTVSPropertyOp28
 70
     1
102
RTVSPropertyOp29
 70
     1
102
RTVSPropertyOp30
 70
     1
102
RTVSPropertyOp31
 70
     1
102
RTVSPropertyOp32
 70
     1
  0
XRECORD
  5
3EA
102
{ACAD_REACTORS
330
3E9
102
}
330
3E9
100
AcDbXrecord
280
     1
102
RTVSPropertyOp0
 70
     1
102
RTVSPropertyOp1
 70
     1
102
RTVSPropertyOp2
 70
     1
102
RTVSPropertyOp3
 70
     1
102
RTVSPropertyOp4
 70
     1
102
RTVSPropertyOp5
 70
     1
102
RTVSPropertyOp6
 70
     1
102
RTVSPropertyOp7
 70
     1
102
RTVSPropertyOp8
 70
     1
102
RTVSPropertyOp9
 70
     1
102
RTVSPropertyOp10
 70
     1
102
RTVSPropertyOp11
 70
     1
102
RTVSPropertyOp12
 70
     1
102
RTVSPropertyOp13
 70
     1
102
RTVSPropertyOp14
 70
     1
102
RTVSPropertyOp15
 70
     1
102
RTVSPropertyOp16
 70
     1
102
RTVSPropertyOp17
 70
     1
102
RTVSPropertyOp18
 70
     1
102
RTVSPropertyOp19
 70
     1
102
RTVSPropertyOp20
 70
     1
102
RTVSPropertyOp21
 70
     1
102
RTVSPropertyOp22
 70
     1
102
RTVSPropertyOp23
 70
     1
102
RTVSPropertyOp24
 70
     1
102
RTVSPropertyOp25
 70
     1
102
RTVSPropertyOp26
 70
     1
102
RTVSPropertyOp27
 70
     1
102
RTVSPropertyOp28
 70
     1
102
RTVSPropertyOp29
 70
     1
102
RTVSPropertyOp30
 70
     1
102
RTVSPropertyOp31
 70
     1
102
RTVSPropertyOp32
 70
     1
  0
XRECORD
  5
3EC
102
{ACAD_REACTORS
330
3EB
102
}
330
3EB
100
AcDbXrecord
280
     1
102
RTVSPropertyOp0
 70
     1
102
RTVSPropertyOp1
 70
     1
102
RTVSPropertyOp2
 70
     1
102
RTVSPropertyOp3
 70
     1
102
RTVSPropertyOp4
 70
     1
102
RTVSPropertyOp5
 70
     1
102
RTVSPropertyOp6
 70
     1
102
RTVSPropertyOp7
 70
     1
102
RTVSPropertyOp8
 70
     1
102
RTVSPropertyOp9
 70
     1
102
RTVSPropertyOp10
 70
     1
102
RTVSPropertyOp11
 70
     1
102
RTVSPropertyOp12
 70
     1
102
RTVSPropertyOp13
 70
     1
102
RTVSPropertyOp14
 70
     1
102
RTVSPropertyOp15
 70
     1
102
RTVSPropertyOp16
 70
     1
102
RTVSPropertyOp17
 70
     1
102
RTVSPropertyOp18
 70
     1
102
RTVSPropertyOp19
 70
     1
102
RTVSPropertyOp20
 70
     1
102
RTVSPropertyOp21
 70
     1
102
RTVSPropertyOp22
 70
     1
102
RTVSPropertyOp23
 70
     1
102
RTVSPropertyOp24
 70
     1
102
RTVSPropertyOp25
 70
     1
102
RTVSPropertyOp26
 70
     1
102
RTVSPropertyOp27
 70
     1
102
RTVSPropertyOp28
 70
     1
102
RTVSPropertyOp29
 70
     1
102
RTVSPropertyOp30
 70
     1
102
RTVSPropertyOp31
 70
     1
102
RTVSPropertyOp32
 70
     1
  0
XRECORD
  5
3D8
102
{ACAD_REACTORS
330
3D7
102
}
330
3D7
100
AcDbXrecord
280
     1
102
RTVSPropertyOp0
 70
     1
102
RTVSPropertyOp1
 70
     1
102
RTVSPropertyOp2
 70
     1
102
RTVSPropertyOp3
 70
     1
102
RTVSPropertyOp4
 70
     1
102
RTVSPropertyOp5
 70
     1
102
RTVSPropertyOp6
 70
     1
102
RTVSPropertyOp7
 70
     1
102
RTVSPropertyOp8
 70
     1
102
RTVSPropertyOp9
 70
     1
102
RTVSPropertyOp10
 70
     1
102
RTVSPropertyOp11
 70
     1
102
RTVSPropertyOp12
 70
     1
102
RTVSPropertyOp13
 70
     1
102
RTVSPropertyOp14
 70
     1
102
RTVSPropertyOp15
 70
     1
102
RTVSPropertyOp16
 70
     1
102
RTVSPropertyOp17
 70
     1
102
RTVSPropertyOp18
 70
     1
102
RTVSPropertyOp19
 70
     1
102
RTVSPropertyOp20
 70
     1
102
RTVSPropertyOp21
 70
     1
102
RTVSPropertyOp22
 70
     1
102
RTVSPropertyOp23
 70
     1
102
RTVSPropertyOp24
 70
     1
102
RTVSPropertyOp25
 70
     1
102
RTVSPropertyOp26
 70
     1
102
RTVSPropertyOp27
 70
     1
102
RTVSPropertyOp28
 70
     1
102
RTVSPropertyOp29
 70
     1
102
RTVSPropertyOp30
 70
     1
102
RTVSPropertyOp31
 70
     1
102
RTVSPropertyOp32
 70
     1
  0
XRECORD
  5
3E6
102
{ACAD_REACTORS
330
3E5
102
}
330
3E5
100
AcDbXrecord
280
     1
102
RTVSPropertyOp0
 70
     1
102
RTVSPropertyOp1
 70
     1
102
RTVSPropertyOp2
 70
     1
102
RTVSPropertyOp3
 70
     1
102
RTVSPropertyOp4
 70
     1
102
RTVSPropertyOp5
 70
     1
102
RTVSPropertyOp6
 70
     1
102
RTVSPropertyOp7
 70
     1
102
RTVSPropertyOp8
 70
     1
102
RTVSPropertyOp9
 70
     1
102
RTVSPropertyOp10
 70
     1
102
RTVSPropertyOp11
 70
     1
102
RTVSPropertyOp12
 70
     1
102
RTVSPropertyOp13
 70
     1
102
RTVSPropertyOp14
 70
     1
102
RTVSPropertyOp15
 70
     1
102
RTVSPropertyOp16
 70
     1
102
RTVSPropertyOp17
 70
     1
102
RTVSPropertyOp18
 70
     1
102
RTVSPropertyOp19
 70
     1
102
RTVSPropertyOp20
 70
     1
102
RTVSPropertyOp21
 70
     1
102
RTVSPropertyOp22
 70
     1
102
RTVSPropertyOp23
 70
     1
102
RTVSPropertyOp24
 70
     1
102
RTVSPropertyOp25
 70
     1
102
RTVSPropertyOp26
 70
     1
102
RTVSPropertyOp27
 70
     1
102
RTVSPropertyOp28
 70
     1
102
RTVSPropertyOp29
 70
     1
102
RTVSPropertyOp30
 70
     1
102
RTVSPropertyOp31
 70
     1
102
RTVSPropertyOp32
 70
     1
  0
XRECORD
  5
3EE
102
{ACAD_REACTORS
330
3ED
102
}
330
3ED
100
AcDbXrecord
280
     1
102
RTVSPropertyOp0
 70
     1
102
RTVSPropertyOp1
 70
     1
102
RTVSPropertyOp2
 70
     1
102
RTVSPropertyOp3
 70
     1
102
RTVSPropertyOp4
 70
     1
102
RTVSPropertyOp5
 70
     1
102
RTVSPropertyOp6
 70
     1
102
RTVSPropertyOp7
 70
     1
102
RTVSPropertyOp8
 70
     1
102
RTVSPropertyOp9
 70
     1
102
RTVSPropertyOp10
 70
     1
102
RTVSPropertyOp11
 70
     1
102
RTVSPropertyOp12
 70
     1
102
RTVSPropertyOp13
 70
     1
102
RTVSPropertyOp14
 70
     1
102
RTVSPropertyOp15
 70
     1
102
RTVSPropertyOp16
 70
     1
102
RTVSPropertyOp17
 70
     1
102
RTVSPropertyOp18
 70
     1
102
RTVSPropertyOp19
 70
     1
102
RTVSPropertyOp20
 70
     1
102
RTVSPropertyOp21
 70
     1
102
RTVSPropertyOp22
 70
     1
102
RTVSPropertyOp23
 70
     1
102
RTVSPropertyOp24
 70
     1
102
RTVSPropertyOp25
 70
     1
102
RTVSPropertyOp26
 70
     1
102
RTVSPropertyOp27
 70
     1
102
RTVSPropertyOp28
 70
     1
102
RTVSPropertyOp29
 70
     1
102
RTVSPropertyOp30
 70
     1
102
RTVSPropertyOp31
 70
     1
102
RTVSPropertyOp32
 70
     1
  0
ENDSEC
  0
EOF
