  0
SECTION
  2
HEADER
  9
$ACADVER
  1
AC1024
  9
$ACADMAINTVER
 70
    38
  9
$DWGCODEPAGE
  3
ANSI_1252
  9
$LASTSAVEDBY
  1
SkudHome1
  9
$INSBASE
 10
0.0
 20
0.0
 30
0.0
  9
$EXTMIN
 10
0.698345483333328
 20
0.8298882113821042
 30
-0.0000000000001173
  9
$EXTMAX
 10
22.50001215000001
 20
17.33988821138211
 30
0.0
  9
$LIMMIN
 10
0.0
 20
0.0
  9
$LIMMAX
 10
23.28333333333333
 20
17.99166666666666
  9
$ORTHOMODE
 70
     0
  9
$REGENMODE
 70
     1
  9
$FILLMODE
 70
     1
  9
$QTEXTMODE
 70
     0
  9
$MIRRTEXT
 70
     1
  9
$LTSCALE
 40
0.0833333333333333
  9
$ATTMODE
 70
     1
  9
$TEXTSIZE
 40
2.5
  9
$TRACEWID
 40
1.0
  9
$TEXTSTYLE
  7
STANDARD
  9
$CLAYER
  8
0
  9
$CELTYPE
  6
ByLayer
  9
$CECOLOR
 62
   256
  9
$CELTSCALE
 40
1.0
  9
$DISPSILH
 70
     0
  9
$DIMSCALE
 40
1.0
  9
$DIMASZ
 40
0.1666666666666666
  9
$DIMEXO
 40
0.125
  9
$DIMDLI
 40
3.75
  9
$DIMRND
 40
0.0
  9
$DIMDLE
 40
0.0
  9
$DIMEXE
 40
0.1666666666666666
  9
$DIMTP
 40
0.0
  9
$DIMTM
 40
0.0
  9
$DIMTXT
 40
0.2939814814814814
  9
$DIMCEN
 40
2.5
  9
$DIMTSZ
 40
0.0
  9
$DIMTOL
 70
     0
  9
$DIMLIM
 70
     0
  9
$DIMTIH
 70
     1
  9
$DIMTOH
 70
     1
  9
$DIMSE1
 70
     0
  9
$DIMSE2
 70
     0
  9
$DIMTAD
 70
     1
  9
$DIMZIN
 70
     0
  9
$DIMBLK
  1

  9
$DIMASO
 70
     1
  9
$DIMSHO
 70
     1
  9
$DIMPOST
  1

  9
$DIMAPOST
  1

  9
$DIMALT
 70
     0
  9
$DIMALTD
 70
     3
  9
$DIMALTF
 40
0.0393700787401575
  9
$DIMLFAC
 40
1.0
  9
$DIMTOFL
 70
     1
  9
$DIMTVP
 40
0.0
  9
$DIMTIX
 70
     0
  9
$DIMSOXD
 70
     0
  9
$DIMSAH
 70
     0
  9
$DIMBLK1
  1

  9
$DIMBLK2
  1

  9
$DIMSTYLE
  2
ISO-25
  9
$DIMCLRD
 70
     0
  9
$DIMCLRE
 70
     0
  9
$DIMCLRT
 70
     0
  9
$DIMTFAC
 40
1.0
  9
$DIMGAP
 40
0.0833333333333333
  9
$DIMJUST
 70
     0
  9
$DIMSD1
 70
     0
  9
$DIMSD2
 70
     0
  9
$DIMTOLJ
 70
     0
  9
$DIMTZIN
 70
     0
  9
$DIMALTZ
 70
     0
  9
$DIMALTTZ
 70
     0
  9
$DIMUPT
 70
     0
  9
$DIMDEC
 70
     2
  9
$DIMTDEC
 70
     2
  9
$DIMALTU
 70
     2
  9
$DIMALTTD
 70
     3
  9
$DIMTXSTY
  7
STANDARD
  9
$DIMAUNIT
 70
     0
  9
$DIMADEC
 70
     1
  9
$DIMALTRND
 40
0.0
  9
$DIMAZIN
 70
     0
  9
$DIMDSEP
 70
    44
  9
$DIMATFIT
 70
     3
  9
$DIMFRAC
 70
     0
  9
$DIMLDRBLK
  1

  9
$DIMLUNIT
 70
     2
  9
$DIMLWD
 70
    -2
  9
$DIMLWE
 70
    -2
  9
$DIMTMOVE
 70
     0
  9
$DIMFXL
 40
1.0
  9
$DIMFXLON
 70
     0
  9
$DIMJOGANG
 40
0.7853981633974483
  9
$DIMTFILL
 70
     0
  9
$DIMTFILLCLR
 70
     0
  9
$DIMARCSYM
 70
     0
  9
$DIMLTYPE
  6

  9
$DIMLTEX1
  6

  9
$DIMLTEX2
  6

  9
$DIMTXTDIRECTION
 70
     0
  9
$LUNITS
 70
     2
  9
$LUPREC
 70
     2
  9
$SKETCHINC
 40
1.0
  9
$FILLETRAD
 40
10.0
  9
$AUNITS
 70
     0
  9
$AUPREC
 70
     1
  9
$MENU
  1
.
  9
$ELEVATION
 40
0.0
  9
$PELEVATION
 40
0.0
  9
$THICKNESS
 40
0.0
  9
$LIMCHECK
 70
     0
  9
$CHAMFERA
 40
10.0
  9
$CHAMFERB
 40
10.0
  9
$CHAMFERC
 40
20.0
  9
$CHAMFERD
 40
0.0
  9
$SKPOLY
 70
     0
  9
$TDCREATE
 40
2456114.700319421
  9
$TDUCREATE
 40
2456114.991986088
  9
$TDUPDATE
 40
2456114.703092257
  9
$TDUUPDATE
 40
2456114.994758924
  9
$TDINDWG
 40
0.0000834144
  9
$TDUSRTIMER
 40
0.0000834144
  9
$USRTIMER
 70
     1
  9
$ANGBASE
 50
0.0
  9
$ANGDIR
 70
     0
  9
$PDMODE
 70
     0
  9
$PDSIZE
 40
-1.0
  9
$PLINEWID
 40
0.0
  9
$SPLFRAME
 70
     0
  9
$SPLINETYPE
 70
     6
  9
$SPLINESEGS
 70
     8
  9
$HANDSEED
  5
4FC
  9
$SURFTAB1
 70
     6
  9
$SURFTAB2
 70
     6
  9
$SURFTYPE
 70
     6
  9
$SURFU
 70
     6
  9
$SURFV
 70
     6
  9
$UCSBASE
  2

  9
$UCSNAME
  2

  9
$UCSORG
 10
0.0
 20
0.0
 30
0.0
  9
$UCSXDIR
 10
1.0
 20
0.0
 30
0.0
  9
$UCSYDIR
 10
0.0
 20
1.0
 30
0.0
  9
$UCSORTHOREF
  2

  9
$UCSORTHOVIEW
 70
     0
  9
$UCSORGTOP
 10
0.0
 20
0.0
 30
0.0
  9
$UCSORGBOTTOM
 10
0.0
 20
0.0
 30
0.0
  9
$UCSORGLEFT
 10
0.0
 20
0.0
 30
0.0
  9
$UCSORGRIGHT
 10
0.0
 20
0.0
 30
0.0
  9
$UCSORGFRONT
 10
0.0
 20
0.0
 30
0.0
  9
$UCSORGBACK
 10
0.0
 20
0.0
 30
0.0
  9
$PUCSBASE
  2

  9
$PUCSNAME
  2

  9
$PUCSORG
 10
0.0
 20
0.0
 30
0.0
  9
$PUCSXDIR
 10
1.0
 20
0.0
 30
0.0
  9
$PUCSYDIR
 10
0.0
 20
1.0
 30
0.0
  9
$PUCSORTHOREF
  2

  9
$PUCSORTHOVIEW
 70
     0
  9
$PUCSORGTOP
 10
0.0
 20
0.0
 30
0.0
  9
$PUCSORGBOTTOM
 10
0.0
 20
0.0
 30
0.0
  9
$PUCSORGLEFT
 10
0.0
 20
0.0
 30
0.0
  9
$PUCSORGRIGHT
 10
0.0
 20
0.0
 30
0.0
  9
$PUCSORGFRONT
 10
0.0
 20
0.0
 30
0.0
  9
$PUCSORGBACK
 10
0.0
 20
0.0
 30
0.0
  9
$USERI1
 70
     0
  9
$USERI2
 70
     0
  9
$USERI3
 70
     0
  9
$USERI4
 70
     0
  9
$USERI5
 70
     0
  9
$USERR1
 40
0.0
  9
$USERR2
 40
0.0
  9
$USERR3
 40
0.0
  9
$USERR4
 40
0.0
  9
$USERR5
 40
0.0
  9
$WORLDVIEW
 70
     1
  9
$SHADEDGE
 70
     3
  9
$SHADEDIF
 70
    70
  9
$TILEMODE
 70
     1
  9
$MAXACTVP
 70
    64
  9
$PINSBASE
 10
0.0
 20
0.0
 30
0.0
  9
$PLIMCHECK
 70
     0
  9
$PEXTMIN
 10
1.000000000000000E+20
 20
1.000000000000000E+20
 30
1.000000000000000E+20
  9
$PEXTMAX
 10
-1.000000000000000E+20
 20
-1.000000000000000E+20
 30
-1.000000000000000E+20
  9
$PLIMMIN
 10
0.0
 20
0.0
  9
$PLIMMAX
 10
420.0
 20
297.0
  9
$UNITMODE
 70
     0
  9
$VISRETAIN
 70
     1
  9
$PLINEGEN
 70
     0
  9
$PSLTSCALE
 70
     1
  9
$TREEDEPTH
 70
  3020
  9
$CMLSTYLE
  2
Standard
  9
$CMLJUST
 70
     0
  9
$CMLSCALE
 40
20.0
  9
$PROXYGRAPHICS
 70
     1
  9
$MEASUREMENT
 70
     1
  9
$CELWEIGHT
370
    -1
  9
$ENDCAPS
280
     0
  9
$JOINSTYLE
280
     0
  9
$LWDISPLAY
290
     1
  9
$INSUNITS
 70
     4
  9
$HYPERLINKBASE
  1

  9
$STYLESHEET
  1

  9
$XEDIT
290
     1
  9
$CEPSNTYPE
380
     0
  9
$PSTYLEMODE
290
     1
  9
$FINGERPRINTGUID
  2
{87A96A30-D744-43E2-86C8-3A75E62A9BE9}
  9
$VERSIONGUID
  2
{FAEB1C32-E019-11D5-929B-00C0DF256EC4}
  9
$EXTNAMES
290
     1
  9
$PSVPSCALE
 40
0.0
  9
$OLESTARTUP
290
     0
  9
$SORTENTS
280
   127
  9
$INDEXCTL
280
     0
  9
$HIDETEXT
280
     1
  9
$XCLIPFRAME
280
     2
  9
$HALOGAP
280
     0
  9
$OBSCOLOR
 70
   257
  9
$OBSLTYPE
280
     0
  9
$INTERSECTIONDISPLAY
280
     0
  9
$INTERSECTIONCOLOR
 70
   257
  9
$DIMASSOC
280
     2
  9
$PROJECTNAME
  1

  9
$CAMERADISPLAY
290
     0
  9
$LENSLENGTH
 40
50.0
  9
$CAMERAHEIGHT
 40
0.0
  9
$STEPSPERSEC
 40
2.0
  9
$STEPSIZE
 40
6.0
  9
$3DDWFPREC
 40
2.0
  9
$PSOLWIDTH
 40
5.0
  9
$PSOLHEIGHT
 40
80.0
  9
$LOFTANG1
 40
1.570796326794896
  9
$LOFTANG2
 40
1.570796326794896
  9
$LOFTMAG1
 40
0.0
  9
$LOFTMAG2
 40
0.0
  9
$LOFTPARAM
 70
     7
  9
$LOFTNORMALS
280
     1
  9
$LATITUDE
 40
37.795
  9
$LONGITUDE
 40
-122.394
  9
$NORTHDIRECTION
 40
0.0
  9
$TIMEZONE
 70
 -8000
  9
$LIGHTGLYPHDISPLAY
280
     1
  9
$TILEMODELIGHTSYNCH
280
     1
  9
$CMATERIAL
347
3C
  9
$SOLIDHIST
280
     1
  9
$SHOWHIST
280
     1
  9
$DWFFRAME
280
     2
  9
$DGNFRAME
280
     2
  9
$REALWORLDSCALE
290
     1
  9
$INTERFERECOLOR
 62
   256
  9
$INTERFEREOBJVS
345
33
  9
$INTERFEREVPVS
346
4E3
  9
$CSHADOW
280
     0
  9
$SHADOWPLANELOCATION
 40
0.0
  0
ENDSEC
  0
SECTION
  2
CLASSES
  0
CLASS
  1
ACDBDICTIONARYWDFLT
  2
AcDbDictionaryWithDefault
  3
ObjectDBX Classes
 90
        0
 91
        1
280
     0
281
     0
  0
CLASS
  1
VISUALSTYLE
  2
AcDbVisualStyle
  3
ObjectDBX Classes
 90
     4095
 91
       26
280
     0
281
     0
  0
CLASS
  1
MATERIAL
  2
AcDbMaterial
  3
ObjectDBX Classes
 90
     1153
 91
        3
280
     0
281
     0
  0
CLASS
  1
IMAGEDEF
  2
AcDbRasterImageDef
  3
ISM
 90
        0
 91
        1
280
     0
281
     0
  0
CLASS
  1
IMAGE
  2
AcDbRasterImage
  3
ISM
 90
     2175
 91
        1
280
     0
281
     1
  0
CLASS
  1
IMAGEDEF_REACTOR
  2
AcDbRasterImageDefReactor
  3
ISM
 90
        1
 91
        1
280
     0
281
     0
  0
CLASS
  1
SCALE
  2
AcDbScale
  3
ObjectDBX Classes
 90
     1153
 91
       33
280
     0
281
     0
  0
CLASS
  1
DICTIONARYVAR
  2
AcDbDictionaryVar
  3
ObjectDBX Classes
 90
        0
 91
        3
280
     0
281
     0
  0
CLASS
  1
RASTERVARIABLES
  2
AcDbRasterVariables
  3
ISM
 90
        0
 91
        1
280
     0
281
     0
  0
CLASS
  1
TABLESTYLE
  2
AcDbTableStyle
  3
ObjectDBX Classes
 90
     4095
 91
        1
280
     0
281
     0
  0
CLASS
  1
MLEADERSTYLE
  2
AcDbMLeaderStyle
  3
ACDB_MLEADERSTYLE_CLASS
 90
     4095
 91
        1
280
     0
281
     0
  0
CLASS
  1
CELLSTYLEMAP
  2
AcDbCellStyleMap
  3
ObjectDBX Classes
 90
     1152
 91
        1
280
     0
281
     0
  0
ENDSEC
  0
SECTION
  2
TABLES
  0
TABLE
  2
VPORT
  5
8
330
0
100
AcDbSymbolTable
 70
     1
  0
VPORT
  5
29
330
8
100
AcDbSymbolTableRecord
100
AcDbViewportTableRecord
  2
*Active
 70
     0
 10
0.0
 20
0.0
 11
1.0
 21
1.0
 12
20.54644003208985
 22
8.995833333333331
 13
0.0
 23
0.0
 14
10.0
 24
10.0
 15
10.0
 25
10.0
 16
0.0
 26
0.0
 36
1.0
 17
0.0
 27
0.0
 37
0.0
 40
17.99166666666666
 41
2.283995186522262
 42
50.0
 43
0.0
 44
0.0
 50
0.0
 51
0.0
 71
     0
 72
  2000
 73
     1
 74
     3
 75
     0
 76
     0
 77
     0
 78
     0
281
     0
 65
     1
110
0.0
120
0.0
130
0.0
111
1.0
121
0.0
131
0.0
112
0.0
122
1.0
132
0.0
 79
     0
146
0.0
348
2F
 60
     3
 61
     5
292
     1
282
     1
141
0.0
142
0.0
 63
   250
  0
ENDTAB
  0
TABLE
  2
LTYPE
  5
5
330
0
100
AcDbSymbolTable
 70
     6
  0
LTYPE
  5
14
330
5
100
AcDbSymbolTableRecord
100
AcDbLinetypeTableRecord
  2
ByBlock
 70
     0
  3

 72
    65
 73
     0
 40
0.0
  0
LTYPE
  5
15
330
5
100
AcDbSymbolTableRecord
100
AcDbLinetypeTableRecord
  2
ByLayer
 70
     0
  3

 72
    65
 73
     0
 40
0.0
  0
LTYPE
  5
16
330
5
100
AcDbSymbolTableRecord
100
AcDbLinetypeTableRecord
  2
Continuous
 70
     0
  3
Solid line
 72
    65
 73
     0
 40
0.0
  0
LTYPE
  5
3F
330
5
100
AcDbSymbolTableRecord
100
AcDbLinetypeTableRecord
  2
HIDDEN
 70
     0
  3
Hidden __ __ __ __ __ __ __ __ __ __ __ __ __ __
 72
    65
 73
     2
 40
1.905
 49
1.27
 74
     0
 49
-0.635
 74
     0
  0
LTYPE
  5
40
330
5
100
AcDbSymbolTableRecord
100
AcDbLinetypeTableRecord
  2
PHANTOM
 70
     0
  3
Phantom ______  __  __  ______  __  __  ______
 72
    65
 73
     6
 40
12.7
 49
6.349999999999999
 74
     0
 49
-1.27
 74
     0
 49
1.27
 74
     0
 49
-1.27
 74
     0
 49
1.27
 74
     0
 49
-1.27
 74
     0
  0
LTYPE
  5
41
330
5
100
AcDbSymbolTableRecord
100
AcDbLinetypeTableRecord
  2
CENTER
 70
     0
  3
Center ____ _ ____ _ ____ _ ____ _ ____ _ ____
 72
    65
 73
     4
 40
10.16
 49
6.349999999999999
 74
     0
 49
-1.27
 74
     0
 49
1.27
 74
     0
 49
-1.27
 74
     0
  0
LTYPE
  5
42
330
5
100
AcDbSymbolTableRecord
100
AcDbLinetypeTableRecord
  2
CENTERX2
 70
     0
  3
Center (2x) ________  __  ________  __  _____
 72
    65
 73
     4
 40
20.32
 49
12.7
 74
     0
 49
-2.54
 74
     0
 49
2.54
 74
     0
 49
-2.54
 74
     0
  0
LTYPE
  5
43
330
5
100
AcDbSymbolTableRecord
100
AcDbLinetypeTableRecord
  2
DOT2
 70
     0
  3
Dot (.5x) ........................................
 72
    65
 73
     2
 40
0.635
 49
0.0
 74
     0
 49
-0.635
 74
     0
  0
ENDTAB
  0
TABLE
  2
LAYER
  5
2
330
0
100
AcDbSymbolTable
 70
     2
  0
LAYER
  5
10
330
2
100
AcDbSymbolTableRecord
100
AcDbLayerTableRecord
  2
0
 70
     0
 62
     7
  6
Continuous
370
    -3
390
F
347
3E
  0
LAYER
  5
44
330
2
100
AcDbSymbolTableRecord
100
AcDbLayerTableRecord
  2
FORMAT
 70
     0
 62
     7
  6
Continuous
370
    -3
390
F
347
3E
  0
ENDTAB
  0
TABLE
  2
STYLE
  5
3
330
0
100
AcDbSymbolTable
 70
     4
  0
STYLE
  5
11
330
3
100
AcDbSymbolTableRecord
100
AcDbTextStyleTableRecord
  2
STANDARD
 70
     0
 40
0.0
 41
1.0
 50
0.0
 71
     0
 42
2.5
  3
GOTHIC.TTF
  4

1001
ACAD
1000
CENTURY GOTHIC
1071
       34
  0
STYLE
  5
68
330
3
100
AcDbSymbolTableRecord
100
AcDbTextStyleTableRecord
  2
SLDTEXTSTYLE0
 70
     0
 40
0.0
 41
0.913
 50
0.0
 71
     0
 42
0.2
  3
GOTHIC.TTF
  4

1001
ACAD
1000
Century Gothic
1071
      290
  0
STYLE
  5
BB
330
3
100
AcDbSymbolTableRecord
100
AcDbTextStyleTableRecord
  2
SLDTEXTSTYLE1
 70
     0
 40
0.0
 41
0.913
 50
0.0
 71
     0
 42
0.2
  3
GOTHIC.TTF
  4

1001
ACAD
1000
Century Gothic
1071
 33554722
  0
STYLE
  5
CB
330
3
100
AcDbSymbolTableRecord
100
AcDbTextStyleTableRecord
  2
SLDTEXTSTYLE2
 70
     0
 40
0.0
 41
0.948
 50
0.0
 71
     0
 42
0.2
  3
ARIAL.TTF
  4

1001
ACAD
1000
Arial
1071
      290
  0
ENDTAB
  0
TABLE
  2
VIEW
  5
6
330
0
100
AcDbSymbolTable
 70
     0
  0
ENDTAB
  0
TABLE
  2
UCS
  5
7
330
0
100
AcDbSymbolTable
 70
     0
  0
ENDTAB
  0
TABLE
  2
APPID
  5
9
330
0
100
AcDbSymbolTable
 70
     1
  0
APPID
  5
12
330
9
100
AcDbSymbolTableRecord
100
AcDbRegAppTableRecord
  2
ACAD
 70
     0
  0
ENDTAB
  0
TABLE
  2
DIMSTYLE
  5
A
330
0
100
AcDbSymbolTable
 70
    13
100
AcDbDimStyleTable
 71
     0
  0
DIMSTYLE
105
27
330
A
100
AcDbSymbolTableRecord
100
AcDbDimStyleTableRecord
  2
ISO-25
 70
     0
 41
2.5
 42
0.625
 43
3.75
 44
1.25
 73
     0
 74
     0
 77
     1
 78
     8
140
2.5
141
2.5
143
0.03937007874016
147
0.625
171
     3
172
     1
271
     2
272
     2
274
     3
278
    44
283
     0
284
     8
340
11
  0
DIMSTYLE
105
385
102
{ACAD_REACTORS
330
384
330
3C1
330
3E2
330
3ED
102
}
330
A
100
AcDbSymbolTableRecord
100
AcDbDimStyleTableRecord
  2
SLDDIMSTYLE0
 70
     0
 41
0.1666666666666666
 44
0.0
 45
0.000000001
 78
    12
140
0.2204861111111111
144
0.8333333333333332
147
0.0551215277777778
173
     1
271
     2
272
     2
276
     2
284
    12
340
68
  0
DIMSTYLE
105
391
102
{ACAD_REACTORS
330
390
102
}
330
A
100
AcDbSymbolTableRecord
100
AcDbDimStyleTableRecord
  2
SLDDIMSTYLE1
 70
     0
 41
0.1666666666666666
 44
0.0
 45
0.000000001
 78
     4
140
0.2204861111111111
144
0.8333333333333332
147
0.0551215277777778
173
     1
271
     2
272
     3
276
     2
284
    12
340
68
  0
DIMSTYLE
105
39D
102
{ACAD_REACTORS
330
39C
330
3CC
330
3D7
102
}
330
A
100
AcDbSymbolTableRecord
100
AcDbDimStyleTableRecord
  2
SLDDIMSTYLE2
 70
     0
 41
0.1666666666666666
 44
0.0
 45
0.000000001
 78
     4
140
0.2204861111111111
144
0.8333333333333332
147
0.0551215277777778
173
     1
271
     2
272
     2
276
     2
284
    12
340
68
  0
DIMSTYLE
105
3A9
102
{ACAD_REACTORS
330
3A8
102
}
330
A
100
AcDbSymbolTableRecord
100
AcDbDimStyleTableRecord
  2
SLDDIMSTYLE3
 70
     0
 41
0.1666666666666666
 44
0.0
 45
0.000000001
 78
    12
140
0.2204861111111111
144
0.8333333333333332
147
0.0551215277777778
173
     1
271
     2
272
     3
276
     2
284
    12
340
68
  0
DIMSTYLE
105
3B5
102
{ACAD_REACTORS
330
3B4
102
}
330
A
100
AcDbSymbolTableRecord
100
AcDbDimStyleTableRecord
  2
SLDDIMSTYLE4
 70
     0
 41
0.1666666666666666
 44
0.0
 45
0.000000001
 78
     4
140
0.2204861111111111
144
0.8333333333333332
147
0.0551215277777778
173
     1
271
     2
272
     3
276
     2
284
    12
340
68
  0
DIMSTYLE
105
3FE
330
A
100
AcDbSymbolTableRecord
100
AcDbDimStyleTableRecord
  2
SLDDIMSTYLE5
 70
     0
 41
0.1666666666666666
 44
0.0
 45
0.000000001
140
0.0
146
0.1666666666666666
147
0.0
173
     1
271
     0
272
     0
276
     2
340
11
  0
DIMSTYLE
105
40E
330
A
100
AcDbSymbolTableRecord
100
AcDbDimStyleTableRecord
  2
SLDDIMSTYLE6
 70
     0
 41
0.0416666666666667
 44
0.0
 45
0.000000001
140
0.0
146
0.0416666666666667
147
0.0
173
     1
271
     0
272
     0
276
     2
340
11
341
40F
343
40F
344
40F
  0
DIMSTYLE
105
481
102
{ACAD_REACTORS
330
480
330
48C
330
497
102
}
330
A
100
AcDbSymbolTableRecord
100
AcDbDimStyleTableRecord
  2
SLDDIMSTYLE7
 70
     0
 41
0.1666666666666666
 44
0.0
 45
0.000000001
 78
     4
140
0.2204861111111111
144
0.25
147
0.0551215277777778
173
     1
271
     2
272
     2
276
     2
284
    12
340
68
  0
DIMSTYLE
105
4A3
102
{ACAD_REACTORS
330
4A2
102
}
330
A
100
AcDbSymbolTableRecord
100
AcDbDimStyleTableRecord
  2
SLDDIMSTYLE8
 70
     0
 41
0.1666666666666666
 44
0.0
 45
0.000000001
 78
    12
140
0.2204861111111111
144
0.25
147
0.0551215277777778
173
     1
271
     2
272
     2
276
     2
284
    12
340
68
  0
DIMSTYLE
105
4AF
102
{ACAD_REACTORS
330
4AE
102
}
330
A
100
AcDbSymbolTableRecord
100
AcDbDimStyleTableRecord
  2
SLDDIMSTYLE9
 70
     0
 41
0.1666666666666666
 44
0.0
 45
0.000000001
 78
    12
140
0.2204861111111111
144
0.25
147
0.0551215277777778
173
     1
271
     3
272
     3
276
     2
284
    12
340
68
  0
DIMSTYLE
105
4BE
102
{ACAD_REACTORS
330
4BD
102
}
330
A
100
AcDbSymbolTableRecord
100
AcDbDimStyleTableRecord
  2
SLDDIMSTYLE10
 70
     0
 41
0.1666666666666666
 44
0.0
 45
0.000000001
 78
     4
140
0.2204861111111111
144
0.25
147
0.0551215277777778
173
     1
271
     3
272
     3
276
     2
284
    12
340
68
  0
DIMSTYLE
105
4CC
102
{ACAD_REACTORS
330
4CB
102
}
330
A
100
AcDbSymbolTableRecord
100
AcDbDimStyleTableRecord
  2
SLDDIMSTYLE11
 70
     0
 41
0.1666666666666666
 44
0.0
 45
0.000000001
 78
    12
140
0.2204861111111111
141
0.0
144
0.25
147
0.0551215277777778
173
     1
271
     2
272
     2
276
     2
284
    12
340
68
  0
ENDTAB
  0
TABLE
  2
BLOCK_RECORD
  5
1
330
0
100
AcDbSymbolTable
 70
    29
  0
BLOCK_RECORD
  5
1F
330
1
100
AcDbSymbolTableRecord
100
AcDbBlockTableRecord
  2
*Model_Space
340
22
 70
     0
280
     1
281
     0
  0
BLOCK_RECORD
  5
1B
330
1
100
AcDbSymbolTableRecord
100
AcDbBlockTableRecord
  2
*Paper_Space
340
1E
 70
     0
280
     1
281
     0
  0
BLOCK_RECORD
  5
23
330
1
100
AcDbSymbolTableRecord
100
AcDbBlockTableRecord
  2
*Paper_Space0
340
26
 70
     0
280
     1
281
     0
  0
BLOCK_RECORD
  5
45
330
1
100
AcDbSymbolTableRecord
100
AcDbBlockTableRecord
  2
Block1
340
0
 70
     0
280
     1
281
     0
  0
BLOCK_RECORD
  5
65
330
1
100
AcDbSymbolTableRecord
100
AcDbBlockTableRecord
  2
SW_NOTE_18
340
0
102
{BLKREFS
331
8D
102
}
 70
     0
280
     1
281
     0
  0
BLOCK_RECORD
  5
8E
330
1
100
AcDbSymbolTableRecord
100
AcDbBlockTableRecord
  2
SW_NOTE_19
340
0
102
{BLKREFS
331
B3
102
}
 70
     0
280
     1
281
     0
  0
BLOCK_RECORD
  5
B4
330
1
100
AcDbSymbolTableRecord
100
AcDbBlockTableRecord
  2
SW_NOTE_20
340
0
102
{BLKREFS
331
B9
102
}
 70
     0
280
     1
281
     0
  0
BLOCK_RECORD
  5
C3
330
1
100
AcDbSymbolTableRecord
100
AcDbBlockTableRecord
  2
SW_NOTE_21
340
0
102
{BLKREFS
331
C8
102
}
 70
     0
280
     1
281
     0
  0
BLOCK_RECORD
  5
386
330
1
100
AcDbSymbolTableRecord
100
AcDbBlockTableRecord
  2
*D6
340
0
 70
     0
280
     1
281
     0
  0
BLOCK_RECORD
  5
392
330
1
100
AcDbSymbolTableRecord
100
AcDbBlockTableRecord
  2
*D7
340
0
 70
     0
280
     1
281
     0
  0
BLOCK_RECORD
  5
39E
330
1
100
AcDbSymbolTableRecord
100
AcDbBlockTableRecord
  2
*D8
340
0
 70
     0
280
     1
281
     0
  0
BLOCK_RECORD
  5
3AA
330
1
100
AcDbSymbolTableRecord
100
AcDbBlockTableRecord
  2
*D9
340
0
 70
     0
280
     1
281
     0
  0
BLOCK_RECORD
  5
3B6
330
1
100
AcDbSymbolTableRecord
100
AcDbBlockTableRecord
  2
*D10
340
0
 70
     0
280
     1
281
     0
  0
BLOCK_RECORD
  5
3C2
330
1
100
AcDbSymbolTableRecord
100
AcDbBlockTableRecord
  2
*D11
340
0
 70
     0
280
     1
281
     0
  0
BLOCK_RECORD
  5
3CD
330
1
100
AcDbSymbolTableRecord
100
AcDbBlockTableRecord
  2
*D12
340
0
 70
     0
280
     1
281
     0
  0
BLOCK_RECORD
  5
3D8
330
1
100
AcDbSymbolTableRecord
100
AcDbBlockTableRecord
  2
*D13
340
0
 70
     0
280
     1
281
     0
  0
BLOCK_RECORD
  5
3E3
330
1
100
AcDbSymbolTableRecord
100
AcDbBlockTableRecord
  2
*D14
340
0
 70
     0
280
     1
281
     0
  0
BLOCK_RECORD
  5
3EE
330
1
100
AcDbSymbolTableRecord
100
AcDbBlockTableRecord
  2
*D15
340
0
 70
     0
280
     1
281
     0
  0
BLOCK_RECORD
  5
3F8
330
1
100
AcDbSymbolTableRecord
100
AcDbBlockTableRecord
  2
SW_NOTE_22
340
0
102
{BLKREFS
331
3FD
102
}
 70
     0
280
     1
281
     0
  0
BLOCK_RECORD
  5
400
330
1
100
AcDbSymbolTableRecord
100
AcDbBlockTableRecord
  2
SW_NOTE_23
340
0
102
{BLKREFS
331
406
102
}
 70
     0
280
     1
281
     0
  0
BLOCK_RECORD
  5
408
330
1
100
AcDbSymbolTableRecord
100
AcDbBlockTableRecord
  2
SW_NOTE_24
340
0
102
{BLKREFS
331
40D
102
}
 70
     0
280
     1
281
     0
  0
BLOCK_RECORD
  5
40F
330
1
100
AcDbSymbolTableRecord
100
AcDbBlockTableRecord
  2
_DOT
340
0
 70
     0
280
     1
281
     0
  0
BLOCK_RECORD
  5
41C
330
1
100
AcDbSymbolTableRecord
100
AcDbBlockTableRecord
  2
SW_NOTE_25
340
0
102
{BLKREFS
331
421
102
}
 70
     0
280
     1
281
     0
  0
BLOCK_RECORD
  5
482
330
1
100
AcDbSymbolTableRecord
100
AcDbBlockTableRecord
  2
*D21
340
0
 70
     0
280
     1
281
     0
  0
BLOCK_RECORD
  5
48D
330
1
100
AcDbSymbolTableRecord
100
AcDbBlockTableRecord
  2
*D22
340
0
 70
     0
280
     1
281
     0
  0
BLOCK_RECORD
  5
498
330
1
100
AcDbSymbolTableRecord
100
AcDbBlockTableRecord
  2
*D23
340
0
 70
     0
280
     1
281
     0
  0
BLOCK_RECORD
  5
4A4
330
1
100
AcDbSymbolTableRecord
100
AcDbBlockTableRecord
  2
*D24
340
0
 70
     0
280
     1
281
     0
  0
BLOCK_RECORD
  5
4B0
330
1
100
AcDbSymbolTableRecord
100
AcDbBlockTableRecord
  2
*D25
340
0
 70
     0
280
     1
281
     0
  0
BLOCK_RECORD
  5
4BF
330
1
100
AcDbSymbolTableRecord
100
AcDbBlockTableRecord
  2
*D26
340
0
 70
     0
280
     1
281
     0
  0
BLOCK_RECORD
  5
4CD
330
1
100
AcDbSymbolTableRecord
100
AcDbBlockTableRecord
  2
*D27
340
0
 70
     0
280
     1
281
     0
  0
BLOCK_RECORD
  5
4D5
330
1
100
AcDbSymbolTableRecord
100
AcDbBlockTableRecord
  2
SW_NOTE_26
340
0
102
{BLKREFS
331
4DA
102
}
 70
     0
280
     1
281
     0
  0
ENDTAB
  0
ENDSEC
  0
SECTION
  2
BLOCKS
  0
BLOCK
  5
20
330
1F
100
AcDbEntity
  8
0
100
AcDbBlockBegin
  2
*Model_Space
 70
     0
 10
0.0
 20
0.0
 30
0.0
  3
*Model_Space
  1

  0
ENDBLK
  5
21
330
1F
100
AcDbEntity
  8
0
100
AcDbBlockEnd
  0
BLOCK
  5
1C
330
1B
100
AcDbEntity
 67
     1
  8
0
100
AcDbBlockBegin
  2
*Paper_Space
 70
     0
 10
0.0
 20
0.0
 30
0.0
  3
*Paper_Space
  1

  0
ENDBLK
  5
1D
330
1B
100
AcDbEntity
 67
     1
  8
0
100
AcDbBlockEnd
  0
BLOCK
  5
24
330
23
100
AcDbEntity
 67
     1
  8
0
100
AcDbBlockBegin
  2
*Paper_Space0
 70
     0
 10
0.0
 20
0.0
 30
0.0
  3
*Paper_Space0
  1

  0
ENDBLK
  5
25
330
23
100
AcDbEntity
 67
     1
  8
0
100
AcDbBlockEnd
  0
BLOCK
  5
46
330
45
100
AcDbEntity
  8
0
100
AcDbBlockBegin
  2
Block1
 70
     0
 10
0.0
 20
0.0
 30
0.0
  3
Block1
  1

  0
CIRCLE
  5
48
330
45
100
AcDbEntity
  8
0
  6
Continuous
 62
     7
370
     0
100
AcDbCircle
 10
11.58547793968276
 20
1.253090352234207
 30
0.0
 40
0.225120423317653
  0
CIRCLE
  5
49
330
45
100
AcDbEntity
  8
0
  6
Continuous
 62
     7
370
     0
100
AcDbCircle
 10
11.58547793968276
 20
1.253090352234207
 30
0.0
 40
0.109544330625019
  0
LINE
  5
4A
330
45
100
AcDbEntity
  8
0
  6
Continuous
 62
     7
370
     0
100
AcDbLine
 10
11.88205886380611
 20
1.253090352234207
 30
0.0
 11
11.00831395832574
 21
1.253090352234207
 31
0.0
  0
LINE
  5
4B
330
45
100
AcDbEntity
  8
0
  6
Continuous
 62
     7
370
     0
100
AcDbLine
 10
11.95252216263517
 20
1.253090352234207
 30
0.0
 11
12.07230977064457
 21
1.253090352234207
 31
0.0
  0
LINE
  5
4C
330
45
100
AcDbEntity
  8
0
  6
Continuous
 62
     7
370
     0
100
AcDbLine
 10
12.21675953324415
 20
1.254674841070472
 30
0.0
 11
13.0764117789587
 21
1.254674841070472
 31
0.0
  0
LINE
  5
4D
330
45
100
AcDbEntity
  8
0
  6
Continuous
 62
     7
370
     0
100
AcDbLine
 10
12.33397259614135
 20
1.362634682859225
 30
0.0
 11
12.33397259614135
 21
1.143546021609189
 31
0.0
  0
LINE
  5
4E
330
45
100
AcDbEntity
  8
0
  6
Continuous
 62
     7
370
     0
100
AcDbLine
 10
12.33397259614135
 20
1.143546021609189
 30
0.0
 11
12.9376261927485
 21
1.027969928916553
 31
0.0
  0
LINE
  5
4F
330
45
100
AcDbEntity
  8
0
  6
Continuous
 62
     7
370
     0
100
AcDbLine
 10
12.9376261927485
 20
1.027969928916553
 30
0.0
 11
12.9376261927485
 21
1.478210775551861
 31
0.0
  0
LINE
  5
50
330
45
100
AcDbEntity
  8
0
  6
Continuous
 62
     7
370
     0
100
AcDbLine
 10
12.9376261927485
 20
1.478210775551861
 30
0.0
 11
12.33397259614135
 21
1.362634682859225
 31
0.0
  0
LINE
  5
51
330
45
100
AcDbEntity
  8
0
  6
Continuous
 62
     7
370
     0
100
AcDbLine
 10
11.58547793968276
 20
1.478210775551861
 30
0.0
 11
11.58547793968276
 21
1.577036566463192
 31
0.0
  0
LINE
  5
52
330
45
100
AcDbEntity
  8
0
  6
Continuous
 62
     7
370
     0
100
AcDbLine
 10
11.58547793968276
 20
1.027969928916553
 30
0.0
 11
11.58547793968276
 21
0.9291441380052225
 31
0.0
  0
LINE
  5
53
330
45
100
AcDbEntity
  8
0
  6
Continuous
 62
     7
370
     0
100
AcDbLine
 10
11.58547793968276
 20
1.308404013372672
 30
0.0
 11
11.58547793968276
 21
1.197776691095741
 31
0.0
  0
ENDBLK
  5
47
330
45
100
AcDbEntity
  8
0
100
AcDbBlockEnd
  0
BLOCK
  5
66
330
65
100
AcDbEntity
  8
0
100
AcDbBlockBegin
  2
SW_NOTE_18
 70
     0
 10
0.0
 20
0.0
 30
0.0
  3
SW_NOTE_18
  1

  0
MTEXT
  5
8B
330
65
100
AcDbEntity
  8
0
  6
Continuous
 62
     0
370
     0
100
AcDbMText
 10
0.0
 20
0.3942911783854166
 30
0.0
 40
0.3086805555555555
 41
0.0
 46
0.0
 71
     1
 72
     1
  1
RECOMMENDED PCB 
  7
SLDTEXTSTYLE0
 73
     1
 44
1.0
  0
MTEXT
  5
8C
330
65
100
AcDbEntity
  8
0
  6
Continuous
 62
     0
370
     0
100
AcDbMText
 10
1.299745325619975
 20
-0.017282890714705
 30
0.0
 40
0.3086805555555555
 41
0.0
 46
0.0
 71
     1
 72
     1
  1
LAYOUT
  7
SLDTEXTSTYLE0
 73
     1
 44
1.0
  0
ENDBLK
  5
67
330
65
100
AcDbEntity
  8
0
100
AcDbBlockEnd
  0
BLOCK
  5
8F
330
8E
100
AcDbEntity
  8
0
100
AcDbBlockBegin
  2
SW_NOTE_19
 70
     0
 10
0.0
 20
0.0
 30
0.0
  3
SW_NOTE_19
  1

  0
MTEXT
  5
91
330
8E
100
AcDbEntity
  8
0
  6
Continuous
 62
     0
370
     0
100
AcDbMText
 10
0.0
 20
0.2816365559895837
 30
0.0
 40
0.2204861111111111
 41
0.0
 46
0.0
 71
     1
 72
     1
  1
Notes: (Unless Otherwise Specified).
  7
SLDTEXTSTYLE0
 73
     1
 44
1.0
  0
MTEXT
  5
92
330
8E
100
AcDbEntity
  8
0
  6
Continuous
 62
     0
370
     0
100
AcDbMText
 10
0.8333333147068817
 20
-0.0123449219390746
 30
0.0
 40
0.2204861111111111
 41
0.0
 46
0.0
 71
     1
 72
     1
  1
DIMENSIONS ARE PRESENTED ONLY AS A GUIDELINE. DESIGNERS  SHOULD USE THEIR OWN KNOWLEDGE 
  7
SLDTEXTSTYLE0
 73
     1
 44
1.0
  0
MTEXT
  5
93
330
8E
100
AcDbEntity
  8
0
  6
Continuous
 62
     0
370
     0
100
AcDbMText
 10
0.0
 20
-0.0123449219390746
 30
0.0
 40
0.2204861111111111
 41
0.0
 46
0.0
 71
     1
 72
     1
  1
1.
  7
SLDTEXTSTYLE0
 73
     1
 44
1.0
  0
MTEXT
  5
94
330
8E
100
AcDbEntity
  8
0
  6
Continuous
 62
     0
370
     0
100
AcDbMText
 10
0.8333333147068817
 20
-0.306326399867733
 30
0.0
 40
0.2204861111111111
 41
0.0
 46
0.0
 71
     1
 72
     1
  1
BASE WHEN DESIGNING THE PCB.
  7
SLDTEXTSTYLE0
 73
     1
 44
1.0
  0
MTEXT
  5
95
330
8E
100
AcDbEntity
  8
0
  6
Continuous
 62
     0
370
     0
100
AcDbMText
 10
0.8333333147068817
 20
-0.6003078777963913
 30
0.0
 40
0.2204861111111111
 41
0.0
 46
0.0
 71
     1
 72
     1
  1
SURROUND EACH SIDE OF I/O PERIMETER PADS WITH 0.060~0.075 mm (2.4~3.0mils) NSMD SOLDER MASK 
  7
SLDTEXTSTYLE0
 73
     1
 44
1.0
  0
MTEXT
  5
96
330
8E
100
AcDbEntity
  8
0
  6
Continuous
 62
     0
370
     0
100
AcDbMText
 10
0.0
 20
-0.6003078777963913
 30
0.0
 40
0.2204861111111111
 41
0.0
 46
0.0
 71
     1
 72
     1
  1
2.
  7
SLDTEXTSTYLE0
 73
     1
 44
1.0
  0
MTEXT
  5
97
330
8E
100
AcDbEntity
  8
0
  6
Continuous
 62
     0
370
     0
100
AcDbMText
 10
0.8333333147068817
 20
-0.8942893557250496
 30
0.0
 40
0.2204861111111111
 41
0.0
 46
0.0
 71
     1
 72
     1
  1
OPENING.  OPTIONALLY OK TO USE RECTANGLE (NSMD) MASK OPENING AROUND I/O PADS.
  7
SLDTEXTSTYLE0
 73
     1
 44
1.0
  0
MTEXT
  5
98
330
8E
100
AcDbEntity
  8
0
  6
Continuous
 62
     0
370
     0
100
AcDbMText
 10
0.8333333147068817
 20
-1.188270833653707
 30
0.0
 40
0.2204861111111111
 41
0.0
 46
0.0
 71
     1
 72
     1
  1
ROUNDED PCB LAND PADS REDUCE SOLDER BRIDGING.  PAD CHAMFER ANGLE MAY VARY.
  7
SLDTEXTSTYLE0
 73
     1
 44
1.0
  0
MTEXT
  5
99
330
8E
100
AcDbEntity
  8
0
  6
Continuous
 62
     0
370
     0
100
AcDbMText
 10
0.0
 20
-1.188270833653707
 30
0.0
 40
0.2204861111111111
 41
0.0
 46
0.0
 71
     1
 72
     1
  1
3.
  7
SLDTEXTSTYLE0
 73
     1
 44
1.0
  0
MTEXT
  5
9A
330
8E
100
AcDbEntity
  8
0
  6
Continuous
 62
     0
370
     0
100
AcDbMText
 10
0.8333333147068817
 20
-1.482252311582366
 30
0.0
 40
0.2204861111111111
 41
0.0
 46
0.0
 71
     1
 72
     1
  1
PCB LANDS SHOULD BE 0.2mm LONGER THAN THE PACKAGE I/O PADS.
  7
SLDTEXTSTYLE0
 73
     1
 44
1.0
  0
MTEXT
  5
9B
330
8E
100
AcDbEntity
  8
0
  6
Continuous
 62
     0
370
     0
100
AcDbMText
 10
0.0
 20
-1.482252311582366
 30
0.0
 40
0.2204861111111111
 41
0.0
 46
0.0
 71
     1
 72
     1
  1
4.
  7
SLDTEXTSTYLE0
 73
     1
 44
1.0
  0
MTEXT
  5
9C
330
8E
100
AcDbEntity
  8
0
  6
Continuous
 62
     0
370
     0
100
AcDbMText
 10
0.8333333147068817
 20
-1.776233789511025
 30
0.0
 40
0.2204861111111111
 41
0.0
 46
0.0
 71
     1
 72
     1
  1
THE WIDTH OF PERIMETER PCB PADS SHOULD MATCH (1:1) THE WIDTH OF THE PACKAGE PADS.
  7
SLDTEXTSTYLE0
 73
     1
 44
1.0
  0
MTEXT
  5
9D
330
8E
100
AcDbEntity
  8
0
  6
Continuous
 62
     0
370
     0
100
AcDbMText
 10
0.0
 20
-1.776233789511025
 30
0.0
 40
0.2204861111111111
 41
0.0
 46
0.0
 71
     1
 72
     1
  1
5.
  7
SLDTEXTSTYLE0
 73
     1
 44
1.0
  0
MTEXT
  5
9E
330
8E
100
AcDbEntity
  8
0
  6
Continuous
 62
     0
370
     0
100
AcDbMText
 10
0.8333333147068817
 20
-2.070215267439683
 30
0.0
 40
0.2204861111111111
 41
0.0
 46
0.0
 71
     1
 72
     1
  1
REFER TO INDUSTRY REFERENCES SUCH AS IPC-SM-782 FOR PCB LAND PATTERN DESIGN.
  7
SLDTEXTSTYLE0
 73
     1
 44
1.0
  0
MTEXT
  5
9F
330
8E
100
AcDbEntity
  8
0
  6
Continuous
 62
     0
370
     0
100
AcDbMText
 10
0.0
 20
-2.070215267439683
 30
0.0
 40
0.2204861111111111
 41
0.0
 46
0.0
 71
     1
 72
     1
  1
6.
  7
SLDTEXTSTYLE0
 73
     1
 44
1.0
  0
MTEXT
  5
A0
330
8E
100
AcDbEntity
  8
0
  6
Continuous
 62
     0
370
     0
100
AcDbMText
 10
0.8333333147068817
 20
-2.364196745368341
 30
0.0
 40
0.2204861111111111
 41
0.0
 46
0.0
 71
     1
 72
     1
  1
THERMAL GROUND PADS MAY BE CHANGED TO SUITE REQUIREMENTS OF THE DESIGNER.
  7
SLDTEXTSTYLE0
 73
     1
 44
1.0
  0
MTEXT
  5
A1
330
8E
100
AcDbEntity
  8
0
  6
Continuous
 62
     0
370
     0
100
AcDbMText
 10
0.0
 20
-2.364196745368341
 30
0.0
 40
0.2204861111111111
 41
0.0
 46
0.0
 71
     1
 72
     1
  1
7.
  7
SLDTEXTSTYLE0
 73
     1
 44
1.0
  0
MTEXT
  5
A2
330
8E
100
AcDbEntity
  8
0
  6
Continuous
 62
     0
370
     0
100
AcDbMText
 10
1.666666629413763
 20
-2.658178223296999
 30
0.0
 40
0.2204861111111111
 41
0.0
 46
0.0
 71
     1
 72
     1
  1
MAKE COPPER THERMAL PAD AS LARGE AS POSSIBLE.
  7
SLDTEXTSTYLE0
 73
     1
 44
1.0
  0
MTEXT
  5
A3
330
8E
100
AcDbEntity
  8
0
  6
Continuous
 62
     0
370
     0
100
AcDbMText
 10
0.8333333333333335
 20
-2.658178223296999
 30
0.0
 40
0.2204861111111111
 41
0.0
 46
0.0
 71
     1
 72
     1
  1
A.
  7
SLDTEXTSTYLE0
 73
     1
 44
1.0
  0
MTEXT
  5
A4
330
8E
100
AcDbEntity
  8
0
  6
Continuous
 62
     0
370
     0
100
AcDbMText
 10
1.666666629413763
 20
-2.952159701225658
 30
0.0
 40
0.2204861111111111
 41
0.0
 46
0.0
 71
     1
 72
     1
  1
DRILL MULTIPLE THERMAL VIAS 0.25~0.33mm DIAMETER USING 0.8~1.2mm PITCH GRID.
  7
SLDTEXTSTYLE0
 73
     1
 44
1.0
  0
MTEXT
  5
A5
330
8E
100
AcDbEntity
  8
0
  6
Continuous
 62
     0
370
     0
100
AcDbMText
 10
0.8333333333333335
 20
-2.952159701225658
 30
0.0
 40
0.2204861111111111
 41
0.0
 46
0.0
 71
     1
 72
     1
  1
B.
  7
SLDTEXTSTYLE0
 73
     1
 44
1.0
  0
MTEXT
  5
A6
330
8E
100
AcDbEntity
  8
0
  6
Continuous
 62
     0
370
     0
100
AcDbMText
 10
1.666666629413763
 20
-3.246141179154316
 30
0.0
 40
0.2204861111111111
 41
0.0
 46
0.0
 71
     1
 72
     1
  1
PLATE THERMAL VIA BARRELS WITH 1-OUNCE COPPER (18µm).
  7
SLDTEXTSTYLE0
 73
     1
 44
1.0
  0
MTEXT
  5
A7
330
8E
100
AcDbEntity
  8
0
  6
Continuous
 62
     0
370
     0
100
AcDbMText
 10
0.8333333333333335
 20
-3.246141179154316
 30
0.0
 40
0.2204861111111111
 41
0.0
 46
0.0
 71
     1
 72
     1
  1
C.
  7
SLDTEXTSTYLE0
 73
     1
 44
1.0
  0
MTEXT
  5
A8
330
8E
100
AcDbEntity
  8
0
  6
Continuous
 62
     0
370
     0
100
AcDbMText
 10
1.666666629413763
 20
-3.540122657082974
 30
0.0
 40
0.2204861111111111
 41
0.0
 46
0.0
 71
     1
 72
     1
  1
TENT (COVER) THERMAL VIAS WITH SOLDER MASK 0.1mm LARGER THAN THE VIA DIAMETER.
  7
SLDTEXTSTYLE0
 73
     1
 44
1.0
  0
MTEXT
  5
A9
330
8E
100
AcDbEntity
  8
0
  6
Continuous
 62
     0
370
     0
100
AcDbMText
 10
0.8333333333333335
 20
-3.540122657082974
 30
0.0
 40
0.2204861111111111
 41
0.0
 46
0.0
 71
     1
 72
     1
  1
D.
  7
SLDTEXTSTYLE0
 73
     1
 44
1.0
  0
MTEXT
  5
AA
330
8E
100
AcDbEntity
  8
0
  6
Continuous
 62
     0
370
     0
100
AcDbMText
 10
0.8333333147068817
 20
-3.834104135011632
 30
0.0
 40
0.2204861111111111
 41
0.0
 46
0.0
 71
     1
 72
     1
  1
STENCIL DESIGN MAY BE CHANGED TO SUITE REQUIREMENTS OF THE DESIGNER.
  7
SLDTEXTSTYLE0
 73
     1
 44
1.0
  0
MTEXT
  5
AB
330
8E
100
AcDbEntity
  8
0
  6
Continuous
 62
     0
370
     0
100
AcDbMText
 10
0.0
 20
-3.834104135011632
 30
0.0
 40
0.2204861111111111
 41
0.0
 46
0.0
 71
     1
 72
     1
  1
8.
  7
SLDTEXTSTYLE0
 73
     1
 44
1.0
  0
MTEXT
  5
AC
330
8E
100
AcDbEntity
  8
0
  6
Continuous
 62
     0
370
     0
100
AcDbMText
 10
1.666666629413763
 20
-4.12808561294029
 30
0.0
 40
0.2204861111111111
 41
0.0
 46
0.0
 71
     1
 72
     1
  1
LASER CUT STENCIL 0.125mm (5mil) THICK.  APERTURE SIZE-TO-LAND RATIO OF 1:1.
  7
SLDTEXTSTYLE0
 73
     1
 44
1.0
  0
MTEXT
  5
AD
330
8E
100
AcDbEntity
  8
0
  6
Continuous
 62
     0
370
     0
100
AcDbMText
 10
0.8333333333333335
 20
-4.12808561294029
 30
0.0
 40
0.2204861111111111
 41
0.0
 46
0.0
 71
     1
 72
     1
  1
A.
  7
SLDTEXTSTYLE0
 73
     1
 44
1.0
  0
MTEXT
  5
AE
330
8E
100
AcDbEntity
  8
0
  6
Continuous
 62
     0
370
     0
100
AcDbMText
 10
1.666666629413763
 20
-4.422067090868949
 30
0.0
 40
0.2204861111111111
 41
0.0
 46
0.0
 71
     1
 72
     1
  1
THE SOLDER PASTE OPENING IN THE THERMAL PAD AREA SHOULD BE A MATRIX ARRAY OF 
  7
SLDTEXTSTYLE0
 73
     1
 44
1.0
  0
MTEXT
  5
AF
330
8E
100
AcDbEntity
  8
0
  6
Continuous
 62
     0
370
     0
100
AcDbMText
 10
0.8333333333333335
 20
-4.422067090868949
 30
0.0
 40
0.2204861111111111
 41
0.0
 46
0.0
 71
     1
 72
     1
  1
B.
  7
SLDTEXTSTYLE0
 73
     1
 44
1.0
  0
MTEXT
  5
B0
330
8E
100
AcDbEntity
  8
0
  6
Continuous
 62
     0
370
     0
100
AcDbMText
 10
1.666666629413763
 20
-4.716048568797607
 30
0.0
 40
0.2204861111111111
 41
0.0
 46
0.0
 71
     1
 72
     1
  1
SMALLER APERATURES INSTEAD OF ONE LARGE APERATURE TO CONTROL PASTE AMOUNTS.
  7
SLDTEXTSTYLE0
 73
     1
 44
1.0
  0
MTEXT
  5
B1
330
8E
100
AcDbEntity
  8
0
  6
Continuous
 62
     0
370
     0
100
AcDbMText
 10
1.666666629413763
 20
-5.010030046726265
 30
0.0
 40
0.2204861111111111
 41
0.0
 46
0.0
 71
     1
 72
     1
  1
APPLY 50% TO 80% SOLDER PASTE COVERAGE IN THE PAD AREA.
  7
SLDTEXTSTYLE0
 73
     1
 44
1.0
  0
MTEXT
  5
B2
330
8E
100
AcDbEntity
  8
0
  6
Continuous
 62
     0
370
     0
100
AcDbMText
 10
0.8333333333333335
 20
-5.010030046726265
 30
0.0
 40
0.2204861111111111
 41
0.0
 46
0.0
 71
     1
 72
     1
  1
C.
  7
SLDTEXTSTYLE0
 73
     1
 44
1.0
  0
ENDBLK
  5
90
330
8E
100
AcDbEntity
  8
0
100
AcDbBlockEnd
  0
BLOCK
  5
B5
330
B4
100
AcDbEntity
  8
0
100
AcDbBlockBegin
  2
SW_NOTE_20
 70
     0
 10
0.0
 20
0.0
 30
0.0
  3
SW_NOTE_20
  1

  0
MTEXT
  5
B7
330
B4
100
AcDbEntity
  8
0
  6
Continuous
 62
     0
370
     0
100
AcDbMText
 10
0.0
 20
0.3942911783854166
 30
0.0
 40
0.3086805555555555
 41
0.0
 46
0.0
 71
     1
 72
     1
  1
28-LEAD 6mm P=0.65mm 
  7
SLDTEXTSTYLE0
 73
     1
 44
1.0
  0
MTEXT
  5
B8
330
B4
100
AcDbEntity
  8
0
  6
Continuous
 62
     0
370
     0
100
AcDbMText
 10
0.1717751535276572
 20
-0.017282890714705
 30
0.0
 40
0.3086805555555555
 41
0.0
 46
0.0
 71
     1
 72
     1
  1
QFN CAVITY PACKAGE
  7
SLDTEXTSTYLE0
 73
     1
 44
1.0
  0
ENDBLK
  5
B6
330
B4
100
AcDbEntity
  8
0
100
AcDbBlockEnd
  0
BLOCK
  5
C4
330
C3
100
AcDbEntity
  8
0
100
AcDbBlockBegin
  2
SW_NOTE_21
 70
     0
 10
0.0
 20
0.0
 30
0.0
  3
SW_NOTE_21
  1

  0
MTEXT
  5
C6
330
C3
100
AcDbEntity
  8
0
  6
Continuous
 62
     0
370
     0
100
AcDbMText
 10
0.0
 20
0.3379638671874999
 30
0.0
 40
0.2645833333333333
 41
0.0
 46
0.0
 71
     1
 72
     1
  1
462870
  7
SLDTEXTSTYLE1
 73
     1
 44
1.0
  0
MTEXT
  5
C7
330
C3
100
AcDbEntity
  8
0
  6
Continuous
 62
     0
370
     0
100
AcDbMText
 10
-0.5929850740358234
 20
-0.0148139063268901
 30
0.0
 40
0.2645833333333333
 41
0.0
 46
0.0
 71
     1
 72
     1
  1
M-QFN28W.65
  7
SLDTEXTSTYLE1
 73
     1
 44
1.0
  0
ENDBLK
  5
C5
330
C3
100
AcDbEntity
  8
0
100
AcDbBlockEnd
  0
BLOCK
  5
387
330
386
100
AcDbEntity
  8
0
100
AcDbBlockBegin
  2
*D6
 70
     1
 10
0.0
 20
0.0
 30
0.0
  3
*D6
  1

  0
SOLID
  5
389
330
386
100
AcDbEntity
  8
0
  6
Continuous
 62
     7
440
 16777216
370
     0
100
AcDbTrace
 10
2.182430490273595
 20
8.464028740776347
 30
0.0
 11
2.203263823606928
 21
8.630695407443013
 31
0.0
 12
2.161597156940261
 22
8.630695407443013
 32
0.0
 13
2.161597156940261
 23
8.630695407443013
 33
0.0
  0
SOLID
  5
38A
330
386
100
AcDbEntity
  8
0
  6
Continuous
 62
     7
440
 16777216
370
     0
100
AcDbTrace
 10
2.182430490273574
 20
14.46402874077635
 30
0.0
 11
2.161597156940241
 21
14.29736207410968
 31
0.0
 12
2.203263823606908
 22
14.29736207410968
 32
0.0
 13
2.203263823606908
 23
14.29736207410968
 33
0.0
  0
LINE
  5
38B
330
386
100
AcDbEntity
  8
0
  6
Continuous
 62
     7
440
 16777216
370
     0
100
AcDbLine
 10
4.408455164730502
 20
8.464028740776356
 30
0.0
 11
2.015763823606928
 21
8.464028740776347
 31
0.0
  0
LINE
  5
38C
330
386
100
AcDbEntity
  8
0
  6
Continuous
 62
     7
440
 16777216
370
     0
100
AcDbLine
 10
4.40845516473048
 20
14.46402874077635
 30
0.0
 11
2.015763823606907
 21
14.46402874077635
 31
0.0
  0
LINE
  5
38D
330
386
100
AcDbEntity
  8
0
  6
Continuous
 62
     7
440
 16777216
370
     0
100
AcDbLine
 10
2.182430490273595
 20
8.464028740776347
 30
0.0
 11
2.182430490273585
 21
11.29652012008669
 31
0.0
  0
LINE
  5
38E
330
386
100
AcDbEntity
  8
0
  6
Continuous
 62
     7
440
 16777216
370
     0
100
AcDbLine
 10
2.182430490273574
 20
14.46402874077635
 30
0.0
 11
2.182430490273584
 21
11.631537361466
 31
0.0
  0
MTEXT
  5
38F
330
386
100
AcDbEntity
  8
0
  6
Continuous
 62
     7
440
 16777216
370
     0
100
AcDbMText
 10
2.107982214411515
 20
11.57815667122564
 30
-0.0000000000000801
 40
0.2204861111111111
 41
0.0
 46
0.0
 71
     1
 72
     1
  1
6
  7
SLDTEXTSTYLE0
 73
     1
 44
1.0
  0
ENDBLK
  5
388
330
386
100
AcDbEntity
  8
0
100
AcDbBlockEnd
  0
BLOCK
  5
393
330
392
100
AcDbEntity
  8
0
100
AcDbBlockBegin
  2
*D7
 70
     1
 10
0.0
 20
0.0
 30
0.0
  3
*D7
  1

  0
SOLID
  5
395
330
392
100
AcDbEntity
  8
0
  6
Continuous
 62
     7
440
 16777216
370
     0
100
AcDbTrace
 10
1.33496713272073
 20
14.66402874077634
 30
0.0
 11
1.314133799387398
 21
14.49736207410968
 31
0.0
 12
1.355800466054064
 22
14.49736207410968
 32
0.0
 13
1.355800466054064
 23
14.49736207410968
 33
0.0
  0
SOLID
  5
396
330
392
100
AcDbEntity
  8
0
  6
Continuous
 62
     7
440
 16777216
370
     0
100
AcDbTrace
 10
1.334967132720753
 20
8.264028740776343
 30
0.0
 11
1.355800466054086
 21
8.430695407443009
 31
0.0
 12
1.31413379938742
 22
8.430695407443009
 32
0.0
 13
1.31413379938742
 23
8.430695407443009
 33
0.0
  0
LINE
  5
397
330
392
100
AcDbEntity
  8
0
  6
Continuous
 62
     7
440
 16777216
370
     0
100
AcDbLine
 10
5.30845516473048
 20
14.66402874077636
 30
0.0
 11
1.168300466054064
 21
14.66402874077634
 31
0.0
  0
LINE
  5
398
330
392
100
AcDbEntity
  8
0
  6
Continuous
 62
     7
440
 16777216
370
     0
100
AcDbLine
 10
5.3084551647305
 20
8.264028740776359
 30
0.0
 11
1.168300466054087
 21
8.264028740776343
 31
0.0
  0
LINE
  5
399
330
392
100
AcDbEntity
  8
0
  6
Continuous
 62
     7
440
 16777216
370
     0
100
AcDbLine
 10
1.33496713272073
 20
14.66402874077634
 30
0.0
 11
1.334967132720741
 21
11.631537361466
 31
0.0
  0
LINE
  5
39A
330
392
100
AcDbEntity
  8
0
  6
Continuous
 62
     7
440
 16777216
370
     0
100
AcDbLine
 10
1.334967132720753
 20
8.264028740776343
 30
0.0
 11
1.334967132720742
 21
11.29652012008669
 31
0.0
  0
MTEXT
  5
39B
330
392
100
AcDbEntity
  8
0
  6
Continuous
 62
     7
440
 16777216
370
     0
100
AcDbMText
 10
1.055786098237984
 20
11.57815667122563
 30
-0.0000000000000801
 40
0.2204861111111111
 41
0.0
 46
0.0
 71
     1
 72
     1
  1
6.40
  7
SLDTEXTSTYLE0
 73
     1
 44
1.0
  0
ENDBLK
  5
394
330
392
100
AcDbEntity
  8
0
100
AcDbBlockEnd
  0
BLOCK
  5
39F
330
39E
100
AcDbEntity
  8
0
100
AcDbBlockBegin
  2
*D8
 70
     1
 10
0.0
 20
0.0
 30
0.0
  3
*D8
  1

  0
SOLID
  5
3A1
330
39E
100
AcDbEntity
  8
0
  6
Continuous
 62
     7
440
 16777216
370
     0
100
AcDbTrace
 10
3.000121831397117
 20
13.41402874077633
 30
0.0
 11
2.979288498063785
 21
13.24736207410966
 31
0.0
 12
3.020955164730452
 22
13.24736207410966
 32
0.0
 13
3.020955164730452
 23
13.24736207410966
 33
0.0
  0
SOLID
  5
3A2
330
39E
100
AcDbEntity
  8
0
  6
Continuous
 62
     7
440
 16777216
370
     0
100
AcDbTrace
 10
3.000121831397146
 20
9.51402874077633
 30
0.0
 11
3.020955164730478
 21
9.680695407442996
 31
0.0
 12
2.979288498063811
 22
9.680695407442996
 32
0.0
 13
2.979288498063811
 23
9.680695407442996
 33
0.0
  0
LINE
  5
3A3
330
39E
100
AcDbEntity
  8
0
  6
Continuous
 62
     7
440
 16777216
370
     0
100
AcDbLine
 10
3.958455164730472
 20
13.41402874077634
 30
0.0
 11
2.83345516473045
 21
13.41402874077633
 31
0.0
  0
LINE
  5
3A4
330
39E
100
AcDbEntity
  8
0
  6
Continuous
 62
     7
440
 16777216
370
     0
100
AcDbLine
 10
3.958455164730499
 20
9.514028740776337
 30
0.0
 11
2.833455164730479
 21
9.514028740776328
 31
0.0
  0
LINE
  5
3A5
330
39E
100
AcDbEntity
  8
0
  6
Continuous
 62
     7
440
 16777216
370
     0
100
AcDbLine
 10
3.000121831397117
 20
13.41402874077633
 30
0.0
 11
3.00012183139713
 21
11.63153736146599
 31
0.0
  0
LINE
  5
3A6
330
39E
100
AcDbEntity
  8
0
  6
Continuous
 62
     7
440
 16777216
370
     0
100
AcDbLine
 10
3.000121831397146
 20
9.51402874077633
 30
0.0
 11
3.000121831397132
 21
11.29652012008668
 31
0.0
  0
MTEXT
  5
3A7
330
39E
100
AcDbEntity
  8
0
  6
Continuous
 62
     7
440
 16777216
370
     0
100
AcDbMText
 10
2.720940796914373
 20
11.57815667122562
 30
-0.0000000000000801
 40
0.2204861111111111
 41
0.0
 46
0.0
 71
     1
 72
     1
  1
3.90
  7
SLDTEXTSTYLE0
 73
     1
 44
1.0
  0
ENDBLK
  5
3A0
330
39E
100
AcDbEntity
  8
0
100
AcDbBlockEnd
  0
BLOCK
  5
3AB
330
3AA
100
AcDbEntity
  8
0
100
AcDbBlockBegin
  2
*D9
 70
     1
 10
0.0
 20
0.0
 30
0.0
  3
*D9
  1

  0
SOLID
  5
3AD
330
3AA
100
AcDbEntity
  8
0
  6
Continuous
 62
     7
440
 16777216
370
     0
100
AcDbTrace
 10
3.500121831397141
 20
13.41402874077633
 30
0.0
 11
3.520955164730473
 21
13.580695407443
 31
0.0
 12
3.479288498063806
 22
13.580695407443
 32
0.0
 13
3.479288498063806
 23
13.580695407443
 33
0.0
  0
SOLID
  5
3AE
330
3AA
100
AcDbEntity
  8
0
  6
Continuous
 62
     7
440
 16777216
370
     0
100
AcDbTrace
 10
3.500121831397146
 20
12.76402874077633
 30
0.0
 11
3.479288498063814
 21
12.59736207410967
 31
0.0
 12
3.520955164730481
 22
12.59736207410967
 32
0.0
 13
3.520955164730481
 23
12.59736207410967
 33
0.0
  0
LINE
  5
3AF
330
3AA
100
AcDbEntity
  8
0
  6
Continuous
 62
     7
440
 16777216
370
     0
100
AcDbLine
 10
3.958455164730472
 20
13.41402874077634
 30
0.0
 11
3.333455164730474
 21
13.41402874077633
 31
0.0
  0
LINE
  5
3B0
330
3AA
100
AcDbEntity
  8
0
  6
Continuous
 62
     7
440
 16777216
370
     0
100
AcDbLine
 10
3.958455164730477
 20
12.76402874077634
 30
0.0
 11
3.333455164730479
 21
12.76402874077633
 31
0.0
  0
LINE
  5
3B1
330
3AA
100
AcDbEntity
  8
0
  6
Continuous
 62
     7
440
 16777216
370
     0
100
AcDbLine
 10
3.500121831397141
 20
13.41402874077633
 30
0.0
 11
3.500121831397139
 21
13.74736207410967
 31
0.0
  0
LINE
  5
3B2
330
3AA
100
AcDbEntity
  8
0
  6
Continuous
 62
     7
440
 16777216
370
     0
100
AcDbLine
 10
3.500121831397146
 20
12.76402874077633
 30
0.0
 11
3.500121831397148
 21
12.430695407443
 31
0.0
  0
MTEXT
  5
3B3
330
3AA
100
AcDbEntity
  8
0
  6
Continuous
 62
     7
440
 16777216
370
     0
100
AcDbMText
 10
3.220940796914383
 20
13.20315667122562
 30
-0.0000000000000915
 40
0.2204861111111111
 41
0.0
 46
0.0
 71
     1
 72
     1
  1
0.65
  7
SLDTEXTSTYLE0
 73
     1
 44
1.0
  0
ENDBLK
  5
3AC
330
3AA
100
AcDbEntity
  8
0
100
AcDbBlockEnd
  0
BLOCK
  5
3B7
330
3B6
100
AcDbEntity
  8
0
100
AcDbBlockBegin
  2
*D10
 70
     1
 10
0.0
 20
0.0
 30
0.0
  3
*D10
  1

  0
SOLID
  5
3B9
330
3B6
100
AcDbEntity
  8
0
  6
Continuous
 62
     7
440
 16777216
370
     0
100
AcDbTrace
 10
3.698619314244521
 20
9.664028740776339
 30
0.0
 11
3.719452647577853
 21
9.830695407443005
 31
0.0
 12
3.677785980911186
 22
9.830695407443005
 32
0.0
 13
3.677785980911186
 23
9.830695407443005
 33
0.0
  0
SOLID
  5
3BA
330
3B6
100
AcDbEntity
  8
0
  6
Continuous
 62
     7
440
 16777216
370
     0
100
AcDbTrace
 10
3.698619314244524
 20
9.36402874077634
 30
0.0
 11
3.677785980911191
 21
9.197362074109674
 31
0.0
 12
3.719452647577858
 22
9.197362074109674
 32
0.0
 13
3.719452647577858
 23
9.197362074109674
 33
0.0
  0
LINE
  5
3BB
330
3B6
100
AcDbEntity
  8
0
  6
Continuous
 62
     7
440
 16777216
370
     0
100
AcDbLine
 10
4.208455164730501
 20
9.664028740776343
 30
0.0
 11
3.531952647577854
 21
9.664028740776339
 31
0.0
  0
LINE
  5
3BC
330
3B6
100
AcDbEntity
  8
0
  6
Continuous
 62
     7
440
 16777216
370
     0
100
AcDbLine
 10
4.208455164730504
 20
9.364028740776342
 30
0.0
 11
3.531952647577857
 21
9.364028740776339
 31
0.0
  0
LINE
  5
3BD
330
3B6
100
AcDbEntity
  8
0
  6
Continuous
 62
     7
440
 16777216
370
     0
100
AcDbLine
 10
3.448619314244521
 20
8.944217199452511
 30
0.0
 11
3.698619314244521
 21
8.944217199452511
 31
0.0
  0
LINE
  5
3BE
330
3B6
100
AcDbEntity
  8
0
  6
Continuous
 62
     7
440
 16777216
370
     0
100
AcDbLine
 10
3.698619314244521
 20
8.944217199452511
 30
0.0
 11
3.698619314244524
 21
9.36402874077634
 31
0.0
  0
LINE
  5
3BF
330
3B6
100
AcDbEntity
  8
0
  6
Continuous
 62
     7
440
 16777216
370
     0
100
AcDbLine
 10
3.698619314244521
 20
9.664028740776339
 30
0.0
 11
3.698619314244521
 21
9.997362074109673
 31
0.0
  0
MTEXT
  5
3C0
330
3B6
100
AcDbEntity
  8
0
  6
Continuous
 62
     7
440
 16777216
370
     0
100
AcDbMText
 10
2.757965578612338
 20
9.0583451299018
 30
-0.0000000000000625
 40
0.2204861111111111
 41
0.0
 46
0.0
 71
     1
 72
     1
  1
0.30
  7
SLDTEXTSTYLE0
 73
     1
 44
1.0
  0
ENDBLK
  5
3B8
330
3B6
100
AcDbEntity
  8
0
100
AcDbBlockEnd
  0
BLOCK
  5
3C3
330
3C2
100
AcDbEntity
  8
0
100
AcDbBlockBegin
  2
*D11
 70
     1
 10
0.0
 20
0.0
 30
0.0
  3
*D11
  1

  0
SOLID
  5
3C5
330
3C2
100
AcDbEntity
  8
0
  6
Continuous
 62
     7
440
 16777216
370
     0
100
AcDbTrace
 10
4.533455164730475
 20
16.33017482664632
 30
0.0
 11
4.700121831397142
 21
16.30934149331299
 31
0.0
 12
4.700121831397142
 22
16.35100815997965
 32
0.0
 13
4.700121831397142
 23
16.35100815997965
 33
0.0
  0
SOLID
  5
3C6
330
3C2
100
AcDbEntity
  8
0
  6
Continuous
 62
     7
440
 16777216
370
     0
100
AcDbTrace
 10
10.53345516473047
 20
16.33017482664634
 30
0.0
 11
10.36678849806381
 21
16.35100815997967
 31
0.0
 12
10.36678849806381
 22
16.30934149331301
 32
0.0
 13
10.36678849806381
 23
16.30934149331301
 33
0.0
  0
LINE
  5
3C7
330
3C2
100
AcDbEntity
  8
0
  6
Continuous
 62
     7
440
 16777216
370
     0
100
AcDbLine
 10
4.53345516473048
 20
14.58902874077635
 30
0.0
 11
4.533455164730474
 21
16.49684149331299
 31
0.0
  0
LINE
  5
3C8
330
3C2
100
AcDbEntity
  8
0
  6
Continuous
 62
     7
440
 16777216
370
     0
100
AcDbLine
 10
10.53345516473048
 20
14.58902874077638
 30
0.0
 11
10.53345516473047
 21
16.496841493313
 31
0.0
  0
LINE
  5
3C9
330
3C2
100
AcDbEntity
  8
0
  6
Continuous
 62
     7
440
 16777216
370
     0
100
AcDbLine
 10
4.533455164730475
 20
16.33017482664632
 30
0.0
 11
7.32671522220174
 21
16.33017482664633
 31
0.0
  0
LINE
  5
3CA
330
3C2
100
AcDbEntity
  8
0
  6
Continuous
 62
     7
440
 16777216
370
     0
100
AcDbLine
 10
10.53345516473047
 20
16.33017482664634
 30
0.0
 11
7.740195107259211
 21
16.33017482664633
 31
0.0
  0
MTEXT
  5
3CB
330
3C2
100
AcDbEntity
  8
0
  6
Continuous
 62
     7
440
 16777216
370
     0
100
AcDbMText
 10
7.459006888868407
 20
16.44430275709562
 30
-0.0000000000001141
 40
0.2204861111111111
 41
0.0
 46
0.0
 71
     1
 72
     1
  1
6
  7
SLDTEXTSTYLE0
 73
     1
 44
1.0
  0
ENDBLK
  5
3C4
330
3C2
100
AcDbEntity
  8
0
100
AcDbBlockEnd
  0
BLOCK
  5
3CE
330
3CD
100
AcDbEntity
  8
0
100
AcDbBlockBegin
  2
*D12
 70
     1
 10
0.0
 20
0.0
 30
0.0
  3
*D12
  1

  0
SOLID
  5
3D0
330
3CD
100
AcDbEntity
  8
0
  6
Continuous
 62
     7
440
 16777216
370
     0
100
AcDbTrace
 10
5.583455164730471
 20
15.8535685900908
 30
0.0
 11
5.750121831397138
 21
15.83273525675747
 31
0.0
 12
5.750121831397138
 22
15.87440192342413
 32
0.0
 13
5.750121831397138
 23
15.87440192342413
 33
0.0
  0
SOLID
  5
3D1
330
3CD
100
AcDbEntity
  8
0
  6
Continuous
 62
     7
440
 16777216
370
     0
100
AcDbTrace
 10
9.48345516473047
 20
15.85356859009081
 30
0.0
 11
9.316788498063804
 21
15.87440192342415
 31
0.0
 12
9.316788498063804
 22
15.83273525675748
 32
0.0
 13
9.316788498063804
 23
15.83273525675748
 33
0.0
  0
LINE
  5
3D2
330
3CD
100
AcDbEntity
  8
0
  6
Continuous
 62
     7
440
 16777216
370
     0
100
AcDbLine
 10
5.583455164730475
 20
15.03902874077635
 30
0.0
 11
5.58345516473047
 21
16.02023525675747
 31
0.0
  0
LINE
  5
3D3
330
3CD
100
AcDbEntity
  8
0
  6
Continuous
 62
     7
440
 16777216
370
     0
100
AcDbLine
 10
9.483455164730473
 20
15.03902874077637
 30
0.0
 11
9.48345516473047
 21
16.02023525675748
 31
0.0
  0
LINE
  5
3D4
330
3CD
100
AcDbEntity
  8
0
  6
Continuous
 62
     7
440
 16777216
370
     0
100
AcDbLine
 10
5.583455164730471
 20
15.8535685900908
 30
0.0
 11
7.121982463581045
 21
15.8535685900908
 31
0.0
  0
LINE
  5
3D5
330
3CD
100
AcDbEntity
  8
0
  6
Continuous
 62
     7
440
 16777216
370
     0
100
AcDbLine
 10
9.48345516473047
 20
15.85356859009081
 30
0.0
 11
7.944927865879895
 21
15.85356859009081
 31
0.0
  0
MTEXT
  5
3D6
330
3CD
100
AcDbEntity
  8
0
  6
Continuous
 62
     7
440
 16777216
370
     0
100
AcDbMText
 10
7.254274130247711
 20
15.9676965205401
 30
-0.0000000000001108
 40
0.2204861111111111
 41
0.0
 46
0.0
 71
     1
 72
     1
  1
3.90
  7
SLDTEXTSTYLE0
 73
     1
 44
1.0
  0
ENDBLK
  5
3CF
330
3CD
100
AcDbEntity
  8
0
100
AcDbBlockEnd
  0
BLOCK
  5
3D9
330
3D8
100
AcDbEntity
  8
0
100
AcDbBlockBegin
  2
*D13
 70
     1
 10
0.0
 20
0.0
 30
0.0
  3
*D13
  1

  0
SOLID
  5
3DB
330
3D8
100
AcDbEntity
  8
0
  6
Continuous
 62
     7
440
 16777216
370
     0
100
AcDbTrace
 10
4.333455164730449
 20
16.78799985888749
 30
0.0
 11
4.500121831397116
 21
16.76716652555416
 31
0.0
 12
4.500121831397116
 22
16.80883319222083
 32
0.0
 13
4.500121831397116
 23
16.80883319222083
 33
0.0
  0
SOLID
  5
3DC
330
3D8
100
AcDbEntity
  8
0
  6
Continuous
 62
     7
440
 16777216
370
     0
100
AcDbTrace
 10
10.73345516473044
 20
16.78799985888754
 30
0.0
 11
10.56678849806377
 21
16.80883319222088
 31
0.0
 12
10.56678849806377
 22
16.76716652555421
 32
0.0
 13
10.56678849806377
 23
16.76716652555421
 33
0.0
  0
LINE
  5
3DD
330
3D8
100
AcDbEntity
  8
0
  6
Continuous
 62
     7
440
 16777216
370
     0
100
AcDbLine
 10
4.333455164730474
 20
13.68902874077634
 30
0.0
 11
4.333455164730448
 21
16.95466652555416
 31
0.0
  0
LINE
  5
3DE
330
3D8
100
AcDbEntity
  8
0
  6
Continuous
 62
     7
440
 16777216
370
     0
100
AcDbLine
 10
10.73345516473046
 20
13.68902874077641
 30
0.0
 11
10.73345516473043
 21
16.95466652555421
 31
0.0
  0
LINE
  5
3DF
330
3D8
100
AcDbEntity
  8
0
  6
Continuous
 62
     7
440
 16777216
370
     0
100
AcDbLine
 10
4.333455164730449
 20
16.78799985888749
 30
0.0
 11
7.12198246358102
 21
16.78799985888751
 31
0.0
  0
LINE
  5
3E0
330
3D8
100
AcDbEntity
  8
0
  6
Continuous
 62
     7
440
 16777216
370
     0
100
AcDbLine
 10
10.73345516473044
 20
16.78799985888754
 30
0.0
 11
7.944927865879871
 21
16.78799985888752
 31
0.0
  0
MTEXT
  5
3E1
330
3D8
100
AcDbEntity
  8
0
  6
Continuous
 62
     7
440
 16777216
370
     0
100
AcDbMText
 10
7.254274130247686
 20
16.90212778933681
 30
-0.0000000000001173
 40
0.2204861111111111
 41
0.0
 46
0.0
 71
     1
 72
     1
  1
6.40
  7
SLDTEXTSTYLE0
 73
     1
 44
1.0
  0
ENDBLK
  5
3DA
330
3D8
100
AcDbEntity
  8
0
100
AcDbBlockEnd
  0
BLOCK
  5
3E4
330
3E3
100
AcDbEntity
  8
0
100
AcDbBlockBegin
  2
*D14
 70
     1
 10
0.0
 20
0.0
 30
0.0
  3
*D14
  1

  0
SOLID
  5
3E6
330
3E3
100
AcDbEntity
  8
0
  6
Continuous
 62
     7
440
 16777216
370
     0
100
AcDbTrace
 10
15.33195419715938
 20
13.70702874077639
 30
0.0
 11
15.31112086382605
 21
13.54036207410972
 31
0.0
 12
15.35278753049272
 22
13.54036207410972
 32
0.0
 13
15.35278753049272
 23
13.54036207410972
 33
0.0
  0
SOLID
  5
3E7
330
3E3
100
AcDbEntity
  8
0
  6
Continuous
 62
     7
440
 16777216
370
     0
100
AcDbTrace
 10
15.33195419715939
 20
9.221028740776391
 30
0.0
 11
15.35278753049273
 21
9.387695407443057
 31
0.0
 12
15.31112086382606
 22
9.387695407443057
 32
0.0
 13
15.31112086382606
 23
9.387695407443057
 33
0.0
  0
LINE
  5
3E8
330
3E3
100
AcDbEntity
  8
0
  6
Continuous
 62
     7
440
 16777216
370
     0
100
AcDbLine
 10
9.901455164730483
 20
13.70702874077637
 30
0.0
 11
15.49862086382605
 21
13.70702874077639
 31
0.0
  0
LINE
  5
3E9
330
3E3
100
AcDbEntity
  8
0
  6
Continuous
 62
     7
440
 16777216
370
     0
100
AcDbLine
 10
9.901455164730498
 20
9.221028740776375
 30
0.0
 11
15.49862086382606
 21
9.221028740776391
 31
0.0
  0
LINE
  5
3EA
330
3E3
100
AcDbEntity
  8
0
  6
Continuous
 62
     7
440
 16777216
370
     0
100
AcDbLine
 10
15.33195419715938
 20
13.70702874077639
 30
0.0
 11
15.33195419715938
 21
11.63153736146605
 31
0.0
  0
LINE
  5
3EB
330
3E3
100
AcDbEntity
  8
0
  6
Continuous
 62
     7
440
 16777216
370
     0
100
AcDbLine
 10
15.33195419715939
 20
9.221028740776391
 30
0.0
 11
15.33195419715939
 21
11.29652012008673
 31
0.0
  0
MTEXT
  5
3EC
330
3E3
100
AcDbEntity
  8
0
  6
Continuous
 62
     7
440
 16777216
370
     0
100
AcDbMText
 10
15.05277316267662
 20
11.57815667122568
 30
-0.0000000000000801
 40
0.2204861111111111
 41
0.0
 46
0.0
 71
     1
 72
     1
  1
4.49
  7
SLDTEXTSTYLE0
 73
     1
 44
1.0
  0
ENDBLK
  5
3E5
330
3E3
100
AcDbEntity
  8
0
100
AcDbBlockEnd
  0
BLOCK
  5
3EF
330
3EE
100
AcDbEntity
  8
0
100
AcDbBlockBegin
  2
*D15
 70
     1
 10
0.0
 20
0.0
 30
0.0
  3
*D15
  1

  0
SOLID
  5
3F1
330
3EE
100
AcDbEntity
  8
0
  6
Continuous
 62
     7
440
 16777216
370
     0
100
AcDbTrace
 10
14.50028849806387
 20
9.296028740776391
 30
0.0
 11
14.52112183139721
 21
9.462695407443057
 31
0.0
 12
14.47945516473054
 22
9.462695407443057
 32
0.0
 13
14.47945516473054
 23
9.462695407443057
 33
0.0
  0
SOLID
  5
3F2
330
3EE
100
AcDbEntity
  8
0
  6
Continuous
 62
     7
440
 16777216
370
     0
100
AcDbTrace
 10
14.50028849806385
 20
13.63202874077639
 30
0.0
 11
14.47945516473052
 21
13.46536207410973
 31
0.0
 12
14.52112183139719
 22
13.46536207410973
 32
0.0
 13
14.52112183139719
 23
13.46536207410973
 33
0.0
  0
LINE
  5
3F3
330
3EE
100
AcDbEntity
  8
0
  6
Continuous
 62
     7
440
 16777216
370
     0
100
AcDbLine
 10
9.826455164730498
 20
9.296028740776373
 30
0.0
 11
14.66695516473054
 21
9.296028740776392
 31
0.0
  0
LINE
  5
3F4
330
3EE
100
AcDbEntity
  8
0
  6
Continuous
 62
     7
440
 16777216
370
     0
100
AcDbLine
 10
9.826455164730482
 20
13.63202874077638
 30
0.0
 11
14.66695516473052
 21
13.63202874077639
 31
0.0
  0
LINE
  5
3F5
330
3EE
100
AcDbEntity
  8
0
  6
Continuous
 62
     7
440
 16777216
370
     0
100
AcDbLine
 10
14.50028849806387
 20
9.296028740776391
 30
0.0
 11
14.50028849806387
 21
11.29652012008673
 31
0.0
  0
LINE
  5
3F6
330
3EE
100
AcDbEntity
  8
0
  6
Continuous
 62
     7
440
 16777216
370
     0
100
AcDbLine
 10
14.50028849806385
 20
13.63202874077639
 30
0.0
 11
14.50028849806386
 21
11.63153736146605
 31
0.0
  0
MTEXT
  5
3F7
330
3EE
100
AcDbEntity
  8
0
  6
Continuous
 62
     7
440
 16777216
370
     0
100
AcDbMText
 10
14.22110746358111
 20
11.57815667122568
 30
-0.0000000000000801
 40
0.2204861111111111
 41
0.0
 46
0.0
 71
     1
 72
     1
  1
4.34
  7
SLDTEXTSTYLE0
 73
     1
 44
1.0
  0
ENDBLK
  5
3F0
330
3EE
100
AcDbEntity
  8
0
100
AcDbBlockEnd
  0
BLOCK
  5
3F9
330
3F8
100
AcDbEntity
  8
0
100
AcDbBlockBegin
  2
SW_NOTE_22
 70
     0
 10
0.0
 20
0.0
 30
0.0
  3
SW_NOTE_22
  1

  0
MTEXT
  5
3FB
330
3F8
100
AcDbEntity
  8
0
  6
Continuous
 62
     0
370
     0
100
AcDbMText
 10
0.0483720920276172
 20
0.1158594276939109
 30
0.0
 40
0.2645833333333333
 41
0.0
 46
0.0
 71
     1
 72
     1
  1
SOLDER MASK 
  7
SLDTEXTSTYLE0
 73
     1
 44
1.0
  0
MTEXT
  5
3FC
330
3F8
100
AcDbEntity
  8
0
  6
Continuous
 62
     0
370
     0
100
AcDbMText
 10
0.0483720920276172
 20
-0.232057230032059
 30
0.0
 40
0.2645833333333333
 41
0.0
 46
0.0
 71
     1
 72
     1
  1
OPENING
  7
SLDTEXTSTYLE0
 73
     1
 44
1.0
  0
ENDBLK
  5
3FA
330
3F8
100
AcDbEntity
  8
0
100
AcDbBlockEnd
  0
BLOCK
  5
401
330
400
100
AcDbEntity
  8
0
100
AcDbBlockBegin
  2
SW_NOTE_23
 70
     0
 10
0.0
 20
0.0
 30
0.0
  3
SW_NOTE_23
  1

  0
MTEXT
  5
403
330
400
100
AcDbEntity
  8
0
  6
Continuous
 62
     0
370
     0
100
AcDbMText
 10
0.0595266312292282
 20
0.1163356850646738
 30
0.0
 40
0.2425347222222221
 41
0.0
 46
0.0
 71
     1
 72
     1
  1
PCB THERMAL PAD 
  7
SLDTEXTSTYLE0
 73
     1
 44
1.0
  0
MTEXT
  5
404
330
400
100
AcDbEntity
  8
0
  6
Continuous
 62
     0
370
     0
100
AcDbMText
 10
0.0595266312292282
 20
-0.2070439406568504
 30
0.0
 40
0.2425347222222221
 41
0.0
 46
0.0
 71
     1
 72
     1
  1
DESIGN OPTIONAL 
  7
SLDTEXTSTYLE0
 73
     1
 44
1.0
  0
MTEXT
  5
405
330
400
100
AcDbEntity
  8
0
  6
Continuous
 62
     0
370
     0
100
AcDbMText
 10
0.0595266312292282
 20
-0.5304235663783745
 30
0.0
 40
0.2425347222222221
 41
0.0
 46
0.0
 71
     1
 72
     1
  1
SEE NOTE 7, 8
  7
SLDTEXTSTYLE0
 73
     1
 44
1.0
  0
ENDBLK
  5
402
330
400
100
AcDbEntity
  8
0
100
AcDbBlockEnd
  0
BLOCK
  5
409
330
408
100
AcDbEntity
  8
0
100
AcDbBlockBegin
  2
SW_NOTE_24
 70
     0
 10
0.0
 20
0.0
 30
0.0
  3
SW_NOTE_24
  1

  0
MTEXT
  5
40B
330
408
100
AcDbEntity
  8
0
  6
Continuous
 62
     0
370
     0
100
AcDbMText
 10
0.0444603211360491
 20
0.1131915177032076
 30
0.0
 40
0.2425347222222221
 41
0.0
 46
0.0
 71
     1
 72
     1
  1
COMPONENT 
  7
SLDTEXTSTYLE0
 73
     1
 44
1.0
  0
MTEXT
  5
40C
330
408
100
AcDbEntity
  8
0
  6
Continuous
 62
     0
370
     0
100
AcDbMText
 10
0.0444603211360491
 20
-0.2101881080183165
 30
0.0
 40
0.2425347222222221
 41
0.0
 46
0.0
 71
     1
 72
     1
  1
PAD
  7
SLDTEXTSTYLE0
 73
     1
 44
1.0
  0
ENDBLK
  5
40A
330
408
100
AcDbEntity
  8
0
100
AcDbBlockEnd
  0
BLOCK
  5
410
330
40F
100
AcDbEntity
  8
0
100
AcDbBlockBegin
  2
_DOT
 70
     0
 10
0.0
 20
0.0
 30
0.0
  3
_DOT
  1

  0
POLYLINE
  5
412
330
40F
100
AcDbEntity
  8
0
  6
ByBlock
 62
     0
100
AcDb2dPolyline
 66
     1
 10
0.0
 20
0.0
 30
0.0
 70
     1
 40
0.5
 41
0.5
  0
VERTEX
  5
414
330
412
100
AcDbEntity
  8
0
  6
ByBlock
 62
     0
100
AcDbVertex
100
AcDb2dVertex
 10
-0.25
 20
0.0
 30
0.0
 42
1.0
  0
VERTEX
  5
415
330
412
100
AcDbEntity
  8
0
  6
ByBlock
 62
     0
100
AcDbVertex
100
AcDb2dVertex
 10
0.25
 20
0.0
 30
0.0
 42
1.0
  0
SEQEND
  5
416
330
412
100
AcDbEntity
  8
0
  6
ByBlock
 62
     0
  0
LINE
  5
413
330
40F
100
AcDbEntity
  8
0
  6
ByBlock
 62
     0
370
    -2
100
AcDbLine
 10
-0.5
 20
0.0
 30
0.0
 11
-1.0
 21
0.0
 31
0.0
  0
ENDBLK
  5
411
330
40F
100
AcDbEntity
  8
0
100
AcDbBlockEnd
  0
BLOCK
  5
41D
330
41C
100
AcDbEntity
  8
0
100
AcDbBlockBegin
  2
SW_NOTE_25
 70
     0
 10
0.0
 20
0.0
 30
0.0
  3
SW_NOTE_25
  1

  0
MTEXT
  5
41F
330
41C
100
AcDbEntity
  8
0
  6
Continuous
 62
     0
370
     0
100
AcDbMText
 10
0.0483720920276196
 20
0.1118671078550737
 30
0.0
 40
0.2425347222222221
 41
0.0
 46
0.0
 71
     1
 72
     1
  1
SOLDER MASK 
  7
SLDTEXTSTYLE0
 73
     1
 44
1.0
  0
MTEXT
  5
420
330
41C
100
AcDbEntity
  8
0
  6
Continuous
 62
     0
370
     0
100
AcDbMText
 10
0.0483720920276196
 20
-0.2115125178664504
 30
0.0
 40
0.2425347222222221
 41
0.0
 46
0.0
 71
     1
 72
     1
  1
OPENING
  7
SLDTEXTSTYLE0
 73
     1
 44
1.0
  0
ENDBLK
  5
41E
330
41C
100
AcDbEntity
  8
0
100
AcDbBlockEnd
  0
BLOCK
  5
483
330
482
100
AcDbEntity
  8
0
100
AcDbBlockBegin
  2
*D21
 70
     1
 10
0.0
 20
0.0
 30
0.0
  3
*D21
  1

  0
SOLID
  5
485
330
482
100
AcDbEntity
  8
0
  6
Continuous
 62
     7
440
 16777216
370
     0
100
AcDbTrace
 10
21.74920057888595
 20
9.593154376526555
 30
0.0
 11
21.77003391221928
 21
9.759821043193221
 31
0.0
 12
21.72836724555262
 22
9.759821043193221
 32
0.0
 13
21.72836724555262
 23
9.759821043193221
 33
0.0
  0
SOLID
  5
486
330
482
100
AcDbEntity
  8
0
  6
Continuous
 62
     7
440
 16777216
370
     0
100
AcDbTrace
 10
21.74920057888594
 20
11.59315437652655
 30
0.0
 11
21.72836724555261
 21
11.42648770985989
 31
0.0
 12
21.77003391221927
 22
11.42648770985989
 32
0.0
 13
21.77003391221927
 23
11.42648770985989
 33
0.0
  0
LINE
  5
487
330
482
100
AcDbEntity
  8
0
  6
Continuous
 62
     7
440
 16777216
370
     0
100
AcDbLine
 10
20.68698484466425
 20
9.593154376526552
 30
0.0
 11
21.91586724555262
 21
9.593154376526557
 31
0.0
  0
LINE
  5
488
330
482
100
AcDbEntity
  8
0
  6
Continuous
 62
     7
440
 16777216
370
     0
100
AcDbLine
 10
20.18698484466424
 20
11.59315437652655
 30
0.0
 11
21.91586724555261
 21
11.59315437652655
 31
0.0
  0
LINE
  5
489
330
482
100
AcDbEntity
  8
0
  6
Continuous
 62
     7
440
 16777216
370
     0
100
AcDbLine
 10
21.74920057888595
 20
9.593154376526555
 30
0.0
 11
21.74920057888594
 21
10.4256457558369
 31
0.0
  0
LINE
  5
48A
330
482
100
AcDbEntity
  8
0
  6
Continuous
 62
     7
440
 16777216
370
     0
100
AcDbLine
 10
21.74920057888594
 20
11.59315437652655
 30
0.0
 11
21.74920057888594
 21
10.76066299721621
 31
0.0
  0
MTEXT
  5
48B
330
482
100
AcDbEntity
  8
0
  6
Continuous
 62
     7
440
 16777216
370
     0
100
AcDbMText
 10
21.47001954440319
 20
10.70728230697584
 30
-0.0000000000000741
 40
0.2204861111111111
 41
0.0
 46
0.0
 71
     1
 72
     1
  1
0.60
  7
SLDTEXTSTYLE0
 73
     1
 44
1.0
  0
ENDBLK
  5
484
330
482
100
AcDbEntity
  8
0
100
AcDbBlockEnd
  0
BLOCK
  5
48E
330
48D
100
AcDbEntity
  8
0
100
AcDbBlockBegin
  2
*D22
 70
     1
 10
0.0
 20
0.0
 30
0.0
  3
*D22
  1

  0
SOLID
  5
490
330
48D
100
AcDbEntity
  8
0
  6
Continuous
 62
     7
440
 16777216
370
     0
100
AcDbTrace
 10
20.99703217002514
 20
10.25982104319322
 30
0.0
 11
20.9761988366918
 21
10.09315437652655
 31
0.0
 12
21.01786550335847
 22
10.09315437652655
 32
0.0
 13
21.01786550335847
 23
10.09315437652655
 33
0.0
  0
SOLID
  5
491
330
48D
100
AcDbEntity
  8
0
  6
Continuous
 62
     7
440
 16777216
370
     0
100
AcDbTrace
 10
20.99703217002514
 20
9.593154376526552
 30
0.0
 11
21.01786550335847
 21
9.759821043193218
 31
0.0
 12
20.97619883669181
 22
9.759821043193218
 32
0.0
 13
20.97619883669181
 23
9.759821043193218
 33
0.0
  0
LINE
  5
492
330
48D
100
AcDbEntity
  8
0
  6
Continuous
 62
     7
440
 16777216
370
     0
100
AcDbLine
 10
20.68698484466425
 20
9.593154376526552
 30
0.0
 11
21.16369883669181
 21
9.593154376526552
 31
0.0
  0
LINE
  5
493
330
48D
100
AcDbEntity
  8
0
  6
Continuous
 62
     7
440
 16777216
370
     0
100
AcDbLine
 10
21.24703217002513
 20
9.046224262704125
 30
0.0
 11
20.99703217002514
 21
9.046224262704125
 31
0.0
  0
LINE
  5
494
330
48D
100
AcDbEntity
  8
0
  6
Continuous
 62
     7
440
 16777216
370
     0
100
AcDbLine
 10
20.99703217002514
 20
9.046224262704125
 30
0.0
 11
20.99703217002514
 21
9.593154376526552
 31
0.0
  0
LINE
  5
495
330
48D
100
AcDbEntity
  8
0
  6
Continuous
 62
     7
440
 16777216
370
     0
100
AcDbLine
 10
20.99703217002514
 20
10.25982104319322
 30
0.0
 11
20.99703217002514
 21
9.593154376526552
 31
0.0
  0
MTEXT
  5
496
330
48D
100
AcDbEntity
  8
0
  6
Continuous
 62
     7
440
 16777216
370
     0
100
AcDbMText
 10
21.37932383669181
 20
9.160352193153414
 30
-0.0000000000000633
 40
0.2204861111111111
 41
0.0
 46
0.0
 71
     1
 72
     1
  1
0.20
  7
SLDTEXTSTYLE0
 73
     1
 44
1.0
  0
ENDBLK
  5
48F
330
48D
100
AcDbEntity
  8
0
100
AcDbBlockEnd
  0
BLOCK
  5
499
330
498
100
AcDbEntity
  8
0
100
AcDbBlockBegin
  2
*D23
 70
     1
 10
0.0
 20
0.0
 30
0.0
  3
*D23
  1

  0
SOLID
  5
49B
330
498
100
AcDbEntity
  8
0
  6
Continuous
 62
     7
440
 16777216
370
     0
100
AcDbTrace
 10
19.56198484466425
 20
8.413487770121607
 30
0.0
 11
19.72865151133091
 21
8.392654436788273
 31
0.0
 12
19.72865151133091
 22
8.434321103454941
 32
0.0
 13
19.72865151133091
 23
8.434321103454941
 33
0.0
  0
SOLID
  5
49C
330
498
100
AcDbEntity
  8
0
  6
Continuous
 62
     7
440
 16777216
370
     0
100
AcDbTrace
 10
20.56198484466425
 20
8.413487770121609
 30
0.0
 11
20.39531817799758
 21
8.434321103454943
 31
0.0
 12
20.39531817799758
 22
8.392654436788275
 32
0.0
 13
20.39531817799758
 23
8.392654436788275
 33
0.0
  0
LINE
  5
49D
330
498
100
AcDbEntity
  8
0
  6
Continuous
 62
     7
440
 16777216
370
     0
100
AcDbLine
 10
19.56198484466424
 20
9.468154376526547
 30
0.0
 11
19.56198484466425
 21
8.246821103454939
 31
0.0
  0
LINE
  5
49E
330
498
100
AcDbEntity
  8
0
  6
Continuous
 62
     7
440
 16777216
370
     0
100
AcDbLine
 10
20.56198484466425
 20
9.468154376526552
 30
0.0
 11
20.56198484466425
 21
8.246821103454943
 31
0.0
  0
LINE
  5
49F
330
498
100
AcDbEntity
  8
0
  6
Continuous
 62
     7
440
 16777216
370
     0
100
AcDbLine
 10
19.56198484466425
 20
8.413487770121607
 30
0.0
 11
20.56198484466425
 21
8.413487770121609
 31
0.0
  0
LINE
  5
4A0
330
498
100
AcDbEntity
  8
0
  6
Continuous
 62
     7
440
 16777216
370
     0
100
AcDbLine
 10
20.56198484466425
 20
8.413487770121609
 30
0.0
 11
20.56601246648067
 21
8.413487770121609
 31
0.0
  0
MTEXT
  5
4A1
330
498
100
AcDbEntity
  8
0
  6
Continuous
 62
     7
440
 16777216
370
     0
100
AcDbMText
 10
20.69830413314735
 20
8.527615700570899
 30
-0.0000000000000588
 40
0.2204861111111111
 41
0.0
 46
0.0
 71
     1
 72
     1
  1
0.30
  7
SLDTEXTSTYLE0
 73
     1
 44
1.0
  0
ENDBLK
  5
49A
330
498
100
AcDbEntity
  8
0
100
AcDbBlockEnd
  0
BLOCK
  5
4A5
330
4A4
100
AcDbEntity
  8
0
100
AcDbBlockBegin
  2
*D24
 70
     1
 10
0.0
 20
0.0
 30
0.0
  3
*D24
  1

  0
SOLID
  5
4A7
330
4A4
100
AcDbEntity
  8
0
  6
Continuous
 62
     7
440
 16777216
370
     0
100
AcDbTrace
 10
17.89531817799757
 20
13.01368982985039
 30
0.0
 11
18.06198484466424
 21
12.99285649651706
 31
0.0
 12
18.06198484466424
 22
13.03452316318372
 32
0.0
 13
18.06198484466424
 23
13.03452316318372
 33
0.0
  0
SOLID
  5
4A8
330
4A4
100
AcDbEntity
  8
0
  6
Continuous
 62
     7
440
 16777216
370
     0
100
AcDbTrace
 10
20.06198484466424
 20
13.0136898298504
 30
0.0
 11
19.89531817799757
 21
13.03452316318373
 31
0.0
 12
19.89531817799757
 22
12.99285649651706
 32
0.0
 13
19.89531817799757
 23
12.99285649651706
 33
0.0
  0
LINE
  5
4A9
330
4A4
100
AcDbEntity
  8
0
  6
Continuous
 62
     7
440
 16777216
370
     0
100
AcDbLine
 10
17.89531817799758
 20
11.46815437652656
 30
0.0
 11
17.89531817799757
 21
13.18035649651706
 31
0.0
  0
LINE
  5
4AA
330
4A4
100
AcDbEntity
  8
0
  6
Continuous
 62
     7
440
 16777216
370
     0
100
AcDbLine
 10
20.06198484466425
 20
11.46815437652657
 30
0.0
 11
20.06198484466424
 21
13.18035649651706
 31
0.0
  0
LINE
  5
4AB
330
4A4
100
AcDbEntity
  8
0
  6
Continuous
 62
     7
440
 16777216
370
     0
100
AcDbLine
 10
17.89531817799757
 20
13.01368982985039
 30
0.0
 11
18.56717881018149
 21
13.01368982985039
 31
0.0
  0
LINE
  5
4AC
330
4A4
100
AcDbEntity
  8
0
  6
Continuous
 62
     7
440
 16777216
370
     0
100
AcDbLine
 10
20.06198484466424
 20
13.0136898298504
 30
0.0
 11
19.39012421248033
 21
13.01368982985039
 31
0.0
  0
MTEXT
  5
4AD
330
4A4
100
AcDbEntity
  8
0
  6
Continuous
 62
     7
440
 16777216
370
     0
100
AcDbMText
 10
18.69947047684816
 20
13.12781776029968
 30
-0.000000000000091
 40
0.2204861111111111
 41
0.0
 46
0.0
 71
     1
 72
     1
  1
0.65
  7
SLDTEXTSTYLE0
 73
     1
 44
1.0
  0
ENDBLK
  5
4A6
330
4A4
100
AcDbEntity
  8
0
100
AcDbBlockEnd
  0
BLOCK
  5
4B1
330
4B0
100
AcDbEntity
  8
0
100
AcDbBlockBegin
  2
*D25
 70
     1
 10
0.0
 20
0.0
 30
0.0
  3
*D25
  1

  0
SOLID
  5
4B3
330
4B0
100
AcDbEntity
  8
0
  6
Continuous
 62
     7
440
 16777216
370
     0
100
AcDbTrace
 10
17.05036124441885
 20
9.343154376526539
 30
0.0
 11
17.02952791108552
 21
9.176487709859873
 31
0.0
 12
17.07119457775218
 22
9.176487709859873
 32
0.0
 13
17.07119457775218
 23
9.176487709859873
 33
0.0
  0
SOLID
  5
4B4
330
4B0
100
AcDbEntity
  8
0
  6
Continuous
 62
     7
440
 16777216
370
     0
100
AcDbTrace
 10
17.05036124441885
 20
9.593154376526539
 30
0.0
 11
17.07119457775218
 21
9.759821043193205
 31
0.0
 12
17.02952791108551
 22
9.759821043193205
 32
0.0
 13
17.02952791108551
 23
9.759821043193205
 33
0.0
  0
LINE
  5
4B5
330
4B0
100
AcDbEntity
  8
0
  6
Continuous
 62
     7
440
 16777216
370
     0
100
AcDbLine
 10
17.02031817799758
 20
9.343154376526539
 30
0.0
 11
16.88369457775218
 21
9.343154376526539
 31
0.0
  0
LINE
  5
4B6
330
4B0
100
AcDbEntity
  8
0
  6
Continuous
 62
     7
440
 16777216
370
     0
100
AcDbLine
 10
17.27031817799758
 20
9.593154376526539
 30
0.0
 11
16.88369457775218
 21
9.593154376526539
 31
0.0
  0
LINE
  5
4B7
330
4B0
100
AcDbEntity
  8
0
  6
Continuous
 62
     7
440
 16777216
370
     0
100
AcDbLine
 10
16.80036124441885
 20
8.53447311713587
 30
0.0
 11
17.05036124441885
 21
8.53447311713587
 31
0.0
  0
LINE
  5
4B8
330
4B0
100
AcDbEntity
  8
0
  6
Continuous
 62
     7
440
 16777216
370
     0
100
AcDbLine
 10
17.05036124441885
 20
8.53447311713587
 30
0.0
 11
17.05036124441885
 21
9.343154376526539
 31
0.0
  0
LINE
  5
4B9
330
4B0
100
AcDbEntity
  8
0
  6
Continuous
 62
     7
440
 16777216
370
     0
100
AcDbLine
 10
17.05036124441885
 20
9.593154376526539
 30
0.0
 11
17.05036124441885
 21
9.926487709859873
 31
0.0
  0
MTEXT
  5
4BA
330
4B0
100
AcDbEntity
  8
0
  6
Continuous
 62
     7
440
 16777216
370
     0
100
AcDbMText
 10
14.74172043982115
 20
8.816109668274812
 30
-0.0000000000000609
 40
0.2204861111111111
 41
0.0
 46
0.0
 71
     1
 72
     1
  1
0.060~
  7
SLDTEXTSTYLE0
 73
     1
 44
1.0
  0
MTEXT
  5
4BB
330
4B0
100
AcDbEntity
  8
0
  6
Continuous
 62
     7
440
 16777216
370
     0
100
AcDbMText
 10
15.63509975016598
 20
8.816109668274812
 30
-0.0000000000000609
 40
0.2204861111111111
 41
0.0
 46
0.0
 71
     1
 72
     1
  1
0.075
  7
SLDTEXTSTYLE0
 73
     1
 44
1.0
  0
MTEXT
  5
4BC
330
4B0
100
AcDbEntity
  8
0
  6
Continuous
 62
     7
440
 16777216
370
     0
100
AcDbMText
 10
14.46769421855679
 20
8.481092426895502
 30
-0.0000000000000585
 40
0.2204861111111111
 41
0.0
 46
0.0
 71
     1
 72
     1
  1
MASK OPENING
  7
SLDTEXTSTYLE0
 73
     1
 44
1.0
  0
ENDBLK
  5
4B2
330
4B0
100
AcDbEntity
  8
0
100
AcDbBlockEnd
  0
BLOCK
  5
4C0
330
4BF
100
AcDbEntity
  8
0
100
AcDbBlockBegin
  2
*D26
 70
     1
 10
0.0
 20
0.0
 30
0.0
  3
*D26
  1

  0
SOLID
  5
4C2
330
4BF
100
AcDbEntity
  8
0
  6
Continuous
 62
     7
440
 16777216
370
     0
100
AcDbTrace
 10
18.64531817799759
 20
7.759821043193168
 30
0.0
 11
18.81198484466425
 21
7.738987709859836
 31
0.0
 12
18.81198484466425
 22
7.780654376526502
 32
0.0
 13
18.81198484466425
 23
7.780654376526502
 33
0.0
  0
SOLID
  5
4C3
330
4BF
100
AcDbEntity
  8
0
  6
Continuous
 62
     7
440
 16777216
370
     0
100
AcDbTrace
 10
19.31198484466425
 20
7.759821043193171
 30
0.0
 11
19.14531817799758
 21
7.780654376526503
 31
0.0
 12
19.14531817799758
 22
7.738987709859837
 32
0.0
 13
19.14531817799758
 23
7.738987709859837
 33
0.0
  0
LINE
  5
4C4
330
4BF
100
AcDbEntity
  8
0
  6
Continuous
 62
     7
440
 16777216
370
     0
100
AcDbLine
 10
18.64531817799758
 20
9.218154376526545
 30
0.0
 11
18.64531817799759
 21
7.593154376526501
 31
0.0
  0
LINE
  5
4C5
330
4BF
100
AcDbEntity
  8
0
  6
Continuous
 62
     7
440
 16777216
370
     0
100
AcDbLine
 10
19.31198484466425
 20
9.218154376526547
 30
0.0
 11
19.31198484466425
 21
7.593154376526504
 31
0.0
  0
LINE
  5
4C6
330
4BF
100
AcDbEntity
  8
0
  6
Continuous
 62
     7
440
 16777216
370
     0
100
AcDbLine
 10
18.64531817799759
 20
7.759821043193168
 30
0.0
 11
17.80998896369418
 21
7.759821043193166
 31
0.0
  0
LINE
  5
4C7
330
4BF
100
AcDbEntity
  8
0
  6
Continuous
 62
     7
440
 16777216
370
     0
100
AcDbLine
 10
19.31198484466425
 20
7.759821043193171
 30
0.0
 11
18.64531817799759
 21
7.759821043193168
 31
0.0
  0
MTEXT
  5
4C8
330
4BF
100
AcDbEntity
  8
0
  6
Continuous
 62
     7
440
 16777216
370
     0
100
AcDbMText
 10
15.35118867633786
 20
7.873948973642448
 30
-0.0000000000000543
 40
0.2204861111111111
 41
0.0
 46
0.0
 71
     1
 72
     1
  1
0.185~
  7
SLDTEXTSTYLE0
 73
     1
 44
1.0
  0
MTEXT
  5
4C9
330
4BF
100
AcDbEntity
  8
0
  6
Continuous
 62
     7
440
 16777216
370
     0
100
AcDbMText
 10
16.24456798668269
 20
7.873948973642448
 30
-0.0000000000000543
 40
0.2204861111111111
 41
0.0
 46
0.0
 71
     1
 72
     1
  1
0.200
  7
SLDTEXTSTYLE0
 73
     1
 44
1.0
  0
MTEXT
  5
4CA
330
4BF
100
AcDbEntity
  8
0
  6
Continuous
 62
     7
440
 16777216
370
     0
100
AcDbMText
 10
16.97043867633786
 20
7.873948973642448
 30
-0.0000000000000543
 40
0.2204861111111111
 41
0.0
 46
0.0
 71
     1
 72
     1
  1
 MIN.
  7
SLDTEXTSTYLE0
 73
     1
 44
1.0
  0
ENDBLK
  5
4C1
330
4BF
100
AcDbEntity
  8
0
100
AcDbBlockEnd
  0
BLOCK
  5
4CE
330
4CD
100
AcDbEntity
  8
0
100
AcDbBlockBegin
  2
*D27
 70
     1
 10
0.0
 20
0.0
 30
0.0
  3
*D27
  1

  0
SOLID
  5
4D0
330
4CD
100
AcDbEntity
  8
0
  6
Continuous
 62
     7
440
 16777216
370
     0
100
AcDbTrace
 10
17.77185962318039
 20
11.57767267880464
 30
0.0
 11
17.75089503416958
 21
11.74432288601473
 31
0.0
 12
17.71051850897974
 22
11.73403467311329
 32
0.0
 13
17.71051850897974
 23
11.73403467311329
 33
0.0
  0
LINE
  5
4D1
330
4CD
100
AcDbEntity
  8
0
  6
Continuous
 62
     7
440
 16777216
370
     0
100
AcDbLine
 10
17.77185962318039
 20
11.57767267880464
 30
0.0
 11
17.49333846857026
 21
12.67074069000937
 31
0.0
  0
LINE
  5
4D2
330
4CD
100
AcDbEntity
  8
0
  6
Continuous
 62
     7
440
 16777216
370
     0
100
AcDbLine
 10
17.49333846857026
 20
12.67074069000937
 30
0.0
 11
17.24333846857026
 21
12.67074069000937
 31
0.0
  0
MTEXT
  5
4D3
330
4CD
100
AcDbEntity
  8
0
  6
Continuous
 62
     7
440
 16777216
370
     0
100
AcDbMText
 10
16.38517611224842
 20
12.78486862045866
 30
-0.0000000000000886
 40
0.2204861111111111
 41
0.0
 46
0.0
 71
     1
 72
     1
  1
R
  7
SLDTEXTSTYLE0
 73
     1
 44
1.0
  0
MTEXT
  5
4D4
330
4CD
100
AcDbEntity
  8
0
  6
Continuous
 62
     7
440
 16777216
370
     0
100
AcDbMText
 10
16.55268473293808
 20
12.78486862045866
 30
-0.0000000000000886
 40
0.2204861111111111
 41
0.0
 46
0.0
 71
     1
 72
     1
  1
0.15
  7
SLDTEXTSTYLE0
 73
     1
 44
1.0
  0
ENDBLK
  5
4CF
330
4CD
100
AcDbEntity
  8
0
100
AcDbBlockEnd
  0
BLOCK
  5
4D6
330
4D5
100
AcDbEntity
  8
0
100
AcDbBlockBegin
  2
SW_NOTE_26
 70
     0
 10
0.0
 20
0.0
 30
0.0
  3
SW_NOTE_26
  1

  0
MTEXT
  5
4D8
330
4D5
100
AcDbEntity
  8
0
  6
Continuous
 62
     0
370
     0
100
AcDbMText
 10
0.0
 20
0.3379638671875002
 30
0.0
 40
0.2645833333333333
 41
0.0
 46
0.0
 71
     1
 72
     1
  1
DETAIL A 
  7
SLDTEXTSTYLE0
 73
     1
 44
1.0
  0
MTEXT
  5
4D9
330
4D5
100
AcDbEntity
  8
0
  6
Continuous
 62
     0
370
     0
100
AcDbMText
 10
-0.2454744341472784
 20
-0.0099527905384697
 30
0.0
 40
0.2645833333333333
 41
0.0
 46
0.0
 71
     1
 72
     1
  1
SCALE 40 : 1
  7
SLDTEXTSTYLE0
 73
     1
 44
1.0
  0
ENDBLK
  5
4D7
330
4D5
100
AcDbEntity
  8
0
100
AcDbBlockEnd
  0
ENDSEC
  0
SECTION
  2
ENTITIES
  0
IMAGE
  5
56
330
1F
100
AcDbEntity
  8
0
160
               140
310
8C0000000100000084000000060000000500000000A91150D6B63040E1D88251DF091140000000000000000000A91150D6B63040120437C3EFAC13400000000000000000239E6A3EA9483240120437C3EFAC13400000000000000000239E6A3EA9483240E1D88251DF091140000000000000000000A91150D6B63040E1D882
310
51DF0911400000000000000000
100
AcDbRasterImage
 90
        0
 10
16.71420765334278
 20
4.259640954600599
 30
0.0
 11
0.0104641653488042
 21
0.0
 31
0.0
 12
0.0
 22
0.0104641653488042
 32
0.0
 13
150.0
 23
63.0
340
55
 70
     7
280
     0
281
    50
282
    50
283
     0
290
     0
360
57
 71
     1
 91
        2
 14
-0.5
 24
-0.5
 14
149.5
 24
62.5
  0
LINE
  5
58
330
1F
100
AcDbEntity
  8
0
  6
Continuous
 62
     7
370
     0
100
AcDbLine
 10
0.698345483333328
 20
17.33988821138201
 30
0.0
 11
22.50001215000001
 21
17.33988821138211
 31
0.0
  0
LINE
  5
59
330
1F
100
AcDbEntity
  8
0
  6
Continuous
 62
     7
370
     0
100
AcDbLine
 10
0.698345483333328
 20
17.33988821138201
 30
0.0
 11
0.6983454833333301
 21
0.8298882113821042
 31
0.0
  0
LINE
  5
5A
330
1F
100
AcDbEntity
  8
0
  6
Continuous
 62
     7
370
     0
100
AcDbLine
 10
22.50001215
 20
0.8298882113821067
 30
0.0
 11
0.6983454833333301
 21
0.8298882113821042
 31
0.0
  0
LINE
  5
5B
330
1F
100
AcDbEntity
  8
0
  6
Continuous
 62
     7
370
     0
100
AcDbLine
 10
22.50001215
 20
0.8298882113821067
 30
0.0
 11
22.50001215000001
 21
17.33988821138211
 31
0.0
  0
LINE
  5
5C
330
1F
100
AcDbEntity
  8
0
  6
Continuous
 62
     7
370
     0
100
AcDbLine
 10
16.66072149266312
 20
4.987758072473796
 30
0.0
 11
16.66072149266312
 21
0.8298882113821177
 31
0.0
  0
LINE
  5
5D
330
1F
100
AcDbEntity
  8
0
  6
Continuous
 62
     7
370
     0
100
AcDbLine
 10
16.66072149266312
 20
1.280496571374754
 30
0.0
 11
22.50001215
 21
1.280496571374744
 31
0.0
  0
LINE
  5
5E
330
1F
100
AcDbEntity
  8
0
  6
Continuous
 62
     7
370
     0
100
AcDbLine
 10
16.66072149266312
 20
2.353598386655772
 30
0.0
 11
22.50001215
 21
2.353598386655761
 31
0.0
  0
LINE
  5
5F
330
1F
100
AcDbEntity
  8
0
  6
Continuous
 62
     7
370
     0
100
AcDbLine
 10
16.66072149266312
 20
4.210622284965196
 30
0.0
 11
22.50001215
 21
4.210622284965186
 31
0.0
  0
LINE
  5
60
330
1F
100
AcDbEntity
  8
0
  6
Continuous
 62
     7
370
     0
100
AcDbLine
 10
17.92419867694996
 20
2.353598386655772
 30
0.0
 11
17.92419867694996
 21
1.280496571374744
 31
0.0
  0
LINE
  5
61
330
1F
100
AcDbEntity
  8
0
  6
Continuous
 62
     7
370
     0
100
AcDbLine
 10
18.68313490654261
 20
2.353598386655772
 30
0.0
 11
18.68313490654261
 21
1.280496571374744
 31
0.0
  0
LINE
  5
62
330
1F
100
AcDbEntity
  8
0
  6
Continuous
 62
     7
370
     0
100
AcDbLine
 10
21.07061457021071
 20
2.353598386655772
 30
0.0
 11
21.07061457021071
 21
1.280496571374744
 31
0.0
  0
LINE
  5
63
330
1F
100
AcDbEntity
  8
0
  6
Continuous
 62
     7
370
     0
100
AcDbLine
 10
20.4602411535587
 20
1.280496571374744
 30
0.0
 11
20.4602411535587
 21
0.8298882113821072
 31
0.0
  0
LINE
  5
64
330
1F
100
AcDbEntity
  8
0
  6
Continuous
 62
     7
370
     0
100
AcDbLine
 10
16.66072149266312
 20
4.987758072473796
 30
0.0
 11
22.50001215
 21
4.987758072473796
 31
0.0
  0
INSERT
  5
8D
330
1F
100
AcDbEntity
  8
0
  6
Continuous
 62
     7
370
     0
100
AcDbBlockReference
  2
SW_NOTE_18
 10
17.82301326528155
 20
2.861493881427089
 30
0.0
  0
INSERT
  5
B3
330
1F
100
AcDbEntity
  8
0
  6
Continuous
 62
     7
370
     0
100
AcDbBlockReference
  2
SW_NOTE_19
 10
0.9211149425287384
 20
6.412567367795414
 30
0.0
  0
INSERT
  5
B9
330
1F
100
AcDbEntity
  8
0
  6
Continuous
 62
     7
370
     0
100
AcDbBlockReference
  2
SW_NOTE_20
 10
17.48718593011426
 20
3.708788272861247
 30
0.0
  0
MTEXT
  5
BA
330
1F
100
AcDbEntity
  8
0
  6
Continuous
 62
     7
370
     0
100
AcDbMText
 10
20.65258727895672
 20
1.166815789791587
 30
0.0
 40
0.2116666666666667
 41
0.0
 46
0.0
 71
     1
 72
     1
  1
SHEET 4 OF 4
  7
SLDTEXTSTYLE0
 73
     1
 44
1.0
  0
MTEXT
  5
BC
330
1F
100
AcDbEntity
  8
0
  6
Continuous
 62
     7
370
     0
100
AcDbMText
 10
16.88519544553508
 20
1.819933905280857
 30
0.0
 40
0.3086805555555555
 41
0.0
 46
0.0
 71
     1
 72
     1
  1
12:1
  7
SLDTEXTSTYLE1
 73
     1
 44
1.0
  0
MTEXT
  5
BD
330
1F
100
AcDbEntity
  8
0
  6
Continuous
 62
     7
370
     0
100
AcDbMText
 10
19.158249411013
 20
2.262170893288621
 30
0.0
 40
0.2116666666666667
 41
0.0
 46
0.0
 71
     1
 72
     1
  1
DWG.  NO.
  7
SLDTEXTSTYLE0
 73
     1
 44
1.0
  0
MTEXT
  5
BE
330
1F
100
AcDbEntity
  8
0
  6
Continuous
 62
     7
370
     0
100
AcDbMText
 10
18.05586377502093
 20
1.865031776016059
 30
0.0
 40
0.5291666666666666
 41
0.0
 46
0.0
 71
     1
 72
     1
  1
A
  7
SLDTEXTSTYLE1
 73
     1
 44
1.0
  0
MTEXT
  5
BF
330
1F
100
AcDbEntity
  8
0
  6
Continuous
 62
     7
370
     0
100
AcDbMText
 10
18.07656191477536
 20
2.262170893288621
 30
0.0
 40
0.2116666666666667
 41
0.0
 46
0.0
 71
     1
 72
     1
  1
SIZE
  7
SLDTEXTSTYLE0
 73
     1
 44
1.0
  0
MTEXT
  5
C0
330
1F
100
AcDbEntity
  8
0
  6
Continuous
 62
     7
370
     0
100
AcDbMText
 10
16.75779905080668
 20
4.135153260845695
 30
0.0
 40
0.2116666666666667
 41
0.0
 46
0.0
 71
     1
 72
     1
  1
TITLE:
  7
SLDTEXTSTYLE0
 73
     1
 44
1.0
  0
MTEXT
  5
C1
330
1F
100
AcDbEntity
  8
0
  6
Continuous
 62
     7
370
     0
100
AcDbMText
 10
16.83583673913975
 20
1.166815789791587
 30
0.0
 40
0.2116666666666667
 41
0.0
 46
0.0
 71
     1
 72
     1
  1
DO NOT SCALE DRAWING
  7
SLDTEXTSTYLE0
 73
     1
 44
1.0
  0
MTEXT
  5
C2
330
1F
100
AcDbEntity
  8
0
  6
Continuous
 62
     7
370
     0
100
AcDbMText
 10
16.84736368676523
 20
2.262170893288621
 30
0.0
 40
0.2116666666666667
 41
0.0
 46
0.0
 71
     1
 72
     1
  1
SCALE
  7
SLDTEXTSTYLE0
 73
     1
 44
1.0
  0
INSERT
  5
C8
330
1F
100
AcDbEntity
  8
0
  6
Continuous
 62
     7
370
     0
100
AcDbBlockReference
  2
SW_NOTE_21
 10
19.33858873530107
 20
1.553534150243364
 30
0.0
  0
MTEXT
  5
C9
330
1F
100
AcDbEntity
  8
0
  6
Continuous
 62
     7
370
     0
100
AcDbMText
 10
21.55853437739787
 20
2.262170893288621
 30
0.0
 40
0.2116666666666667
 41
0.0
 46
0.0
 71
     1
 72
     1
  1
REV
  7
SLDTEXTSTYLE0
 73
     1
 44
1.0
  0
MTEXT
  5
CA
330
1F
100
AcDbEntity
  8
0
  6
Continuous
 62
     7
370
     0
100
AcDbMText
 10
21.57549193004648
 20
1.933179296748142
 30
0.0
 40
0.5291666666666666
 41
0.0
 46
0.0
 71
     1
 72
     1
  1
A
  7
SLDTEXTSTYLE0
 73
     1
 44
1.0
  0
MTEXT
  5
CC
330
1F
100
AcDbEntity
  8
0
  6
Continuous
 62
     7
370
     0
100
AcDbMText
 10
19.26916408413338
 20
4.746586507810467
 30
0.0
 40
0.2204861111111111
 41
0.0
 46
0.0
 71
     1
 72
     1
  1
www.MirrorSemi.com
  7
SLDTEXTSTYLE2
 73
     1
 44
1.0
  0
ARC
  5
CD
330
1F
100
AcDbEntity
  8
0
  6
Continuous
 62
     7
100
AcDbCircle
 10
5.583455164730499
 20
8.71402874077636
 30
0.0
 40
0.2249999999999996
100
AcDbArc
 50
0.0000000000001999
 51
180.0000000000013
  0
ARC
  5
CE
330
1F
100
AcDbEntity
  8
0
  6
Continuous
 62
     7
100
AcDbCircle
 10
6.233455164730499
 20
8.714028740776361
 30
0.0
 40
0.2249999999999996
100
AcDbArc
 50
0.0000000000002003
 51
179.9999999999998
  0
ARC
  5
CF
330
1F
100
AcDbEntity
  8
0
  6
Continuous
 62
     7
100
AcDbCircle
 10
6.8834551647305
 20
8.714028740776363
 30
0.0
 40
0.2249999999999996
100
AcDbArc
 50
0.0000000000004945
 51
179.9999999999998
  0
ARC
  5
D0
330
1F
100
AcDbEntity
  8
0
  6
Continuous
 62
     7
100
AcDbCircle
 10
7.533455164730499
 20
8.714028740776367
 30
0.0
 40
0.2249999999999996
100
AcDbArc
 50
0.0000000000002003
 51
180.0000000000013
  0
ARC
  5
D1
330
1F
100
AcDbEntity
  8
0
  6
Continuous
 62
     7
100
AcDbCircle
 10
8.183455164730499
 20
8.714028740776369
 30
0.0
 40
0.2250000000000005
100
AcDbArc
 50
0.0000000000002001
 51
180.0000000000013
  0
ARC
  5
D2
330
1F
100
AcDbEntity
  8
0
  6
Continuous
 62
     7
100
AcDbCircle
 10
8.8334551647305
 20
8.71402874077637
 30
0.0
 40
0.2250000000000014
100
AcDbArc
 50
0.0000000000002003
 51
179.9999999999998
  0
ARC
  5
D3
330
1F
100
AcDbEntity
  8
0
  6
Continuous
 62
     7
100
AcDbCircle
 10
9.483455164730498
 20
8.714028740776374
 30
0.0
 40
0.2250000000000014
100
AcDbArc
 50
0.0000000000002003
 51
180.0000000000013
  0
ARC
  5
D4
330
1F
100
AcDbEntity
  8
0
  6
Continuous
 62
     7
100
AcDbCircle
 10
10.28345516473052
 20
9.514028740776405
 30
0.0
 40
0.2249999999999996
100
AcDbArc
 50
90.0000000000009
 51
270.0000000000017
  0
ARC
  5
D5
330
1F
100
AcDbEntity
  8
0
  6
Continuous
 62
     7
100
AcDbCircle
 10
10.28345516473051
 20
10.1640287407764
 30
0.0
 40
0.2249999999999996
100
AcDbArc
 50
90.0000000000009
 51
270.0000000000017
  0
ARC
  5
D6
330
1F
100
AcDbEntity
  8
0
  6
Continuous
 62
     7
100
AcDbCircle
 10
10.2834551647305
 20
10.8140287407764
 30
0.0
 40
0.2250000000000014
100
AcDbArc
 50
90.0000000000009
 51
270.0000000000017
  0
ARC
  5
D7
330
1F
100
AcDbEntity
  8
0
  6
Continuous
 62
     7
100
AcDbCircle
 10
10.28345516473049
 20
11.4640287407764
 30
0.0
 40
0.2250000000000014
100
AcDbArc
 50
90.0000000000009
 51
270.0000000000017
  0
ARC
  5
D8
330
1F
100
AcDbEntity
  8
0
  6
Continuous
 62
     7
100
AcDbCircle
 10
10.28345516473048
 20
12.1140287407764
 30
0.0
 40
0.2250000000000014
100
AcDbArc
 50
90.0000000000009
 51
270.0000000000017
  0
ARC
  5
D9
330
1F
100
AcDbEntity
  8
0
  6
Continuous
 62
     7
100
AcDbCircle
 10
10.28345516473047
 20
12.7640287407764
 30
0.0
 40
0.2250000000000014
100
AcDbArc
 50
90.0000000000009
 51
270.0000000000017
  0
ARC
  5
DA
330
1F
100
AcDbEntity
  8
0
  6
Continuous
 62
     7
100
AcDbCircle
 10
10.28345516473046
 20
13.4140287407764
 30
0.0
 40
0.2250000000000014
100
AcDbArc
 50
90.00000000000136
 51
270.0000000000013
  0
ARC
  5
DB
330
1F
100
AcDbEntity
  8
0
  6
Continuous
 62
     7
100
AcDbCircle
 10
9.483455164730481
 20
14.21402874077637
 30
0.0
 40
0.2249999999999996
100
AcDbArc
 50
179.9999999999998
 51
0.0000000000002003
  0
ARC
  5
DC
330
1F
100
AcDbEntity
  8
0
  6
Continuous
 62
     7
100
AcDbCircle
 10
8.833455164730482
 20
14.21402874077637
 30
0.0
 40
0.2249999999999996
100
AcDbArc
 50
179.9999999999998
 51
0.0000000000002003
  0
ARC
  5
DD
330
1F
100
AcDbEntity
  8
0
  6
Continuous
 62
     7
100
AcDbCircle
 10
8.183455164730482
 20
14.21402874077637
 30
0.0
 40
0.2250000000000005
100
AcDbArc
 50
179.9999999999998
 51
0.0000000000002001
  0
ARC
  5
DE
330
1F
100
AcDbEntity
  8
0
  6
Continuous
 62
     7
100
AcDbCircle
 10
7.533455164730481
 20
14.21402874077636
 30
0.0
 40
0.2249999999999996
100
AcDbArc
 50
179.9999999999998
 51
0.0000000000004947
  0
ARC
  5
DF
330
1F
100
AcDbEntity
  8
0
  6
Continuous
 62
     7
100
AcDbCircle
 10
6.883455164730481
 20
14.21402874077636
 30
0.0
 40
0.2250000000000005
100
AcDbArc
 50
179.9999999999998
 51
0.0000000000001999
  0
ARC
  5
E0
330
1F
100
AcDbEntity
  8
0
  6
Continuous
 62
     7
100
AcDbCircle
 10
6.233455164730481
 20
14.21402874077636
 30
0.0
 40
0.2250000000000005
100
AcDbArc
 50
179.9999999999998
 51
0.0000000000004947
  0
ARC
  5
E1
330
1F
100
AcDbEntity
  8
0
  6
Continuous
 62
     7
100
AcDbCircle
 10
5.583455164730482
 20
14.21402874077636
 30
0.0
 40
0.2250000000000005
100
AcDbArc
 50
179.9999999999998
 51
0.0000000000001999
  0
ARC
  5
E2
330
1F
100
AcDbEntity
  8
0
  6
Continuous
 62
     7
100
AcDbCircle
 10
4.783455164730476
 20
13.41402874077635
 30
0.0
 40
0.2250000000000014
100
AcDbArc
 50
270.0000000000015
 51
90.00000000000023
  0
ARC
  5
E3
330
1F
100
AcDbEntity
  8
0
  6
Continuous
 62
     7
100
AcDbCircle
 10
4.783455164730481
 20
12.76402874077635
 30
0.0
 40
0.2250000000000014
100
AcDbArc
 50
270.0000000000013
 51
90.00000000000046
  0
ARC
  5
E4
330
1F
100
AcDbEntity
  8
0
  6
Continuous
 62
     7
100
AcDbCircle
 10
4.783455164730486
 20
12.11402874077635
 30
0.0
 40
0.2250000000000014
100
AcDbArc
 50
270.0000000000013
 51
90.00000000000046
  0
ARC
  5
E5
330
1F
100
AcDbEntity
  8
0
  6
Continuous
 62
     7
100
AcDbCircle
 10
4.78345516473049
 20
11.46402874077635
 30
0.0
 40
0.2250000000000014
100
AcDbArc
 50
270.0000000000013
 51
90.00000000000046
  0
ARC
  5
E6
330
1F
100
AcDbEntity
  8
0
  6
Continuous
 62
     7
100
AcDbCircle
 10
4.783455164730495
 20
10.81402874077634
 30
0.0
 40
0.2250000000000014
100
AcDbArc
 50
270.0000000000013
 51
90.00000000000046
  0
ARC
  5
E7
330
1F
100
AcDbEntity
  8
0
  6
Continuous
 62
     7
100
AcDbCircle
 10
4.783455164730499
 20
10.16402874077635
 30
0.0
 40
0.2249999999999996
100
AcDbArc
 50
270.0000000000013
 51
90.00000000000046
  0
ARC
  5
E8
330
1F
100
AcDbEntity
  8
0
  6
Continuous
 62
     7
100
AcDbCircle
 10
4.783455164730504
 20
9.514028740776348
 30
0.0
 40
0.2249999999999996
100
AcDbArc
 50
270.0000000000013
 51
90.00000000000069
  0
ARC
  5
E9
330
1F
100
AcDbEntity
  8
0
  6
Continuous
 62
     7
100
AcDbCircle
 10
5.583455164730499
 20
8.71402874077636
 30
0.0
 40
0.2249999999999996
100
AcDbArc
 50
0.0000000000001999
 51
180.0000000000013
  0
ARC
  5
EA
330
1F
100
AcDbEntity
  8
0
  6
Continuous
 62
     7
100
AcDbCircle
 10
6.233455164730499
 20
8.714028740776361
 30
0.0
 40
0.2249999999999996
100
AcDbArc
 50
0.0000000000002003
 51
179.9999999999998
  0
ARC
  5
EB
330
1F
100
AcDbEntity
  8
0
  6
Continuous
 62
     7
100
AcDbCircle
 10
6.8834551647305
 20
8.714028740776363
 30
0.0
 40
0.2249999999999996
100
AcDbArc
 50
0.0000000000004945
 51
179.9999999999998
  0
ARC
  5
EC
330
1F
100
AcDbEntity
  8
0
  6
Continuous
 62
     7
100
AcDbCircle
 10
7.533455164730499
 20
8.714028740776367
 30
0.0
 40
0.2249999999999996
100
AcDbArc
 50
0.0000000000002003
 51
180.0000000000013
  0
ARC
  5
ED
330
1F
100
AcDbEntity
  8
0
  6
Continuous
 62
     7
100
AcDbCircle
 10
8.183455164730499
 20
8.714028740776369
 30
0.0
 40
0.2250000000000005
100
AcDbArc
 50
0.0000000000002001
 51
180.0000000000013
  0
ARC
  5
EE
330
1F
100
AcDbEntity
  8
0
  6
Continuous
 62
     7
100
AcDbCircle
 10
8.8334551647305
 20
8.71402874077637
 30
0.0
 40
0.2250000000000014
100
AcDbArc
 50
0.0000000000002003
 51
179.9999999999998
  0
ARC
  5
EF
330
1F
100
AcDbEntity
  8
0
  6
Continuous
 62
     7
100
AcDbCircle
 10
9.483455164730498
 20
8.714028740776374
 30
0.0
 40
0.2250000000000014
100
AcDbArc
 50
0.0000000000002003
 51
180.0000000000013
  0
ARC
  5
F0
330
1F
100
AcDbEntity
  8
0
  6
Continuous
 62
     7
100
AcDbCircle
 10
10.28345516473052
 20
9.514028740776405
 30
0.0
 40
0.2249999999999996
100
AcDbArc
 50
90.0000000000009
 51
270.0000000000017
  0
ARC
  5
F1
330
1F
100
AcDbEntity
  8
0
  6
Continuous
 62
     7
100
AcDbCircle
 10
10.28345516473051
 20
10.1640287407764
 30
0.0
 40
0.2249999999999996
100
AcDbArc
 50
90.0000000000009
 51
270.0000000000017
  0
ARC
  5
F2
330
1F
100
AcDbEntity
  8
0
  6
Continuous
 62
     7
100
AcDbCircle
 10
10.2834551647305
 20
10.8140287407764
 30
0.0
 40
0.2250000000000014
100
AcDbArc
 50
90.0000000000009
 51
270.0000000000017
  0
ARC
  5
F3
330
1F
100
AcDbEntity
  8
0
  6
Continuous
 62
     7
100
AcDbCircle
 10
10.28345516473049
 20
11.4640287407764
 30
0.0
 40
0.2250000000000014
100
AcDbArc
 50
90.0000000000009
 51
270.0000000000017
  0
ARC
  5
F4
330
1F
100
AcDbEntity
  8
0
  6
Continuous
 62
     7
100
AcDbCircle
 10
10.28345516473048
 20
12.1140287407764
 30
0.0
 40
0.2250000000000014
100
AcDbArc
 50
90.0000000000009
 51
270.0000000000017
  0
ARC
  5
F5
330
1F
100
AcDbEntity
  8
0
  6
Continuous
 62
     7
100
AcDbCircle
 10
10.28345516473047
 20
12.7640287407764
 30
0.0
 40
0.2250000000000014
100
AcDbArc
 50
90.0000000000009
 51
270.0000000000017
  0
ARC
  5
F6
330
1F
100
AcDbEntity
  8
0
  6
Continuous
 62
     7
100
AcDbCircle
 10
10.28345516473046
 20
13.4140287407764
 30
0.0
 40
0.2250000000000014
100
AcDbArc
 50
90.00000000000136
 51
270.0000000000013
  0
ARC
  5
F7
330
1F
100
AcDbEntity
  8
0
  6
Continuous
 62
     7
100
AcDbCircle
 10
9.483455164730481
 20
14.21402874077637
 30
0.0
 40
0.2249999999999996
100
AcDbArc
 50
179.9999999999998
 51
0.0000000000002003
  0
ARC
  5
F8
330
1F
100
AcDbEntity
  8
0
  6
Continuous
 62
     7
100
AcDbCircle
 10
8.833455164730482
 20
14.21402874077637
 30
0.0
 40
0.2249999999999996
100
AcDbArc
 50
179.9999999999998
 51
0.0000000000002003
  0
ARC
  5
F9
330
1F
100
AcDbEntity
  8
0
  6
Continuous
 62
     7
100
AcDbCircle
 10
8.183455164730482
 20
14.21402874077637
 30
0.0
 40
0.2250000000000005
100
AcDbArc
 50
179.9999999999998
 51
0.0000000000002001
  0
ARC
  5
FA
330
1F
100
AcDbEntity
  8
0
  6
Continuous
 62
     7
100
AcDbCircle
 10
7.533455164730481
 20
14.21402874077636
 30
0.0
 40
0.2249999999999996
100
AcDbArc
 50
179.9999999999998
 51
0.0000000000004947
  0
ARC
  5
FB
330
1F
100
AcDbEntity
  8
0
  6
Continuous
 62
     7
100
AcDbCircle
 10
6.883455164730481
 20
14.21402874077636
 30
0.0
 40
0.2250000000000005
100
AcDbArc
 50
179.9999999999998
 51
0.0000000000001999
  0
ARC
  5
FC
330
1F
100
AcDbEntity
  8
0
  6
Continuous
 62
     7
100
AcDbCircle
 10
6.233455164730481
 20
14.21402874077636
 30
0.0
 40
0.2250000000000005
100
AcDbArc
 50
179.9999999999998
 51
0.0000000000004947
  0
ARC
  5
FD
330
1F
100
AcDbEntity
  8
0
  6
Continuous
 62
     7
100
AcDbCircle
 10
5.583455164730482
 20
14.21402874077636
 30
0.0
 40
0.2250000000000005
100
AcDbArc
 50
179.9999999999998
 51
0.0000000000001999
  0
ARC
  5
FE
330
1F
100
AcDbEntity
  8
0
  6
Continuous
 62
     7
100
AcDbCircle
 10
4.783455164730476
 20
13.41402874077635
 30
0.0
 40
0.2250000000000014
100
AcDbArc
 50
270.0000000000015
 51
90.00000000000023
  0
ARC
  5
FF
330
1F
100
AcDbEntity
  8
0
  6
Continuous
 62
     7
100
AcDbCircle
 10
4.783455164730481
 20
12.76402874077635
 30
0.0
 40
0.2250000000000014
100
AcDbArc
 50
270.0000000000013
 51
90.00000000000046
  0
ARC
  5
100
330
1F
100
AcDbEntity
  8
0
  6
Continuous
 62
     7
100
AcDbCircle
 10
4.783455164730486
 20
12.11402874077635
 30
0.0
 40
0.2250000000000014
100
AcDbArc
 50
270.0000000000013
 51
90.00000000000046
  0
ARC
  5
101
330
1F
100
AcDbEntity
  8
0
  6
Continuous
 62
     7
100
AcDbCircle
 10
4.78345516473049
 20
11.46402874077635
 30
0.0
 40
0.2250000000000014
100
AcDbArc
 50
270.0000000000013
 51
90.00000000000046
  0
ARC
  5
102
330
1F
100
AcDbEntity
  8
0
  6
Continuous
 62
     7
100
AcDbCircle
 10
4.783455164730495
 20
10.81402874077634
 30
0.0
 40
0.2250000000000014
100
AcDbArc
 50
270.0000000000013
 51
90.00000000000046
  0
ARC
  5
103
330
1F
100
AcDbEntity
  8
0
  6
Continuous
 62
     7
100
AcDbCircle
 10
4.783455164730499
 20
10.16402874077635
 30
0.0
 40
0.2249999999999996
100
AcDbArc
 50
270.0000000000013
 51
90.00000000000046
  0
ARC
  5
104
330
1F
100
AcDbEntity
  8
0
  6
Continuous
 62
     7
100
AcDbCircle
 10
4.783455164730504
 20
9.514028740776348
 30
0.0
 40
0.2249999999999996
100
AcDbArc
 50
270.0000000000013
 51
90.00000000000069
  0
LINE
  5
105
330
1F
100
AcDbEntity
  8
0
  6
Continuous
 62
     7
100
AcDbLine
 10
5.365455164730481
 20
13.63202874077636
 30
0.0
 11
5.365455164730496
 21
9.296028740776359
 31
0.0
  0
LINE
  5
106
330
1F
100
AcDbEntity
  8
0
  6
Continuous
 62
     7
100
AcDbLine
 10
5.365455164730496
 20
9.296028740776359
 30
0.0
 11
9.701455164730498
 21
9.296028740776373
 31
0.0
  0
LINE
  5
107
330
1F
100
AcDbEntity
  8
0
  6
Continuous
 62
     7
100
AcDbLine
 10
9.701455164730498
 20
9.296028740776373
 30
0.0
 11
9.701455164730482
 21
13.63202874077638
 31
0.0
  0
LINE
  5
108
330
1F
100
AcDbEntity
  8
0
  6
Continuous
 62
     7
100
AcDbLine
 10
9.701455164730482
 20
13.63202874077638
 30
0.0
 11
5.365455164730481
 21
13.63202874077636
 31
0.0
  0
LINE
  5
109
330
1F
100
AcDbEntity
  8
0
  6
Continuous
 62
     7
100
AcDbLine
 10
4.533455164730502
 20
8.464028740776356
 30
0.0
 11
10.5334551647305
 21
8.464028740776376
 31
0.0
  0
LINE
  5
10A
330
1F
100
AcDbEntity
  8
0
  6
Continuous
 62
     7
100
AcDbLine
 10
4.533455164730502
 20
8.464028740776356
 30
0.0
 11
4.53345516473048
 21
14.46402874077635
 31
0.0
  0
LINE
  5
10B
330
1F
100
AcDbEntity
  8
0
  6
Continuous
 62
     7
100
AcDbLine
 10
4.53345516473048
 20
14.46402874077635
 30
0.0
 11
10.53345516473048
 21
14.46402874077637
 31
0.0
  0
LINE
  5
10C
330
1F
100
AcDbEntity
  8
0
  6
Continuous
 62
     7
100
AcDbLine
 10
10.5334551647305
 20
8.464028740776376
 30
0.0
 11
10.53345516473048
 21
14.46402874077637
 31
0.0
  0
LINE
  5
10D
330
1F
100
AcDbEntity
  8
0
  6
Continuous
 62
     7
100
AcDbLine
 10
5.808455164730501
 20
8.189028740776359
 30
0.0
 11
5.808455164730498
 21
8.71402874077636
 31
0.0
  0
LINE
  5
10E
330
1F
100
AcDbEntity
  8
0
  6
Continuous
 62
     7
100
AcDbLine
 10
5.3584551647305
 20
8.714028740776358
 30
0.0
 11
5.358455164730502
 21
8.189028740776358
 31
0.0
  0
LINE
  5
10F
330
1F
100
AcDbEntity
  8
0
  6
Continuous
 62
     7
100
AcDbLine
 10
5.358455164730502
 20
8.189028740776358
 30
0.0
 11
5.808455164730501
 21
8.189028740776359
 31
0.0
  0
LINE
  5
110
330
1F
100
AcDbEntity
  8
0
  6
Continuous
 62
     7
100
AcDbLine
 10
6.458455164730501
 20
8.189028740776361
 30
0.0
 11
6.458455164730499
 21
8.714028740776361
 31
0.0
  0
LINE
  5
111
330
1F
100
AcDbEntity
  8
0
  6
Continuous
 62
     7
100
AcDbLine
 10
6.0084551647305
 20
8.714028740776361
 30
0.0
 11
6.008455164730502
 21
8.189028740776361
 31
0.0
  0
LINE
  5
112
330
1F
100
AcDbEntity
  8
0
  6
Continuous
 62
     7
100
AcDbLine
 10
6.008455164730502
 20
8.189028740776361
 30
0.0
 11
6.458455164730501
 21
8.189028740776361
 31
0.0
  0
LINE
  5
113
330
1F
100
AcDbEntity
  8
0
  6
Continuous
 62
     7
100
AcDbLine
 10
7.108455164730501
 20
8.189028740776365
 30
0.0
 11
7.108455164730499
 21
8.714028740776365
 31
0.0
  0
LINE
  5
114
330
1F
100
AcDbEntity
  8
0
  6
Continuous
 62
     7
100
AcDbLine
 10
6.6584551647305
 20
8.714028740776363
 30
0.0
 11
6.658455164730501
 21
8.189028740776363
 31
0.0
  0
LINE
  5
115
330
1F
100
AcDbEntity
  8
0
  6
Continuous
 62
     7
100
AcDbLine
 10
6.658455164730501
 20
8.189028740776363
 30
0.0
 11
7.108455164730501
 21
8.189028740776365
 31
0.0
  0
LINE
  5
116
330
1F
100
AcDbEntity
  8
0
  6
Continuous
 62
     7
100
AcDbLine
 10
9.776455164730498
 20
9.221028740776375
 30
0.0
 11
9.776455164730496
 21
9.874028740776376
 31
0.0
  0
LINE
  5
117
330
1F
100
AcDbEntity
  8
0
  6
Continuous
 62
     7
100
AcDbLine
 10
9.123455164730495
 20
9.401028740776371
 30
0.0
 11
9.123455164730495
 21
9.221028740776374
 31
0.0
  0
LINE
  5
118
330
1F
100
AcDbEntity
  8
0
  6
Continuous
 62
     7
100
AcDbLine
 10
8.943455164730496
 20
9.401028740776371
 30
0.0
 11
9.123455164730495
 21
9.401028740776371
 31
0.0
  0
LINE
  5
119
330
1F
100
AcDbEntity
  8
0
  6
Continuous
 62
     7
100
AcDbLine
 10
8.943455164730496
 20
9.221028740776372
 30
0.0
 11
8.943455164730496
 21
9.401028740776371
 31
0.0
  0
LINE
  5
11A
330
1F
100
AcDbEntity
  8
0
  6
Continuous
 62
     7
100
AcDbLine
 10
8.373455164730497
 20
9.221028740776372
 30
0.0
 11
8.943455164730496
 21
9.221028740776372
 31
0.0
  0
LINE
  5
11B
330
1F
100
AcDbEntity
  8
0
  6
Continuous
 62
     7
100
AcDbLine
 10
9.596455164730494
 20
10.05402874077637
 30
0.0
 11
9.776455164730496
 21
10.05402874077637
 31
0.0
  0
LINE
  5
11C
330
1F
100
AcDbEntity
  8
0
  6
Continuous
 62
     7
100
AcDbLine
 10
7.758455164730501
 20
8.189028740776366
 30
0.0
 11
7.758455164730499
 21
8.714028740776367
 31
0.0
  0
LINE
  5
11D
330
1F
100
AcDbEntity
  8
0
  6
Continuous
 62
     7
100
AcDbLine
 10
9.596455164730496
 20
9.874028740776374
 30
0.0
 11
9.596455164730494
 21
10.05402874077637
 31
0.0
  0
LINE
  5
11E
330
1F
100
AcDbEntity
  8
0
  6
Continuous
 62
     7
100
AcDbLine
 10
9.776455164730496
 20
9.874028740776376
 30
0.0
 11
9.596455164730496
 21
9.874028740776374
 31
0.0
  0
LINE
  5
11F
330
1F
100
AcDbEntity
  8
0
  6
Continuous
 62
     7
100
AcDbLine
 10
7.3084551647305
 20
8.714028740776365
 30
0.0
 11
7.308455164730501
 21
8.189028740776365
 31
0.0
  0
LINE
  5
120
330
1F
100
AcDbEntity
  8
0
  6
Continuous
 62
     7
100
AcDbLine
 10
7.308455164730501
 20
8.189028740776365
 30
0.0
 11
7.758455164730501
 21
8.189028740776366
 31
0.0
  0
LINE
  5
121
330
1F
100
AcDbEntity
  8
0
  6
Continuous
 62
     7
100
AcDbLine
 10
8.408455164730501
 20
8.189028740776368
 30
0.0
 11
8.408455164730499
 21
8.714028740776369
 31
0.0
  0
LINE
  5
122
330
1F
100
AcDbEntity
  8
0
  6
Continuous
 62
     7
100
AcDbLine
 10
7.958455164730499
 20
8.714028740776367
 30
0.0
 11
7.958455164730501
 21
8.189028740776368
 31
0.0
  0
LINE
  5
123
330
1F
100
AcDbEntity
  8
0
  6
Continuous
 62
     7
100
AcDbLine
 10
7.958455164730501
 20
8.189028740776368
 30
0.0
 11
8.408455164730501
 21
8.189028740776368
 31
0.0
  0
LINE
  5
124
330
1F
100
AcDbEntity
  8
0
  6
Continuous
 62
     7
100
AcDbLine
 10
9.776455164730494
 20
10.62402874077637
 30
0.0
 11
9.596455164730494
 21
10.62402874077637
 31
0.0
  0
LINE
  5
125
330
1F
100
AcDbEntity
  8
0
  6
Continuous
 62
     7
100
AcDbLine
 10
9.776455164730496
 20
10.05402874077637
 30
0.0
 11
9.776455164730494
 21
10.62402874077637
 31
0.0
  0
LINE
  5
126
330
1F
100
AcDbEntity
  8
0
  6
Continuous
 62
     7
100
AcDbLine
 10
9.123455164730495
 20
9.221028740776374
 30
0.0
 11
9.776455164730498
 21
9.221028740776375
 31
0.0
  0
LINE
  5
127
330
1F
100
AcDbEntity
  8
0
  6
Continuous
 62
     7
100
AcDbLine
 10
8.373455164730495
 20
9.401028740776368
 30
0.0
 11
8.373455164730497
 21
9.221028740776372
 31
0.0
  0
LINE
  5
128
330
1F
100
AcDbEntity
  8
0
  6
Continuous
 62
     7
100
AcDbLine
 10
8.193455164730496
 20
9.401028740776368
 30
0.0
 11
8.373455164730495
 21
9.401028740776368
 31
0.0
  0
LINE
  5
129
330
1F
100
AcDbEntity
  8
0
  6
Continuous
 62
     7
100
AcDbLine
 10
8.193455164730496
 20
9.221028740776368
 30
0.0
 11
8.193455164730496
 21
9.401028740776368
 31
0.0
  0
LINE
  5
12A
330
1F
100
AcDbEntity
  8
0
  6
Continuous
 62
     7
100
AcDbLine
 10
7.623455164730495
 20
9.221028740776368
 30
0.0
 11
8.193455164730496
 21
9.221028740776368
 31
0.0
  0
LINE
  5
12B
330
1F
100
AcDbEntity
  8
0
  6
Continuous
 62
     7
100
AcDbLine
 10
7.623455164730495
 20
9.401028740776366
 30
0.0
 11
7.623455164730495
 21
9.221028740776368
 31
0.0
  0
LINE
  5
12C
330
1F
100
AcDbEntity
  8
0
  6
Continuous
 62
     7
100
AcDbLine
 10
7.443455164730495
 20
9.401028740776366
 30
0.0
 11
7.623455164730495
 21
9.401028740776366
 31
0.0
  0
LINE
  5
12D
330
1F
100
AcDbEntity
  8
0
  6
Continuous
 62
     7
100
AcDbLine
 10
7.443455164730496
 20
9.221028740776365
 30
0.0
 11
7.443455164730495
 21
9.401028740776366
 31
0.0
  0
LINE
  5
12E
330
1F
100
AcDbEntity
  8
0
  6
Continuous
 62
     7
100
AcDbLine
 10
6.873455164730496
 20
9.221028740776366
 30
0.0
 11
7.443455164730496
 21
9.221028740776365
 31
0.0
  0
LINE
  5
12F
330
1F
100
AcDbEntity
  8
0
  6
Continuous
 62
     7
100
AcDbLine
 10
6.873455164730495
 20
9.401028740776364
 30
0.0
 11
6.873455164730496
 21
9.221028740776366
 31
0.0
  0
LINE
  5
130
330
1F
100
AcDbEntity
  8
0
  6
Continuous
 62
     7
100
AcDbLine
 10
6.693455164730496
 20
9.401028740776363
 30
0.0
 11
6.873455164730495
 21
9.401028740776364
 31
0.0
  0
LINE
  5
131
330
1F
100
AcDbEntity
  8
0
  6
Continuous
 62
     7
100
AcDbLine
 10
6.693455164730496
 20
9.221028740776363
 30
0.0
 11
6.693455164730496
 21
9.401028740776363
 31
0.0
  0
LINE
  5
132
330
1F
100
AcDbEntity
  8
0
  6
Continuous
 62
     7
100
AcDbLine
 10
6.123455164730495
 20
9.221028740776365
 30
0.0
 11
6.693455164730496
 21
9.221028740776363
 31
0.0
  0
LINE
  5
133
330
1F
100
AcDbEntity
  8
0
  6
Continuous
 62
     7
100
AcDbLine
 10
6.123455164730495
 20
9.401028740776361
 30
0.0
 11
6.123455164730495
 21
9.221028740776365
 31
0.0
  0
LINE
  5
134
330
1F
100
AcDbEntity
  8
0
  6
Continuous
 62
     7
100
AcDbLine
 10
5.943455164730495
 20
9.401028740776359
 30
0.0
 11
6.123455164730495
 21
9.401028740776361
 31
0.0
  0
LINE
  5
135
330
1F
100
AcDbEntity
  8
0
  6
Continuous
 62
     7
100
AcDbLine
 10
5.943455164730496
 20
9.221028740776359
 30
0.0
 11
5.943455164730495
 21
9.401028740776359
 31
0.0
  0
LINE
  5
136
330
1F
100
AcDbEntity
  8
0
  6
Continuous
 62
     7
100
AcDbLine
 10
5.290455164730499
 20
9.221028740776363
 30
0.0
 11
5.943455164730496
 21
9.221028740776359
 31
0.0
  0
LINE
  5
137
330
1F
100
AcDbEntity
  8
0
  6
Continuous
 62
     7
100
AcDbLine
 10
5.290455164730496
 20
9.874028740776356
 30
0.0
 11
5.290455164730499
 21
9.221028740776363
 31
0.0
  0
LINE
  5
138
330
1F
100
AcDbEntity
  8
0
  6
Continuous
 62
     7
100
AcDbLine
 10
5.470455164730494
 20
9.874028740776358
 30
0.0
 11
5.290455164730496
 21
9.874028740776356
 31
0.0
  0
LINE
  5
139
330
1F
100
AcDbEntity
  8
0
  6
Continuous
 62
     7
100
AcDbLine
 10
5.470455164730494
 20
10.05402874077636
 30
0.0
 11
5.470455164730494
 21
9.874028740776358
 31
0.0
  0
LINE
  5
13A
330
1F
100
AcDbEntity
  8
0
  6
Continuous
 62
     7
100
AcDbLine
 10
5.290455164730494
 20
10.05402874077636
 30
0.0
 11
5.470455164730494
 21
10.05402874077636
 31
0.0
  0
LINE
  5
13B
330
1F
100
AcDbEntity
  8
0
  6
Continuous
 62
     7
100
AcDbLine
 10
5.290455164730494
 20
10.62402874077635
 30
0.0
 11
5.290455164730494
 21
10.05402874077636
 31
0.0
  0
LINE
  5
13C
330
1F
100
AcDbEntity
  8
0
  6
Continuous
 62
     7
100
AcDbLine
 10
5.470455164730491
 20
10.62402874077636
 30
0.0
 11
5.290455164730494
 21
10.62402874077635
 31
0.0
  0
LINE
  5
13D
330
1F
100
AcDbEntity
  8
0
  6
Continuous
 62
     7
100
AcDbLine
 10
5.47045516473049
 20
10.80402874077636
 30
0.0
 11
5.470455164730491
 21
10.62402874077636
 31
0.0
  0
LINE
  5
13E
330
1F
100
AcDbEntity
  8
0
  6
Continuous
 62
     7
100
AcDbLine
 10
5.290455164730491
 20
10.80402874077636
 30
0.0
 11
5.47045516473049
 21
10.80402874077636
 31
0.0
  0
LINE
  5
13F
330
1F
100
AcDbEntity
  8
0
  6
Continuous
 62
     7
100
AcDbLine
 10
5.290455164730492
 20
11.37402874077635
 30
0.0
 11
5.290455164730491
 21
10.80402874077636
 31
0.0
  0
LINE
  5
140
330
1F
100
AcDbEntity
  8
0
  6
Continuous
 62
     7
100
AcDbLine
 10
5.470455164730489
 20
11.37402874077635
 30
0.0
 11
5.290455164730492
 21
11.37402874077635
 31
0.0
  0
LINE
  5
141
330
1F
100
AcDbEntity
  8
0
  6
Continuous
 62
     7
100
AcDbLine
 10
5.470455164730489
 20
11.55402874077636
 30
0.0
 11
5.470455164730489
 21
11.37402874077635
 31
0.0
  0
LINE
  5
142
330
1F
100
AcDbEntity
  8
0
  6
Continuous
 62
     7
100
AcDbLine
 10
5.29045516473049
 20
11.55402874077635
 30
0.0
 11
5.470455164730489
 21
11.55402874077636
 31
0.0
  0
LINE
  5
143
330
1F
100
AcDbEntity
  8
0
  6
Continuous
 62
     7
100
AcDbLine
 10
5.29045516473049
 20
12.12402874077636
 30
0.0
 11
5.29045516473049
 21
11.55402874077635
 31
0.0
  0
LINE
  5
144
330
1F
100
AcDbEntity
  8
0
  6
Continuous
 62
     7
100
AcDbLine
 10
6.190455164730483
 20
13.70702874077636
 30
0.0
 11
5.290455164730487
 21
12.80702874077636
 31
0.0
  0
LINE
  5
145
330
1F
100
AcDbEntity
  8
0
  6
Continuous
 62
     7
100
AcDbLine
 10
6.693455164730483
 20
13.70702874077636
 30
0.0
 11
6.190455164730483
 21
13.70702874077636
 31
0.0
  0
LINE
  5
146
330
1F
100
AcDbEntity
  8
0
  6
Continuous
 62
     7
100
AcDbLine
 10
7.443455164730483
 20
13.52702874077637
 30
0.0
 11
7.443455164730483
 21
13.70702874077637
 31
0.0
  0
LINE
  5
147
330
1F
100
AcDbEntity
  8
0
  6
Continuous
 62
     7
100
AcDbLine
 10
7.623455164730484
 20
13.52702874077637
 30
0.0
 11
7.443455164730483
 21
13.52702874077637
 31
0.0
  0
LINE
  5
148
330
1F
100
AcDbEntity
  8
0
  6
Continuous
 62
     7
100
AcDbLine
 10
7.623455164730483
 20
13.70702874077637
 30
0.0
 11
7.623455164730484
 21
13.52702874077637
 31
0.0
  0
LINE
  5
149
330
1F
100
AcDbEntity
  8
0
  6
Continuous
 62
     7
100
AcDbLine
 10
8.193455164730483
 20
13.70702874077637
 30
0.0
 11
7.623455164730483
 21
13.70702874077637
 31
0.0
  0
LINE
  5
14A
330
1F
100
AcDbEntity
  8
0
  6
Continuous
 62
     7
100
AcDbLine
 10
8.193455164730485
 20
13.52702874077637
 30
0.0
 11
8.193455164730483
 21
13.70702874077637
 31
0.0
  0
LINE
  5
14B
330
1F
100
AcDbEntity
  8
0
  6
Continuous
 62
     7
100
AcDbLine
 10
8.373455164730483
 20
13.52702874077637
 30
0.0
 11
8.193455164730485
 21
13.52702874077637
 31
0.0
  0
LINE
  5
14C
330
1F
100
AcDbEntity
  8
0
  6
Continuous
 62
     7
100
AcDbLine
 10
8.373455164730483
 20
13.70702874077637
 30
0.0
 11
8.373455164730483
 21
13.52702874077637
 31
0.0
  0
LINE
  5
14D
330
1F
100
AcDbEntity
  8
0
  6
Continuous
 62
     7
100
AcDbLine
 10
8.943455164730483
 20
13.70702874077637
 30
0.0
 11
8.373455164730483
 21
13.70702874077637
 31
0.0
  0
LINE
  5
14E
330
1F
100
AcDbEntity
  8
0
  6
Continuous
 62
     7
100
AcDbLine
 10
8.943455164730483
 20
13.52702874077637
 30
0.0
 11
8.943455164730483
 21
13.70702874077637
 31
0.0
  0
LINE
  5
14F
330
1F
100
AcDbEntity
  8
0
  6
Continuous
 62
     7
100
AcDbLine
 10
9.123455164730483
 20
13.52702874077637
 30
0.0
 11
8.943455164730483
 21
13.52702874077637
 31
0.0
  0
LINE
  5
150
330
1F
100
AcDbEntity
  8
0
  6
Continuous
 62
     7
100
AcDbLine
 10
9.123455164730483
 20
13.70702874077637
 30
0.0
 11
9.123455164730483
 21
13.52702874077637
 31
0.0
  0
LINE
  5
151
330
1F
100
AcDbEntity
  8
0
  6
Continuous
 62
     7
100
AcDbLine
 10
9.776455164730483
 20
13.70702874077637
 30
0.0
 11
9.123455164730483
 21
13.70702874077637
 31
0.0
  0
LINE
  5
152
330
1F
100
AcDbEntity
  8
0
  6
Continuous
 62
     7
100
AcDbLine
 10
9.776455164730483
 20
13.05402874077637
 30
0.0
 11
9.776455164730483
 21
13.70702874077637
 31
0.0
  0
LINE
  5
153
330
1F
100
AcDbEntity
  8
0
  6
Continuous
 62
     7
100
AcDbLine
 10
9.596455164730484
 20
13.05402874077637
 30
0.0
 11
9.776455164730483
 21
13.05402874077637
 31
0.0
  0
LINE
  5
154
330
1F
100
AcDbEntity
  8
0
  6
Continuous
 62
     7
100
AcDbLine
 10
9.596455164730485
 20
12.87402874077637
 30
0.0
 11
9.596455164730484
 21
13.05402874077637
 31
0.0
  0
LINE
  5
155
330
1F
100
AcDbEntity
  8
0
  6
Continuous
 62
     7
100
AcDbLine
 10
9.776455164730487
 20
12.87402874077637
 30
0.0
 11
9.596455164730485
 21
12.87402874077637
 31
0.0
  0
LINE
  5
156
330
1F
100
AcDbEntity
  8
0
  6
Continuous
 62
     7
100
AcDbLine
 10
9.776455164730487
 20
12.30402874077637
 30
0.0
 11
9.776455164730487
 21
12.87402874077637
 31
0.0
  0
LINE
  5
157
330
1F
100
AcDbEntity
  8
0
  6
Continuous
 62
     7
100
AcDbLine
 10
9.596455164730487
 20
12.30402874077637
 30
0.0
 11
9.776455164730487
 21
12.30402874077637
 31
0.0
  0
LINE
  5
158
330
1F
100
AcDbEntity
  8
0
  6
Continuous
 62
     7
100
AcDbLine
 10
9.596455164730487
 20
12.12402874077637
 30
0.0
 11
9.596455164730487
 21
12.30402874077637
 31
0.0
  0
LINE
  5
159
330
1F
100
AcDbEntity
  8
0
  6
Continuous
 62
     7
100
AcDbLine
 10
9.776455164730489
 20
12.12402874077638
 30
0.0
 11
9.596455164730487
 21
12.12402874077637
 31
0.0
  0
LINE
  5
15A
330
1F
100
AcDbEntity
  8
0
  6
Continuous
 62
     7
100
AcDbLine
 10
9.77645516473049
 20
11.55402874077637
 30
0.0
 11
9.776455164730489
 21
12.12402874077638
 31
0.0
  0
LINE
  5
15B
330
1F
100
AcDbEntity
  8
0
  6
Continuous
 62
     7
100
AcDbLine
 10
9.596455164730491
 20
11.55402874077637
 30
0.0
 11
9.77645516473049
 21
11.55402874077637
 31
0.0
  0
LINE
  5
15C
330
1F
100
AcDbEntity
  8
0
  6
Continuous
 62
     7
100
AcDbLine
 10
9.596455164730491
 20
11.37402874077637
 30
0.0
 11
9.596455164730491
 21
11.55402874077637
 31
0.0
  0
LINE
  5
15D
330
1F
100
AcDbEntity
  8
0
  6
Continuous
 62
     7
100
AcDbLine
 10
9.77645516473049
 20
11.37402874077637
 30
0.0
 11
9.596455164730491
 21
11.37402874077637
 31
0.0
  0
LINE
  5
15E
330
1F
100
AcDbEntity
  8
0
  6
Continuous
 62
     7
100
AcDbLine
 10
9.776455164730494
 20
10.80402874077637
 30
0.0
 11
9.77645516473049
 21
11.37402874077637
 31
0.0
  0
LINE
  5
15F
330
1F
100
AcDbEntity
  8
0
  6
Continuous
 62
     7
100
AcDbLine
 10
9.596455164730492
 20
10.80402874077637
 30
0.0
 11
9.776455164730494
 21
10.80402874077637
 31
0.0
  0
LINE
  5
160
330
1F
100
AcDbEntity
  8
0
  6
Continuous
 62
     7
100
AcDbLine
 10
9.596455164730494
 20
10.62402874077637
 30
0.0
 11
9.596455164730492
 21
10.80402874077637
 31
0.0
  0
LINE
  5
161
330
1F
100
AcDbEntity
  8
0
  6
Continuous
 62
     7
100
AcDbLine
 10
9.058455164730501
 20
8.18902874077637
 30
0.0
 11
9.058455164730499
 21
8.71402874077637
 31
0.0
  0
LINE
  5
162
330
1F
100
AcDbEntity
  8
0
  6
Continuous
 62
     7
100
AcDbLine
 10
8.608455164730498
 20
8.71402874077637
 30
0.0
 11
8.608455164730502
 21
8.18902874077637
 31
0.0
  0
LINE
  5
163
330
1F
100
AcDbEntity
  8
0
  6
Continuous
 62
     7
100
AcDbLine
 10
8.608455164730502
 20
8.18902874077637
 30
0.0
 11
9.058455164730501
 21
8.18902874077637
 31
0.0
  0
LINE
  5
164
330
1F
100
AcDbEntity
  8
0
  6
Continuous
 62
     7
100
AcDbLine
 10
9.708455164730501
 20
8.189028740776373
 30
0.0
 11
9.7084551647305
 21
8.714028740776374
 31
0.0
  0
LINE
  5
165
330
1F
100
AcDbEntity
  8
0
  6
Continuous
 62
     7
100
AcDbLine
 10
9.258455164730499
 20
8.714028740776372
 30
0.0
 11
9.258455164730502
 21
8.189028740776372
 31
0.0
  0
LINE
  5
166
330
1F
100
AcDbEntity
  8
0
  6
Continuous
 62
     7
100
AcDbLine
 10
9.258455164730502
 20
8.189028740776372
 30
0.0
 11
9.708455164730501
 21
8.189028740776373
 31
0.0
  0
LINE
  5
167
330
1F
100
AcDbEntity
  8
0
  6
Continuous
 62
     7
100
AcDbLine
 10
10.80845516473051
 20
9.739028740776412
 30
0.0
 11
10.28345516473051
 21
9.739028740776404
 31
0.0
  0
LINE
  5
168
330
1F
100
AcDbEntity
  8
0
  6
Continuous
 62
     7
100
AcDbLine
 10
10.28345516473052
 20
9.289028740776405
 30
0.0
 11
10.80845516473052
 21
9.289028740776412
 31
0.0
  0
LINE
  5
169
330
1F
100
AcDbEntity
  8
0
  6
Continuous
 62
     7
100
AcDbLine
 10
10.80845516473052
 20
9.289028740776412
 30
0.0
 11
10.80845516473051
 21
9.739028740776412
 31
0.0
  0
LINE
  5
16A
330
1F
100
AcDbEntity
  8
0
  6
Continuous
 62
     7
100
AcDbLine
 10
10.8084551647305
 20
10.38902874077641
 30
0.0
 11
10.2834551647305
 21
10.3890287407764
 31
0.0
  0
LINE
  5
16B
330
1F
100
AcDbEntity
  8
0
  6
Continuous
 62
     7
100
AcDbLine
 10
10.28345516473051
 20
9.939028740776405
 30
0.0
 11
10.80845516473051
 21
9.939028740776411
 31
0.0
  0
LINE
  5
16C
330
1F
100
AcDbEntity
  8
0
  6
Continuous
 62
     7
100
AcDbLine
 10
10.80845516473051
 20
9.939028740776411
 30
0.0
 11
10.8084551647305
 21
10.38902874077641
 31
0.0
  0
LINE
  5
16D
330
1F
100
AcDbEntity
  8
0
  6
Continuous
 62
     7
100
AcDbLine
 10
10.80845516473049
 20
11.03902874077641
 30
0.0
 11
10.28345516473049
 21
11.0390287407764
 31
0.0
  0
LINE
  5
16E
330
1F
100
AcDbEntity
  8
0
  6
Continuous
 62
     7
100
AcDbLine
 10
10.2834551647305
 20
10.5890287407764
 30
0.0
 11
10.8084551647305
 21
10.58902874077641
 31
0.0
  0
LINE
  5
16F
330
1F
100
AcDbEntity
  8
0
  6
Continuous
 62
     7
100
AcDbLine
 10
10.8084551647305
 20
10.58902874077641
 30
0.0
 11
10.80845516473049
 21
11.03902874077641
 31
0.0
  0
LINE
  5
170
330
1F
100
AcDbEntity
  8
0
  6
Continuous
 62
     7
100
AcDbLine
 10
10.80845516473049
 20
11.68902874077641
 30
0.0
 11
10.28345516473049
 21
11.6890287407764
 31
0.0
  0
LINE
  5
171
330
1F
100
AcDbEntity
  8
0
  6
Continuous
 62
     7
100
AcDbLine
 10
10.28345516473049
 20
11.2390287407764
 30
0.0
 11
10.80845516473049
 21
11.23902874077641
 31
0.0
  0
LINE
  5
172
330
1F
100
AcDbEntity
  8
0
  6
Continuous
 62
     7
100
AcDbLine
 10
10.80845516473049
 20
11.23902874077641
 30
0.0
 11
10.80845516473049
 21
11.68902874077641
 31
0.0
  0
LINE
  5
173
330
1F
100
AcDbEntity
  8
0
  6
Continuous
 62
     7
100
AcDbLine
 10
10.80845516473048
 20
12.33902874077641
 30
0.0
 11
10.28345516473048
 21
12.3390287407764
 31
0.0
  0
LINE
  5
174
330
1F
100
AcDbEntity
  8
0
  6
Continuous
 62
     7
100
AcDbLine
 10
10.28345516473048
 20
11.8890287407764
 30
0.0
 11
10.80845516473048
 21
11.88902874077641
 31
0.0
  0
LINE
  5
175
330
1F
100
AcDbEntity
  8
0
  6
Continuous
 62
     7
100
AcDbLine
 10
10.80845516473048
 20
11.88902874077641
 30
0.0
 11
10.80845516473048
 21
12.33902874077641
 31
0.0
  0
LINE
  5
176
330
1F
100
AcDbEntity
  8
0
  6
Continuous
 62
     7
100
AcDbLine
 10
10.80845516473047
 20
12.98902874077641
 30
0.0
 11
10.28345516473047
 21
12.9890287407764
 31
0.0
  0
LINE
  5
177
330
1F
100
AcDbEntity
  8
0
  6
Continuous
 62
     7
100
AcDbLine
 10
10.28345516473047
 20
12.5390287407764
 30
0.0
 11
10.80845516473047
 21
12.53902874077641
 31
0.0
  0
LINE
  5
178
330
1F
100
AcDbEntity
  8
0
  6
Continuous
 62
     7
100
AcDbLine
 10
10.80845516473047
 20
12.53902874077641
 30
0.0
 11
10.80845516473047
 21
12.98902874077641
 31
0.0
  0
LINE
  5
179
330
1F
100
AcDbEntity
  8
0
  6
Continuous
 62
     7
100
AcDbLine
 10
10.80845516473046
 20
13.63902874077641
 30
0.0
 11
10.28345516473046
 21
13.6390287407764
 31
0.0
  0
LINE
  5
17A
330
1F
100
AcDbEntity
  8
0
  6
Continuous
 62
     7
100
AcDbLine
 10
10.28345516473046
 20
13.1890287407764
 30
0.0
 11
10.80845516473047
 21
13.18902874077641
 31
0.0
  0
LINE
  5
17B
330
1F
100
AcDbEntity
  8
0
  6
Continuous
 62
     7
100
AcDbLine
 10
10.80845516473047
 20
13.18902874077641
 30
0.0
 11
10.80845516473046
 21
13.63902874077641
 31
0.0
  0
LINE
  5
17C
330
1F
100
AcDbEntity
  8
0
  6
Continuous
 62
     7
100
AcDbLine
 10
5.470455164730487
 20
12.12402874077636
 30
0.0
 11
5.29045516473049
 21
12.12402874077636
 31
0.0
  0
LINE
  5
17D
330
1F
100
AcDbEntity
  8
0
  6
Continuous
 62
     7
100
AcDbLine
 10
5.470455164730486
 20
12.30402874077636
 30
0.0
 11
5.470455164730487
 21
12.12402874077636
 31
0.0
  0
LINE
  5
17E
330
1F
100
AcDbEntity
  8
0
  6
Continuous
 62
     7
100
AcDbLine
 10
9.258455164730479
 20
14.73902874077637
 30
0.0
 11
9.258455164730481
 21
14.21402874077637
 31
0.0
  0
LINE
  5
17F
330
1F
100
AcDbEntity
  8
0
  6
Continuous
 62
     7
100
AcDbLine
 10
9.70845516473048
 20
14.21402874077637
 30
0.0
 11
9.708455164730478
 21
14.73902874077637
 31
0.0
  0
LINE
  5
180
330
1F
100
AcDbEntity
  8
0
  6
Continuous
 62
     7
100
AcDbLine
 10
9.708455164730478
 20
14.73902874077637
 30
0.0
 11
9.258455164730479
 21
14.73902874077637
 31
0.0
  0
LINE
  5
181
330
1F
100
AcDbEntity
  8
0
  6
Continuous
 62
     7
100
AcDbLine
 10
5.290455164730486
 20
12.30402874077636
 30
0.0
 11
5.470455164730486
 21
12.30402874077636
 31
0.0
  0
LINE
  5
182
330
1F
100
AcDbEntity
  8
0
  6
Continuous
 62
     7
100
AcDbLine
 10
8.608455164730479
 20
14.73902874077637
 30
0.0
 11
8.608455164730482
 21
14.21402874077637
 31
0.0
  0
LINE
  5
183
330
1F
100
AcDbEntity
  8
0
  6
Continuous
 62
     7
100
AcDbLine
 10
9.05845516473048
 20
14.21402874077637
 30
0.0
 11
9.058455164730478
 21
14.73902874077637
 31
0.0
  0
LINE
  5
184
330
1F
100
AcDbEntity
  8
0
  6
Continuous
 62
     7
100
AcDbLine
 10
9.058455164730478
 20
14.73902874077637
 30
0.0
 11
8.608455164730479
 21
14.73902874077637
 31
0.0
  0
LINE
  5
185
330
1F
100
AcDbEntity
  8
0
  6
Continuous
 62
     7
100
AcDbLine
 10
5.290455164730487
 20
12.80702874077636
 30
0.0
 11
5.290455164730486
 21
12.30402874077636
 31
0.0
  0
LINE
  5
186
330
1F
100
AcDbEntity
  8
0
  6
Continuous
 62
     7
100
AcDbLine
 10
7.958455164730479
 20
14.73902874077637
 30
0.0
 11
7.958455164730481
 21
14.21402874077637
 31
0.0
  0
LINE
  5
187
330
1F
100
AcDbEntity
  8
0
  6
Continuous
 62
     7
100
AcDbLine
 10
8.408455164730481
 20
14.21402874077637
 30
0.0
 11
8.408455164730479
 21
14.73902874077637
 31
0.0
  0
LINE
  5
188
330
1F
100
AcDbEntity
  8
0
  6
Continuous
 62
     7
100
AcDbLine
 10
8.408455164730479
 20
14.73902874077637
 30
0.0
 11
7.958455164730479
 21
14.73902874077637
 31
0.0
  0
LINE
  5
189
330
1F
100
AcDbEntity
  8
0
  6
Continuous
 62
     7
100
AcDbLine
 10
7.308455164730479
 20
14.73902874077636
 30
0.0
 11
7.308455164730482
 21
14.21402874077636
 31
0.0
  0
LINE
  5
18A
330
1F
100
AcDbEntity
  8
0
  6
Continuous
 62
     7
100
AcDbLine
 10
7.75845516473048
 20
14.21402874077637
 30
0.0
 11
7.758455164730479
 21
14.73902874077636
 31
0.0
  0
LINE
  5
18B
330
1F
100
AcDbEntity
  8
0
  6
Continuous
 62
     7
100
AcDbLine
 10
7.758455164730479
 20
14.73902874077636
 30
0.0
 11
7.308455164730479
 21
14.73902874077636
 31
0.0
  0
LINE
  5
18C
330
1F
100
AcDbEntity
  8
0
  6
Continuous
 62
     7
100
AcDbLine
 10
6.658455164730479
 20
14.73902874077636
 30
0.0
 11
6.658455164730481
 21
14.21402874077636
 31
0.0
  0
LINE
  5
18D
330
1F
100
AcDbEntity
  8
0
  6
Continuous
 62
     7
100
AcDbLine
 10
7.108455164730481
 20
14.21402874077636
 30
0.0
 11
7.108455164730479
 21
14.73902874077636
 31
0.0
  0
LINE
  5
18E
330
1F
100
AcDbEntity
  8
0
  6
Continuous
 62
     7
100
AcDbLine
 10
7.108455164730479
 20
14.73902874077636
 30
0.0
 11
6.658455164730479
 21
14.73902874077636
 31
0.0
  0
LINE
  5
18F
330
1F
100
AcDbEntity
  8
0
  6
Continuous
 62
     7
100
AcDbLine
 10
6.008455164730479
 20
14.73902874077636
 30
0.0
 11
6.008455164730481
 21
14.21402874077636
 31
0.0
  0
LINE
  5
190
330
1F
100
AcDbEntity
  8
0
  6
Continuous
 62
     7
100
AcDbLine
 10
6.458455164730481
 20
14.21402874077636
 30
0.0
 11
6.458455164730479
 21
14.73902874077636
 31
0.0
  0
LINE
  5
191
330
1F
100
AcDbEntity
  8
0
  6
Continuous
 62
     7
100
AcDbLine
 10
6.458455164730479
 20
14.73902874077636
 30
0.0
 11
6.008455164730479
 21
14.73902874077636
 31
0.0
  0
LINE
  5
192
330
1F
100
AcDbEntity
  8
0
  6
Continuous
 62
     7
100
AcDbLine
 10
5.358455164730479
 20
14.73902874077636
 30
0.0
 11
5.358455164730481
 21
14.21402874077636
 31
0.0
  0
LINE
  5
193
330
1F
100
AcDbEntity
  8
0
  6
Continuous
 62
     7
100
AcDbLine
 10
5.808455164730482
 20
14.21402874077636
 30
0.0
 11
5.808455164730479
 21
14.73902874077636
 31
0.0
  0
LINE
  5
194
330
1F
100
AcDbEntity
  8
0
  6
Continuous
 62
     7
100
AcDbLine
 10
5.808455164730479
 20
14.73902874077636
 30
0.0
 11
5.358455164730479
 21
14.73902874077636
 31
0.0
  0
LINE
  5
195
330
1F
100
AcDbEntity
  8
0
  6
Continuous
 62
     7
100
AcDbLine
 10
4.258455164730478
 20
13.18902874077634
 30
0.0
 11
4.783455164730479
 21
13.18902874077634
 31
0.0
  0
LINE
  5
196
330
1F
100
AcDbEntity
  8
0
  6
Continuous
 62
     7
100
AcDbLine
 10
4.783455164730475
 20
13.63902874077635
 30
0.0
 11
4.258455164730474
 21
13.63902874077634
 31
0.0
  0
LINE
  5
197
330
1F
100
AcDbEntity
  8
0
  6
Continuous
 62
     7
100
AcDbLine
 10
4.258455164730474
 20
13.63902874077634
 30
0.0
 11
4.258455164730478
 21
13.18902874077634
 31
0.0
  0
LINE
  5
198
330
1F
100
AcDbEntity
  8
0
  6
Continuous
 62
     7
100
AcDbLine
 10
4.258455164730482
 20
12.53902874077634
 30
0.0
 11
4.783455164730483
 21
12.53902874077635
 31
0.0
  0
LINE
  5
199
330
1F
100
AcDbEntity
  8
0
  6
Continuous
 62
     7
100
AcDbLine
 10
4.783455164730479
 20
12.98902874077634
 30
0.0
 11
4.258455164730478
 21
12.98902874077634
 31
0.0
  0
LINE
  5
19A
330
1F
100
AcDbEntity
  8
0
  6
Continuous
 62
     7
100
AcDbLine
 10
4.258455164730478
 20
12.98902874077634
 30
0.0
 11
4.258455164730482
 21
12.53902874077634
 31
0.0
  0
LINE
  5
19B
330
1F
100
AcDbEntity
  8
0
  6
Continuous
 62
     7
100
AcDbLine
 10
4.258455164730487
 20
11.88902874077634
 30
0.0
 11
4.783455164730487
 21
11.88902874077635
 31
0.0
  0
LINE
  5
19C
330
1F
100
AcDbEntity
  8
0
  6
Continuous
 62
     7
100
AcDbLine
 10
4.783455164730484
 20
12.33902874077635
 30
0.0
 11
4.258455164730484
 21
12.33902874077634
 31
0.0
  0
LINE
  5
19D
330
1F
100
AcDbEntity
  8
0
  6
Continuous
 62
     7
100
AcDbLine
 10
4.258455164730484
 20
12.33902874077634
 30
0.0
 11
4.258455164730487
 21
11.88902874077634
 31
0.0
  0
LINE
  5
19E
330
1F
100
AcDbEntity
  8
0
  6
Continuous
 62
     7
100
AcDbLine
 10
4.258455164730492
 20
11.23902874077634
 30
0.0
 11
4.783455164730492
 21
11.23902874077635
 31
0.0
  0
LINE
  5
19F
330
1F
100
AcDbEntity
  8
0
  6
Continuous
 62
     7
100
AcDbLine
 10
4.783455164730488
 20
11.68902874077635
 30
0.0
 11
4.258455164730489
 21
11.68902874077634
 31
0.0
  0
LINE
  5
1A0
330
1F
100
AcDbEntity
  8
0
  6
Continuous
 62
     7
100
AcDbLine
 10
4.258455164730489
 20
11.68902874077634
 30
0.0
 11
4.258455164730492
 21
11.23902874077634
 31
0.0
  0
LINE
  5
1A1
330
1F
100
AcDbEntity
  8
0
  6
Continuous
 62
     7
100
AcDbLine
 10
4.258455164730496
 20
10.58902874077634
 30
0.0
 11
4.783455164730496
 21
10.58902874077634
 31
0.0
  0
LINE
  5
1A2
330
1F
100
AcDbEntity
  8
0
  6
Continuous
 62
     7
100
AcDbLine
 10
4.783455164730493
 20
11.03902874077635
 30
0.0
 11
4.258455164730492
 21
11.03902874077634
 31
0.0
  0
LINE
  5
1A3
330
1F
100
AcDbEntity
  8
0
  6
Continuous
 62
     7
100
AcDbLine
 10
4.258455164730492
 20
11.03902874077634
 30
0.0
 11
4.258455164730496
 21
10.58902874077634
 31
0.0
  0
LINE
  5
1A4
330
1F
100
AcDbEntity
  8
0
  6
Continuous
 62
     7
100
AcDbLine
 10
4.2584551647305
 20
9.939028740776345
 30
0.0
 11
4.783455164730501
 21
9.939028740776349
 31
0.0
  0
LINE
  5
1A5
330
1F
100
AcDbEntity
  8
0
  6
Continuous
 62
     7
100
AcDbLine
 10
4.783455164730497
 20
10.38902874077635
 30
0.0
 11
4.258455164730497
 21
10.38902874077634
 31
0.0
  0
LINE
  5
1A6
330
1F
100
AcDbEntity
  8
0
  6
Continuous
 62
     7
100
AcDbLine
 10
4.258455164730497
 20
10.38902874077634
 30
0.0
 11
4.2584551647305
 21
9.939028740776345
 31
0.0
  0
LINE
  5
1A7
330
1F
100
AcDbEntity
  8
0
  6
Continuous
 62
     7
100
AcDbLine
 10
6.693455164730484
 20
13.52702874077636
 30
0.0
 11
6.693455164730483
 21
13.70702874077636
 31
0.0
  0
LINE
  5
1A8
330
1F
100
AcDbEntity
  8
0
  6
Continuous
 62
     7
100
AcDbLine
 10
4.258455164730505
 20
9.289028740776345
 30
0.0
 11
4.783455164730506
 21
9.289028740776348
 31
0.0
  0
LINE
  5
1A9
330
1F
100
AcDbEntity
  8
0
  6
Continuous
 62
     7
100
AcDbLine
 10
4.783455164730502
 20
9.739028740776348
 30
0.0
 11
4.258455164730502
 21
9.739028740776344
 31
0.0
  0
LINE
  5
1AA
330
1F
100
AcDbEntity
  8
0
  6
Continuous
 62
     7
100
AcDbLine
 10
4.258455164730502
 20
9.739028740776344
 30
0.0
 11
4.258455164730505
 21
9.289028740776345
 31
0.0
  0
LINE
  5
1AB
330
1F
100
AcDbEntity
  8
0
  6
Continuous
 62
     7
100
AcDbLine
 10
6.873455164730484
 20
13.52702874077637
 30
0.0
 11
6.693455164730484
 21
13.52702874077636
 31
0.0
  0
LINE
  5
1AC
330
1F
100
AcDbEntity
  8
0
  6
Continuous
 62
     7
100
AcDbLine
 10
6.873455164730482
 20
13.70702874077636
 30
0.0
 11
6.873455164730484
 21
13.52702874077637
 31
0.0
  0
LINE
  5
1AD
330
1F
100
AcDbEntity
  8
0
  6
Continuous
 62
     7
100
AcDbLine
 10
7.443455164730483
 20
13.70702874077637
 30
0.0
 11
6.873455164730482
 21
13.70702874077636
 31
0.0
  0
LINE
  5
1AE
330
1F
100
AcDbEntity
  8
0
  6
Continuous
 62
     7
100
AcDbLine
 10
5.365455164730481
 20
13.63202874077636
 30
0.0
 11
5.365455164730496
 21
9.296028740776359
 31
0.0
  0
LINE
  5
1AF
330
1F
100
AcDbEntity
  8
0
  6
Continuous
 62
     7
100
AcDbLine
 10
5.365455164730496
 20
9.296028740776359
 30
0.0
 11
9.701455164730498
 21
9.296028740776373
 31
0.0
  0
LINE
  5
1B0
330
1F
100
AcDbEntity
  8
0
  6
Continuous
 62
     7
100
AcDbLine
 10
9.701455164730498
 20
9.296028740776373
 30
0.0
 11
9.701455164730482
 21
13.63202874077638
 31
0.0
  0
LINE
  5
1B1
330
1F
100
AcDbEntity
  8
0
  6
Continuous
 62
     7
100
AcDbLine
 10
9.701455164730482
 20
13.63202874077638
 30
0.0
 11
5.365455164730481
 21
13.63202874077636
 31
0.0
  0
LINE
  5
1B2
330
1F
100
AcDbEntity
  8
0
  6
Continuous
 62
     7
100
AcDbLine
 10
4.533455164730502
 20
8.464028740776356
 30
0.0
 11
10.5334551647305
 21
8.464028740776376
 31
0.0
  0
LINE
  5
1B3
330
1F
100
AcDbEntity
  8
0
  6
Continuous
 62
     7
100
AcDbLine
 10
4.533455164730502
 20
8.464028740776356
 30
0.0
 11
4.53345516473048
 21
14.46402874077635
 31
0.0
  0
LINE
  5
1B4
330
1F
100
AcDbEntity
  8
0
  6
Continuous
 62
     7
100
AcDbLine
 10
4.53345516473048
 20
14.46402874077635
 30
0.0
 11
10.53345516473048
 21
14.46402874077637
 31
0.0
  0
LINE
  5
1B5
330
1F
100
AcDbEntity
  8
0
  6
Continuous
 62
     7
100
AcDbLine
 10
10.5334551647305
 20
8.464028740776376
 30
0.0
 11
10.53345516473048
 21
14.46402874077637
 31
0.0
  0
LINE
  5
1B6
330
1F
100
AcDbEntity
  8
0
  6
Continuous
 62
     7
100
AcDbLine
 10
5.808455164730501
 20
8.189028740776359
 30
0.0
 11
5.808455164730498
 21
8.71402874077636
 31
0.0
  0
LINE
  5
1B7
330
1F
100
AcDbEntity
  8
0
  6
Continuous
 62
     7
100
AcDbLine
 10
5.3584551647305
 20
8.714028740776358
 30
0.0
 11
5.358455164730502
 21
8.189028740776358
 31
0.0
  0
LINE
  5
1B8
330
1F
100
AcDbEntity
  8
0
  6
Continuous
 62
     7
100
AcDbLine
 10
5.358455164730502
 20
8.189028740776358
 30
0.0
 11
5.808455164730501
 21
8.189028740776359
 31
0.0
  0
LINE
  5
1B9
330
1F
100
AcDbEntity
  8
0
  6
Continuous
 62
     7
100
AcDbLine
 10
6.458455164730501
 20
8.189028740776361
 30
0.0
 11
6.458455164730499
 21
8.714028740776361
 31
0.0
  0
LINE
  5
1BA
330
1F
100
AcDbEntity
  8
0
  6
Continuous
 62
     7
100
AcDbLine
 10
6.0084551647305
 20
8.714028740776361
 30
0.0
 11
6.008455164730502
 21
8.189028740776361
 31
0.0
  0
LINE
  5
1BB
330
1F
100
AcDbEntity
  8
0
  6
Continuous
 62
     7
100
AcDbLine
 10
6.008455164730502
 20
8.189028740776361
 30
0.0
 11
6.458455164730501
 21
8.189028740776361
 31
0.0
  0
LINE
  5
1BC
330
1F
100
AcDbEntity
  8
0
  6
Continuous
 62
     7
100
AcDbLine
 10
7.108455164730501
 20
8.189028740776365
 30
0.0
 11
7.108455164730499
 21
8.714028740776365
 31
0.0
  0
LINE
  5
1BD
330
1F
100
AcDbEntity
  8
0
  6
Continuous
 62
     7
100
AcDbLine
 10
6.6584551647305
 20
8.714028740776363
 30
0.0
 11
6.658455164730501
 21
8.189028740776363
 31
0.0
  0
LINE
  5
1BE
330
1F
100
AcDbEntity
  8
0
  6
Continuous
 62
     7
100
AcDbLine
 10
6.658455164730501
 20
8.189028740776363
 30
0.0
 11
7.108455164730501
 21
8.189028740776365
 31
0.0
  0
LINE
  5
1BF
330
1F
100
AcDbEntity
  8
0
  6
Continuous
 62
     7
100
AcDbLine
 10
9.776455164730498
 20
9.221028740776375
 30
0.0
 11
9.776455164730496
 21
9.874028740776376
 31
0.0
  0
LINE
  5
1C0
330
1F
100
AcDbEntity
  8
0
  6
Continuous
 62
     7
100
AcDbLine
 10
9.123455164730495
 20
9.401028740776371
 30
0.0
 11
9.123455164730495
 21
9.221028740776374
 31
0.0
  0
LINE
  5
1C1
330
1F
100
AcDbEntity
  8
0
  6
Continuous
 62
     7
100
AcDbLine
 10
8.943455164730496
 20
9.401028740776371
 30
0.0
 11
9.123455164730495
 21
9.401028740776371
 31
0.0
  0
LINE
  5
1C2
330
1F
100
AcDbEntity
  8
0
  6
Continuous
 62
     7
100
AcDbLine
 10
8.943455164730496
 20
9.221028740776372
 30
0.0
 11
8.943455164730496
 21
9.401028740776371
 31
0.0
  0
LINE
  5
1C3
330
1F
100
AcDbEntity
  8
0
  6
Continuous
 62
     7
100
AcDbLine
 10
8.373455164730497
 20
9.221028740776372
 30
0.0
 11
8.943455164730496
 21
9.221028740776372
 31
0.0
  0
LINE
  5
1C4
330
1F
100
AcDbEntity
  8
0
  6
Continuous
 62
     7
100
AcDbLine
 10
9.596455164730494
 20
10.05402874077637
 30
0.0
 11
9.776455164730496
 21
10.05402874077637
 31
0.0
  0
LINE
  5
1C5
330
1F
100
AcDbEntity
  8
0
  6
Continuous
 62
     7
100
AcDbLine
 10
7.758455164730501
 20
8.189028740776366
 30
0.0
 11
7.758455164730499
 21
8.714028740776367
 31
0.0
  0
LINE
  5
1C6
330
1F
100
AcDbEntity
  8
0
  6
Continuous
 62
     7
100
AcDbLine
 10
9.596455164730496
 20
9.874028740776374
 30
0.0
 11
9.596455164730494
 21
10.05402874077637
 31
0.0
  0
LINE
  5
1C7
330
1F
100
AcDbEntity
  8
0
  6
Continuous
 62
     7
100
AcDbLine
 10
9.776455164730496
 20
9.874028740776376
 30
0.0
 11
9.596455164730496
 21
9.874028740776374
 31
0.0
  0
LINE
  5
1C8
330
1F
100
AcDbEntity
  8
0
  6
Continuous
 62
     7
100
AcDbLine
 10
7.3084551647305
 20
8.714028740776365
 30
0.0
 11
7.308455164730501
 21
8.189028740776365
 31
0.0
  0
LINE
  5
1C9
330
1F
100
AcDbEntity
  8
0
  6
Continuous
 62
     7
100
AcDbLine
 10
7.308455164730501
 20
8.189028740776365
 30
0.0
 11
7.758455164730501
 21
8.189028740776366
 31
0.0
  0
LINE
  5
1CA
330
1F
100
AcDbEntity
  8
0
  6
Continuous
 62
     7
100
AcDbLine
 10
8.408455164730501
 20
8.189028740776368
 30
0.0
 11
8.408455164730499
 21
8.714028740776369
 31
0.0
  0
LINE
  5
1CB
330
1F
100
AcDbEntity
  8
0
  6
Continuous
 62
     7
100
AcDbLine
 10
7.958455164730499
 20
8.714028740776367
 30
0.0
 11
7.958455164730501
 21
8.189028740776368
 31
0.0
  0
LINE
  5
1CC
330
1F
100
AcDbEntity
  8
0
  6
Continuous
 62
     7
100
AcDbLine
 10
7.958455164730501
 20
8.189028740776368
 30
0.0
 11
8.408455164730501
 21
8.189028740776368
 31
0.0
  0
LINE
  5
1CD
330
1F
100
AcDbEntity
  8
0
  6
Continuous
 62
     7
100
AcDbLine
 10
9.776455164730494
 20
10.62402874077637
 30
0.0
 11
9.596455164730494
 21
10.62402874077637
 31
0.0
  0
LINE
  5
1CE
330
1F
100
AcDbEntity
  8
0
  6
Continuous
 62
     7
100
AcDbLine
 10
9.776455164730496
 20
10.05402874077637
 30
0.0
 11
9.776455164730494
 21
10.62402874077637
 31
0.0
  0
LINE
  5
1CF
330
1F
100
AcDbEntity
  8
0
  6
Continuous
 62
     7
100
AcDbLine
 10
9.123455164730495
 20
9.221028740776374
 30
0.0
 11
9.776455164730498
 21
9.221028740776375
 31
0.0
  0
LINE
  5
1D0
330
1F
100
AcDbEntity
  8
0
  6
Continuous
 62
     7
100
AcDbLine
 10
8.373455164730495
 20
9.401028740776368
 30
0.0
 11
8.373455164730497
 21
9.221028740776372
 31
0.0
  0
LINE
  5
1D1
330
1F
100
AcDbEntity
  8
0
  6
Continuous
 62
     7
100
AcDbLine
 10
8.193455164730496
 20
9.401028740776368
 30
0.0
 11
8.373455164730495
 21
9.401028740776368
 31
0.0
  0
LINE
  5
1D2
330
1F
100
AcDbEntity
  8
0
  6
Continuous
 62
     7
100
AcDbLine
 10
8.193455164730496
 20
9.221028740776368
 30
0.0
 11
8.193455164730496
 21
9.401028740776368
 31
0.0
  0
LINE
  5
1D3
330
1F
100
AcDbEntity
  8
0
  6
Continuous
 62
     7
100
AcDbLine
 10
7.623455164730495
 20
9.221028740776368
 30
0.0
 11
8.193455164730496
 21
9.221028740776368
 31
0.0
  0
LINE
  5
1D4
330
1F
100
AcDbEntity
  8
0
  6
Continuous
 62
     7
100
AcDbLine
 10
7.623455164730495
 20
9.401028740776366
 30
0.0
 11
7.623455164730495
 21
9.221028740776368
 31
0.0
  0
LINE
  5
1D5
330
1F
100
AcDbEntity
  8
0
  6
Continuous
 62
     7
100
AcDbLine
 10
7.443455164730495
 20
9.401028740776366
 30
0.0
 11
7.623455164730495
 21
9.401028740776366
 31
0.0
  0
LINE
  5
1D6
330
1F
100
AcDbEntity
  8
0
  6
Continuous
 62
     7
100
AcDbLine
 10
7.443455164730496
 20
9.221028740776365
 30
0.0
 11
7.443455164730495
 21
9.401028740776366
 31
0.0
  0
LINE
  5
1D7
330
1F
100
AcDbEntity
  8
0
  6
Continuous
 62
     7
100
AcDbLine
 10
6.873455164730496
 20
9.221028740776366
 30
0.0
 11
7.443455164730496
 21
9.221028740776365
 31
0.0
  0
LINE
  5
1D8
330
1F
100
AcDbEntity
  8
0
  6
Continuous
 62
     7
100
AcDbLine
 10
6.873455164730495
 20
9.401028740776364
 30
0.0
 11
6.873455164730496
 21
9.221028740776366
 31
0.0
  0
LINE
  5
1D9
330
1F
100
AcDbEntity
  8
0
  6
Continuous
 62
     7
100
AcDbLine
 10
6.693455164730496
 20
9.401028740776363
 30
0.0
 11
6.873455164730495
 21
9.401028740776364
 31
0.0
  0
LINE
  5
1DA
330
1F
100
AcDbEntity
  8
0
  6
Continuous
 62
     7
100
AcDbLine
 10
6.693455164730496
 20
9.221028740776363
 30
0.0
 11
6.693455164730496
 21
9.401028740776363
 31
0.0
  0
LINE
  5
1DB
330
1F
100
AcDbEntity
  8
0
  6
Continuous
 62
     7
100
AcDbLine
 10
6.123455164730495
 20
9.221028740776365
 30
0.0
 11
6.693455164730496
 21
9.221028740776363
 31
0.0
  0
LINE
  5
1DC
330
1F
100
AcDbEntity
  8
0
  6
Continuous
 62
     7
100
AcDbLine
 10
6.123455164730495
 20
9.401028740776361
 30
0.0
 11
6.123455164730495
 21
9.221028740776365
 31
0.0
  0
LINE
  5
1DD
330
1F
100
AcDbEntity
  8
0
  6
Continuous
 62
     7
100
AcDbLine
 10
5.943455164730495
 20
9.401028740776359
 30
0.0
 11
6.123455164730495
 21
9.401028740776361
 31
0.0
  0
LINE
  5
1DE
330
1F
100
AcDbEntity
  8
0
  6
Continuous
 62
     7
100
AcDbLine
 10
5.943455164730496
 20
9.221028740776359
 30
0.0
 11
5.943455164730495
 21
9.401028740776359
 31
0.0
  0
LINE
  5
1DF
330
1F
100
AcDbEntity
  8
0
  6
Continuous
 62
     7
100
AcDbLine
 10
5.290455164730499
 20
9.221028740776363
 30
0.0
 11
5.943455164730496
 21
9.221028740776359
 31
0.0
  0
LINE
  5
1E0
330
1F
100
AcDbEntity
  8
0
  6
Continuous
 62
     7
100
AcDbLine
 10
5.290455164730496
 20
9.874028740776356
 30
0.0
 11
5.290455164730499
 21
9.221028740776363
 31
0.0
  0
LINE
  5
1E1
330
1F
100
AcDbEntity
  8
0
  6
Continuous
 62
     7
100
AcDbLine
 10
5.470455164730494
 20
9.874028740776358
 30
0.0
 11
5.290455164730496
 21
9.874028740776356
 31
0.0
  0
LINE
  5
1E2
330
1F
100
AcDbEntity
  8
0
  6
Continuous
 62
     7
100
AcDbLine
 10
5.470455164730494
 20
10.05402874077636
 30
0.0
 11
5.470455164730494
 21
9.874028740776358
 31
0.0
  0
LINE
  5
1E3
330
1F
100
AcDbEntity
  8
0
  6
Continuous
 62
     7
100
AcDbLine
 10
5.290455164730494
 20
10.05402874077636
 30
0.0
 11
5.470455164730494
 21
10.05402874077636
 31
0.0
  0
LINE
  5
1E4
330
1F
100
AcDbEntity
  8
0
  6
Continuous
 62
     7
100
AcDbLine
 10
5.290455164730494
 20
10.62402874077635
 30
0.0
 11
5.290455164730494
 21
10.05402874077636
 31
0.0
  0
LINE
  5
1E5
330
1F
100
AcDbEntity
  8
0
  6
Continuous
 62
     7
100
AcDbLine
 10
5.470455164730491
 20
10.62402874077636
 30
0.0
 11
5.290455164730494
 21
10.62402874077635
 31
0.0
  0
LINE
  5
1E6
330
1F
100
AcDbEntity
  8
0
  6
Continuous
 62
     7
100
AcDbLine
 10
5.47045516473049
 20
10.80402874077636
 30
0.0
 11
5.470455164730491
 21
10.62402874077636
 31
0.0
  0
LINE
  5
1E7
330
1F
100
AcDbEntity
  8
0
  6
Continuous
 62
     7
100
AcDbLine
 10
5.290455164730491
 20
10.80402874077636
 30
0.0
 11
5.47045516473049
 21
10.80402874077636
 31
0.0
  0
LINE
  5
1E8
330
1F
100
AcDbEntity
  8
0
  6
Continuous
 62
     7
100
AcDbLine
 10
5.290455164730492
 20
11.37402874077635
 30
0.0
 11
5.290455164730491
 21
10.80402874077636
 31
0.0
  0
LINE
  5
1E9
330
1F
100
AcDbEntity
  8
0
  6
Continuous
 62
     7
100
AcDbLine
 10
5.470455164730489
 20
11.37402874077635
 30
0.0
 11
5.290455164730492
 21
11.37402874077635
 31
0.0
  0
LINE
  5
1EA
330
1F
100
AcDbEntity
  8
0
  6
Continuous
 62
     7
100
AcDbLine
 10
5.470455164730489
 20
11.55402874077636
 30
0.0
 11
5.470455164730489
 21
11.37402874077635
 31
0.0
  0
LINE
  5
1EB
330
1F
100
AcDbEntity
  8
0
  6
Continuous
 62
     7
100
AcDbLine
 10
5.29045516473049
 20
11.55402874077635
 30
0.0
 11
5.470455164730489
 21
11.55402874077636
 31
0.0
  0
LINE
  5
1EC
330
1F
100
AcDbEntity
  8
0
  6
Continuous
 62
     7
100
AcDbLine
 10
5.29045516473049
 20
12.12402874077636
 30
0.0
 11
5.29045516473049
 21
11.55402874077635
 31
0.0
  0
LINE
  5
1ED
330
1F
100
AcDbEntity
  8
0
  6
Continuous
 62
     7
100
AcDbLine
 10
6.190455164730483
 20
13.70702874077636
 30
0.0
 11
5.290455164730487
 21
12.80702874077636
 31
0.0
  0
LINE
  5
1EE
330
1F
100
AcDbEntity
  8
0
  6
Continuous
 62
     7
100
AcDbLine
 10
6.693455164730483
 20
13.70702874077636
 30
0.0
 11
6.190455164730483
 21
13.70702874077636
 31
0.0
  0
LINE
  5
1EF
330
1F
100
AcDbEntity
  8
0
  6
Continuous
 62
     7
100
AcDbLine
 10
7.443455164730483
 20
13.52702874077637
 30
0.0
 11
7.443455164730483
 21
13.70702874077637
 31
0.0
  0
LINE
  5
1F0
330
1F
100
AcDbEntity
  8
0
  6
Continuous
 62
     7
100
AcDbLine
 10
7.623455164730484
 20
13.52702874077637
 30
0.0
 11
7.443455164730483
 21
13.52702874077637
 31
0.0
  0
LINE
  5
1F1
330
1F
100
AcDbEntity
  8
0
  6
Continuous
 62
     7
100
AcDbLine
 10
7.623455164730483
 20
13.70702874077637
 30
0.0
 11
7.623455164730484
 21
13.52702874077637
 31
0.0
  0
LINE
  5
1F2
330
1F
100
AcDbEntity
  8
0
  6
Continuous
 62
     7
100
AcDbLine
 10
8.193455164730483
 20
13.70702874077637
 30
0.0
 11
7.623455164730483
 21
13.70702874077637
 31
0.0
  0
LINE
  5
1F3
330
1F
100
AcDbEntity
  8
0
  6
Continuous
 62
     7
100
AcDbLine
 10
8.193455164730485
 20
13.52702874077637
 30
0.0
 11
8.193455164730483
 21
13.70702874077637
 31
0.0
  0
LINE
  5
1F4
330
1F
100
AcDbEntity
  8
0
  6
Continuous
 62
     7
100
AcDbLine
 10
8.373455164730483
 20
13.52702874077637
 30
0.0
 11
8.193455164730485
 21
13.52702874077637
 31
0.0
  0
LINE
  5
1F5
330
1F
100
AcDbEntity
  8
0
  6
Continuous
 62
     7
100
AcDbLine
 10
8.373455164730483
 20
13.70702874077637
 30
0.0
 11
8.373455164730483
 21
13.52702874077637
 31
0.0
  0
LINE
  5
1F6
330
1F
100
AcDbEntity
  8
0
  6
Continuous
 62
     7
100
AcDbLine
 10
8.943455164730483
 20
13.70702874077637
 30
0.0
 11
8.373455164730483
 21
13.70702874077637
 31
0.0
  0
LINE
  5
1F7
330
1F
100
AcDbEntity
  8
0
  6
Continuous
 62
     7
100
AcDbLine
 10
8.943455164730483
 20
13.52702874077637
 30
0.0
 11
8.943455164730483
 21
13.70702874077637
 31
0.0
  0
LINE
  5
1F8
330
1F
100
AcDbEntity
  8
0
  6
Continuous
 62
     7
100
AcDbLine
 10
9.123455164730483
 20
13.52702874077637
 30
0.0
 11
8.943455164730483
 21
13.52702874077637
 31
0.0
  0
LINE
  5
1F9
330
1F
100
AcDbEntity
  8
0
  6
Continuous
 62
     7
100
AcDbLine
 10
9.123455164730483
 20
13.70702874077637
 30
0.0
 11
9.123455164730483
 21
13.52702874077637
 31
0.0
  0
LINE
  5
1FA
330
1F
100
AcDbEntity
  8
0
  6
Continuous
 62
     7
100
AcDbLine
 10
9.776455164730483
 20
13.70702874077637
 30
0.0
 11
9.123455164730483
 21
13.70702874077637
 31
0.0
  0
LINE
  5
1FB
330
1F
100
AcDbEntity
  8
0
  6
Continuous
 62
     7
100
AcDbLine
 10
9.776455164730483
 20
13.05402874077637
 30
0.0
 11
9.776455164730483
 21
13.70702874077637
 31
0.0
  0
LINE
  5
1FC
330
1F
100
AcDbEntity
  8
0
  6
Continuous
 62
     7
100
AcDbLine
 10
9.596455164730484
 20
13.05402874077637
 30
0.0
 11
9.776455164730483
 21
13.05402874077637
 31
0.0
  0
LINE
  5
1FD
330
1F
100
AcDbEntity
  8
0
  6
Continuous
 62
     7
100
AcDbLine
 10
9.596455164730485
 20
12.87402874077637
 30
0.0
 11
9.596455164730484
 21
13.05402874077637
 31
0.0
  0
LINE
  5
1FE
330
1F
100
AcDbEntity
  8
0
  6
Continuous
 62
     7
100
AcDbLine
 10
9.776455164730487
 20
12.87402874077637
 30
0.0
 11
9.596455164730485
 21
12.87402874077637
 31
0.0
  0
LINE
  5
1FF
330
1F
100
AcDbEntity
  8
0
  6
Continuous
 62
     7
100
AcDbLine
 10
9.776455164730487
 20
12.30402874077637
 30
0.0
 11
9.776455164730487
 21
12.87402874077637
 31
0.0
  0
LINE
  5
200
330
1F
100
AcDbEntity
  8
0
  6
Continuous
 62
     7
100
AcDbLine
 10
9.596455164730487
 20
12.30402874077637
 30
0.0
 11
9.776455164730487
 21
12.30402874077637
 31
0.0
  0
LINE
  5
201
330
1F
100
AcDbEntity
  8
0
  6
Continuous
 62
     7
100
AcDbLine
 10
9.596455164730487
 20
12.12402874077637
 30
0.0
 11
9.596455164730487
 21
12.30402874077637
 31
0.0
  0
LINE
  5
202
330
1F
100
AcDbEntity
  8
0
  6
Continuous
 62
     7
100
AcDbLine
 10
9.776455164730489
 20
12.12402874077638
 30
0.0
 11
9.596455164730487
 21
12.12402874077637
 31
0.0
  0
LINE
  5
203
330
1F
100
AcDbEntity
  8
0
  6
Continuous
 62
     7
100
AcDbLine
 10
9.77645516473049
 20
11.55402874077637
 30
0.0
 11
9.776455164730489
 21
12.12402874077638
 31
0.0
  0
LINE
  5
204
330
1F
100
AcDbEntity
  8
0
  6
Continuous
 62
     7
100
AcDbLine
 10
9.596455164730491
 20
11.55402874077637
 30
0.0
 11
9.77645516473049
 21
11.55402874077637
 31
0.0
  0
LINE
  5
205
330
1F
100
AcDbEntity
  8
0
  6
Continuous
 62
     7
100
AcDbLine
 10
9.596455164730491
 20
11.37402874077637
 30
0.0
 11
9.596455164730491
 21
11.55402874077637
 31
0.0
  0
LINE
  5
206
330
1F
100
AcDbEntity
  8
0
  6
Continuous
 62
     7
100
AcDbLine
 10
9.77645516473049
 20
11.37402874077637
 30
0.0
 11
9.596455164730491
 21
11.37402874077637
 31
0.0
  0
LINE
  5
207
330
1F
100
AcDbEntity
  8
0
  6
Continuous
 62
     7
100
AcDbLine
 10
9.776455164730494
 20
10.80402874077637
 30
0.0
 11
9.77645516473049
 21
11.37402874077637
 31
0.0
  0
LINE
  5
208
330
1F
100
AcDbEntity
  8
0
  6
Continuous
 62
     7
100
AcDbLine
 10
9.596455164730492
 20
10.80402874077637
 30
0.0
 11
9.776455164730494
 21
10.80402874077637
 31
0.0
  0
LINE
  5
209
330
1F
100
AcDbEntity
  8
0
  6
Continuous
 62
     7
100
AcDbLine
 10
9.596455164730494
 20
10.62402874077637
 30
0.0
 11
9.596455164730492
 21
10.80402874077637
 31
0.0
  0
LINE
  5
20A
330
1F
100
AcDbEntity
  8
0
  6
Continuous
 62
     7
100
AcDbLine
 10
9.058455164730501
 20
8.18902874077637
 30
0.0
 11
9.058455164730499
 21
8.71402874077637
 31
0.0
  0
LINE
  5
20B
330
1F
100
AcDbEntity
  8
0
  6
Continuous
 62
     7
100
AcDbLine
 10
8.608455164730498
 20
8.71402874077637
 30
0.0
 11
8.608455164730502
 21
8.18902874077637
 31
0.0
  0
LINE
  5
20C
330
1F
100
AcDbEntity
  8
0
  6
Continuous
 62
     7
100
AcDbLine
 10
8.608455164730502
 20
8.18902874077637
 30
0.0
 11
9.058455164730501
 21
8.18902874077637
 31
0.0
  0
LINE
  5
20D
330
1F
100
AcDbEntity
  8
0
  6
Continuous
 62
     7
100
AcDbLine
 10
9.708455164730501
 20
8.189028740776373
 30
0.0
 11
9.7084551647305
 21
8.714028740776374
 31
0.0
  0
LINE
  5
20E
330
1F
100
AcDbEntity
  8
0
  6
Continuous
 62
     7
100
AcDbLine
 10
9.258455164730499
 20
8.714028740776372
 30
0.0
 11
9.258455164730502
 21
8.189028740776372
 31
0.0
  0
LINE
  5
20F
330
1F
100
AcDbEntity
  8
0
  6
Continuous
 62
     7
100
AcDbLine
 10
9.258455164730502
 20
8.189028740776372
 30
0.0
 11
9.708455164730501
 21
8.189028740776373
 31
0.0
  0
LINE
  5
210
330
1F
100
AcDbEntity
  8
0
  6
Continuous
 62
     7
100
AcDbLine
 10
10.80845516473051
 20
9.739028740776412
 30
0.0
 11
10.28345516473051
 21
9.739028740776404
 31
0.0
  0
LINE
  5
211
330
1F
100
AcDbEntity
  8
0
  6
Continuous
 62
     7
100
AcDbLine
 10
10.28345516473052
 20
9.289028740776405
 30
0.0
 11
10.80845516473052
 21
9.289028740776412
 31
0.0
  0
LINE
  5
212
330
1F
100
AcDbEntity
  8
0
  6
Continuous
 62
     7
100
AcDbLine
 10
10.80845516473052
 20
9.289028740776412
 30
0.0
 11
10.80845516473051
 21
9.739028740776412
 31
0.0
  0
LINE
  5
213
330
1F
100
AcDbEntity
  8
0
  6
Continuous
 62
     7
100
AcDbLine
 10
10.8084551647305
 20
10.38902874077641
 30
0.0
 11
10.2834551647305
 21
10.3890287407764
 31
0.0
  0
LINE
  5
214
330
1F
100
AcDbEntity
  8
0
  6
Continuous
 62
     7
100
AcDbLine
 10
10.28345516473051
 20
9.939028740776405
 30
0.0
 11
10.80845516473051
 21
9.939028740776411
 31
0.0
  0
LINE
  5
215
330
1F
100
AcDbEntity
  8
0
  6
Continuous
 62
     7
100
AcDbLine
 10
10.80845516473051
 20
9.939028740776411
 30
0.0
 11
10.8084551647305
 21
10.38902874077641
 31
0.0
  0
LINE
  5
216
330
1F
100
AcDbEntity
  8
0
  6
Continuous
 62
     7
100
AcDbLine
 10
10.80845516473049
 20
11.03902874077641
 30
0.0
 11
10.28345516473049
 21
11.0390287407764
 31
0.0
  0
LINE
  5
217
330
1F
100
AcDbEntity
  8
0
  6
Continuous
 62
     7
100
AcDbLine
 10
10.2834551647305
 20
10.5890287407764
 30
0.0
 11
10.8084551647305
 21
10.58902874077641
 31
0.0
  0
LINE
  5
218
330
1F
100
AcDbEntity
  8
0
  6
Continuous
 62
     7
100
AcDbLine
 10
10.8084551647305
 20
10.58902874077641
 30
0.0
 11
10.80845516473049
 21
11.03902874077641
 31
0.0
  0
LINE
  5
219
330
1F
100
AcDbEntity
  8
0
  6
Continuous
 62
     7
100
AcDbLine
 10
10.80845516473049
 20
11.68902874077641
 30
0.0
 11
10.28345516473049
 21
11.6890287407764
 31
0.0
  0
LINE
  5
21A
330
1F
100
AcDbEntity
  8
0
  6
Continuous
 62
     7
100
AcDbLine
 10
10.28345516473049
 20
11.2390287407764
 30
0.0
 11
10.80845516473049
 21
11.23902874077641
 31
0.0
  0
LINE
  5
21B
330
1F
100
AcDbEntity
  8
0
  6
Continuous
 62
     7
100
AcDbLine
 10
10.80845516473049
 20
11.23902874077641
 30
0.0
 11
10.80845516473049
 21
11.68902874077641
 31
0.0
  0
LINE
  5
21C
330
1F
100
AcDbEntity
  8
0
  6
Continuous
 62
     7
100
AcDbLine
 10
10.80845516473048
 20
12.33902874077641
 30
0.0
 11
10.28345516473048
 21
12.3390287407764
 31
0.0
  0
LINE
  5
21D
330
1F
100
AcDbEntity
  8
0
  6
Continuous
 62
     7
100
AcDbLine
 10
10.28345516473048
 20
11.8890287407764
 30
0.0
 11
10.80845516473048
 21
11.88902874077641
 31
0.0
  0
LINE
  5
21E
330
1F
100
AcDbEntity
  8
0
  6
Continuous
 62
     7
100
AcDbLine
 10
10.80845516473048
 20
11.88902874077641
 30
0.0
 11
10.80845516473048
 21
12.33902874077641
 31
0.0
  0
LINE
  5
21F
330
1F
100
AcDbEntity
  8
0
  6
Continuous
 62
     7
100
AcDbLine
 10
10.80845516473047
 20
12.98902874077641
 30
0.0
 11
10.28345516473047
 21
12.9890287407764
 31
0.0
  0
LINE
  5
220
330
1F
100
AcDbEntity
  8
0
  6
Continuous
 62
     7
100
AcDbLine
 10
10.28345516473047
 20
12.5390287407764
 30
0.0
 11
10.80845516473047
 21
12.53902874077641
 31
0.0
  0
LINE
  5
221
330
1F
100
AcDbEntity
  8
0
  6
Continuous
 62
     7
100
AcDbLine
 10
10.80845516473047
 20
12.53902874077641
 30
0.0
 11
10.80845516473047
 21
12.98902874077641
 31
0.0
  0
LINE
  5
222
330
1F
100
AcDbEntity
  8
0
  6
Continuous
 62
     7
100
AcDbLine
 10
10.80845516473046
 20
13.63902874077641
 30
0.0
 11
10.28345516473046
 21
13.6390287407764
 31
0.0
  0
LINE
  5
223
330
1F
100
AcDbEntity
  8
0
  6
Continuous
 62
     7
100
AcDbLine
 10
10.28345516473046
 20
13.1890287407764
 30
0.0
 11
10.80845516473047
 21
13.18902874077641
 31
0.0
  0
LINE
  5
224
330
1F
100
AcDbEntity
  8
0
  6
Continuous
 62
     7
100
AcDbLine
 10
10.80845516473047
 20
13.18902874077641
 30
0.0
 11
10.80845516473046
 21
13.63902874077641
 31
0.0
  0
LINE
  5
225
330
1F
100
AcDbEntity
  8
0
  6
Continuous
 62
     7
100
AcDbLine
 10
5.470455164730487
 20
12.12402874077636
 30
0.0
 11
5.29045516473049
 21
12.12402874077636
 31
0.0
  0
LINE
  5
226
330
1F
100
AcDbEntity
  8
0
  6
Continuous
 62
     7
100
AcDbLine
 10
5.470455164730486
 20
12.30402874077636
 30
0.0
 11
5.470455164730487
 21
12.12402874077636
 31
0.0
  0
LINE
  5
227
330
1F
100
AcDbEntity
  8
0
  6
Continuous
 62
     7
100
AcDbLine
 10
9.258455164730479
 20
14.73902874077637
 30
0.0
 11
9.258455164730481
 21
14.21402874077637
 31
0.0
  0
LINE
  5
228
330
1F
100
AcDbEntity
  8
0
  6
Continuous
 62
     7
100
AcDbLine
 10
9.70845516473048
 20
14.21402874077637
 30
0.0
 11
9.708455164730478
 21
14.73902874077637
 31
0.0
  0
LINE
  5
229
330
1F
100
AcDbEntity
  8
0
  6
Continuous
 62
     7
100
AcDbLine
 10
9.708455164730478
 20
14.73902874077637
 30
0.0
 11
9.258455164730479
 21
14.73902874077637
 31
0.0
  0
LINE
  5
22A
330
1F
100
AcDbEntity
  8
0
  6
Continuous
 62
     7
100
AcDbLine
 10
5.290455164730486
 20
12.30402874077636
 30
0.0
 11
5.470455164730486
 21
12.30402874077636
 31
0.0
  0
LINE
  5
22B
330
1F
100
AcDbEntity
  8
0
  6
Continuous
 62
     7
100
AcDbLine
 10
8.608455164730479
 20
14.73902874077637
 30
0.0
 11
8.608455164730482
 21
14.21402874077637
 31
0.0
  0
LINE
  5
22C
330
1F
100
AcDbEntity
  8
0
  6
Continuous
 62
     7
100
AcDbLine
 10
9.05845516473048
 20
14.21402874077637
 30
0.0
 11
9.058455164730478
 21
14.73902874077637
 31
0.0
  0
LINE
  5
22D
330
1F
100
AcDbEntity
  8
0
  6
Continuous
 62
     7
100
AcDbLine
 10
9.058455164730478
 20
14.73902874077637
 30
0.0
 11
8.608455164730479
 21
14.73902874077637
 31
0.0
  0
LINE
  5
22E
330
1F
100
AcDbEntity
  8
0
  6
Continuous
 62
     7
100
AcDbLine
 10
5.290455164730487
 20
12.80702874077636
 30
0.0
 11
5.290455164730486
 21
12.30402874077636
 31
0.0
  0
LINE
  5
22F
330
1F
100
AcDbEntity
  8
0
  6
Continuous
 62
     7
100
AcDbLine
 10
7.958455164730479
 20
14.73902874077637
 30
0.0
 11
7.958455164730481
 21
14.21402874077637
 31
0.0
  0
LINE
  5
230
330
1F
100
AcDbEntity
  8
0
  6
Continuous
 62
     7
100
AcDbLine
 10
8.408455164730481
 20
14.21402874077637
 30
0.0
 11
8.408455164730479
 21
14.73902874077637
 31
0.0
  0
LINE
  5
231
330
1F
100
AcDbEntity
  8
0
  6
Continuous
 62
     7
100
AcDbLine
 10
8.408455164730479
 20
14.73902874077637
 30
0.0
 11
7.958455164730479
 21
14.73902874077637
 31
0.0
  0
LINE
  5
232
330
1F
100
AcDbEntity
  8
0
  6
Continuous
 62
     7
100
AcDbLine
 10
7.308455164730479
 20
14.73902874077636
 30
0.0
 11
7.308455164730482
 21
14.21402874077636
 31
0.0
  0
LINE
  5
233
330
1F
100
AcDbEntity
  8
0
  6
Continuous
 62
     7
100
AcDbLine
 10
7.75845516473048
 20
14.21402874077637
 30
0.0
 11
7.758455164730479
 21
14.73902874077636
 31
0.0
  0
LINE
  5
234
330
1F
100
AcDbEntity
  8
0
  6
Continuous
 62
     7
100
AcDbLine
 10
7.758455164730479
 20
14.73902874077636
 30
0.0
 11
7.308455164730479
 21
14.73902874077636
 31
0.0
  0
LINE
  5
235
330
1F
100
AcDbEntity
  8
0
  6
Continuous
 62
     7
100
AcDbLine
 10
6.658455164730479
 20
14.73902874077636
 30
0.0
 11
6.658455164730481
 21
14.21402874077636
 31
0.0
  0
LINE
  5
236
330
1F
100
AcDbEntity
  8
0
  6
Continuous
 62
     7
100
AcDbLine
 10
7.108455164730481
 20
14.21402874077636
 30
0.0
 11
7.108455164730479
 21
14.73902874077636
 31
0.0
  0
LINE
  5
237
330
1F
100
AcDbEntity
  8
0
  6
Continuous
 62
     7
100
AcDbLine
 10
7.108455164730479
 20
14.73902874077636
 30
0.0
 11
6.658455164730479
 21
14.73902874077636
 31
0.0
  0
LINE
  5
238
330
1F
100
AcDbEntity
  8
0
  6
Continuous
 62
     7
100
AcDbLine
 10
6.008455164730479
 20
14.73902874077636
 30
0.0
 11
6.008455164730481
 21
14.21402874077636
 31
0.0
  0
LINE
  5
239
330
1F
100
AcDbEntity
  8
0
  6
Continuous
 62
     7
100
AcDbLine
 10
6.458455164730481
 20
14.21402874077636
 30
0.0
 11
6.458455164730479
 21
14.73902874077636
 31
0.0
  0
LINE
  5
23A
330
1F
100
AcDbEntity
  8
0
  6
Continuous
 62
     7
100
AcDbLine
 10
6.458455164730479
 20
14.73902874077636
 30
0.0
 11
6.008455164730479
 21
14.73902874077636
 31
0.0
  0
LINE
  5
23B
330
1F
100
AcDbEntity
  8
0
  6
Continuous
 62
     7
100
AcDbLine
 10
5.358455164730479
 20
14.73902874077636
 30
0.0
 11
5.358455164730481
 21
14.21402874077636
 31
0.0
  0
LINE
  5
23C
330
1F
100
AcDbEntity
  8
0
  6
Continuous
 62
     7
100
AcDbLine
 10
5.808455164730482
 20
14.21402874077636
 30
0.0
 11
5.808455164730479
 21
14.73902874077636
 31
0.0
  0
LINE
  5
23D
330
1F
100
AcDbEntity
  8
0
  6
Continuous
 62
     7
100
AcDbLine
 10
5.808455164730479
 20
14.73902874077636
 30
0.0
 11
5.358455164730479
 21
14.73902874077636
 31
0.0
  0
LINE
  5
23E
330
1F
100
AcDbEntity
  8
0
  6
Continuous
 62
     7
100
AcDbLine
 10
4.258455164730478
 20
13.18902874077634
 30
0.0
 11
4.783455164730479
 21
13.18902874077634
 31
0.0
  0
LINE
  5
23F
330
1F
100
AcDbEntity
  8
0
  6
Continuous
 62
     7
100
AcDbLine
 10
4.783455164730475
 20
13.63902874077635
 30
0.0
 11
4.258455164730474
 21
13.63902874077634
 31
0.0
  0
LINE
  5
240
330
1F
100
AcDbEntity
  8
0
  6
Continuous
 62
     7
100
AcDbLine
 10
4.258455164730474
 20
13.63902874077634
 30
0.0
 11
4.258455164730478
 21
13.18902874077634
 31
0.0
  0
LINE
  5
241
330
1F
100
AcDbEntity
  8
0
  6
Continuous
 62
     7
100
AcDbLine
 10
4.258455164730482
 20
12.53902874077634
 30
0.0
 11
4.783455164730483
 21
12.53902874077635
 31
0.0
  0
LINE
  5
242
330
1F
100
AcDbEntity
  8
0
  6
Continuous
 62
     7
100
AcDbLine
 10
4.783455164730479
 20
12.98902874077634
 30
0.0
 11
4.258455164730478
 21
12.98902874077634
 31
0.0
  0
LINE
  5
243
330
1F
100
AcDbEntity
  8
0
  6
Continuous
 62
     7
100
AcDbLine
 10
4.258455164730478
 20
12.98902874077634
 30
0.0
 11
4.258455164730482
 21
12.53902874077634
 31
0.0
  0
LINE
  5
244
330
1F
100
AcDbEntity
  8
0
  6
Continuous
 62
     7
100
AcDbLine
 10
4.258455164730487
 20
11.88902874077634
 30
0.0
 11
4.783455164730487
 21
11.88902874077635
 31
0.0
  0
LINE
  5
245
330
1F
100
AcDbEntity
  8
0
  6
Continuous
 62
     7
100
AcDbLine
 10
4.783455164730484
 20
12.33902874077635
 30
0.0
 11
4.258455164730484
 21
12.33902874077634
 31
0.0
  0
LINE
  5
246
330
1F
100
AcDbEntity
  8
0
  6
Continuous
 62
     7
100
AcDbLine
 10
4.258455164730484
 20
12.33902874077634
 30
0.0
 11
4.258455164730487
 21
11.88902874077634
 31
0.0
  0
LINE
  5
247
330
1F
100
AcDbEntity
  8
0
  6
Continuous
 62
     7
100
AcDbLine
 10
4.258455164730492
 20
11.23902874077634
 30
0.0
 11
4.783455164730492
 21
11.23902874077635
 31
0.0
  0
LINE
  5
248
330
1F
100
AcDbEntity
  8
0
  6
Continuous
 62
     7
100
AcDbLine
 10
4.783455164730488
 20
11.68902874077635
 30
0.0
 11
4.258455164730489
 21
11.68902874077634
 31
0.0
  0
LINE
  5
249
330
1F
100
AcDbEntity
  8
0
  6
Continuous
 62
     7
100
AcDbLine
 10
4.258455164730489
 20
11.68902874077634
 30
0.0
 11
4.258455164730492
 21
11.23902874077634
 31
0.0
  0
LINE
  5
24A
330
1F
100
AcDbEntity
  8
0
  6
Continuous
 62
     7
100
AcDbLine
 10
4.258455164730496
 20
10.58902874077634
 30
0.0
 11
4.783455164730496
 21
10.58902874077634
 31
0.0
  0
LINE
  5
24B
330
1F
100
AcDbEntity
  8
0
  6
Continuous
 62
     7
100
AcDbLine
 10
4.783455164730493
 20
11.03902874077635
 30
0.0
 11
4.258455164730492
 21
11.03902874077634
 31
0.0
  0
LINE
  5
24C
330
1F
100
AcDbEntity
  8
0
  6
Continuous
 62
     7
100
AcDbLine
 10
4.258455164730492
 20
11.03902874077634
 30
0.0
 11
4.258455164730496
 21
10.58902874077634
 31
0.0
  0
LINE
  5
24D
330
1F
100
AcDbEntity
  8
0
  6
Continuous
 62
     7
100
AcDbLine
 10
4.2584551647305
 20
9.939028740776345
 30
0.0
 11
4.783455164730501
 21
9.939028740776349
 31
0.0
  0
LINE
  5
24E
330
1F
100
AcDbEntity
  8
0
  6
Continuous
 62
     7
100
AcDbLine
 10
4.783455164730497
 20
10.38902874077635
 30
0.0
 11
4.258455164730497
 21
10.38902874077634
 31
0.0
  0
LINE
  5
24F
330
1F
100
AcDbEntity
  8
0
  6
Continuous
 62
     7
100
AcDbLine
 10
4.258455164730497
 20
10.38902874077634
 30
0.0
 11
4.2584551647305
 21
9.939028740776345
 31
0.0
  0
LINE
  5
250
330
1F
100
AcDbEntity
  8
0
  6
Continuous
 62
     7
100
AcDbLine
 10
6.693455164730484
 20
13.52702874077636
 30
0.0
 11
6.693455164730483
 21
13.70702874077636
 31
0.0
  0
LINE
  5
251
330
1F
100
AcDbEntity
  8
0
  6
Continuous
 62
     7
100
AcDbLine
 10
4.258455164730505
 20
9.289028740776345
 30
0.0
 11
4.783455164730506
 21
9.289028740776348
 31
0.0
  0
LINE
  5
252
330
1F
100
AcDbEntity
  8
0
  6
Continuous
 62
     7
100
AcDbLine
 10
4.783455164730502
 20
9.739028740776348
 30
0.0
 11
4.258455164730502
 21
9.739028740776344
 31
0.0
  0
LINE
  5
253
330
1F
100
AcDbEntity
  8
0
  6
Continuous
 62
     7
100
AcDbLine
 10
4.258455164730502
 20
9.739028740776344
 30
0.0
 11
4.258455164730505
 21
9.289028740776345
 31
0.0
  0
LINE
  5
254
330
1F
100
AcDbEntity
  8
0
  6
Continuous
 62
     7
100
AcDbLine
 10
6.873455164730484
 20
13.52702874077637
 30
0.0
 11
6.693455164730484
 21
13.52702874077636
 31
0.0
  0
LINE
  5
255
330
1F
100
AcDbEntity
  8
0
  6
Continuous
 62
     7
100
AcDbLine
 10
6.873455164730482
 20
13.70702874077636
 30
0.0
 11
6.873455164730484
 21
13.52702874077637
 31
0.0
  0
LINE
  5
256
330
1F
100
AcDbEntity
  8
0
  6
Continuous
 62
     7
100
AcDbLine
 10
7.443455164730483
 20
13.70702874077637
 30
0.0
 11
6.873455164730482
 21
13.70702874077636
 31
0.0
  0
LINE
  5
257
330
1F
100
AcDbEntity
  8
0
  6
Continuous
 62
     7
370
    15
100
AcDbLine
 10
10.73345508389169
 20
11.31402873365175
 30
0.0
 11
10.73345508389169
 21
11.61402874790098
 31
0.0
  0
LINE
  5
258
330
1F
100
AcDbEntity
  8
0
  6
Continuous
 62
     7
370
    15
100
AcDbLine
 10
10.28345514982933
 20
11.31402873365175
 30
0.0
 11
10.73345508389169
 21
11.31402873365175
 31
0.0
  0
ARC
  5
259
330
1F
100
AcDbEntity
  8
0
  6
Continuous
 62
     7
370
    15
100
AcDbCircle
 10
10.28345516473049
 20
11.46402874077639
 30
0.0
 40
0.1500000000000003
100
AcDbArc
 50
90.00000000000069
 51
270.0000000000015
  0
LINE
  5
25A
330
1F
100
AcDbEntity
  8
0
  6
Continuous
 62
     7
370
    15
100
AcDbLine
 10
10.73345508389169
 20
11.61402874790098
 30
0.0
 11
10.28345514982933
 21
11.61402874790098
 31
0.0
  0
LINE
  5
25B
330
1F
100
AcDbEntity
  8
0
  6
Continuous
 62
     7
370
    15
100
AcDbLine
 10
9.633455089852155
 20
14.66402865993757
 30
0.0
 11
9.333455133810581
 21
14.66402865993757
 31
0.0
  0
LINE
  5
25C
330
1F
100
AcDbEntity
  8
0
  6
Continuous
 62
     7
370
    15
100
AcDbLine
 10
9.633455089852155
 20
14.2140287258752
 30
0.0
 11
9.633455089852155
 21
14.66402865993757
 31
0.0
  0
ARC
  5
25D
330
1F
100
AcDbEntity
  8
0
  6
Continuous
 62
     7
370
    15
100
AcDbCircle
 10
9.483455164730491
 20
14.21402874077636
 30
0.0
 40
0.1500000000000003
100
AcDbArc
 50
180.0
 51
0.0
  0
LINE
  5
25E
330
1F
100
AcDbEntity
  8
0
  6
Continuous
 62
     7
370
    15
100
AcDbLine
 10
9.333455133810581
 20
14.66402865993757
 30
0.0
 11
9.333455133810581
 21
14.2140287258752
 31
0.0
  0
LINE
  5
25F
330
1F
100
AcDbEntity
  8
0
  6
Continuous
 62
     7
370
    15
100
AcDbLine
 10
7.033455140981764
 20
8.264028821615166
 30
0.0
 11
7.033455140981764
 21
8.714028755677528
 31
0.0
  0
LINE
  5
260
330
1F
100
AcDbEntity
  8
0
  6
Continuous
 62
     7
370
    15
100
AcDbLine
 10
6.73345518494019
 20
8.714028755677528
 30
0.0
 11
6.73345518494019
 21
8.264028821615166
 31
0.0
  0
ARC
  5
261
330
1F
100
AcDbEntity
  8
0
  6
Continuous
 62
     7
370
    15
100
AcDbCircle
 10
6.88345516473049
 20
8.714028740776367
 30
0.0
 40
0.1500000000000003
100
AcDbArc
 50
0.0
 51
180.0
  0
LINE
  5
262
330
1F
100
AcDbEntity
  8
0
  6
Continuous
 62
     7
370
    15
100
AcDbLine
 10
6.73345518494019
 20
8.264028821615166
 30
0.0
 11
7.033455140981764
 21
8.264028821615166
 31
0.0
  0
ARC
  5
263
330
1F
100
AcDbEntity
  8
0
  6
Continuous
 62
     7
370
    15
100
AcDbCircle
 10
4.783455164730486
 20
12.76402874077636
 30
0.0
 40
0.1500000000000003
100
AcDbArc
 50
270.0000000000011
 51
90.00000000000033
  0
LINE
  5
264
330
1F
100
AcDbEntity
  8
0
  6
Continuous
 62
     7
370
    15
100
AcDbLine
 10
4.33345524556929
 20
12.91402872233618
 30
0.0
 11
4.33345524556929
 21
12.6140287662946
 31
0.0
  0
LINE
  5
265
330
1F
100
AcDbEntity
  8
0
  6
Continuous
 62
     7
370
    15
100
AcDbLine
 10
4.33345524556929
 20
12.6140287662946
 30
0.0
 11
4.783455179631651
 21
12.6140287662946
 31
0.0
  0
LINE
  5
266
330
1F
100
AcDbEntity
  8
0
  6
Continuous
 62
     7
370
    15
100
AcDbLine
 10
4.783455179631651
 20
12.91402872233618
 30
0.0
 11
4.33345524556929
 21
12.91402872233618
 31
0.0
  0
LINE
  5
267
330
1F
100
AcDbEntity
  8
0
  6
Continuous
 62
     7
370
    15
100
AcDbLine
 10
4.933455157652439
 20
13.56402866589803
 30
0.0
 11
4.933455157652439
 21
13.26402870985646
 31
0.0
  0
LINE
  5
268
330
1F
100
AcDbEntity
  8
0
  6
Continuous
 62
     7
370
    15
100
AcDbLine
 10
4.933455157652439
 20
13.26402870985646
 30
0.0
 11
4.533455138653458
 21
13.26402870985646
 31
0.0
  0
LINE
  5
269
330
1F
100
AcDbEntity
  8
0
  6
Continuous
 62
     7
370
    15
100
AcDbLine
 10
4.533455138653458
 20
13.56402866589803
 30
0.0
 11
4.933455157652439
 21
13.56402866589803
 31
0.0
  0
LINE
  5
26A
330
1F
100
AcDbEntity
  8
0
  6
Continuous
 62
     7
370
    15
100
AcDbLine
 10
4.533455138653458
 20
13.56402866589803
 30
0.0
 11
4.533455138653458
 21
13.26402870985646
 31
0.0
  0
LINE
  5
26B
330
1F
100
AcDbEntity
  8
0
  6
Continuous
 62
     7
370
    15
100
AcDbLine
 10
10.73345508389169
 20
10.01402875921655
 30
0.0
 11
10.73345508389169
 21
10.31402871525813
 31
0.0
  0
LINE
  5
26C
330
1F
100
AcDbEntity
  8
0
  6
Continuous
 62
     7
370
    15
100
AcDbLine
 10
10.28345514982933
 20
10.01402875921655
 30
0.0
 11
10.73345508389169
 21
10.01402875921655
 31
0.0
  0
LINE
  5
26D
330
1F
100
AcDbEntity
  8
0
  6
Continuous
 62
     7
370
    15
100
AcDbLine
 10
10.73345508389169
 20
10.31402871525813
 30
0.0
 11
10.28345514982933
 21
10.31402871525813
 31
0.0
  0
ARC
  5
26E
330
1F
100
AcDbEntity
  8
0
  6
Continuous
 62
     7
370
    15
100
AcDbCircle
 10
10.2834551647305
 20
10.16402874077639
 30
0.0
 40
0.1500000000000003
100
AcDbArc
 50
90.00000000000069
 51
270.0000000000008
  0
LINE
  5
26F
330
1F
100
AcDbEntity
  8
0
  6
Continuous
 62
     7
370
    15
100
AcDbLine
 10
8.33345514452079
 20
8.864028733698315
 30
0.0
 11
8.33345514452079
 21
8.464028714699335
 31
0.0
  0
LINE
  5
270
330
1F
100
AcDbEntity
  8
0
  6
Continuous
 62
     7
370
    15
100
AcDbLine
 10
8.033455188479216
 20
8.464028714699335
 30
0.0
 11
8.33345514452079
 21
8.464028714699335
 31
0.0
  0
LINE
  5
271
330
1F
100
AcDbEntity
  8
0
  6
Continuous
 62
     7
370
    15
100
AcDbLine
 10
8.033455188479216
 20
8.464028714699335
 30
0.0
 11
8.033455188479216
 21
8.864028733698315
 31
0.0
  0
LINE
  5
272
330
1F
100
AcDbEntity
  8
0
  6
Continuous
 62
     7
370
    15
100
AcDbLine
 10
8.033455188479216
 20
8.864028733698315
 30
0.0
 11
8.33345514452079
 21
8.864028733698315
 31
0.0
  0
LINE
  5
273
330
1F
100
AcDbEntity
  8
0
  6
Continuous
 62
     7
370
    15
100
AcDbLine
 10
8.983455146290303
 20
8.864028733698315
 30
0.0
 11
8.983455146290303
 21
8.464028714699335
 31
0.0
  0
LINE
  5
274
330
1F
100
AcDbEntity
  8
0
  6
Continuous
 62
     7
370
    15
100
AcDbLine
 10
8.683455190248729
 20
8.464028714699335
 30
0.0
 11
8.983455146290303
 21
8.464028714699335
 31
0.0
  0
LINE
  5
275
330
1F
100
AcDbEntity
  8
0
  6
Continuous
 62
     7
370
    15
100
AcDbLine
 10
8.683455190248729
 20
8.464028714699335
 30
0.0
 11
8.683455190248729
 21
8.864028733698315
 31
0.0
  0
LINE
  5
276
330
1F
100
AcDbEntity
  8
0
  6
Continuous
 62
     7
370
    15
100
AcDbLine
 10
8.683455190248729
 20
8.864028733698315
 30
0.0
 11
8.983455146290303
 21
8.864028733698315
 31
0.0
  0
LINE
  5
277
330
1F
100
AcDbEntity
  8
0
  6
Continuous
 62
     7
370
    15
100
AcDbLine
 10
9.633455089852155
 20
8.864028733698315
 30
0.0
 11
9.633455089852155
 21
8.464028714699335
 31
0.0
  0
LINE
  5
278
330
1F
100
AcDbEntity
  8
0
  6
Continuous
 62
     7
370
    15
100
AcDbLine
 10
9.333455133810581
 20
8.464028714699335
 30
0.0
 11
9.333455133810581
 21
8.864028733698315
 31
0.0
  0
LINE
  5
279
330
1F
100
AcDbEntity
  8
0
  6
Continuous
 62
     7
370
    15
100
AcDbLine
 10
9.333455133810581
 20
8.464028714699335
 30
0.0
 11
9.633455089852155
 21
8.464028714699335
 31
0.0
  0
LINE
  5
27A
330
1F
100
AcDbEntity
  8
0
  6
Continuous
 62
     7
370
    15
100
AcDbLine
 10
9.333455133810581
 20
8.864028733698315
 30
0.0
 11
9.633455089852155
 21
8.864028733698315
 31
0.0
  0
LINE
  5
27B
330
1F
100
AcDbEntity
  8
0
  6
Continuous
 62
     7
370
    15
100
AcDbLine
 10
5.7334551956504
 20
8.264028821615166
 30
0.0
 11
5.7334551956504
 21
8.714028755677528
 31
0.0
  0
ARC
  5
27C
330
1F
100
AcDbEntity
  8
0
  6
Continuous
 62
     7
370
    15
100
AcDbCircle
 10
5.58345516473049
 20
8.714028740776367
 30
0.0
 40
0.1500000000000012
100
AcDbArc
 50
0.0
 51
180.0
  0
LINE
  5
27D
330
1F
100
AcDbEntity
  8
0
  6
Continuous
 62
     7
370
    15
100
AcDbLine
 10
5.433455239608825
 20
8.714028755677528
 30
0.0
 11
5.433455239608825
 21
8.264028821615166
 31
0.0
  0
LINE
  5
27E
330
1F
100
AcDbEntity
  8
0
  6
Continuous
 62
     7
370
    15
100
AcDbLine
 10
5.433455239608825
 20
8.264028821615166
 30
0.0
 11
5.7334551956504
 21
8.264028821615166
 31
0.0
  0
LINE
  5
27F
330
1F
100
AcDbEntity
  8
0
  6
Continuous
 62
     7
370
    15
100
AcDbLine
 10
7.033455140981764
 20
8.864028733698315
 30
0.0
 11
7.033455140981764
 21
8.464028714699335
 31
0.0
  0
LINE
  5
280
330
1F
100
AcDbEntity
  8
0
  6
Continuous
 62
     7
370
    15
100
AcDbLine
 10
6.73345518494019
 20
8.464028714699335
 30
0.0
 11
7.033455140981764
 21
8.464028714699335
 31
0.0
  0
LINE
  5
281
330
1F
100
AcDbEntity
  8
0
  6
Continuous
 62
     7
370
    15
100
AcDbLine
 10
6.73345518494019
 20
8.464028714699335
 30
0.0
 11
6.73345518494019
 21
8.864028733698315
 31
0.0
  0
LINE
  5
282
330
1F
100
AcDbEntity
  8
0
  6
Continuous
 62
     7
370
    15
100
AcDbLine
 10
6.73345518494019
 20
8.864028733698315
 30
0.0
 11
7.033455140981764
 21
8.864028733698315
 31
0.0
  0
LINE
  5
283
330
1F
100
AcDbEntity
  8
0
  6
Continuous
 62
     7
370
    15
100
AcDbLine
 10
7.683455171855108
 20
8.864028733698315
 30
0.0
 11
7.683455171855108
 21
8.464028714699335
 31
0.0
  0
LINE
  5
284
330
1F
100
AcDbEntity
  8
0
  6
Continuous
 62
     7
370
    15
100
AcDbLine
 10
7.383455157605872
 20
8.464028714699335
 30
0.0
 11
7.683455171855108
 21
8.464028714699335
 31
0.0
  0
LINE
  5
285
330
1F
100
AcDbEntity
  8
0
  6
Continuous
 62
     7
370
    15
100
AcDbLine
 10
7.383455157605872
 20
8.464028714699335
 30
0.0
 11
7.383455157605872
 21
8.864028733698315
 31
0.0
  0
LINE
  5
286
330
1F
100
AcDbEntity
  8
0
  6
Continuous
 62
     7
370
    15
100
AcDbLine
 10
7.383455157605872
 20
8.864028733698315
 30
0.0
 11
7.683455171855108
 21
8.864028733698315
 31
0.0
  0
ARC
  5
287
330
1F
100
AcDbEntity
  8
0
  6
Continuous
 62
     7
370
    15
100
AcDbCircle
 10
4.783455164730497
 20
9.514028740776357
 30
0.0
 40
0.1500000000000003
100
AcDbArc
 50
270.0000000000011
 51
90.00000000000033
  0
LINE
  5
288
330
1F
100
AcDbEntity
  8
0
  6
Continuous
 62
     7
370
    15
100
AcDbLine
 10
4.33345524556929
 20
9.364028815654702
 30
0.0
 11
4.783455179631651
 21
9.364028815654702
 31
0.0
  0
LINE
  5
289
330
1F
100
AcDbEntity
  8
0
  6
Continuous
 62
     7
370
    15
100
AcDbLine
 10
4.783455179631651
 20
9.664028771696276
 30
0.0
 11
4.33345524556929
 21
9.664028771696276
 31
0.0
  0
LINE
  5
28A
330
1F
100
AcDbEntity
  8
0
  6
Continuous
 62
     7
370
    15
100
AcDbLine
 10
4.33345524556929
 20
9.664028771696276
 30
0.0
 11
4.33345524556929
 21
9.364028815654702
 31
0.0
  0
LINE
  5
28B
330
1F
100
AcDbEntity
  8
0
  6
Continuous
 62
     7
370
    15
100
AcDbLine
 10
5.7334551956504
 20
8.864028733698315
 30
0.0
 11
5.7334551956504
 21
8.464028714699335
 31
0.0
  0
LINE
  5
28C
330
1F
100
AcDbEntity
  8
0
  6
Continuous
 62
     7
370
    15
100
AcDbLine
 10
5.433455239608825
 20
8.864028733698315
 30
0.0
 11
5.7334551956504
 21
8.864028733698315
 31
0.0
  0
LINE
  5
28D
330
1F
100
AcDbEntity
  8
0
  6
Continuous
 62
     7
370
    15
100
AcDbLine
 10
5.433455239608825
 20
8.464028714699335
 30
0.0
 11
5.433455239608825
 21
8.864028733698315
 31
0.0
  0
LINE
  5
28E
330
1F
100
AcDbEntity
  8
0
  6
Continuous
 62
     7
370
    15
100
AcDbLine
 10
5.433455239608825
 20
8.464028714699335
 30
0.0
 11
5.7334551956504
 21
8.464028714699335
 31
0.0
  0
LINE
  5
28F
330
1F
100
AcDbEntity
  8
0
  6
Continuous
 62
     7
370
    15
100
AcDbLine
 10
6.383455139212252
 20
8.864028733698315
 30
0.0
 11
6.383455139212252
 21
8.464028714699335
 31
0.0
  0
LINE
  5
290
330
1F
100
AcDbEntity
  8
0
  6
Continuous
 62
     7
370
    15
100
AcDbLine
 10
6.083455183170677
 20
8.464028714699335
 30
0.0
 11
6.383455139212252
 21
8.464028714699335
 31
0.0
  0
LINE
  5
291
330
1F
100
AcDbEntity
  8
0
  6
Continuous
 62
     7
370
    15
100
AcDbLine
 10
6.083455183170677
 20
8.464028714699335
 30
0.0
 11
6.083455183170677
 21
8.864028733698315
 31
0.0
  0
LINE
  5
292
330
1F
100
AcDbEntity
  8
0
  6
Continuous
 62
     7
370
    15
100
AcDbLine
 10
6.083455183170677
 20
8.864028733698315
 30
0.0
 11
6.383455139212252
 21
8.864028733698315
 31
0.0
  0
LINE
  5
293
330
1F
100
AcDbEntity
  8
0
  6
Continuous
 62
     7
370
    15
100
AcDbLine
 10
10.73345508389169
 20
13.26402870985646
 30
0.0
 11
10.73345508389169
 21
13.56402866589803
 31
0.0
  0
LINE
  5
294
330
1F
100
AcDbEntity
  8
0
  6
Continuous
 62
     7
370
    15
100
AcDbLine
 10
10.28345514982933
 20
13.26402870985646
 30
0.0
 11
10.73345508389169
 21
13.26402870985646
 31
0.0
  0
LINE
  5
295
330
1F
100
AcDbEntity
  8
0
  6
Continuous
 62
     7
370
    15
100
AcDbLine
 10
10.73345508389169
 20
13.56402866589803
 30
0.0
 11
10.28345514982933
 21
13.56402866589803
 31
0.0
  0
ARC
  5
296
330
1F
100
AcDbEntity
  8
0
  6
Continuous
 62
     7
370
    15
100
AcDbCircle
 10
10.28345516473047
 20
13.41402874077639
 30
0.0
 40
0.1500000000000003
100
AcDbArc
 50
90.00000000000069
 51
270.0000000000015
  0
LINE
  5
297
330
1F
100
AcDbEntity
  8
0
  6
Continuous
 62
     7
370
    15
100
AcDbLine
 10
10.13345517180854
 20
12.91402872233618
 30
0.0
 11
10.53345519080752
 21
12.91402872233618
 31
0.0
  0
LINE
  5
298
330
1F
100
AcDbEntity
  8
0
  6
Continuous
 62
     7
370
    15
100
AcDbLine
 10
10.53345519080752
 20
12.6140287662946
 30
0.0
 11
10.53345519080752
 21
12.91402872233618
 31
0.0
  0
LINE
  5
299
330
1F
100
AcDbEntity
  8
0
  6
Continuous
 62
     7
370
    15
100
AcDbLine
 10
10.53345519080752
 20
12.6140287662946
 30
0.0
 11
10.13345517180854
 21
12.6140287662946
 31
0.0
  0
LINE
  5
29A
330
1F
100
AcDbEntity
  8
0
  6
Continuous
 62
     7
370
    15
100
AcDbLine
 10
10.13345517180854
 20
12.6140287662946
 30
0.0
 11
10.13345517180854
 21
12.91402872233618
 31
0.0
  0
LINE
  5
29B
330
1F
100
AcDbEntity
  8
0
  6
Continuous
 62
     7
370
    15
100
AcDbLine
 10
10.13345517180854
 20
13.26402870985646
 30
0.0
 11
10.13345517180854
 21
13.56402866589803
 31
0.0
  0
LINE
  5
29C
330
1F
100
AcDbEntity
  8
0
  6
Continuous
 62
     7
370
    15
100
AcDbLine
 10
10.53345519080752
 20
13.26402870985646
 30
0.0
 11
10.53345519080752
 21
13.56402866589803
 31
0.0
  0
LINE
  5
29D
330
1F
100
AcDbEntity
  8
0
  6
Continuous
 62
     7
370
    15
100
AcDbLine
 10
10.53345519080752
 20
13.26402870985646
 30
0.0
 11
10.13345517180854
 21
13.26402870985646
 31
0.0
  0
LINE
  5
29E
330
1F
100
AcDbEntity
  8
0
  6
Continuous
 62
     7
370
    15
100
AcDbLine
 10
10.13345517180854
 20
13.56402866589803
 30
0.0
 11
10.53345519080752
 21
13.56402866589803
 31
0.0
  0
LINE
  5
29F
330
1F
100
AcDbEntity
  8
0
  6
Continuous
 62
     7
370
    15
100
AcDbLine
 10
5.7334551956504
 20
14.2140287258752
 30
0.0
 11
5.7334551956504
 21
14.66402865993757
 31
0.0
  0
ARC
  5
2A0
330
1F
100
AcDbEntity
  8
0
  6
Continuous
 62
     7
370
    15
100
AcDbCircle
 10
5.583455164730491
 20
14.21402874077636
 30
0.0
 40
0.1500000000000003
100
AcDbArc
 50
180.0
 51
0.0
  0
LINE
  5
2A1
330
1F
100
AcDbEntity
  8
0
  6
Continuous
 62
     7
370
    15
100
AcDbLine
 10
5.433455239608825
 20
14.66402865993757
 30
0.0
 11
5.433455239608825
 21
14.2140287258752
 31
0.0
  0
LINE
  5
2A2
330
1F
100
AcDbEntity
  8
0
  6
Continuous
 62
     7
370
    15
100
AcDbLine
 10
5.7334551956504
 20
14.66402865993757
 30
0.0
 11
5.433455239608825
 21
14.66402865993757
 31
0.0
  0
LINE
  5
2A3
330
1F
100
AcDbEntity
  8
0
  6
Continuous
 62
     7
370
    15
100
AcDbLine
 10
6.383455139212252
 20
14.66402865993757
 30
0.0
 11
6.083455183170677
 21
14.66402865993757
 31
0.0
  0
LINE
  5
2A4
330
1F
100
AcDbEntity
  8
0
  6
Continuous
 62
     7
370
    15
100
AcDbLine
 10
6.383455139212252
 20
14.2140287258752
 30
0.0
 11
6.383455139212252
 21
14.66402865993757
 31
0.0
  0
ARC
  5
2A5
330
1F
100
AcDbEntity
  8
0
  6
Continuous
 62
     7
370
    15
100
AcDbCircle
 10
6.233455164730491
 20
14.21402874077636
 30
0.0
 40
0.1499999999999995
100
AcDbArc
 50
180.0
 51
0.0
  0
LINE
  5
2A6
330
1F
100
AcDbEntity
  8
0
  6
Continuous
 62
     7
370
    15
100
AcDbLine
 10
6.083455183170677
 20
14.66402865993757
 30
0.0
 11
6.083455183170677
 21
14.2140287258752
 31
0.0
  0
LINE
  5
2A7
330
1F
100
AcDbEntity
  8
0
  6
Continuous
 62
     7
370
    15
100
AcDbLine
 10
8.983455146290303
 20
8.264028821615166
 30
0.0
 11
8.983455146290303
 21
8.714028755677528
 31
0.0
  0
LINE
  5
2A8
330
1F
100
AcDbEntity
  8
0
  6
Continuous
 62
     7
370
    15
100
AcDbLine
 10
8.683455190248729
 20
8.264028821615166
 30
0.0
 11
8.983455146290303
 21
8.264028821615166
 31
0.0
  0
LINE
  5
2A9
330
1F
100
AcDbEntity
  8
0
  6
Continuous
 62
     7
370
    15
100
AcDbLine
 10
8.683455190248729
 20
8.714028755677528
 30
0.0
 11
8.683455190248729
 21
8.264028821615166
 31
0.0
  0
ARC
  5
2AA
330
1F
100
AcDbEntity
  8
0
  6
Continuous
 62
     7
370
    15
100
AcDbCircle
 10
8.833455164730489
 20
8.714028740776367
 30
0.0
 40
0.1500000000000003
100
AcDbArc
 50
0.0
 51
180.0
  0
LINE
  5
2AB
330
1F
100
AcDbEntity
  8
0
  6
Continuous
 62
     7
370
    15
100
AcDbLine
 10
10.13345517180854
 20
10.66402876098607
 30
0.0
 11
10.13345517180854
 21
10.96402871702764
 31
0.0
  0
LINE
  5
2AC
330
1F
100
AcDbEntity
  8
0
  6
Continuous
 62
     7
370
    15
100
AcDbLine
 10
10.53345519080752
 20
10.66402876098607
 30
0.0
 11
10.53345519080752
 21
10.96402871702764
 31
0.0
  0
LINE
  5
2AD
330
1F
100
AcDbEntity
  8
0
  6
Continuous
 62
     7
370
    15
100
AcDbLine
 10
10.53345519080752
 20
10.66402876098607
 30
0.0
 11
10.13345517180854
 21
10.66402876098607
 31
0.0
  0
LINE
  5
2AE
330
1F
100
AcDbEntity
  8
0
  6
Continuous
 62
     7
370
    15
100
AcDbLine
 10
10.13345517180854
 20
10.96402871702764
 30
0.0
 11
10.53345519080752
 21
10.96402871702764
 31
0.0
  0
LINE
  5
2AF
330
1F
100
AcDbEntity
  8
0
  6
Continuous
 62
     7
370
    15
100
AcDbLine
 10
10.13345517180854
 20
11.31402873365175
 30
0.0
 11
10.13345517180854
 21
11.61402874790098
 31
0.0
  0
LINE
  5
2B0
330
1F
100
AcDbEntity
  8
0
  6
Continuous
 62
     7
370
    15
100
AcDbLine
 10
10.13345517180854
 20
11.61402874790098
 30
0.0
 11
10.53345519080752
 21
11.61402874790098
 31
0.0
  0
LINE
  5
2B1
330
1F
100
AcDbEntity
  8
0
  6
Continuous
 62
     7
370
    15
100
AcDbLine
 10
10.53345519080752
 20
11.31402873365175
 30
0.0
 11
10.53345519080752
 21
11.61402874790098
 31
0.0
  0
LINE
  5
2B2
330
1F
100
AcDbEntity
  8
0
  6
Continuous
 62
     7
370
    15
100
AcDbLine
 10
10.53345519080752
 20
11.31402873365175
 30
0.0
 11
10.13345517180854
 21
11.31402873365175
 31
0.0
  0
LINE
  5
2B3
330
1F
100
AcDbEntity
  8
0
  6
Continuous
 62
     7
370
    15
100
AcDbLine
 10
10.53345519080752
 20
11.96402876452509
 30
0.0
 11
10.53345519080752
 21
12.26402872056667
 31
0.0
  0
LINE
  5
2B4
330
1F
100
AcDbEntity
  8
0
  6
Continuous
 62
     7
370
    15
100
AcDbLine
 10
10.13345517180854
 20
12.26402872056667
 30
0.0
 11
10.53345519080752
 21
12.26402872056667
 31
0.0
  0
LINE
  5
2B5
330
1F
100
AcDbEntity
  8
0
  6
Continuous
 62
     7
370
    15
100
AcDbLine
 10
10.53345519080752
 20
11.96402876452509
 30
0.0
 11
10.13345517180854
 21
11.96402876452509
 31
0.0
  0
LINE
  5
2B6
330
1F
100
AcDbEntity
  8
0
  6
Continuous
 62
     7
370
    15
100
AcDbLine
 10
10.13345517180854
 20
11.96402876452509
 30
0.0
 11
10.13345517180854
 21
12.26402872056667
 31
0.0
  0
LINE
  5
2B7
330
1F
100
AcDbEntity
  8
0
  6
Continuous
 62
     7
370
    15
100
AcDbLine
 10
7.683455171855108
 20
14.2140287258752
 30
0.0
 11
7.683455171855108
 21
14.66402865993757
 31
0.0
  0
LINE
  5
2B8
330
1F
100
AcDbEntity
  8
0
  6
Continuous
 62
     7
370
    15
100
AcDbLine
 10
7.383455157605872
 20
14.66402865993757
 30
0.0
 11
7.383455157605872
 21
14.2140287258752
 31
0.0
  0
ARC
  5
2B9
330
1F
100
AcDbEntity
  8
0
  6
Continuous
 62
     7
370
    15
100
AcDbCircle
 10
7.533455164730491
 20
14.21402874077636
 30
0.0
 40
0.1500000000000003
100
AcDbArc
 50
180.0
 51
0.0
  0
LINE
  5
2BA
330
1F
100
AcDbEntity
  8
0
  6
Continuous
 62
     7
370
    15
100
AcDbLine
 10
7.683455171855108
 20
14.66402865993757
 30
0.0
 11
7.383455157605872
 21
14.66402865993757
 31
0.0
  0
LINE
  5
2BB
330
1F
100
AcDbEntity
  8
0
  6
Continuous
 62
     7
370
    15
100
AcDbLine
 10
4.783455179631651
 20
10.96402871702764
 30
0.0
 11
4.33345524556929
 21
10.96402871702764
 31
0.0
  0
ARC
  5
2BC
330
1F
100
AcDbEntity
  8
0
  6
Continuous
 62
     7
370
    15
100
AcDbCircle
 10
4.783455164730493
 20
10.81402874077636
 30
0.0
 40
0.1500000000000003
100
AcDbArc
 50
270.0000000000008
 51
90.00000000000033
  0
LINE
  5
2BD
330
1F
100
AcDbEntity
  8
0
  6
Continuous
 62
     7
370
    15
100
AcDbLine
 10
4.33345524556929
 20
10.66402876098607
 30
0.0
 11
4.783455179631651
 21
10.66402876098607
 31
0.0
  0
LINE
  5
2BE
330
1F
100
AcDbEntity
  8
0
  6
Continuous
 62
     7
370
    15
100
AcDbLine
 10
4.33345524556929
 20
10.96402871702764
 30
0.0
 11
4.33345524556929
 21
10.66402876098607
 31
0.0
  0
LINE
  5
2BF
330
1F
100
AcDbEntity
  8
0
  6
Continuous
 62
     7
370
    15
100
AcDbLine
 10
10.13345517180854
 20
9.664028771696276
 30
0.0
 11
10.53345519080752
 21
9.664028771696276
 31
0.0
  0
LINE
  5
2C0
330
1F
100
AcDbEntity
  8
0
  6
Continuous
 62
     7
370
    15
100
AcDbLine
 10
10.53345519080752
 20
9.364028815654702
 30
0.0
 11
10.53345519080752
 21
9.664028771696276
 31
0.0
  0
LINE
  5
2C1
330
1F
100
AcDbEntity
  8
0
  6
Continuous
 62
     7
370
    15
100
AcDbLine
 10
10.53345519080752
 20
9.364028815654702
 30
0.0
 11
10.13345517180854
 21
9.364028815654702
 31
0.0
  0
LINE
  5
2C2
330
1F
100
AcDbEntity
  8
0
  6
Continuous
 62
     7
370
    15
100
AcDbLine
 10
10.13345517180854
 20
9.364028815654702
 30
0.0
 11
10.13345517180854
 21
9.664028771696276
 31
0.0
  0
LINE
  5
2C3
330
1F
100
AcDbEntity
  8
0
  6
Continuous
 62
     7
370
    15
100
AcDbLine
 10
10.53345519080752
 20
10.01402875921655
 30
0.0
 11
10.53345519080752
 21
10.31402871525813
 31
0.0
  0
LINE
  5
2C4
330
1F
100
AcDbEntity
  8
0
  6
Continuous
 62
     7
370
    15
100
AcDbLine
 10
10.53345519080752
 20
10.01402875921655
 30
0.0
 11
10.13345517180854
 21
10.01402875921655
 31
0.0
  0
LINE
  5
2C5
330
1F
100
AcDbEntity
  8
0
  6
Continuous
 62
     7
370
    15
100
AcDbLine
 10
10.13345517180854
 20
10.31402871525813
 30
0.0
 11
10.53345519080752
 21
10.31402871525813
 31
0.0
  0
LINE
  5
2C6
330
1F
100
AcDbEntity
  8
0
  6
Continuous
 62
     7
370
    15
100
AcDbLine
 10
10.13345517180854
 20
10.01402875921655
 30
0.0
 11
10.13345517180854
 21
10.31402871525813
 31
0.0
  0
LINE
  5
2C7
330
1F
100
AcDbEntity
  8
0
  6
Continuous
 62
     7
370
    15
100
AcDbLine
 10
8.983455146290303
 20
14.66402865993757
 30
0.0
 11
8.683455190248729
 21
14.66402865993757
 31
0.0
  0
LINE
  5
2C8
330
1F
100
AcDbEntity
  8
0
  6
Continuous
 62
     7
370
    15
100
AcDbLine
 10
8.983455146290303
 20
14.2140287258752
 30
0.0
 11
8.983455146290303
 21
14.66402865993757
 31
0.0
  0
ARC
  5
2C9
330
1F
100
AcDbEntity
  8
0
  6
Continuous
 62
     7
370
    15
100
AcDbCircle
 10
8.833455164730491
 20
14.21402874077636
 30
0.0
 40
0.1500000000000003
100
AcDbArc
 50
180.0
 51
0.0
  0
LINE
  5
2CA
330
1F
100
AcDbEntity
  8
0
  6
Continuous
 62
     7
370
    15
100
AcDbLine
 10
8.683455190248729
 20
14.66402865993757
 30
0.0
 11
8.683455190248729
 21
14.2140287258752
 31
0.0
  0
LINE
  5
2CB
330
1F
100
AcDbEntity
  8
0
  6
Continuous
 62
     7
370
    15
100
AcDbLine
 10
10.73345508389169
 20
11.96402876452509
 30
0.0
 11
10.73345508389169
 21
12.26402872056667
 31
0.0
  0
LINE
  5
2CC
330
1F
100
AcDbEntity
  8
0
  6
Continuous
 62
     7
370
    15
100
AcDbLine
 10
10.28345514982933
 20
11.96402876452509
 30
0.0
 11
10.73345508389169
 21
11.96402876452509
 31
0.0
  0
ARC
  5
2CD
330
1F
100
AcDbEntity
  8
0
  6
Continuous
 62
     7
370
    15
100
AcDbCircle
 10
10.28345516473048
 20
12.11402874077639
 30
0.0
 40
0.1500000000000003
100
AcDbArc
 50
90.00000000000069
 51
270.0000000000015
  0
LINE
  5
2CE
330
1F
100
AcDbEntity
  8
0
  6
Continuous
 62
     7
370
    15
100
AcDbLine
 10
10.73345508389169
 20
12.26402872056667
 30
0.0
 11
10.28345514982933
 21
12.26402872056667
 31
0.0
  0
ARC
  5
2CF
330
1F
100
AcDbEntity
  8
0
  6
Continuous
 62
     7
370
    15
100
AcDbCircle
 10
7.53345516473049
 20
8.714028740776367
 30
0.0
 40
0.1499999999999995
100
AcDbArc
 50
0.0
 51
180.0
  0
LINE
  5
2D0
330
1F
100
AcDbEntity
  8
0
  6
Continuous
 62
     7
370
    15
100
AcDbLine
 10
7.683455171855108
 20
8.264028821615166
 30
0.0
 11
7.683455171855108
 21
8.714028755677528
 31
0.0
  0
LINE
  5
2D1
330
1F
100
AcDbEntity
  8
0
  6
Continuous
 62
     7
370
    15
100
AcDbLine
 10
7.383455157605872
 20
8.264028821615166
 30
0.0
 11
7.683455171855108
 21
8.264028821615166
 31
0.0
  0
LINE
  5
2D2
330
1F
100
AcDbEntity
  8
0
  6
Continuous
 62
     7
370
    15
100
AcDbLine
 10
7.383455157605872
 20
8.714028755677528
 30
0.0
 11
7.383455157605872
 21
8.264028821615166
 31
0.0
  0
LINE
  5
2D3
330
1F
100
AcDbEntity
  8
0
  6
Continuous
 62
     7
370
    15
100
AcDbLine
 10
4.933455157652439
 20
12.91402872233618
 30
0.0
 11
4.933455157652439
 21
12.6140287662946
 31
0.0
  0
LINE
  5
2D4
330
1F
100
AcDbEntity
  8
0
  6
Continuous
 62
     7
370
    15
100
AcDbLine
 10
4.933455157652439
 20
12.6140287662946
 30
0.0
 11
4.533455138653458
 21
12.6140287662946
 31
0.0
  0
LINE
  5
2D5
330
1F
100
AcDbEntity
  8
0
  6
Continuous
 62
     7
370
    15
100
AcDbLine
 10
4.533455138653458
 20
12.91402872233618
 30
0.0
 11
4.533455138653458
 21
12.6140287662946
 31
0.0
  0
LINE
  5
2D6
330
1F
100
AcDbEntity
  8
0
  6
Continuous
 62
     7
370
    15
100
AcDbLine
 10
4.533455138653458
 20
12.91402872233618
 30
0.0
 11
4.933455157652439
 21
12.91402872233618
 31
0.0
  0
LINE
  5
2D7
330
1F
100
AcDbEntity
  8
0
  6
Continuous
 62
     7
370
    15
100
AcDbLine
 10
6.383455139212252
 20
14.06402874785442
 30
0.0
 11
6.083455183170677
 21
14.06402874785442
 31
0.0
  0
LINE
  5
2D8
330
1F
100
AcDbEntity
  8
0
  6
Continuous
 62
     7
370
    15
100
AcDbLine
 10
6.083455183170677
 20
14.06402874785442
 30
0.0
 11
6.083455183170677
 21
14.4640287668534
 31
0.0
  0
LINE
  5
2D9
330
1F
100
AcDbEntity
  8
0
  6
Continuous
 62
     7
370
    15
100
AcDbLine
 10
6.383455139212252
 20
14.4640287668534
 30
0.0
 11
6.083455183170677
 21
14.4640287668534
 31
0.0
  0
LINE
  5
2DA
330
1F
100
AcDbEntity
  8
0
  6
Continuous
 62
     7
370
    15
100
AcDbLine
 10
6.383455139212252
 20
14.4640287668534
 30
0.0
 11
6.383455139212252
 21
14.06402874785442
 31
0.0
  0
LINE
  5
2DB
330
1F
100
AcDbEntity
  8
0
  6
Continuous
 62
     7
370
    15
100
AcDbLine
 10
5.7334551956504
 20
14.06402874785442
 30
0.0
 11
5.433455239608825
 21
14.06402874785442
 31
0.0
  0
LINE
  5
2DC
330
1F
100
AcDbEntity
  8
0
  6
Continuous
 62
     7
370
    15
100
AcDbLine
 10
5.433455239608825
 20
14.06402874785442
 30
0.0
 11
5.433455239608825
 21
14.4640287668534
 31
0.0
  0
LINE
  5
2DD
330
1F
100
AcDbEntity
  8
0
  6
Continuous
 62
     7
370
    15
100
AcDbLine
 10
5.7334551956504
 20
14.4640287668534
 30
0.0
 11
5.433455239608825
 21
14.4640287668534
 31
0.0
  0
LINE
  5
2DE
330
1F
100
AcDbEntity
  8
0
  6
Continuous
 62
     7
370
    15
100
AcDbLine
 10
5.7334551956504
 20
14.4640287668534
 30
0.0
 11
5.7334551956504
 21
14.06402874785442
 31
0.0
  0
LINE
  5
2DF
330
1F
100
AcDbEntity
  8
0
  6
Continuous
 62
     7
370
    15
100
AcDbLine
 10
4.783455179631651
 20
12.26402872056667
 30
0.0
 11
4.33345524556929
 21
12.26402872056667
 31
0.0
  0
ARC
  5
2E0
330
1F
100
AcDbEntity
  8
0
  6
Continuous
 62
     7
370
    15
100
AcDbCircle
 10
4.783455164730487
 20
12.11402874077635
 30
0.0
 40
0.1500000000000003
100
AcDbArc
 50
270.0000000000011
 51
90.0
  0
LINE
  5
2E1
330
1F
100
AcDbEntity
  8
0
  6
Continuous
 62
     7
370
    15
100
AcDbLine
 10
4.33345524556929
 20
11.96402876452509
 30
0.0
 11
4.783455179631651
 21
11.96402876452509
 31
0.0
  0
LINE
  5
2E2
330
1F
100
AcDbEntity
  8
0
  6
Continuous
 62
     7
370
    15
100
AcDbLine
 10
4.33345524556929
 20
12.26402872056667
 30
0.0
 11
4.33345524556929
 21
11.96402876452509
 31
0.0
  0
LINE
  5
2E3
330
1F
100
AcDbEntity
  8
0
  6
Continuous
 62
     7
370
    15
100
AcDbLine
 10
8.33345514452079
 20
14.4640287668534
 30
0.0
 11
8.33345514452079
 21
14.06402874785442
 31
0.0
  0
LINE
  5
2E4
330
1F
100
AcDbEntity
  8
0
  6
Continuous
 62
     7
370
    15
100
AcDbLine
 10
8.33345514452079
 20
14.4640287668534
 30
0.0
 11
8.033455188479216
 21
14.4640287668534
 31
0.0
  0
LINE
  5
2E5
330
1F
100
AcDbEntity
  8
0
  6
Continuous
 62
     7
370
    15
100
AcDbLine
 10
8.33345514452079
 20
14.06402874785442
 30
0.0
 11
8.033455188479216
 21
14.06402874785442
 31
0.0
  0
LINE
  5
2E6
330
1F
100
AcDbEntity
  8
0
  6
Continuous
 62
     7
370
    15
100
AcDbLine
 10
8.033455188479216
 20
14.06402874785442
 30
0.0
 11
8.033455188479216
 21
14.4640287668534
 31
0.0
  0
LINE
  5
2E7
330
1F
100
AcDbEntity
  8
0
  6
Continuous
 62
     7
370
    15
100
AcDbLine
 10
7.683455171855108
 20
14.4640287668534
 30
0.0
 11
7.383455157605872
 21
14.4640287668534
 31
0.0
  0
LINE
  5
2E8
330
1F
100
AcDbEntity
  8
0
  6
Continuous
 62
     7
370
    15
100
AcDbLine
 10
7.683455171855108
 20
14.4640287668534
 30
0.0
 11
7.683455171855108
 21
14.06402874785442
 31
0.0
  0
LINE
  5
2E9
330
1F
100
AcDbEntity
  8
0
  6
Continuous
 62
     7
370
    15
100
AcDbLine
 10
7.683455171855108
 20
14.06402874785442
 30
0.0
 11
7.383455157605872
 21
14.06402874785442
 31
0.0
  0
LINE
  5
2EA
330
1F
100
AcDbEntity
  8
0
  6
Continuous
 62
     7
370
    15
100
AcDbLine
 10
7.383455157605872
 20
14.06402874785442
 30
0.0
 11
7.383455157605872
 21
14.4640287668534
 31
0.0
  0
LINE
  5
2EB
330
1F
100
AcDbEntity
  8
0
  6
Continuous
 62
     7
370
    15
100
AcDbLine
 10
7.033455140981764
 20
14.4640287668534
 30
0.0
 11
7.033455140981764
 21
14.06402874785442
 31
0.0
  0
LINE
  5
2EC
330
1F
100
AcDbEntity
  8
0
  6
Continuous
 62
     7
370
    15
100
AcDbLine
 10
7.033455140981764
 20
14.06402874785442
 30
0.0
 11
6.73345518494019
 21
14.06402874785442
 31
0.0
  0
LINE
  5
2ED
330
1F
100
AcDbEntity
  8
0
  6
Continuous
 62
     7
370
    15
100
AcDbLine
 10
6.73345518494019
 20
14.06402874785442
 30
0.0
 11
6.73345518494019
 21
14.4640287668534
 31
0.0
  0
LINE
  5
2EE
330
1F
100
AcDbEntity
  8
0
  6
Continuous
 62
     7
370
    15
100
AcDbLine
 10
7.033455140981764
 20
14.4640287668534
 30
0.0
 11
6.73345518494019
 21
14.4640287668534
 31
0.0
  0
LINE
  5
2EF
330
1F
100
AcDbEntity
  8
0
  6
Continuous
 62
     7
370
    15
100
AcDbLine
 10
10.73345508389169
 20
10.66402876098607
 30
0.0
 11
10.73345508389169
 21
10.96402871702764
 31
0.0
  0
LINE
  5
2F0
330
1F
100
AcDbEntity
  8
0
  6
Continuous
 62
     7
370
    15
100
AcDbLine
 10
10.28345514982933
 20
10.66402876098607
 30
0.0
 11
10.73345508389169
 21
10.66402876098607
 31
0.0
  0
ARC
  5
2F1
330
1F
100
AcDbEntity
  8
0
  6
Continuous
 62
     7
370
    15
100
AcDbCircle
 10
10.28345516473049
 20
10.81402874077639
 30
0.0
 40
0.1500000000000003
100
AcDbArc
 50
90.00000000000069
 51
270.0000000000015
  0
LINE
  5
2F2
330
1F
100
AcDbEntity
  8
0
  6
Continuous
 62
     7
370
    15
100
AcDbLine
 10
10.73345508389169
 20
10.96402871702764
 30
0.0
 11
10.28345514982933
 21
10.96402871702764
 31
0.0
  0
LINE
  5
2F3
330
1F
100
AcDbEntity
  8
0
  6
Continuous
 62
     7
370
    15
100
AcDbLine
 10
6.383455139212252
 20
8.264028821615166
 30
0.0
 11
6.383455139212252
 21
8.714028755677528
 31
0.0
  0
LINE
  5
2F4
330
1F
100
AcDbEntity
  8
0
  6
Continuous
 62
     7
370
    15
100
AcDbLine
 10
6.083455183170677
 20
8.714028755677528
 30
0.0
 11
6.083455183170677
 21
8.264028821615166
 31
0.0
  0
ARC
  5
2F5
330
1F
100
AcDbEntity
  8
0
  6
Continuous
 62
     7
370
    15
100
AcDbCircle
 10
6.23345516473049
 20
8.714028740776367
 30
0.0
 40
0.1500000000000003
100
AcDbArc
 50
0.0
 51
180.0
  0
LINE
  5
2F6
330
1F
100
AcDbEntity
  8
0
  6
Continuous
 62
     7
370
    15
100
AcDbLine
 10
6.083455183170677
 20
8.264028821615166
 30
0.0
 11
6.383455139212252
 21
8.264028821615166
 31
0.0
  0
LINE
  5
2F7
330
1F
100
AcDbEntity
  8
0
  6
Continuous
 62
     7
370
    15
100
AcDbLine
 10
9.633455089852155
 20
14.4640287668534
 30
0.0
 11
9.633455089852155
 21
14.06402874785442
 31
0.0
  0
LINE
  5
2F8
330
1F
100
AcDbEntity
  8
0
  6
Continuous
 62
     7
370
    15
100
AcDbLine
 10
9.633455089852155
 20
14.4640287668534
 30
0.0
 11
9.333455133810581
 21
14.4640287668534
 31
0.0
  0
LINE
  5
2F9
330
1F
100
AcDbEntity
  8
0
  6
Continuous
 62
     7
370
    15
100
AcDbLine
 10
9.333455133810581
 20
14.06402874785442
 30
0.0
 11
9.333455133810581
 21
14.4640287668534
 31
0.0
  0
LINE
  5
2FA
330
1F
100
AcDbEntity
  8
0
  6
Continuous
 62
     7
370
    15
100
AcDbLine
 10
9.633455089852155
 20
14.06402874785442
 30
0.0
 11
9.333455133810581
 21
14.06402874785442
 31
0.0
  0
LINE
  5
2FB
330
1F
100
AcDbEntity
  8
0
  6
Continuous
 62
     7
370
    15
100
AcDbLine
 10
8.983455146290303
 20
14.06402874785442
 30
0.0
 11
8.683455190248729
 21
14.06402874785442
 31
0.0
  0
LINE
  5
2FC
330
1F
100
AcDbEntity
  8
0
  6
Continuous
 62
     7
370
    15
100
AcDbLine
 10
8.983455146290303
 20
14.4640287668534
 30
0.0
 11
8.683455190248729
 21
14.4640287668534
 31
0.0
  0
LINE
  5
2FD
330
1F
100
AcDbEntity
  8
0
  6
Continuous
 62
     7
370
    15
100
AcDbLine
 10
8.983455146290303
 20
14.4640287668534
 30
0.0
 11
8.983455146290303
 21
14.06402874785442
 31
0.0
  0
LINE
  5
2FE
330
1F
100
AcDbEntity
  8
0
  6
Continuous
 62
     7
370
    15
100
AcDbLine
 10
8.683455190248729
 20
14.06402874785442
 30
0.0
 11
8.683455190248729
 21
14.4640287668534
 31
0.0
  0
LINE
  5
2FF
330
1F
100
AcDbEntity
  8
0
  6
Continuous
 62
     7
370
    15
100
AcDbLine
 10
4.783455179631651
 20
13.56402866589803
 30
0.0
 11
4.33345524556929
 21
13.56402866589803
 31
0.0
  0
ARC
  5
300
330
1F
100
AcDbEntity
  8
0
  6
Continuous
 62
     7
370
    15
100
AcDbCircle
 10
4.783455164730483
 20
13.41402874077636
 30
0.0
 40
0.1500000000000003
100
AcDbArc
 50
270.0000000000015
 51
90.0
  0
LINE
  5
301
330
1F
100
AcDbEntity
  8
0
  6
Continuous
 62
     7
370
    15
100
AcDbLine
 10
4.33345524556929
 20
13.26402870985646
 30
0.0
 11
4.783455179631651
 21
13.26402870985646
 31
0.0
  0
LINE
  5
302
330
1F
100
AcDbEntity
  8
0
  6
Continuous
 62
     7
370
    15
100
AcDbLine
 10
4.33345524556929
 20
13.56402866589803
 30
0.0
 11
4.33345524556929
 21
13.26402870985646
 31
0.0
  0
LINE
  5
303
330
1F
100
AcDbEntity
  8
0
  6
Continuous
 62
     7
370
    15
100
AcDbLine
 10
10.73345508389169
 20
9.364028815654702
 30
0.0
 11
10.73345508389169
 21
9.664028771696276
 31
0.0
  0
LINE
  5
304
330
1F
100
AcDbEntity
  8
0
  6
Continuous
 62
     7
370
    15
100
AcDbLine
 10
10.28345514982933
 20
9.364028815654702
 30
0.0
 11
10.73345508389169
 21
9.364028815654702
 31
0.0
  0
ARC
  5
305
330
1F
100
AcDbEntity
  8
0
  6
Continuous
 62
     7
370
    15
100
AcDbCircle
 10
10.28345516473051
 20
9.514028740776394
 30
0.0
 40
0.1500000000000003
100
AcDbArc
 50
90.00000000000069
 51
270.0000000000008
  0
LINE
  5
306
330
1F
100
AcDbEntity
  8
0
  6
Continuous
 62
     7
370
    15
100
AcDbLine
 10
10.73345508389169
 20
9.664028771696276
 30
0.0
 11
10.28345514982933
 21
9.664028771696276
 31
0.0
  0
LINE
  5
307
330
1F
100
AcDbEntity
  8
0
  6
Continuous
 62
     7
370
    15
100
AcDbLine
 10
4.933455157652439
 20
10.31402871525813
 30
0.0
 11
4.933455157652439
 21
10.01402875921655
 31
0.0
  0
LINE
  5
308
330
1F
100
AcDbEntity
  8
0
  6
Continuous
 62
     7
370
    15
100
AcDbLine
 10
4.933455157652439
 20
10.01402875921655
 30
0.0
 11
4.533455138653458
 21
10.01402875921655
 31
0.0
  0
LINE
  5
309
330
1F
100
AcDbEntity
  8
0
  6
Continuous
 62
     7
370
    15
100
AcDbLine
 10
4.533455138653458
 20
10.31402871525813
 30
0.0
 11
4.533455138653458
 21
10.01402875921655
 31
0.0
  0
LINE
  5
30A
330
1F
100
AcDbEntity
  8
0
  6
Continuous
 62
     7
370
    15
100
AcDbLine
 10
4.533455138653458
 20
10.31402871525813
 30
0.0
 11
4.933455157652439
 21
10.31402871525813
 31
0.0
  0
LINE
  5
30B
330
1F
100
AcDbEntity
  8
0
  6
Continuous
 62
     7
370
    15
100
AcDbLine
 10
4.933455157652439
 20
9.664028771696276
 30
0.0
 11
4.933455157652439
 21
9.364028815654702
 31
0.0
  0
LINE
  5
30C
330
1F
100
AcDbEntity
  8
0
  6
Continuous
 62
     7
370
    15
100
AcDbLine
 10
4.933455157652439
 20
9.364028815654702
 30
0.0
 11
4.533455138653458
 21
9.364028815654702
 31
0.0
  0
LINE
  5
30D
330
1F
100
AcDbEntity
  8
0
  6
Continuous
 62
     7
370
    15
100
AcDbLine
 10
4.533455138653458
 20
9.664028771696276
 30
0.0
 11
4.533455138653458
 21
9.364028815654702
 31
0.0
  0
LINE
  5
30E
330
1F
100
AcDbEntity
  8
0
  6
Continuous
 62
     7
370
    15
100
AcDbLine
 10
4.533455138653458
 20
9.664028771696276
 30
0.0
 11
4.933455157652439
 21
9.664028771696276
 31
0.0
  0
LINE
  5
30F
330
1F
100
AcDbEntity
  8
0
  6
Continuous
 62
     7
370
    15
100
AcDbLine
 10
9.123455164581478
 20
9.401028631729669
 30
0.0
 11
9.123455164581478
 21
9.221028658104724
 31
0.0
  0
LINE
  5
310
330
1F
100
AcDbEntity
  8
0
  6
Continuous
 62
     7
370
    15
100
AcDbLine
 10
8.943455190956534
 20
9.401028631729669
 30
0.0
 11
9.123455164581478
 21
9.401028631729669
 31
0.0
  0
LINE
  5
311
330
1F
100
AcDbEntity
  8
0
  6
Continuous
 62
     7
370
    15
100
AcDbLine
 10
8.943455190956534
 20
9.221028658104724
 30
0.0
 11
8.943455190956534
 21
9.401028631729669
 31
0.0
  0
LINE
  5
312
330
1F
100
AcDbEntity
  8
0
  6
Continuous
 62
     7
370
    15
100
AcDbLine
 10
8.37345515806222
 20
9.221028658104724
 30
0.0
 11
8.943455190956534
 21
9.221028658104724
 31
0.0
  0
LINE
  5
313
330
1F
100
AcDbEntity
  8
0
  6
Continuous
 62
     7
370
    15
100
AcDbLine
 10
8.37345515806222
 20
9.401028631729669
 30
0.0
 11
8.37345515806222
 21
9.221028658104724
 31
0.0
  0
LINE
  5
314
330
1F
100
AcDbEntity
  8
0
  6
Continuous
 62
     7
370
    15
100
AcDbLine
 10
8.193455184437276
 20
9.401028631729669
 30
0.0
 11
8.37345515806222
 21
9.401028631729669
 31
0.0
  0
LINE
  5
315
330
1F
100
AcDbEntity
  8
0
  6
Continuous
 62
     7
370
    15
100
AcDbLine
 10
8.193455184437276
 20
9.221028658104724
 30
0.0
 11
8.193455184437276
 21
9.401028631729669
 31
0.0
  0
LINE
  5
316
330
1F
100
AcDbEntity
  8
0
  6
Continuous
 62
     7
370
    15
100
AcDbLine
 10
7.623455166094878
 20
9.221028658104724
 30
0.0
 11
8.193455184437276
 21
9.221028658104724
 31
0.0
  0
LINE
  5
317
330
1F
100
AcDbEntity
  8
0
  6
Continuous
 62
     7
370
    15
100
AcDbLine
 10
7.623455166094878
 20
9.401028631729669
 30
0.0
 11
7.623455166094878
 21
9.221028658104724
 31
0.0
  0
LINE
  5
318
330
1F
100
AcDbEntity
  8
0
  6
Continuous
 62
     7
370
    15
100
AcDbLine
 10
7.443455163366103
 20
9.401028631729669
 30
0.0
 11
7.623455166094878
 21
9.401028631729669
 31
0.0
  0
LINE
  5
319
330
1F
100
AcDbEntity
  8
0
  6
Continuous
 62
     7
370
    15
100
AcDbLine
 10
7.443455163366103
 20
9.221028658104724
 30
0.0
 11
7.443455163366103
 21
9.401028631729669
 31
0.0
  0
LINE
  5
31A
330
1F
100
AcDbEntity
  8
0
  6
Continuous
 62
     7
370
    15
100
AcDbLine
 10
6.873455145023704
 20
9.221028658104724
 30
0.0
 11
7.443455163366103
 21
9.221028658104724
 31
0.0
  0
LINE
  5
31B
330
1F
100
AcDbEntity
  8
0
  6
Continuous
 62
     7
370
    15
100
AcDbLine
 10
6.873455145023704
 20
9.401028631729669
 30
0.0
 11
6.873455145023704
 21
9.221028658104724
 31
0.0
  0
LINE
  5
31C
330
1F
100
AcDbEntity
  8
0
  6
Continuous
 62
     7
370
    15
100
AcDbLine
 10
6.69345517139876
 20
9.401028631729669
 30
0.0
 11
6.873455145023704
 21
9.401028631729669
 31
0.0
  0
LINE
  5
31D
330
1F
100
AcDbEntity
  8
0
  6
Continuous
 62
     7
370
    15
100
AcDbLine
 10
6.69345517139876
 20
9.221028658104724
 30
0.0
 11
6.69345517139876
 21
9.401028631729669
 31
0.0
  0
LINE
  5
31E
330
1F
100
AcDbEntity
  8
0
  6
Continuous
 62
     7
370
    15
100
AcDbLine
 10
6.123455138504446
 20
9.221028658104724
 30
0.0
 11
6.69345517139876
 21
9.221028658104724
 31
0.0
  0
LINE
  5
31F
330
1F
100
AcDbEntity
  8
0
  6
Continuous
 62
     7
370
    15
100
AcDbLine
 10
6.123455138504446
 20
9.401028631729669
 30
0.0
 11
6.123455138504446
 21
9.221028658104724
 31
0.0
  0
LINE
  5
320
330
1F
100
AcDbEntity
  8
0
  6
Continuous
 62
     7
370
    15
100
AcDbLine
 10
5.943455164879502
 20
9.401028631729669
 30
0.0
 11
6.123455138504446
 21
9.401028631729669
 31
0.0
  0
LINE
  5
321
330
1F
100
AcDbEntity
  8
0
  6
Continuous
 62
     7
370
    15
100
AcDbLine
 10
5.943455164879502
 20
9.221028658104724
 30
0.0
 11
5.943455164879502
 21
9.401028631729669
 31
0.0
  0
LINE
  5
322
330
1F
100
AcDbEntity
  8
0
  6
Continuous
 62
     7
370
    15
100
AcDbLine
 10
5.290455082058848
 20
9.874028740925378
 30
0.0
 11
5.290455082058848
 21
9.221028658104724
 31
0.0
  0
LINE
  5
323
330
1F
100
AcDbEntity
  8
0
  6
Continuous
 62
     7
370
    15
100
AcDbLine
 10
5.470455055683792
 20
9.874028740925378
 30
0.0
 11
5.290455082058848
 21
9.874028740925378
 31
0.0
  0
LINE
  5
324
330
1F
100
AcDbEntity
  8
0
  6
Continuous
 62
     7
370
    15
100
AcDbLine
 10
5.470455055683792
 20
10.05402871455032
 30
0.0
 11
5.470455055683792
 21
9.874028740925378
 31
0.0
  0
LINE
  5
325
330
1F
100
AcDbEntity
  8
0
  6
Continuous
 62
     7
370
    15
100
AcDbLine
 10
5.290455082058848
 20
10.05402871455032
 30
0.0
 11
5.470455055683792
 21
10.05402871455032
 31
0.0
  0
LINE
  5
326
330
1F
100
AcDbEntity
  8
0
  6
Continuous
 62
     7
370
    15
100
AcDbLine
 10
5.290455082058848
 20
10.62402874744464
 30
0.0
 11
5.290455082058848
 21
10.05402871455032
 31
0.0
  0
LINE
  5
327
330
1F
100
AcDbEntity
  8
0
  6
Continuous
 62
     7
370
    15
100
AcDbLine
 10
5.470455055683792
 20
10.62402874744464
 30
0.0
 11
5.290455082058848
 21
10.62402874744464
 31
0.0
  0
LINE
  5
328
330
1F
100
AcDbEntity
  8
0
  6
Continuous
 62
     7
370
    15
100
AcDbLine
 10
5.470455055683792
 20
10.80402872106958
 30
0.0
 11
5.470455055683792
 21
10.62402874744464
 31
0.0
  0
LINE
  5
329
330
1F
100
AcDbEntity
  8
0
  6
Continuous
 62
     7
370
    15
100
AcDbLine
 10
5.290455082058848
 20
11.37402873941198
 30
0.0
 11
5.290455082058848
 21
10.80402872106958
 31
0.0
  0
LINE
  5
32A
330
1F
100
AcDbEntity
  8
0
  6
Continuous
 62
     7
370
    15
100
AcDbLine
 10
5.470455055683792
 20
11.37402873941198
 30
0.0
 11
5.290455082058848
 21
11.37402873941198
 31
0.0
  0
LINE
  5
32B
330
1F
100
AcDbEntity
  8
0
  6
Continuous
 62
     7
370
    15
100
AcDbLine
 10
5.470455055683792
 20
11.55402874214075
 30
0.0
 11
5.470455055683792
 21
11.37402873941198
 31
0.0
  0
LINE
  5
32C
330
1F
100
AcDbEntity
  8
0
  6
Continuous
 62
     7
370
    15
100
AcDbLine
 10
5.290455082058848
 20
11.55402874214075
 30
0.0
 11
5.470455055683792
 21
11.55402874214075
 31
0.0
  0
LINE
  5
32D
330
1F
100
AcDbEntity
  8
0
  6
Continuous
 62
     7
370
    15
100
AcDbLine
 10
5.290455082058848
 20
12.12402876048315
 30
0.0
 11
5.290455082058848
 21
11.55402874214075
 31
0.0
  0
LINE
  5
32E
330
1F
100
AcDbEntity
  8
0
  6
Continuous
 62
     7
370
    15
100
AcDbLine
 10
5.470455055683792
 20
12.12402876048315
 30
0.0
 11
5.290455082058848
 21
12.12402876048315
 31
0.0
  0
LINE
  5
32F
330
1F
100
AcDbEntity
  8
0
  6
Continuous
 62
     7
370
    15
100
AcDbLine
 10
5.470455055683792
 20
12.3040287341081
 30
0.0
 11
5.470455055683792
 21
12.12402876048315
 31
0.0
  0
LINE
  5
330
330
1F
100
AcDbEntity
  8
0
  6
Continuous
 62
     7
370
    15
100
AcDbLine
 10
5.290455082058848
 20
12.3040287341081
 30
0.0
 11
5.470455055683792
 21
12.3040287341081
 31
0.0
  0
LINE
  5
331
330
1F
100
AcDbEntity
  8
0
  6
Continuous
 62
     7
370
    15
100
AcDbLine
 10
5.290455082058848
 20
12.80702872249264
 30
0.0
 11
5.290455082058848
 21
12.3040287341081
 31
0.0
  0
LINE
  5
332
330
1F
100
AcDbEntity
  8
0
  6
Continuous
 62
     7
370
    15
100
AcDbLine
 10
6.190455183014215
 20
13.70702882344801
 30
0.0
 11
5.290455082058848
 21
12.80702872249264
 31
0.0
  0
LINE
  5
333
330
1F
100
AcDbEntity
  8
0
  6
Continuous
 62
     7
370
    15
100
AcDbLine
 10
6.69345517139876
 20
13.70702882344801
 30
0.0
 11
6.190455183014215
 21
13.70702882344801
 31
0.0
  0
LINE
  5
334
330
1F
100
AcDbEntity
  8
0
  6
Continuous
 62
     7
370
    15
100
AcDbLine
 10
6.69345517139876
 20
13.52702884982306
 30
0.0
 11
6.69345517139876
 21
13.70702882344801
 31
0.0
  0
LINE
  5
335
330
1F
100
AcDbEntity
  8
0
  6
Continuous
 62
     7
370
    15
100
AcDbLine
 10
6.873455145023704
 20
13.52702884982306
 30
0.0
 11
6.69345517139876
 21
13.52702884982306
 31
0.0
  0
LINE
  5
336
330
1F
100
AcDbEntity
  8
0
  6
Continuous
 62
     7
370
    15
100
AcDbLine
 10
6.873455145023704
 20
13.70702882344801
 30
0.0
 11
6.873455145023704
 21
13.52702884982306
 31
0.0
  0
LINE
  5
337
330
1F
100
AcDbEntity
  8
0
  6
Continuous
 62
     7
370
    15
100
AcDbLine
 10
7.443455163366103
 20
13.70702882344801
 30
0.0
 11
6.873455145023704
 21
13.70702882344801
 31
0.0
  0
LINE
  5
338
330
1F
100
AcDbEntity
  8
0
  6
Continuous
 62
     7
370
    15
100
AcDbLine
 10
7.443455163366103
 20
13.52702884982306
 30
0.0
 11
7.443455163366103
 21
13.70702882344801
 31
0.0
  0
LINE
  5
339
330
1F
100
AcDbEntity
  8
0
  6
Continuous
 62
     7
370
    15
100
AcDbLine
 10
7.623455166094878
 20
13.52702884982306
 30
0.0
 11
7.443455163366103
 21
13.52702884982306
 31
0.0
  0
LINE
  5
33A
330
1F
100
AcDbEntity
  8
0
  6
Continuous
 62
     7
370
    15
100
AcDbLine
 10
7.623455166094878
 20
13.70702882344801
 30
0.0
 11
7.623455166094878
 21
13.52702884982306
 31
0.0
  0
LINE
  5
33B
330
1F
100
AcDbEntity
  8
0
  6
Continuous
 62
     7
370
    15
100
AcDbLine
 10
8.193455184437276
 20
13.70702882344801
 30
0.0
 11
7.623455166094878
 21
13.70702882344801
 31
0.0
  0
LINE
  5
33C
330
1F
100
AcDbEntity
  8
0
  6
Continuous
 62
     7
370
    15
100
AcDbLine
 10
8.193455184437276
 20
13.52702884982306
 30
0.0
 11
8.193455184437276
 21
13.70702882344801
 31
0.0
  0
LINE
  5
33D
330
1F
100
AcDbEntity
  8
0
  6
Continuous
 62
     7
370
    15
100
AcDbLine
 10
8.37345515806222
 20
13.52702884982306
 30
0.0
 11
8.193455184437276
 21
13.52702884982306
 31
0.0
  0
LINE
  5
33E
330
1F
100
AcDbEntity
  8
0
  6
Continuous
 62
     7
370
    15
100
AcDbLine
 10
8.37345515806222
 20
13.70702882344801
 30
0.0
 11
8.37345515806222
 21
13.52702884982306
 31
0.0
  0
LINE
  5
33F
330
1F
100
AcDbEntity
  8
0
  6
Continuous
 62
     7
370
    15
100
AcDbLine
 10
8.943455190956534
 20
13.70702882344801
 30
0.0
 11
8.37345515806222
 21
13.70702882344801
 31
0.0
  0
LINE
  5
340
330
1F
100
AcDbEntity
  8
0
  6
Continuous
 62
     7
370
    15
100
AcDbLine
 10
8.943455190956534
 20
13.52702884982306
 30
0.0
 11
8.943455190956534
 21
13.70702882344801
 31
0.0
  0
LINE
  5
341
330
1F
100
AcDbEntity
  8
0
  6
Continuous
 62
     7
370
    15
100
AcDbLine
 10
9.123455164581478
 20
13.52702884982306
 30
0.0
 11
8.943455190956534
 21
13.52702884982306
 31
0.0
  0
LINE
  5
342
330
1F
100
AcDbEntity
  8
0
  6
Continuous
 62
     7
370
    15
100
AcDbLine
 10
9.123455164581478
 20
13.70702882344801
 30
0.0
 11
9.123455164581478
 21
13.52702884982306
 31
0.0
  0
LINE
  5
343
330
1F
100
AcDbEntity
  8
0
  6
Continuous
 62
     7
370
    15
100
AcDbLine
 10
9.776455247402132
 20
13.70702882344801
 30
0.0
 11
9.123455164581478
 21
13.70702882344801
 31
0.0
  0
LINE
  5
344
330
1F
100
AcDbEntity
  8
0
  6
Continuous
 62
     7
370
    15
100
AcDbLine
 10
9.776455247402132
 20
13.05402874062735
 30
0.0
 11
9.776455247402132
 21
13.70702882344801
 31
0.0
  0
LINE
  5
345
330
1F
100
AcDbEntity
  8
0
  6
Continuous
 62
     7
370
    15
100
AcDbLine
 10
9.596455273777188
 20
13.05402874062735
 30
0.0
 11
9.776455247402132
 21
13.05402874062735
 31
0.0
  0
LINE
  5
346
330
1F
100
AcDbEntity
  8
0
  6
Continuous
 62
     7
370
    15
100
AcDbLine
 10
9.596455273777188
 20
12.87402876700241
 30
0.0
 11
9.596455273777188
 21
13.05402874062735
 31
0.0
  0
LINE
  5
347
330
1F
100
AcDbEntity
  8
0
  6
Continuous
 62
     7
370
    15
100
AcDbLine
 10
9.776455247402132
 20
12.87402876700241
 30
0.0
 11
9.596455273777188
 21
12.87402876700241
 31
0.0
  0
LINE
  5
348
330
1F
100
AcDbEntity
  8
0
  6
Continuous
 62
     7
370
    15
100
AcDbLine
 10
9.776455247402132
 20
12.3040287341081
 30
0.0
 11
9.776455247402132
 21
12.87402876700241
 31
0.0
  0
LINE
  5
349
330
1F
100
AcDbEntity
  8
0
  6
Continuous
 62
     7
370
    15
100
AcDbLine
 10
9.596455273777188
 20
12.3040287341081
 30
0.0
 11
9.776455247402132
 21
12.3040287341081
 31
0.0
  0
LINE
  5
34A
330
1F
100
AcDbEntity
  8
0
  6
Continuous
 62
     7
370
    15
100
AcDbLine
 10
9.596455273777188
 20
12.12402876048315
 30
0.0
 11
9.596455273777188
 21
12.3040287341081
 31
0.0
  0
LINE
  5
34B
330
1F
100
AcDbEntity
  8
0
  6
Continuous
 62
     7
370
    15
100
AcDbLine
 10
9.776455247402132
 20
12.12402876048315
 30
0.0
 11
9.596455273777188
 21
12.12402876048315
 31
0.0
  0
LINE
  5
34C
330
1F
100
AcDbEntity
  8
0
  6
Continuous
 62
     7
370
    15
100
AcDbLine
 10
9.776455247402132
 20
11.55402874214075
 30
0.0
 11
9.776455247402132
 21
12.12402876048315
 31
0.0
  0
LINE
  5
34D
330
1F
100
AcDbEntity
  8
0
  6
Continuous
 62
     7
370
    15
100
AcDbLine
 10
9.596455273777188
 20
11.55402874214075
 30
0.0
 11
9.776455247402132
 21
11.55402874214075
 31
0.0
  0
LINE
  5
34E
330
1F
100
AcDbEntity
  8
0
  6
Continuous
 62
     7
370
    15
100
AcDbLine
 10
9.596455273777188
 20
11.37402873941198
 30
0.0
 11
9.596455273777188
 21
11.55402874214075
 31
0.0
  0
LINE
  5
34F
330
1F
100
AcDbEntity
  8
0
  6
Continuous
 62
     7
370
    15
100
AcDbLine
 10
9.776455247402132
 20
11.37402873941198
 30
0.0
 11
9.596455273777188
 21
11.37402873941198
 31
0.0
  0
LINE
  5
350
330
1F
100
AcDbEntity
  8
0
  6
Continuous
 62
     7
370
    15
100
AcDbLine
 10
9.776455247402132
 20
10.80402872106958
 30
0.0
 11
9.776455247402132
 21
11.37402873941198
 31
0.0
  0
LINE
  5
351
330
1F
100
AcDbEntity
  8
0
  6
Continuous
 62
     7
370
    15
100
AcDbLine
 10
9.596455273777188
 20
10.80402872106958
 30
0.0
 11
9.776455247402132
 21
10.80402872106958
 31
0.0
  0
LINE
  5
352
330
1F
100
AcDbEntity
  8
0
  6
Continuous
 62
     7
370
    15
100
AcDbLine
 10
9.596455273777188
 20
10.62402874744464
 30
0.0
 11
9.596455273777188
 21
10.80402872106958
 31
0.0
  0
LINE
  5
353
330
1F
100
AcDbEntity
  8
0
  6
Continuous
 62
     7
370
    15
100
AcDbLine
 10
9.776455247402132
 20
10.62402874744464
 30
0.0
 11
9.596455273777188
 21
10.62402874744464
 31
0.0
  0
LINE
  5
354
330
1F
100
AcDbEntity
  8
0
  6
Continuous
 62
     7
370
    15
100
AcDbLine
 10
9.776455247402132
 20
10.05402871455032
 30
0.0
 11
9.776455247402132
 21
10.62402874744464
 31
0.0
  0
LINE
  5
355
330
1F
100
AcDbEntity
  8
0
  6
Continuous
 62
     7
370
    15
100
AcDbLine
 10
9.596455273777188
 20
10.05402871455032
 30
0.0
 11
9.776455247402132
 21
10.05402871455032
 31
0.0
  0
LINE
  5
356
330
1F
100
AcDbEntity
  8
0
  6
Continuous
 62
     7
370
    15
100
AcDbLine
 10
9.596455273777188
 20
9.874028740925378
 30
0.0
 11
9.596455273777188
 21
10.05402871455032
 31
0.0
  0
LINE
  5
357
330
1F
100
AcDbEntity
  8
0
  6
Continuous
 62
     7
370
    15
100
AcDbLine
 10
9.776455247402132
 20
9.874028740925378
 30
0.0
 11
9.596455273777188
 21
9.874028740925378
 31
0.0
  0
LINE
  5
358
330
1F
100
AcDbEntity
  8
0
  6
Continuous
 62
     7
370
    15
100
AcDbLine
 10
9.776455247402132
 20
9.221028658104724
 30
0.0
 11
9.776455247402132
 21
9.874028740925378
 31
0.0
  0
LINE
  5
359
330
1F
100
AcDbEntity
  8
0
  6
Continuous
 62
     7
370
    15
100
AcDbLine
 10
9.123455164581478
 20
9.221028658104724
 30
0.0
 11
9.776455247402132
 21
9.221028658104724
 31
0.0
  0
LINE
  5
35A
330
1F
100
AcDbEntity
  8
0
  6
Continuous
 62
     7
370
    15
100
AcDbLine
 10
5.290455082058848
 20
10.80402872106958
 30
0.0
 11
5.470455055683792
 21
10.80402872106958
 31
0.0
  0
LINE
  5
35B
330
1F
100
AcDbEntity
  8
0
  6
Continuous
 62
     7
370
    15
100
AcDbLine
 10
5.290455082058848
 20
9.221028658104724
 30
0.0
 11
5.943455164879502
 21
9.221028658104724
 31
0.0
  0
LINE
  5
35C
330
1F
100
AcDbEntity
  8
0
  6
Continuous
 62
     7
370
    15
100
AcDbLine
 10
4.933455157652439
 20
11.61402874790098
 30
0.0
 11
4.933455157652439
 21
11.31402873365175
 31
0.0
  0
LINE
  5
35D
330
1F
100
AcDbEntity
  8
0
  6
Continuous
 62
     7
370
    15
100
AcDbLine
 10
4.933455157652439
 20
11.31402873365175
 30
0.0
 11
4.533455138653458
 21
11.31402873365175
 31
0.0
  0
LINE
  5
35E
330
1F
100
AcDbEntity
  8
0
  6
Continuous
 62
     7
370
    15
100
AcDbLine
 10
4.533455138653458
 20
11.61402874790098
 30
0.0
 11
4.533455138653458
 21
11.31402873365175
 31
0.0
  0
LINE
  5
35F
330
1F
100
AcDbEntity
  8
0
  6
Continuous
 62
     7
370
    15
100
AcDbLine
 10
4.533455138653458
 20
11.61402874790098
 30
0.0
 11
4.933455157652439
 21
11.61402874790098
 31
0.0
  0
LINE
  5
360
330
1F
100
AcDbEntity
  8
0
  6
Continuous
 62
     7
370
    15
100
AcDbLine
 10
4.933455157652439
 20
10.96402871702764
 30
0.0
 11
4.933455157652439
 21
10.66402876098607
 31
0.0
  0
LINE
  5
361
330
1F
100
AcDbEntity
  8
0
  6
Continuous
 62
     7
370
    15
100
AcDbLine
 10
4.933455157652439
 20
10.66402876098607
 30
0.0
 11
4.533455138653458
 21
10.66402876098607
 31
0.0
  0
LINE
  5
362
330
1F
100
AcDbEntity
  8
0
  6
Continuous
 62
     7
370
    15
100
AcDbLine
 10
4.533455138653458
 20
10.96402871702764
 30
0.0
 11
4.933455157652439
 21
10.96402871702764
 31
0.0
  0
LINE
  5
363
330
1F
100
AcDbEntity
  8
0
  6
Continuous
 62
     7
370
    15
100
AcDbLine
 10
4.533455138653458
 20
10.96402871702764
 30
0.0
 11
4.533455138653458
 21
10.66402876098607
 31
0.0
  0
LINE
  5
364
330
1F
100
AcDbEntity
  8
0
  6
Continuous
 62
     7
370
    15
100
AcDbLine
 10
9.633455089852155
 20
8.264028821615166
 30
0.0
 11
9.633455089852155
 21
8.714028755677528
 31
0.0
  0
LINE
  5
365
330
1F
100
AcDbEntity
  8
0
  6
Continuous
 62
     7
370
    15
100
AcDbLine
 10
9.333455133810581
 20
8.714028755677528
 30
0.0
 11
9.333455133810581
 21
8.264028821615166
 31
0.0
  0
ARC
  5
366
330
1F
100
AcDbEntity
  8
0
  6
Continuous
 62
     7
370
    15
100
AcDbCircle
 10
9.483455164730489
 20
8.714028740776367
 30
0.0
 40
0.1500000000000003
100
AcDbArc
 50
0.0
 51
180.0
  0
LINE
  5
367
330
1F
100
AcDbEntity
  8
0
  6
Continuous
 62
     7
370
    15
100
AcDbLine
 10
9.333455133810581
 20
8.264028821615166
 30
0.0
 11
9.633455089852155
 21
8.264028821615166
 31
0.0
  0
LINE
  5
368
330
1F
100
AcDbEntity
  8
0
  6
Continuous
 62
     7
370
    15
100
AcDbLine
 10
4.933455157652439
 20
12.26402872056667
 30
0.0
 11
4.933455157652439
 21
11.96402876452509
 31
0.0
  0
LINE
  5
369
330
1F
100
AcDbEntity
  8
0
  6
Continuous
 62
     7
370
    15
100
AcDbLine
 10
4.533455138653458
 20
12.26402872056667
 30
0.0
 11
4.933455157652439
 21
12.26402872056667
 31
0.0
  0
LINE
  5
36A
330
1F
100
AcDbEntity
  8
0
  6
Continuous
 62
     7
370
    15
100
AcDbLine
 10
4.933455157652439
 20
11.96402876452509
 30
0.0
 11
4.533455138653458
 21
11.96402876452509
 31
0.0
  0
LINE
  5
36B
330
1F
100
AcDbEntity
  8
0
  6
Continuous
 62
     7
370
    15
100
AcDbLine
 10
4.533455138653458
 20
12.26402872056667
 30
0.0
 11
4.533455138653458
 21
11.96402876452509
 31
0.0
  0
LINE
  5
36C
330
1F
100
AcDbEntity
  8
0
  6
Continuous
 62
     7
370
    15
100
AcDbLine
 10
7.033455140981764
 20
14.2140287258752
 30
0.0
 11
7.033455140981764
 21
14.66402865993757
 31
0.0
  0
LINE
  5
36D
330
1F
100
AcDbEntity
  8
0
  6
Continuous
 62
     7
370
    15
100
AcDbLine
 10
6.73345518494019
 20
14.66402865993757
 30
0.0
 11
6.73345518494019
 21
14.2140287258752
 31
0.0
  0
LINE
  5
36E
330
1F
100
AcDbEntity
  8
0
  6
Continuous
 62
     7
370
    15
100
AcDbLine
 10
7.033455140981764
 20
14.66402865993757
 30
0.0
 11
6.73345518494019
 21
14.66402865993757
 31
0.0
  0
ARC
  5
36F
330
1F
100
AcDbEntity
  8
0
  6
Continuous
 62
     7
370
    15
100
AcDbCircle
 10
6.883455164730492
 20
14.21402874077636
 30
0.0
 40
0.1500000000000012
100
AcDbArc
 50
180.0
 51
0.0
  0
LINE
  5
370
330
1F
100
AcDbEntity
  8
0
  6
Continuous
 62
     7
370
    15
100
AcDbLine
 10
4.33345524556929
 20
10.31402871525813
 30
0.0
 11
4.33345524556929
 21
10.01402875921655
 31
0.0
  0
LINE
  5
371
330
1F
100
AcDbEntity
  8
0
  6
Continuous
 62
     7
370
    15
100
AcDbLine
 10
4.783455179631651
 20
10.31402871525813
 30
0.0
 11
4.33345524556929
 21
10.31402871525813
 31
0.0
  0
ARC
  5
372
330
1F
100
AcDbEntity
  8
0
  6
Continuous
 62
     7
370
    15
100
AcDbCircle
 10
4.783455164730495
 20
10.16402874077636
 30
0.0
 40
0.1500000000000003
100
AcDbArc
 50
270.0000000000011
 51
90.0
  0
LINE
  5
373
330
1F
100
AcDbEntity
  8
0
  6
Continuous
 62
     7
370
    15
100
AcDbLine
 10
4.33345524556929
 20
10.01402875921655
 30
0.0
 11
4.783455179631651
 21
10.01402875921655
 31
0.0
  0
LINE
  5
374
330
1F
100
AcDbEntity
  8
0
  6
Continuous
 62
     7
370
    15
100
AcDbLine
 10
10.73345508389169
 20
12.6140287662946
 30
0.0
 11
10.73345508389169
 21
12.91402872233618
 31
0.0
  0
LINE
  5
375
330
1F
100
AcDbEntity
  8
0
  6
Continuous
 62
     7
370
    15
100
AcDbLine
 10
10.28345514982933
 20
12.6140287662946
 30
0.0
 11
10.73345508389169
 21
12.6140287662946
 31
0.0
  0
LINE
  5
376
330
1F
100
AcDbEntity
  8
0
  6
Continuous
 62
     7
370
    15
100
AcDbLine
 10
10.73345508389169
 20
12.91402872233618
 30
0.0
 11
10.28345514982933
 21
12.91402872233618
 31
0.0
  0
ARC
  5
377
330
1F
100
AcDbEntity
  8
0
  6
Continuous
 62
     7
370
    15
100
AcDbCircle
 10
10.28345516473048
 20
12.76402874077639
 30
0.0
 40
0.1500000000000003
100
AcDbArc
 50
90.00000000000069
 51
270.0000000000008
  0
LINE
  5
378
330
1F
100
AcDbEntity
  8
0
  6
Continuous
 62
     7
370
    15
100
AcDbLine
 10
8.33345514452079
 20
14.66402865993757
 30
0.0
 11
8.033455188479216
 21
14.66402865993757
 31
0.0
  0
LINE
  5
379
330
1F
100
AcDbEntity
  8
0
  6
Continuous
 62
     7
370
    15
100
AcDbLine
 10
8.33345514452079
 20
14.2140287258752
 30
0.0
 11
8.33345514452079
 21
14.66402865993757
 31
0.0
  0
ARC
  5
37A
330
1F
100
AcDbEntity
  8
0
  6
Continuous
 62
     7
370
    15
100
AcDbCircle
 10
8.18345516473049
 20
14.21402874077636
 30
0.0
 40
0.1500000000000003
100
AcDbArc
 50
180.0
 51
0.0
  0
LINE
  5
37B
330
1F
100
AcDbEntity
  8
0
  6
Continuous
 62
     7
370
    15
100
AcDbLine
 10
8.033455188479216
 20
14.66402865993757
 30
0.0
 11
8.033455188479216
 21
14.2140287258752
 31
0.0
  0
LINE
  5
37C
330
1F
100
AcDbEntity
  8
0
  6
Continuous
 62
     7
370
    15
100
AcDbLine
 10
8.33345514452079
 20
8.264028821615166
 30
0.0
 11
8.33345514452079
 21
8.714028755677528
 31
0.0
  0
LINE
  5
37D
330
1F
100
AcDbEntity
  8
0
  6
Continuous
 62
     7
370
    15
100
AcDbLine
 10
8.033455188479216
 20
8.714028755677528
 30
0.0
 11
8.033455188479216
 21
8.264028821615166
 31
0.0
  0
LINE
  5
37E
330
1F
100
AcDbEntity
  8
0
  6
Continuous
 62
     7
370
    15
100
AcDbLine
 10
8.033455188479216
 20
8.264028821615166
 30
0.0
 11
8.33345514452079
 21
8.264028821615166
 31
0.0
  0
ARC
  5
37F
330
1F
100
AcDbEntity
  8
0
  6
Continuous
 62
     7
370
    15
100
AcDbCircle
 10
8.18345516473049
 20
8.714028740776367
 30
0.0
 40
0.1500000000000003
100
AcDbArc
 50
0.0
 51
180.0
  0
LINE
  5
380
330
1F
100
AcDbEntity
  8
0
  6
Continuous
 62
     7
370
    15
100
AcDbLine
 10
4.33345524556929
 20
11.61402874790098
 30
0.0
 11
4.33345524556929
 21
11.31402873365175
 31
0.0
  0
LINE
  5
381
330
1F
100
AcDbEntity
  8
0
  6
Continuous
 62
     7
370
    15
100
AcDbLine
 10
4.783455179631651
 20
11.61402874790098
 30
0.0
 11
4.33345524556929
 21
11.61402874790098
 31
0.0
  0
ARC
  5
382
330
1F
100
AcDbEntity
  8
0
  6
Continuous
 62
     7
370
    15
100
AcDbCircle
 10
4.78345516473049
 20
11.46402874077635
 30
0.0
 40
0.1500000000000003
100
AcDbArc
 50
270.0000000000011
 51
90.00000000000033
  0
LINE
  5
383
330
1F
100
AcDbEntity
  8
0
  6
Continuous
 62
     7
370
    15
100
AcDbLine
 10
4.33345524556929
 20
11.31402873365175
 30
0.0
 11
4.783455179631651
 21
11.31402873365175
 31
0.0
  0
DIMENSION
  5
384
330
1F
100
AcDbEntity
  8
0
  6
Continuous
 62
     7
370
     0
100
AcDbDimension
280
     0
  2
*D6
 10
2.182430490273573
 20
14.46402874077634
 30
0.0
 11
2.182430490273583
 21
11.46402874077635
 31
0.0
 70
   160
 71
     2
 42
-1.0
 73
     0
 74
     0
 75
     0
  3
SLDDIMSTYLE0
100
AcDbAlignedDimension
 13
4.533455164730502
 23
8.464028740776356
 33
0.0
 14
4.53345516473048
 24
14.46402874077635
 34
0.0
 50
90.00000000000019
100
AcDbRotatedDimension
  0
DIMENSION
  5
390
330
1F
100
AcDbEntity
  8
0
  6
Continuous
 62
     7
370
     0
100
AcDbDimension
280
     0
  2
*D7
 10
1.334967132720754
 20
8.264028740776344
 30
0.0
 11
1.334967132720742
 21
11.46402874077634
 31
0.0
 70
   160
 71
     2
 42
-1.0
 73
     0
 74
     0
 75
     0
  3
SLDDIMSTYLE1
100
AcDbAlignedDimension
 13
5.43345516473048
 23
14.66402874077636
 33
0.0
 14
5.4334551647305
 24
8.264028740776359
 34
0.0
 50
90.00000000000019
100
AcDbRotatedDimension
  0
DIMENSION
  5
39C
330
1F
100
AcDbEntity
  8
0
  6
Continuous
 62
     7
370
     0
100
AcDbDimension
280
     0
  2
*D8
 10
3.000121831397145
 20
9.514028740776328
 30
0.0
 11
3.000121831397131
 21
11.46402874077633
 31
0.0
 70
   160
 71
     2
 42
-1.0
 73
     0
 74
     0
 75
     0
  3
SLDDIMSTYLE2
100
AcDbAlignedDimension
 13
4.083455164730472
 23
13.41402874077634
 33
0.0
 14
4.083455164730499
 24
9.514028740776337
 34
0.0
 50
90.00000000000019
100
AcDbRotatedDimension
  0
DIMENSION
  5
3A8
330
1F
100
AcDbEntity
  8
0
  6
Continuous
 62
     7
370
     0
100
AcDbDimension
280
     0
  2
*D9
 10
3.500121831397144
 20
12.76402874077633
 30
0.0
 11
3.500121831397141
 21
13.08902874077633
 31
0.0
 70
   160
 71
     2
 42
-1.0
 73
     0
 74
     0
 75
     0
  3
SLDDIMSTYLE3
100
AcDbAlignedDimension
 13
4.083455164730472
 23
13.41402874077634
 33
0.0
 14
4.083455164730477
 24
12.76402874077634
 34
0.0
 50
90.00000000000019
100
AcDbRotatedDimension
  0
DIMENSION
  5
3B4
330
1F
100
AcDbEntity
  8
0
  6
Continuous
 62
     7
370
     0
100
AcDbDimension
280
     0
  2
*D10
 10
3.698619314244525
 20
9.364028740776339
 30
0.0
 11
3.698619314244528
 21
8.944217199452511
 31
0.0
 70
   160
 71
     2
 42
-1.0
 73
     0
 74
     0
 75
     0
  3
SLDDIMSTYLE4
100
AcDbAlignedDimension
 13
4.333455164730501
 23
9.664028740776345
 33
0.0
 14
4.333455164730504
 24
9.364028740776344
 34
0.0
 50
90.00000000000019
100
AcDbRotatedDimension
  0
DIMENSION
  5
3C1
330
1F
100
AcDbEntity
  8
0
  6
Continuous
 62
     7
370
     0
100
AcDbDimension
280
     0
  2
*D11
 10
10.53345516473047
 20
16.33017482664634
 30
0.0
 11
7.533455164730474
 21
16.33017482664633
 31
0.0
 70
   160
 71
     2
 42
-1.0
 73
     0
 74
     0
 75
     0
  3
SLDDIMSTYLE0
100
AcDbAlignedDimension
 13
4.53345516473048
 23
14.46402874077635
 33
0.0
 14
10.53345516473048
 24
14.46402874077637
 34
0.0
 50
0.0000000000002036
100
AcDbRotatedDimension
  0
DIMENSION
  5
3CC
330
1F
100
AcDbEntity
  8
0
  6
Continuous
 62
     7
370
     0
100
AcDbDimension
280
     0
  2
*D12
 10
9.48345516473047
 20
15.85356859009081
 30
0.0
 11
7.533455164730471
 21
15.8535685900908
 31
0.0
 70
   160
 71
     2
 42
-1.0
 73
     0
 74
     0
 75
     0
  3
SLDDIMSTYLE2
100
AcDbAlignedDimension
 13
5.583455164730475
 23
14.91402874077635
 33
0.0
 14
9.483455164730473
 24
14.91402874077637
 34
0.0
 50
0.0000000000002088
100
AcDbRotatedDimension
  0
DIMENSION
  5
3D7
330
1F
100
AcDbEntity
  8
0
  6
Continuous
 62
     7
370
     0
100
AcDbDimension
280
     0
  2
*D13
 10
10.73345516473044
 20
16.78799985888754
 30
0.0
 11
7.533455164730444
 21
16.78799985888751
 31
0.0
 70
   160
 71
     2
 42
-1.0
 73
     0
 74
     0
 75
     0
  3
SLDDIMSTYLE2
100
AcDbAlignedDimension
 13
4.333455164730475
 23
13.56402874077634
 33
0.0
 14
10.73345516473046
 24
13.56402874077641
 34
0.0
 50
0.0000000000004453
100
AcDbRotatedDimension
  0
DIMENSION
  5
3E2
330
1F
100
AcDbEntity
  8
0
  6
Continuous
 62
     7
370
     0
100
AcDbDimension
280
     0
  2
*D14
 10
15.33195419715939
 20
9.221028740776391
 30
0.0
 11
15.33195419715938
 21
11.46402874077639
 31
0.0
 70
   160
 71
     2
 42
-1.0
 73
     0
 74
     0
 75
     0
  3
SLDDIMSTYLE0
100
AcDbAlignedDimension
 13
9.776455164730483
 23
13.70702874077637
 33
0.0
 14
9.776455164730498
 24
9.221028740776375
 34
0.0
 50
90.00000000000019
100
AcDbRotatedDimension
  0
DIMENSION
  5
3ED
330
1F
100
AcDbEntity
  8
0
  6
Continuous
 62
     7
370
     0
100
AcDbDimension
280
     0
  2
*D15
 10
14.50028849806386
 20
13.63202874077639
 30
0.0
 11
14.50028849806386
 21
11.46402874077639
 31
0.0
 70
   160
 71
     2
 42
-1.0
 73
     0
 74
     0
 75
     0
  3
SLDDIMSTYLE0
100
AcDbAlignedDimension
 13
9.701455164730498
 23
9.296028740776373
 33
0.0
 14
9.701455164730482
 24
13.63202874077638
 34
0.0
 50
90.00000000000019
100
AcDbRotatedDimension
  0
INSERT
  5
3FD
102
{ACAD_REACTORS
330
3FF
102
}
330
1F
100
AcDbEntity
  8
0
  6
Continuous
 62
     7
370
     0
100
AcDbBlockReference
  2
SW_NOTE_22
 10
11.39526724137931
 20
11.15483333333333
 30
0.0
  0
LEADER
  5
3FF
330
1F
100
AcDbEntity
  8
0
  6
Continuous
 62
     7
370
     0
100
AcDbLeader
  3
SLDDIMSTYLE5
 73
     2
 76
     3
 10
9.701455164730489
 20
11.4705699038653
 30
0.0
 10
11.14526724137931
 20
11.15483333333333
 30
0.0
 10
11.39526724137931
 20
11.15483333333333
 30
0.0
340
3FD
  0
INSERT
  5
406
102
{ACAD_REACTORS
330
407
102
}
330
1F
100
AcDbEntity
  8
0
  6
Continuous
 62
     7
370
     0
100
AcDbBlockReference
  2
SW_NOTE_23
 10
11.35804310344828
 20
12.51351436781609
 30
0.0
  0
LEADER
  5
407
330
1F
100
AcDbEntity
  8
0
  6
Continuous
 62
     7
370
     0
100
AcDbLeader
  3
SLDDIMSTYLE5
 73
     2
 76
     3
 10
9.776455164730489
 20
12.01803147718316
 30
0.0
 10
11.10804310344828
 20
12.51351436781609
 30
0.0
 10
11.35804310344828
 20
12.51351436781609
 30
0.0
340
406
  0
INSERT
  5
40D
102
{ACAD_REACTORS
330
417
102
}
330
1F
100
AcDbEntity
  8
0
  6
Continuous
 62
     7
370
     0
100
AcDbBlockReference
  2
SW_NOTE_24
 10
11.39526724137931
 20
13.3882816091954
 30
0.0
  0
LEADER
  5
417
330
1F
100
AcDbEntity
  8
0
  6
Continuous
 62
     7
370
     0
100
AcDbLeader
  3
SLDDIMSTYLE6
 73
     2
 76
     3
 10
9.005276442726183
 20
12.43514505712058
 30
0.0
 10
11.14526724137931
 20
13.3882816091954
 30
0.0
 10
11.39526724137931
 20
13.3882816091954
 30
0.0
340
40D
  0
MTEXT
  5
418
330
1F
100
AcDbEntity
  8
0
  6
Continuous
 62
     7
370
     0
100
AcDbMText
 10
11.44363933340693
 20
14.17938714795893
 30
0.0
 40
0.2425347222222221
 41
0.0
 46
0.0
 71
     1
 72
     1
  1
PCB PAD
  7
SLDTEXTSTYLE0
 73
     1
 44
1.0
  0
LEADER
  5
419
330
1F
100
AcDbEntity
  8
0
  6
Continuous
 62
     7
370
     0
100
AcDbLeader
  3
SLDDIMSTYLE6
 76
     3
 10
10.63440969305999
 20
13.40540677291493
 30
0.0
 10
11.14526724137931
 20
14.07692816091954
 30
0.0
 10
11.39526724137931
 20
14.07692816091954
 30
0.0
  0
MTEXT
  5
41A
330
1F
100
AcDbEntity
  8
0
  6
Continuous
 62
     7
370
     0
100
AcDbMText
 10
11.44363933340693
 20
14.71055928724018
 30
0.0
 40
0.2425347222222221
 41
0.0
 46
0.0
 71
     1
 72
     1
  1
COMPONENT PAD
  7
SLDTEXTSTYLE0
 73
     1
 44
1.0
  0
LEADER
  5
41B
330
1F
100
AcDbEntity
  8
0
  6
Continuous
 62
     7
370
     0
100
AcDbLeader
  3
SLDDIMSTYLE6
 76
     3
 10
10.41945433861013
 20
13.40080058674815
 30
0.0
 10
11.14526724137931
 20
14.61667816091954
 30
0.0
 10
11.39526724137931
 20
14.61667816091954
 30
0.0
  0
INSERT
  5
421
102
{ACAD_REACTORS
330
422
102
}
330
1F
100
AcDbEntity
  8
0
  6
Continuous
 62
     7
370
     0
100
AcDbBlockReference
  2
SW_NOTE_25
 10
11.39526724137931
 20
15.41699712643678
 30
0.0
  0
LEADER
  5
422
330
1F
100
AcDbEntity
  8
0
  6
Continuous
 62
     7
370
     0
100
AcDbLeader
  3
SLDDIMSTYLE5
 73
     2
 76
     3
 10
10.34412052323329
 20
13.6390287407764
 30
0.0
 10
11.14526724137931
 20
15.41699712643678
 30
0.0
 10
11.39526724137931
 20
15.41699712643678
 30
0.0
340
421
  0
ARC
  5
423
330
1F
100
AcDbEntity
  8
0
  6
Continuous
 62
     7
370
     0
100
AcDbCircle
 10
9.178622211257868
 20
8.522532719541889
 30
0.0
 40
0.6872966712068186
100
AcDbArc
 50
299.7711881785603
 51
276.7429960968708
  0
SOLID
  5
424
330
1F
100
AcDbEntity
  8
0
  6
Continuous
 62
     7
370
     0
100
AcDbTrace
 10
9.519890804597702
 20
7.925948725914985
 30
0.0
 11
9.994830108581481
 21
8.174179390996796
 31
0.0
 12
9.893669124581727
 22
8.309974210831645
 32
0.0
 13
9.893669124581727
 23
8.309974210831645
 33
0.0
  0
SOLID
  5
425
330
1F
100
AcDbEntity
  8
0
  6
Continuous
 62
     7
370
     0
100
AcDbTrace
 10
9.259321839080461
 20
7.839990204879785
 30
0.0
 11
8.7304090974249
 21
7.926228927446575
 31
0.0
 12
8.729905919920405
 22
7.756896341716076
 32
0.0
 13
8.729905919920405
 23
7.756896341716076
 33
0.0
  0
MTEXT
  5
426
330
1F
100
AcDbEntity
  8
0
  6
Continuous
 62
     7
370
     0
100
AcDbMText
 10
9.259321839080461
 20
8.046617816091954
 30
-0.0000000000000574
 40
0.2645833333333333
 41
0.0
 46
0.0
 71
     1
 72
     1
  1
A
  7
SLDTEXTSTYLE0
 73
     1
 44
1.0
  0
LINE
  5
427
330
1F
100
AcDbEntity
  8
0
  6
CENTERX2
 62
     7
370
     0
100
AcDbLine
 10
4.083455164730471
 20
13.41402874077634
 30
0.0
 11
5.033455164730471
 21
13.41402874077634
 31
0.0
  0
LINE
  5
428
330
1F
100
AcDbEntity
  8
0
  6
CENTERX2
 62
     7
370
     0
100
AcDbLine
 10
4.083455164730476
 20
12.76402874077634
 30
0.0
 11
5.033455164730477
 21
12.76402874077634
 31
0.0
  0
LINE
  5
429
330
1F
100
AcDbEntity
  8
0
  6
CENTERX2
 62
     7
370
     0
100
AcDbLine
 10
4.083455164730499
 20
9.514028740776337
 30
0.0
 11
5.033455164730498
 21
9.514028740776344
 31
0.0
  0
LINE
  5
42A
330
1F
100
AcDbEntity
  8
0
  6
CENTERX2
 62
     7
370
     0
100
AcDbLine
 10
5.583455164730474
 20
14.91402874077635
 30
0.0
 11
5.583455164730478
 21
13.96402874077635
 31
0.0
  0
LINE
  5
42B
330
1F
100
AcDbEntity
  8
0
  6
CENTERX2
 62
     7
370
     0
100
AcDbLine
 10
9.483455164730477
 20
13.96402874077637
 30
0.0
 11
9.483455164730473
 21
14.91402874077637
 31
0.0
  0
LINE
  5
42C
330
1F
100
AcDbEntity
  8
0
  6
CENTERX2
 62
     7
100
AcDbLine
 10
16.76320110991302
 20
10.25982095626976
 30
0.0
 11
21.32854922131651
 21
10.25982095626978
 31
0.0
  0
LINE
  5
42D
330
1F
100
AcDbEntity
  8
0
  6
CENTERX2
 62
     7
100
AcDbLine
 10
18.64531807989829
 20
9.34315429457016
 30
0.0
 11
18.64531807989828
 21
11.09315442619708
 31
0.0
  0
LINE
  5
42E
330
1F
100
AcDbEntity
  8
0
  6
CENTERX2
 62
     7
100
AcDbLine
 10
17.14531829969041
 20
11.09315442619708
 30
0.0
 11
17.14531829969042
 21
9.343154294570156
 31
0.0
  0
LINE
  5
42F
330
1F
100
AcDbEntity
  8
0
  6
CENTERX2
 62
     7
100
AcDbLine
 10
17.14531829969042
 20
9.343154294570156
 30
0.0
 11
18.64531807989829
 21
9.34315429457016
 31
0.0
  0
LINE
  5
430
330
1F
100
AcDbEntity
  8
0
  6
CENTERX2
 62
     7
100
AcDbLine
 10
20.81198494648887
 20
9.343154294570167
 30
0.0
 11
20.81198494648886
 21
11.09315442619709
 31
0.0
  0
LINE
  5
431
330
1F
100
AcDbEntity
  8
0
  6
CENTERX2
 62
     7
100
AcDbLine
 10
19.31198477822992
 20
11.09315442619708
 30
0.0
 11
19.31198477822992
 21
9.343154294570163
 31
0.0
  0
LINE
  5
432
330
1F
100
AcDbEntity
  8
0
  6
CENTERX2
 62
     7
100
AcDbLine
 10
19.31198477822992
 20
9.343154294570163
 30
0.0
 11
20.81198494648887
 21
9.343154294570167
 31
0.0
  0
LINE
  5
433
330
1F
100
AcDbEntity
  8
0
  6
CENTERX2
 62
     7
100
AcDbLine
 10
18.64531807989828
 20
11.09315442619708
 30
0.0
 11
18.64120978319101
 21
11.17155083222178
 31
0.0
  0
LINE
  5
434
330
1F
100
AcDbEntity
  8
0
  6
CENTERX2
 62
     7
100
AcDbLine
 10
18.64120978319101
 20
11.17155083222178
 30
0.0
 11
18.62892874284041
 21
11.24908809317139
 31
0.0
  0
LINE
  5
435
330
1F
100
AcDbEntity
  8
0
  6
CENTERX2
 62
     7
100
AcDbLine
 10
18.62892874284041
 20
11.24908809317139
 30
0.0
 11
18.60861038867089
 21
11.32491715329873
 31
0.0
  0
LINE
  5
436
330
1F
100
AcDbEntity
  8
0
  6
CENTERX2
 62
     7
100
AcDbLine
 10
18.60861038867089
 20
11.32491715329873
 30
0.0
 11
18.58047746199819
 21
11.39820680720595
 31
0.0
  0
LINE
  5
437
330
1F
100
AcDbEntity
  8
0
  6
CENTERX2
 62
     7
100
AcDbLine
 10
18.58047746199819
 20
11.39820680720595
 30
0.0
 11
18.54483729927195
 21
11.46815456527459
 31
0.0
  0
LINE
  5
438
330
1F
100
AcDbEntity
  8
0
  6
CENTERX2
 62
     7
100
AcDbLine
 10
18.54483729927195
 20
11.46815456527459
 30
0.0
 11
18.50208105597349
 21
11.53399363858488
 31
0.0
  0
LINE
  5
439
330
1F
100
AcDbEntity
  8
0
  6
CENTERX2
 62
     7
100
AcDbLine
 10
18.50208105597349
 20
11.53399363858488
 30
0.0
 11
18.45267672169658
 21
11.59500225214151
 31
0.0
  0
LINE
  5
43A
330
1F
100
AcDbEntity
  8
0
  6
CENTERX2
 62
     7
100
AcDbLine
 10
18.45267672169658
 20
11.59500225214151
 30
0.0
 11
18.39716601573877
 21
11.65051295809932
 31
0.0
  0
LINE
  5
43B
330
1F
100
AcDbEntity
  8
0
  6
CENTERX2
 62
     7
100
AcDbLine
 10
18.39716601573877
 20
11.65051295809932
 30
0.0
 11
18.33615701413107
 21
11.69991729237623
 31
0.0
  0
LINE
  5
43C
330
1F
100
AcDbEntity
  8
0
  6
CENTERX2
 62
     7
100
AcDbLine
 10
18.33615701413107
 20
11.69991729237623
 30
0.0
 11
18.27031832887185
 21
11.74267353567468
 31
0.0
  0
LINE
  5
43D
330
1F
100
AcDbEntity
  8
0
  6
CENTERX2
 62
     7
100
AcDbLine
 10
18.27031832887185
 20
11.74267353567468
 30
0.0
 11
18.20037057080321
 21
11.77831369840092
 31
0.0
  0
LINE
  5
43E
330
1F
100
AcDbEntity
  8
0
  6
CENTERX2
 62
     7
100
AcDbLine
 10
18.20037057080321
 20
11.77831369840092
 30
0.0
 11
18.12708091689599
 21
11.80644662507362
 31
0.0
  0
LINE
  5
43F
330
1F
100
AcDbEntity
  8
0
  6
CENTERX2
 62
     7
100
AcDbLine
 10
18.12708091689599
 20
11.80644662507362
 30
0.0
 11
18.05125185676865
 21
11.82676497924315
 31
0.0
  0
LINE
  5
440
330
1F
100
AcDbEntity
  8
0
  6
CENTERX2
 62
     7
100
AcDbLine
 10
18.05125185676865
 20
11.82676497924315
 30
0.0
 11
17.97371459581904
 21
11.83904601959374
 31
0.0
  0
LINE
  5
441
330
1F
100
AcDbEntity
  8
0
  6
CENTERX2
 62
     7
100
AcDbLine
 10
17.97371459581904
 20
11.83904601959374
 30
0.0
 11
17.89531818979434
 21
11.84315470435209
 31
0.0
  0
LINE
  5
442
330
1F
100
AcDbEntity
  8
0
  6
CENTERX2
 62
     7
100
AcDbLine
 10
17.89531818979434
 20
11.84315470435209
 30
0.0
 11
17.81692178376965
 21
11.83904601959374
 31
0.0
  0
LINE
  5
443
330
1F
100
AcDbEntity
  8
0
  6
CENTERX2
 62
     7
100
AcDbLine
 10
17.81692178376965
 20
11.83904601959374
 30
0.0
 11
17.73938452282004
 21
11.82676497924314
 31
0.0
  0
LINE
  5
444
330
1F
100
AcDbEntity
  8
0
  6
CENTERX2
 62
     7
100
AcDbLine
 10
17.73938452282004
 20
11.82676497924314
 30
0.0
 11
17.6635554626927
 21
11.80644662507362
 31
0.0
  0
LINE
  5
445
330
1F
100
AcDbEntity
  8
0
  6
CENTERX2
 62
     7
100
AcDbLine
 10
17.6635554626927
 20
11.80644662507362
 30
0.0
 11
17.59026580878548
 21
11.77831369840092
 31
0.0
  0
LINE
  5
446
330
1F
100
AcDbEntity
  8
0
  6
CENTERX2
 62
     7
100
AcDbLine
 10
17.59026580878548
 20
11.77831369840092
 30
0.0
 11
17.52031805071684
 21
11.74267353567468
 31
0.0
  0
LINE
  5
447
330
1F
100
AcDbEntity
  8
0
  6
CENTERX2
 62
     7
100
AcDbLine
 10
17.52031805071684
 20
11.74267353567468
 30
0.0
 11
17.45447936545762
 21
11.69991729237623
 31
0.0
  0
LINE
  5
448
330
1F
100
AcDbEntity
  8
0
  6
CENTERX2
 62
     7
100
AcDbLine
 10
17.45447936545762
 20
11.69991729237623
 30
0.0
 11
17.39347036384992
 21
11.65051295809931
 31
0.0
  0
LINE
  5
449
330
1F
100
AcDbEntity
  8
0
  6
CENTERX2
 62
     7
100
AcDbLine
 10
17.39347036384992
 20
11.65051295809931
 30
0.0
 11
17.33795965789211
 21
11.5950022521415
 31
0.0
  0
LINE
  5
44A
330
1F
100
AcDbEntity
  8
0
  6
CENTERX2
 62
     7
100
AcDbLine
 10
17.33795965789211
 20
11.5950022521415
 30
0.0
 11
17.2885553236152
 21
11.53399363858488
 31
0.0
  0
LINE
  5
44B
330
1F
100
AcDbEntity
  8
0
  6
CENTERX2
 62
     7
100
AcDbLine
 10
17.2885553236152
 20
11.53399363858488
 30
0.0
 11
17.24579908031675
 21
11.46815456527458
 31
0.0
  0
LINE
  5
44C
330
1F
100
AcDbEntity
  8
0
  6
CENTERX2
 62
     7
100
AcDbLine
 10
17.24579908031675
 20
11.46815456527458
 30
0.0
 11
17.2101589175905
 21
11.39820680720594
 31
0.0
  0
LINE
  5
44D
330
1F
100
AcDbEntity
  8
0
  6
CENTERX2
 62
     7
100
AcDbLine
 10
17.2101589175905
 20
11.39820680720594
 30
0.0
 11
17.18202560286673
 21
11.32491715329872
 31
0.0
  0
LINE
  5
44E
330
1F
100
AcDbEntity
  8
0
  6
CENTERX2
 62
     7
100
AcDbLine
 10
17.18202560286673
 20
11.32491715329872
 30
0.0
 11
17.16170763674828
 21
11.24908809317138
 31
0.0
  0
LINE
  5
44F
330
1F
100
AcDbEntity
  8
0
  6
CENTERX2
 62
     7
100
AcDbLine
 10
17.16170763674828
 20
11.24908809317138
 30
0.0
 11
17.14942659639768
 21
11.17155083222177
 31
0.0
  0
LINE
  5
450
330
1F
100
AcDbEntity
  8
0
  6
CENTERX2
 62
     7
100
AcDbLine
 10
17.14942659639768
 20
11.17155083222177
 30
0.0
 11
17.14531829969041
 21
11.09315442619708
 31
0.0
  0
LINE
  5
451
330
1F
100
AcDbEntity
  8
0
  6
CENTERX2
 62
     7
100
AcDbLine
 10
20.81198494648886
 20
11.09315442619709
 30
0.0
 11
20.80787626173052
 21
11.17155083222178
 31
0.0
  0
LINE
  5
452
330
1F
100
AcDbEntity
  8
0
  6
CENTERX2
 62
     7
100
AcDbLine
 10
20.80787626173052
 20
11.17155083222178
 30
0.0
 11
20.79559522137992
 21
11.24908809317139
 31
0.0
  0
LINE
  5
453
330
1F
100
AcDbEntity
  8
0
  6
CENTERX2
 62
     7
100
AcDbLine
 10
20.79559522137992
 20
11.24908809317139
 30
0.0
 11
20.77527686721039
 21
11.32491715329873
 31
0.0
  0
LINE
  5
454
330
1F
100
AcDbEntity
  8
0
  6
CENTERX2
 62
     7
100
AcDbLine
 10
20.77527686721039
 20
11.32491715329873
 30
0.0
 11
20.7471439405377
 21
11.39820680720595
 31
0.0
  0
LINE
  5
455
330
1F
100
AcDbEntity
  8
0
  6
CENTERX2
 62
     7
100
AcDbLine
 10
20.7471439405377
 20
11.39820680720595
 30
0.0
 11
20.71150377781145
 21
11.46815456527459
 31
0.0
  0
LINE
  5
456
330
1F
100
AcDbEntity
  8
0
  6
CENTERX2
 62
     7
100
AcDbLine
 10
20.71150377781145
 20
11.46815456527459
 30
0.0
 11
20.668747534513
 21
11.53399363858489
 31
0.0
  0
LINE
  5
457
330
1F
100
AcDbEntity
  8
0
  6
CENTERX2
 62
     7
100
AcDbLine
 10
20.668747534513
 20
11.53399363858489
 30
0.0
 11
20.61934320023609
 21
11.59500225214151
 31
0.0
  0
LINE
  5
458
330
1F
100
AcDbEntity
  8
0
  6
CENTERX2
 62
     7
100
AcDbLine
 10
20.61934320023609
 20
11.59500225214151
 30
0.0
 11
20.56383249427828
 21
11.65051295809932
 31
0.0
  0
LINE
  5
459
330
1F
100
AcDbEntity
  8
0
  6
CENTERX2
 62
     7
100
AcDbLine
 10
20.56383249427828
 20
11.65051295809932
 30
0.0
 11
20.50282388072165
 21
11.69991729237624
 31
0.0
  0
LINE
  5
45A
330
1F
100
AcDbEntity
  8
0
  6
CENTERX2
 62
     7
100
AcDbLine
 10
20.50282388072165
 20
11.69991729237624
 30
0.0
 11
20.43698480741136
 21
11.74267353567469
 31
0.0
  0
LINE
  5
45B
330
1F
100
AcDbEntity
  8
0
  6
CENTERX2
 62
     7
100
AcDbLine
 10
20.43698480741136
 20
11.74267353567469
 30
0.0
 11
20.36703704934271
 21
11.77831369840093
 31
0.0
  0
LINE
  5
45C
330
1F
100
AcDbEntity
  8
0
  6
CENTERX2
 62
     7
100
AcDbLine
 10
20.36703704934271
 20
11.77831369840093
 30
0.0
 11
20.2937473954355
 21
11.80644662507363
 31
0.0
  0
LINE
  5
45D
330
1F
100
AcDbEntity
  8
0
  6
CENTERX2
 62
     7
100
AcDbLine
 10
20.2937473954355
 20
11.80644662507363
 30
0.0
 11
20.21791833530816
 21
11.82676497924315
 31
0.0
  0
LINE
  5
45E
330
1F
100
AcDbEntity
  8
0
  6
CENTERX2
 62
     7
100
AcDbLine
 10
20.21791833530816
 20
11.82676497924315
 30
0.0
 11
20.14038107435855
 21
11.83904601959375
 31
0.0
  0
LINE
  5
45F
330
1F
100
AcDbEntity
  8
0
  6
CENTERX2
 62
     7
100
AcDbLine
 10
20.14038107435855
 20
11.83904601959375
 30
0.0
 11
20.06198466833385
 21
11.8431547043521
 31
0.0
  0
LINE
  5
460
330
1F
100
AcDbEntity
  8
0
  6
CENTERX2
 62
     7
100
AcDbLine
 10
20.06198466833385
 20
11.8431547043521
 30
0.0
 11
19.98358865036023
 21
11.83904601959375
 31
0.0
  0
LINE
  5
461
330
1F
100
AcDbEntity
  8
0
  6
CENTERX2
 62
     7
100
AcDbLine
 10
19.98358865036023
 20
11.83904601959375
 30
0.0
 11
19.90605100135955
 21
11.82676497924315
 31
0.0
  0
LINE
  5
462
330
1F
100
AcDbEntity
  8
0
  6
CENTERX2
 62
     7
100
AcDbLine
 10
19.90605100135955
 20
11.82676497924315
 30
0.0
 11
19.83022194123221
 21
11.80644662507363
 31
0.0
  0
LINE
  5
463
330
1F
100
AcDbEntity
  8
0
  6
CENTERX2
 62
     7
100
AcDbLine
 10
19.83022194123221
 20
11.80644662507363
 30
0.0
 11
19.75693228732499
 21
11.77831369840093
 31
0.0
  0
LINE
  5
464
330
1F
100
AcDbEntity
  8
0
  6
CENTERX2
 62
     7
100
AcDbLine
 10
19.75693228732499
 20
11.77831369840093
 30
0.0
 11
19.68698491730742
 21
11.74267353567469
 31
0.0
  0
LINE
  5
465
330
1F
100
AcDbEntity
  8
0
  6
CENTERX2
 62
     7
100
AcDbLine
 10
19.68698491730742
 20
11.74267353567469
 30
0.0
 11
19.62114584399713
 21
11.69991729237624
 31
0.0
  0
LINE
  5
466
330
1F
100
AcDbEntity
  8
0
  6
CENTERX2
 62
     7
100
AcDbLine
 10
19.62114584399713
 20
11.69991729237624
 30
0.0
 11
19.56013684238943
 21
11.65051295809932
 31
0.0
  0
LINE
  5
467
330
1F
100
AcDbEntity
  8
0
  6
CENTERX2
 62
     7
100
AcDbLine
 10
19.56013684238943
 20
11.65051295809932
 30
0.0
 11
19.50462613643162
 21
11.59500225214151
 31
0.0
  0
LINE
  5
468
330
1F
100
AcDbEntity
  8
0
  6
CENTERX2
 62
     7
100
AcDbLine
 10
19.50462613643162
 20
11.59500225214151
 30
0.0
 11
19.45522219020578
 21
11.53399363858488
 31
0.0
  0
LINE
  5
469
330
1F
100
AcDbEntity
  8
0
  6
CENTERX2
 62
     7
100
AcDbLine
 10
19.45522219020578
 20
11.53399363858488
 30
0.0
 11
19.41246594690732
 21
11.46815456527459
 31
0.0
  0
LINE
  5
46A
330
1F
100
AcDbEntity
  8
0
  6
CENTERX2
 62
     7
100
AcDbLine
 10
19.41246594690732
 20
11.46815456527459
 30
0.0
 11
19.37682578418108
 21
11.39820680720595
 31
0.0
  0
LINE
  5
46B
330
1F
100
AcDbEntity
  8
0
  6
CENTERX2
 62
     7
100
AcDbLine
 10
19.37682578418108
 20
11.39820680720595
 30
0.0
 11
19.34869246945731
 21
11.32491715329873
 31
0.0
  0
LINE
  5
46C
330
1F
100
AcDbEntity
  8
0
  6
CENTERX2
 62
     7
100
AcDbLine
 10
19.34869246945731
 20
11.32491715329873
 30
0.0
 11
19.32837411528779
 21
11.24908809317139
 31
0.0
  0
LINE
  5
46D
330
1F
100
AcDbEntity
  8
0
  6
CENTERX2
 62
     7
100
AcDbLine
 10
19.32837411528779
 20
11.24908809317139
 30
0.0
 11
19.31609346298826
 21
11.17155083222178
 31
0.0
  0
LINE
  5
46E
330
1F
100
AcDbEntity
  8
0
  6
CENTERX2
 62
     7
100
AcDbLine
 10
19.31609346298826
 20
11.17155083222178
 30
0.0
 11
19.31198477822992
 21
11.09315442619708
 31
0.0
  0
CIRCLE
  5
46F
330
1F
100
AcDbEntity
  8
0
  6
Continuous
 62
     7
370
     0
100
AcDbCircle
 10
19.0458752498962
 20
10.45484742566236
 30
0.0
 40
2.290988984756835
  0
LINE
  5
470
330
1F
100
AcDbEntity
  8
0
  6
Continuous
 62
     7
370
    15
100
AcDbLine
 10
18.39531803892006
 20
11.59315419771259
 30
0.0
 11
18.39531803892006
 21
10.2598206458289
 31
0.0
  0
LINE
  5
471
330
1F
100
AcDbEntity
  8
0
  6
Continuous
 62
     7
370
    15
100
AcDbLine
 10
17.39531818544814
 20
10.2598206458289
 30
0.0
 11
18.39531803892006
 21
10.2598206458289
 31
0.0
  0
LINE
  5
472
330
1F
100
AcDbEntity
  8
0
  6
Continuous
 62
     7
370
    15
100
AcDbLine
 10
17.39531818544814
 20
10.2598206458289
 30
0.0
 11
17.39531818544814
 21
11.59315419771259
 31
0.0
  0
LINE
  5
473
330
1F
100
AcDbEntity
  8
0
  6
Continuous
 62
     7
370
    15
100
AcDbLine
 10
17.39531818544814
 20
11.59315419771259
 30
0.0
 11
18.39531803892006
 21
11.59315419771259
 31
0.0
  0
LINE
  5
474
330
1F
100
AcDbEntity
  8
0
  6
Continuous
 62
     7
370
    15
100
AcDbLine
 10
20.56198475029021
 20
11.59315419771259
 30
0.0
 11
20.56198475029021
 21
10.2598206458289
 31
0.0
  0
LINE
  5
475
330
1F
100
AcDbEntity
  8
0
  6
Continuous
 62
     7
370
    15
100
AcDbLine
 10
19.56198458637743
 20
10.2598206458289
 30
0.0
 11
19.56198458637743
 21
11.59315419771259
 31
0.0
  0
LINE
  5
476
330
1F
100
AcDbEntity
  8
0
  6
Continuous
 62
     7
370
    15
100
AcDbLine
 10
19.56198458637743
 20
10.2598206458289
 30
0.0
 11
20.56198475029021
 21
10.2598206458289
 31
0.0
  0
LINE
  5
477
330
1F
100
AcDbEntity
  8
0
  6
Continuous
 62
     7
370
    15
100
AcDbLine
 10
19.56198458637743
 20
11.59315419771259
 30
0.0
 11
20.56198475029021
 21
11.59315419771259
 31
0.0
  0
LINE
  5
478
330
1F
100
AcDbEntity
  8
0
  6
Continuous
 62
     7
370
    15
100
AcDbLine
 10
18.39531803892006
 20
9.593155111650482
 30
0.0
 11
18.39531803892006
 21
11.09315442619706
 31
0.0
  0
LINE
  5
479
330
1F
100
AcDbEntity
  8
0
  6
Continuous
 62
     7
370
    15
100
AcDbLine
 10
17.39531818544814
 20
9.593155111650482
 30
0.0
 11
18.39531803892006
 21
9.593155111650482
 31
0.0
  0
LINE
  5
47A
330
1F
100
AcDbEntity
  8
0
  6
Continuous
 62
     7
370
    15
100
AcDbLine
 10
17.39531818544814
 20
11.09315442619706
 30
0.0
 11
17.39531818544814
 21
9.593155111650482
 31
0.0
  0
ARC
  5
47B
330
1F
100
AcDbEntity
  8
0
  6
Continuous
 62
     7
370
    15
100
AcDbCircle
 10
17.89531818979432
 20
11.09315461854918
 30
0.0
 40
0.4999999267359933
100
AcDbArc
 50
359.9999779580687
 51
180.0000220419329
  0
LINE
  5
47C
330
1F
100
AcDbEntity
  8
0
  6
Continuous
 62
     7
370
    15
100
AcDbLine
 10
20.56198475029021
 20
9.593155111650482
 30
0.0
 11
20.56198475029021
 21
11.09315442619706
 31
0.0
  0
LINE
  5
47D
330
1F
100
AcDbEntity
  8
0
  6
Continuous
 62
     7
370
    15
100
AcDbLine
 10
19.56198458637743
 20
11.09315442619706
 30
0.0
 11
19.56198458637743
 21
9.593155111650482
 31
0.0
  0
ARC
  5
47E
330
1F
100
AcDbEntity
  8
0
  6
Continuous
 62
     7
370
    15
100
AcDbCircle
 10
20.06198466833382
 20
11.09315461854918
 30
0.0
 40
0.4999999267359968
100
AcDbArc
 50
359.9999779580687
 51
180.0000220419329
  0
LINE
  5
47F
330
1F
100
AcDbEntity
  8
0
  6
Continuous
 62
     7
370
    15
100
AcDbLine
 10
19.56198458637743
 20
9.593155111650482
 30
0.0
 11
20.56198475029021
 21
9.593155111650482
 31
0.0
  0
DIMENSION
  5
480
330
1F
100
AcDbEntity
  8
0
  6
Continuous
 62
     7
370
     0
100
AcDbDimension
280
     0
  2
*D21
 10
21.74920057888594
 20
11.59315437652655
 30
0.0
 11
21.74920057888594
 21
10.59315437652656
 31
0.0
 70
   160
 71
     2
 42
-1.0
 73
     0
 74
     0
 75
     0
  3
SLDDIMSTYLE7
100
AcDbAlignedDimension
 13
20.56198484466425
 23
9.593154376526552
 33
0.0
 14
20.06198484466424
 24
11.59315437652655
 34
0.0
 50
90.00000000000019
100
AcDbRotatedDimension
  0
DIMENSION
  5
48C
330
1F
100
AcDbEntity
  8
0
  6
Continuous
 62
     7
370
     0
100
AcDbDimension
280
     0
  2
*D22
 10
20.99703217002514
 20
9.593154376526554
 30
0.0
 11
20.99703217002514
 21
9.046224262704125
 31
0.0
 70
   160
 71
     2
 42
-1.0
 73
     0
 74
     0
 75
     0
  3
SLDDIMSTYLE7
100
AcDbAlignedDimension
 13
21.32854922131647
 23
10.25982104319322
 33
0.0
 14
20.56198484466425
 24
9.593154376526552
 34
0.0
 50
90.00000000000019
100
AcDbRotatedDimension
  0
DIMENSION
  5
497
330
1F
100
AcDbEntity
  8
0
  6
Continuous
 62
     7
370
     0
100
AcDbDimension
280
     0
  2
*D23
 10
20.56198484466425
 20
8.413487770121609
 30
0.0
 11
20.9774851676301
 21
8.41348777012161
 31
0.0
 70
   160
 71
     2
 42
-1.0
 73
     0
 74
     0
 75
     0
  3
SLDDIMSTYLE7
100
AcDbAlignedDimension
 13
19.56198484466424
 23
9.593154376526547
 33
0.0
 14
20.56198484466425
 24
9.593154376526552
 34
0.0
 50
0.0000000000002036
100
AcDbRotatedDimension
  0
DIMENSION
  5
4A2
330
1F
100
AcDbEntity
  8
0
  6
Continuous
 62
     7
370
     0
100
AcDbDimension
280
     0
  2
*D24
 10
20.06198484466424
 20
13.0136898298504
 30
0.0
 11
18.97865151133091
 21
13.01368982985039
 31
0.0
 70
   160
 71
     2
 42
-1.0
 73
     0
 74
     0
 75
     0
  3
SLDDIMSTYLE8
100
AcDbAlignedDimension
 13
17.89531817799758
 23
11.34315437652656
 33
0.0
 14
20.06198484466425
 24
11.34315437652657
 34
0.0
 50
0.0000000000001879
100
AcDbRotatedDimension
  0
DIMENSION
  5
4AE
330
1F
100
AcDbEntity
  8
0
  6
Continuous
 62
     7
370
     0
100
AcDbDimension
280
     0
  2
*D25
 10
17.05036124441885
 20
9.593154376526538
 30
0.0
 11
17.05036124441885
 21
8.534473117135869
 31
0.0
 70
   160
  1
0.060~<>\PMASK OPENING
 71
     2
 42
-1.0
 73
     0
 74
     0
 75
     0
  3
SLDDIMSTYLE9
100
AcDbAlignedDimension
 13
17.14531817799758
 23
9.343154376526539
 33
0.0
 14
17.39531817799758
 24
9.593154376526539
 34
0.0
 50
90.00000000000019
100
AcDbRotatedDimension
  0
DIMENSION
  5
4BD
330
1F
100
AcDbEntity
  8
0
  6
Continuous
 62
     7
370
     0
100
AcDbDimension
280
     0
  2
*D26
 10
19.31198484466425
 20
7.759821043193168
 30
0.0
 11
16.51444298668269
 21
7.759821043193158
 31
0.0
 70
   160
  1
0.185~<> MIN.
 71
     2
 42
-1.0
 73
     0
 74
     0
 75
     0
  3
SLDDIMSTYLE10
100
AcDbAlignedDimension
 13
18.64531817799758
 23
9.343154376526545
 33
0.0
 14
19.31198484466425
 24
9.343154376526547
 34
0.0
 50
0.000000000000229
100
AcDbRotatedDimension
  0
DIMENSION
  5
4CB
330
1F
100
AcDbEntity
  8
0
  6
Continuous
 62
     7
370
     0
100
AcDbDimension
280
     0
  2
*D27
 10
17.89531817799758
 20
11.09315437652654
 30
0.0
 11
16.748111457076
 21
12.67074069000937
 31
0.0
 70
   164
  1
<>
 42
-1.0
 73
     0
 74
     0
 75
     0
  3
SLDDIMSTYLE11
100
AcDbRadialDimension
 15
17.77185962318039
 25
11.57767267880464
 35
0.0
 40
0.0
  0
INSERT
  5
4DA
330
1F
100
AcDbEntity
  8
0
  6
Continuous
 62
     7
370
     0
100
AcDbBlockReference
  2
SW_NOTE_26
 10
18.24740786768769
 20
7.052961806058879
 30
0.0
  0
LINE
  5
4DB
330
1F
100
AcDbEntity
  8
0
  6
CENTERX2
 62
     7
370
     0
100
AcDbLine
 10
17.89531818979432
 20
9.343154294570142
 30
0.0
 11
17.89531818979432
 21
11.34315400151397
 31
0.0
  0
LINE
  5
4DC
330
1F
100
AcDbEntity
  8
0
  6
CENTERX2
 62
     7
370
     0
100
AcDbLine
 10
20.06198466833382
 20
9.343154294570142
 30
0.0
 11
20.06198466833382
 21
11.34315400151397
 31
0.0
  0
ENDSEC
  0
SECTION
  2
OBJECTS
  0
DICTIONARY
  5
C
330
0
100
AcDbDictionary
281
     1
  3
ACAD_COLOR
350
4ED
  3
ACAD_GROUP
350
D
  3
ACAD_IMAGE_DICT
350
54
  3
ACAD_IMAGE_VARS
350
4F6
  3
ACAD_LAYOUT
350
1A
  3
ACAD_MATERIAL
350
3B
  3
ACAD_MLEADERSTYLE
350
4E0
  3
ACAD_MLINESTYLE
350
17
  3
ACAD_PLOTSETTINGS
350
19
  3
ACAD_PLOTSTYLENAME
350
E
  3
ACAD_SCALELIST
350
69
  3
ACAD_TABLESTYLE
350
4DF
  3
ACAD_VISUALSTYLE
350
2A
  3
ACDB_RECOMPOSE_DATA
350
4FB
  3
AcDbVariableDictionary
350
4DD
  0
IMAGEDEF_REACTOR
  5
57
330
56
100
AcDbRasterImageDefReactor
 90
        2
330
56
  0
DICTIONARY
  5
4ED
102
{ACAD_REACTORS
330
C
102
}
330
C
100
AcDbDictionary
281
     1
  0
DICTIONARY
  5
D
102
{ACAD_REACTORS
330
C
102
}
330
C
100
AcDbDictionary
281
     1
  0
DICTIONARY
  5
54
102
{ACAD_REACTORS
330
C
102
}
330
C
100
AcDbDictionary
281
     1
  3
D:\Dropbox\Promex\Single Package Rows\235-00155\Latest\dxf7924.bmp
350
55
  0
RASTERVARIABLES
  5
4F6
102
{ACAD_REACTORS
330
C
102
}
330
C
100
AcDbRasterVariables
 90
        0
 70
     1
 71
     1
 72
     1
  0
DICTIONARY
  5
1A
102
{ACAD_REACTORS
330
C
102
}
330
C
100
AcDbDictionary
281
     1
  3
Layout1
350
1E
  3
Layout2
350
26
  3
Model
350
22
  0
DICTIONARY
  5
3B
102
{ACAD_REACTORS
330
C
102
}
330
C
100
AcDbDictionary
281
     1
  3
ByBlock
350
3D
  3
ByLayer
350
3C
  3
Global
350
3E
  0
DICTIONARY
  5
4E0
102
{ACAD_REACTORS
330
C
102
}
330
C
100
AcDbDictionary
281
     1
  3
Standard
350
4EF
  0
DICTIONARY
  5
17
102
{ACAD_REACTORS
330
C
102
}
330
C
100
AcDbDictionary
281
     1
  3
Standard
350
18
  0
DICTIONARY
  5
19
102
{ACAD_REACTORS
330
C
102
}
330
C
100
AcDbDictionary
281
     1
  0
ACDBDICTIONARYWDFLT
  5
E
102
{ACAD_REACTORS
330
C
102
}
330
C
100
AcDbDictionary
281
     1
  3
Normal
350
F
100
AcDbDictionaryWithDefault
340
F
  0
DICTIONARY
  5
69
102
{ACAD_REACTORS
330
C
102
}
330
C
100
AcDbDictionary
281
     1
  3
A0
350
6A
  3
A1
350
6B
  3
A2
350
6C
  3
A3
350
6D
  3
A4
350
6E
  3
A5
350
6F
  3
A6
350
70
  3
A7
350
71
  3
A8
350
72
  3
A9
350
73
  3
B0
350
74
  3
B1
350
75
  3
B2
350
76
  3
B3
350
77
  3
B4
350
78
  3
B5
350
79
  3
B6
350
7A
  3
B7
350
7B
  3
B8
350
7C
  3
B9
350
7D
  3
C0
350
7E
  3
C1
350
7F
  3
C2
350
80
  3
C3
350
81
  3
C4
350
82
  3
C5
350
83
  3
C6
350
84
  3
C7
350
85
  3
C8
350
86
  3
C9
350
87
  3
D0
350
88
  3
D1
350
89
  3
D2
350
8A
  0
DICTIONARY
  5
4DF
102
{ACAD_REACTORS
330
C
102
}
330
C
100
AcDbDictionary
281
     1
  3
Standard
350
4EE
  0
DICTIONARY
  5
2A
102
{ACAD_REACTORS
330
C
102
}
330
C
100
AcDbDictionary
281
     1
  3
2dWireframe
350
2F
  3
3D Hidden
350
31
  3
3dWireframe
350
30
  3
Basic
350
32
  3
Brighten
350
36
  3
ColorChange
350
3A
  3
Conceptual
350
34
  3
Dim
350
35
  3
EdgeColorOff
350
4EC
  3
Facepattern
350
39
  3
Flat
350
2B
  3
FlatWithEdges
350
2C
  3
Gouraud
350
2D
  3
GouraudWithEdges
350
2E
  3
Hidden
350
4E4
  3
JitterOff
350
4EA
  3
Linepattern
350
38
  3
OverhangOff
350
4EB
  3
Realistic
350
33
  3
Shaded
350
4E9
  3
Shaded with edges
350
4E8
  3
Shades of Gray
350
4E5
  3
Sketchy
350
4E6
  3
Thicken
350
37
  3
Wireframe
350
4E3
  3
X-Ray
350
4E7
  0
XRECORD
  5
4FB
102
{ACAD_REACTORS
330
C
102
}
330
C
100
AcDbXrecord
280
     1
 90
        1
330
4EE
  0
DICTIONARY
  5
4DD
102
{ACAD_REACTORS
330
C
102
}
330
C
100
AcDbDictionary
281
     1
  3
CANNOSCALE
350
4DE
  3
CMLEADERSTYLE
350
4F8
  3
CTABLESTYLE
350
4F7
  0
IMAGEDEF
  5
55
102
{ACAD_REACTORS
330
54
330
57
102
}
330
54
100
AcDbRasterImageDef
 90
        0
  1
D:\Dropbox\Promex\Single Package Rows\235-00155\Latest\dxf7924.bmp
 10
150.0
 20
63.0
 11
0.2645502645502646
 21
0.2645502645502646
280
     1
281
     3
  0
LAYOUT
  5
1E
102
{ACAD_REACTORS
330
1A
102
}
330
1A
100
AcDbPlotSettings
  1

  2
none_device
  4

  6

 40
0.0
 41
0.0
 42
0.0
 43
0.0
 44
0.0
 45
0.0
 46
0.0
 47
0.0
 48
0.0
 49
0.0
140
0.0
141
0.0
142
1.0
143
1.0
 70
   688
 72
     0
 73
     0
 74
     5
  7

 75
    16
147
1.0
 76
     0
 77
     2
 78
   300
148
0.0
149
0.0
100
AcDbLayout
  1
Layout1
 70
     1
 71
     1
 10
0.0
 20
0.0
 11
420.0
 21
297.0
 12
0.0
 22
0.0
 32
0.0
 14
1.000000000000000E+20
 24
1.000000000000000E+20
 34
1.000000000000000E+20
 15
-1.000000000000000E+20
 25
-1.000000000000000E+20
 35
-1.000000000000000E+20
146
0.0
 13
0.0
 23
0.0
 33
0.0
 16
1.0
 26
0.0
 36
0.0
 17
0.0
 27
1.0
 37
0.0
 76
     0
330
1B
  0
LAYOUT
  5
26
102
{ACAD_REACTORS
330
1A
102
}
330
1A
100
AcDbPlotSettings
  1

  2
none_device
  4

  6

 40
0.0
 41
0.0
 42
0.0
 43
0.0
 44
0.0
 45
0.0
 46
0.0
 47
0.0
 48
0.0
 49
0.0
140
0.0
141
0.0
142
1.0
143
1.0
 70
   688
 72
     0
 73
     0
 74
     5
  7

 75
    16
147
1.0
 76
     0
 77
     2
 78
   300
148
0.0
149
0.0
100
AcDbLayout
  1
Layout2
 70
     1
 71
     2
 10
0.0
 20
0.0
 11
0.0
 21
0.0
 12
0.0
 22
0.0
 32
0.0
 14
0.0
 24
0.0
 34
0.0
 15
0.0
 25
0.0
 35
0.0
146
0.0
 13
0.0
 23
0.0
 33
0.0
 16
1.0
 26
0.0
 36
0.0
 17
0.0
 27
1.0
 37
0.0
 76
     0
330
23
  0
LAYOUT
  5
22
102
{ACAD_REACTORS
330
1A
102
}
330
1A
100
AcDbPlotSettings
  1

  2
none_device
  4

  6

 40
0.0
 41
0.0
 42
0.0
 43
0.0
 44
0.0
 45
0.0
 46
0.0
 47
0.0
 48
0.0
 49
0.0
140
0.0
141
0.0
142
1.0
143
1.0
 70
  1712
 72
     0
 73
     0
 74
     0
  7

 75
     0
147
1.0
 76
     0
 77
     2
 78
   300
148
0.0
149
0.0
100
AcDbLayout
  1
Model
 70
     1
 71
     0
 10
0.0
 20
0.0
 11
23.28333333333333
 21
17.99166666666666
 12
0.0
 22
0.0
 32
0.0
 14
0.0
 24
0.0
 34
0.0
 15
23.28333333333333
 25
17.99166666666666
 35
0.0
146
0.0
 13
0.0
 23
0.0
 33
0.0
 16
1.0
 26
0.0
 36
0.0
 17
0.0
 27
1.0
 37
0.0
 76
     0
330
1F
331
29
  0
MATERIAL
  5
3D
102
{ACAD_REACTORS
330
3B
102
}
330
3B
100
AcDbMaterial
  1
ByBlock
 73
     1
 78
     1
172
     1
176
     1
270
     1
274
     1
  0
MATERIAL
  5
3C
102
{ACAD_REACTORS
330
3B
102
}
330
3B
100
AcDbMaterial
  1
ByLayer
 73
     1
 78
     1
172
     1
176
     1
270
     1
274
     1
  0
MATERIAL
  5
3E
102
{ACAD_REACTORS
330
3B
102
}
330
3B
100
AcDbMaterial
  1
Global
 73
     1
 78
     1
172
     1
176
     1
270
     1
274
     1
  0
MLEADERSTYLE
  5
4EF
102
{ACAD_REACTORS
330
4E0
102
}
330
4E0
100
AcDbMLeaderStyle
179
     2
170
     2
171
     1
172
     0
 90
        2
 40
0.0
 41
0.0
173
     1
 91
-1056964608
340
14
 92
       -2
290
     1
 42
2.0
291
     1
 43
0.36
  3
Standard
 44
4.0
300

342
11
174
     1
178
     6
175
     1
176
     0
 93
-1056964608
 45
4.0
292
     0
297
     0
 46
4.0
 94
-1056964608
 47
1.0
 49
1.0
140
1.0
293
     1
141
0.0
294
     1
177
     0
142
1.0
295
     1
296
     0
143
0.125
271
     0
272
     9
273
     9
  0
MLINESTYLE
  5
18
102
{ACAD_REACTORS
330
17
102
}
330
17
100
AcDbMlineStyle
  2
STANDARD
 70
     0
  3

 62
   256
 51
90.0
 52
90.0
 71
     2
 49
0.5
 62
   256
  6
BYLAYER
 49
-0.5
 62
   256
  6
BYLAYER
  0
ACDBPLACEHOLDER
  5
F
102
{ACAD_REACTORS
330
E
102
}
330
E
  0
SCALE
  5
6A
102
{ACAD_REACTORS
330
69
102
}
330
69
100
AcDbScale
 70
     0
300
1:1
140
1.0
141
1.0
290
     1
  0
SCALE
  5
6B
102
{ACAD_REACTORS
330
69
102
}
330
69
100
AcDbScale
 70
     0
300
1:2
140
1.0
141
2.0
290
     0
  0
SCALE
  5
6C
102
{ACAD_REACTORS
330
69
102
}
330
69
100
AcDbScale
 70
     0
300
1:4
140
1.0
141
4.0
290
     0
  0
SCALE
  5
6D
102
{ACAD_REACTORS
330
69
102
}
330
69
100
AcDbScale
 70
     0
300
1:5
140
1.0
141
5.0
290
     0
  0
SCALE
  5
6E
102
{ACAD_REACTORS
330
69
102
}
330
69
100
AcDbScale
 70
     0
300
1:8
140
1.0
141
8.0
290
     0
  0
SCALE
  5
6F
102
{ACAD_REACTORS
330
69
102
}
330
69
100
AcDbScale
 70
     0
300
1:10
140
1.0
141
10.0
290
     0
  0
SCALE
  5
70
102
{ACAD_REACTORS
330
69
102
}
330
69
100
AcDbScale
 70
     0
300
1:16
140
1.0
141
16.0
290
     0
  0
SCALE
  5
71
102
{ACAD_REACTORS
330
69
102
}
330
69
100
AcDbScale
 70
     0
300
1:20
140
1.0
141
20.0
290
     0
  0
SCALE
  5
72
102
{ACAD_REACTORS
330
69
102
}
330
69
100
AcDbScale
 70
     0
300
1:30
140
1.0
141
30.0
290
     0
  0
SCALE
  5
73
102
{ACAD_REACTORS
330
69
102
}
330
69
100
AcDbScale
 70
     0
300
1:40
140
1.0
141
40.0
290
     0
  0
SCALE
  5
74
102
{ACAD_REACTORS
330
69
102
}
330
69
100
AcDbScale
 70
     0
300
1:50
140
1.0
141
50.0
290
     0
  0
SCALE
  5
75
102
{ACAD_REACTORS
330
69
102
}
330
69
100
AcDbScale
 70
     0
300
1:100
140
1.0
141
100.0
290
     0
  0
SCALE
  5
76
102
{ACAD_REACTORS
330
69
102
}
330
69
100
AcDbScale
 70
     0
300
2:1
140
2.0
141
1.0
290
     0
  0
SCALE
  5
77
102
{ACAD_REACTORS
330
69
102
}
330
69
100
AcDbScale
 70
     0
300
4:1
140
4.0
141
1.0
290
     0
  0
SCALE
  5
78
102
{ACAD_REACTORS
330
69
102
}
330
69
100
AcDbScale
 70
     0
300
8:1
140
8.0
141
1.0
290
     0
  0
SCALE
  5
79
102
{ACAD_REACTORS
330
69
102
}
330
69
100
AcDbScale
 70
     0
300
10:1
140
10.0
141
1.0
290
     0
  0
SCALE
  5
7A
102
{ACAD_REACTORS
330
69
102
}
330
69
100
AcDbScale
 70
     0
300
100:1
140
100.0
141
1.0
290
     0
  0
SCALE
  5
7B
102
{ACAD_REACTORS
330
69
102
}
330
69
100
AcDbScale
 70
     0
300
1/128" = 1'-0"
140
0.0078125
141
12.0
290
     0
  0
SCALE
  5
7C
102
{ACAD_REACTORS
330
69
102
}
330
69
100
AcDbScale
 70
     0
300
1/64" = 1'-0"
140
0.015625
141
12.0
290
     0
  0
SCALE
  5
7D
102
{ACAD_REACTORS
330
69
102
}
330
69
100
AcDbScale
 70
     0
300
1/32" = 1'-0"
140
0.03125
141
12.0
290
     0
  0
SCALE
  5
7E
102
{ACAD_REACTORS
330
69
102
}
330
69
100
AcDbScale
 70
     0
300
1/16" = 1'-0"
140
0.0625
141
12.0
290
     0
  0
SCALE
  5
7F
102
{ACAD_REACTORS
330
69
102
}
330
69
100
AcDbScale
 70
     0
300
3/32" = 1'-0"
140
0.09375
141
12.0
290
     0
  0
SCALE
  5
80
102
{ACAD_REACTORS
330
69
102
}
330
69
100
AcDbScale
 70
     0
300
1/8" = 1'-0"
140
0.125
141
12.0
290
     0
  0
SCALE
  5
81
102
{ACAD_REACTORS
330
69
102
}
330
69
100
AcDbScale
 70
     0
300
3/16" = 1'-0"
140
0.1875
141
12.0
290
     0
  0
SCALE
  5
82
102
{ACAD_REACTORS
330
69
102
}
330
69
100
AcDbScale
 70
     0
300
1/4" = 1'-0"
140
0.25
141
12.0
290
     0
  0
SCALE
  5
83
102
{ACAD_REACTORS
330
69
102
}
330
69
100
AcDbScale
 70
     0
300
3/8" = 1'-0"
140
0.375
141
12.0
290
     0
  0
SCALE
  5
84
102
{ACAD_REACTORS
330
69
102
}
330
69
100
AcDbScale
 70
     0
300
1/2" = 1'-0"
140
0.5
141
12.0
290
     0
  0
SCALE
  5
85
102
{ACAD_REACTORS
330
69
102
}
330
69
100
AcDbScale
 70
     0
300
3/4" = 1'-0"
140
0.75
141
12.0
290
     0
  0
SCALE
  5
86
102
{ACAD_REACTORS
330
69
102
}
330
69
100
AcDbScale
 70
     0
300
1" = 1'-0"
140
1.0
141
12.0
290
     0
  0
SCALE
  5
87
102
{ACAD_REACTORS
330
69
102
}
330
69
100
AcDbScale
 70
     0
300
1-1/2" = 1'-0"
140
1.5
141
12.0
290
     0
  0
SCALE
  5
88
102
{ACAD_REACTORS
330
69
102
}
330
69
100
AcDbScale
 70
     0
300
3" = 1'-0"
140
3.0
141
12.0
290
     0
  0
SCALE
  5
89
102
{ACAD_REACTORS
330
69
102
}
330
69
100
AcDbScale
 70
     0
300
6" = 1'-0"
140
6.0
141
12.0
290
     0
  0
SCALE
  5
8A
102
{ACAD_REACTORS
330
69
102
}
330
69
100
AcDbScale
 70
     0
300
1'-0" = 1'-0"
140
12.0
141
12.0
290
     0
  0
TABLESTYLE
  5
4EE
102
{ACAD_XDICTIONARY
360
4F9
102
}
102
{ACAD_REACTORS
330
4DF
102
}
330
4DF
100
AcDbTableStyle
280
     0
  3
Standard
 70
     0
 71
     0
 40
1.5
 41
1.5
280
     0
281
     0
  7
STANDARD
140
4.5
170
     2
 62
     0
 63
     7
283
     0
 90
      512
 91
        0
  1

274
    -2
284
     1
 64
     0
275
    -2
285
     1
 65
     0
276
    -2
286
     1
 66
     0
277
    -2
287
     1
 67
     0
278
    -2
288
     1
 68
     0
279
    -2
289
     1
 69
     0
  7
STANDARD
140
6.0
170
     5
 62
     0
 63
     7
283
     0
 90
      512
 91
        0
  1

274
    -2
284
     1
 64
     0
275
    -2
285
     1
 65
     0
276
    -2
286
     1
 66
     0
277
    -2
287
     1
 67
     0
278
    -2
288
     1
 68
     0
279
    -2
289
     1
 69
     0
  7
STANDARD
140
4.5
170
     5
 62
     0
 63
     7
283
     0
 90
      512
 91
        0
  1

274
    -2
284
     1
 64
     0
275
    -2
285
     1
 65
     0
276
    -2
286
     1
 66
     0
277
    -2
287
     1
 67
     0
278
    -2
288
     1
 68
     0
279
    -2
289
     1
 69
     0
  0
VISUALSTYLE
  5
2F
102
{ACAD_REACTORS
330
2A
102
}
330
2A
100
AcDbVisualStyle
  2
2dWireframe
 70
     4
177
     2
291
     0
 71
     0
176
     1
 72
     2
176
     1
 73
     0
176
     1
 90
        0
176
     1
 40
0.6
176
     1
 41
30.0
176
     1
 63
     7
421
 16777215
176
     1
 74
     1
176
     1
 91
        4
176
     1
 64
     7
176
     1
 65
   257
176
     1
 75
     1
176
     1
175
     1
176
     1
 42
1.0
176
     1
 92
        0
176
     1
 66
   257
176
     1
 43
1.0
176
     1
 76
     1
176
     1
 77
     6
176
     1
 78
     2
176
     1
 67
     7
176
     1
 79
     5
176
     1
170
     0
176
     1
171
     0
176
     1
290
     0
176
     1
 93
        1
176
     1
 44
0.0
176
     1
173
     0
176
     1
  0
VISUALSTYLE
  5
31
102
{ACAD_REACTORS
330
2A
102
}
330
2A
100
AcDbVisualStyle
  2
3D Hidden
 70
     6
177
     2
291
     0
 71
     1
176
     1
 72
     2
176
     1
 73
     2
176
     1
 90
        0
176
     1
 40
0.6
176
     1
 41
30.0
176
     1
 63
     7
421
 16777215
176
     1
 74
     2
176
     1
 91
        2
176
     1
 64
     7
176
     1
 65
   257
176
     1
 75
     2
176
     1
175
     1
176
     1
 42
40.0
176
     1
 92
        0
176
     1
 66
   257
176
     1
 43
1.0
176
     1
 76
     1
176
     1
 77
     6
176
     1
 78
     2
176
     1
 67
     7
176
     1
 79
     3
176
     1
170
     0
176
     1
171
     0
176
     1
290
     0
176
     1
 93
        1
176
     1
 44
0.0
176
     1
173
     0
176
     1
  0
VISUALSTYLE
  5
30
102
{ACAD_REACTORS
330
2A
102
}
330
2A
100
AcDbVisualStyle
  2
3dWireframe
 70
     5
177
     2
291
     0
 71
     0
176
     1
 72
     2
176
     1
 73
     0
176
     1
 90
        0
176
     1
 40
0.6
176
     1
 41
30.0
176
     1
 63
     7
421
 16777215
176
     1
 74
     1
176
     1
 91
        4
176
     1
 64
     7
176
     1
 65
   257
176
     1
 75
     1
176
     1
175
     1
176
     1
 42
1.0
176
     1
 92
        0
176
     1
 66
   257
176
     1
 43
1.0
176
     1
 76
     1
176
     1
 77
     6
176
     1
 78
     2
176
     1
 67
     7
176
     1
 79
     5
176
     1
170
     0
176
     1
171
     0
176
     1
290
     0
176
     1
 93
        1
176
     1
 44
0.0
176
     1
173
     0
176
     1
  0
VISUALSTYLE
  5
32
102
{ACAD_REACTORS
330
2A
102
}
330
2A
100
AcDbVisualStyle
  2
Basic
 70
     7
177
     2
291
     1
 71
     1
176
     1
 72
     0
176
     1
 73
     1
176
     1
 90
        0
176
     1
 40
0.6
176
     1
 41
30.0
176
     1
 63
     7
421
 16777215
176
     1
 74
     0
176
     1
 91
        4
176
     1
 64
     7
176
     1
 65
   257
176
     1
 75
     1
176
     1
175
     1
176
     1
 42
1.0
176
     1
 92
        8
176
     1
 66
     7
176
     1
 43
1.0
176
     1
 76
     1
176
     1
 77
     6
176
     1
 78
     2
176
     1
 67
     7
176
     1
 79
     5
176
     1
170
     0
176
     1
171
     0
176
     1
290
     0
176
     1
 93
        1
176
     1
 44
0.0
176
     1
173
     0
176
     1
  0
VISUALSTYLE
  5
36
102
{ACAD_REACTORS
330
2A
102
}
330
2A
100
AcDbVisualStyle
  2
Brighten
 70
    12
177
     2
291
     1
 71
     2
176
     1
 72
     2
176
     1
 73
     0
176
     1
 90
        0
176
     1
 40
0.6
176
     1
 41
30.0
176
     1
 63
     7
421
 16777215
176
     1
 74
     1
176
     1
 91
        4
176
     1
 64
     7
176
     1
 65
   257
176
     1
 75
     1
176
     1
175
     1
176
     1
 42
1.0
176
     1
 92
        8
176
     1
 66
     7
176
     1
 43
1.0
176
     1
 76
     1
176
     1
 77
     6
176
     1
 78
     2
176
     1
 67
     7
176
     1
 79
     5
176
     1
170
     0
176
     1
171
     0
176
     1
290
     0
176
     1
 93
        1
176
     1
 44
50.0
176
     1
173
     0
176
     1
  0
VISUALSTYLE
  5
3A
102
{ACAD_REACTORS
330
2A
102
}
330
2A
100
AcDbVisualStyle
  2
ColorChange
 70
    16
177
     2
291
     1
 71
     2
176
     1
 72
     2
176
     1
 73
     3
176
     1
 90
        0
176
     1
 40
0.6
176
     1
 41
30.0
176
     1
 63
     8
421
  8421504
176
     1
 74
     1
176
     1
 91
        4
176
     1
 64
     7
176
     1
 65
   257
176
     1
 75
     1
176
     1
175
     1
176
     1
 42
1.0
176
     1
 92
        8
176
     1
 66
     8
424
  8421504
176
     1
 43
1.0
176
     1
 76
     1
176
     1
 77
     6
176
     1
 78
     2
176
     1
 67
     7
176
     1
 79
     5
176
     1
170
     0
176
     1
171
     0
176
     1
290
     0
176
     1
 93
        1
176
     1
 44
0.0
176
     1
173
     0
176
     1
  0
VISUALSTYLE
  5
34
102
{ACAD_REACTORS
330
2A
102
}
330
2A
100
AcDbVisualStyle
  2
Conceptual
 70
     9
177
     2
291
     0
 71
     3
176
     1
 72
     2
176
     1
 73
     0
176
     1
 90
        0
176
     1
 40
0.6
176
     1
 41
30.0
176
     1
 63
     7
421
 16777215
176
     1
 74
     2
176
     1
 91
        2
176
     1
 64
     7
176
     1
 65
   257
176
     1
 75
     1
176
     1
175
     1
176
     1
 42
40.0
176
     1
 92
        8
176
     1
 66
     7
176
     1
 43
1.0
176
     1
 76
     1
176
     1
 77
     6
176
     1
 78
     2
176
     1
 67
     7
176
     1
 79
     3
176
     1
170
     0
176
     1
171
     0
176
     1
290
     0
176
     1
 93
        1
176
     1
 44
0.0
176
     1
173
     0
176
     1
  0
VISUALSTYLE
  5
35
102
{ACAD_REACTORS
330
2A
102
}
330
2A
100
AcDbVisualStyle
  2
Dim
 70
    11
177
     2
291
     1
 71
     2
176
     1
 72
     2
176
     1
 73
     0
176
     1
 90
        0
176
     1
 40
0.6
176
     1
 41
30.0
176
     1
 63
     7
421
 16777215
176
     1
 74
     1
176
     1
 91
        4
176
     1
 64
     7
176
     1
 65
   257
176
     1
 75
     1
176
     1
175
     1
176
     1
 42
1.0
176
     1
 92
        8
176
     1
 66
     7
176
     1
 43
1.0
176
     1
 76
     1
176
     1
 77
     6
176
     1
 78
     2
176
     1
 67
     7
176
     1
 79
     5
176
     1
170
     0
176
     1
171
     0
176
     1
290
     0
176
     1
 93
        1
176
     1
 44
-50.0
176
     1
173
     0
176
     1
  0
VISUALSTYLE
  5
4EC
102
{ACAD_REACTORS
330
2A
102
}
330
2A
100
AcDbVisualStyle
  2
EdgeColorOff
 70
    22
177
     2
291
     1
 71
     2
176
     0
 72
     2
176
     0
 73
     0
176
     0
 90
        0
176
     0
 40
0.6
176
     0
 41
30.0
176
     0
 63
     7
421
 16777215
176
     0
 74
     1
176
     0
 91
        4
176
     0
 64
     7
176
     0
 65
   257
176
     0
 75
     1
176
     0
175
     1
176
     0
 42
1.0
176
     0
 92
        8
176
     2
 66
     7
176
     0
 43
1.0
176
     0
 76
     1
176
     0
 77
     6
176
     0
 78
     2
176
     0
 67
     7
176
     0
 79
     5
176
     0
170
     0
176
     0
171
     0
176
     0
290
     0
176
     0
 93
        1
176
     0
 44
0.0
176
     0
173
     0
176
     0
  0
VISUALSTYLE
  5
39
102
{ACAD_REACTORS
330
2A
102
}
330
2A
100
AcDbVisualStyle
  2
Facepattern
 70
    15
177
     2
291
     1
 71
     2
176
     1
 72
     2
176
     1
 73
     0
176
     1
 90
        0
176
     1
 40
0.6
176
     1
 41
30.0
176
     1
 63
     7
421
 16777215
176
     1
 74
     1
176
     1
 91
        4
176
     1
 64
     7
176
     1
 65
   257
176
     1
 75
     1
176
     1
175
     1
176
     1
 42
1.0
176
     1
 92
        8
176
     1
 66
     7
176
     1
 43
1.0
176
     1
 76
     1
176
     1
 77
     6
176
     1
 78
     2
176
     1
 67
     7
176
     1
 79
     5
176
     1
170
     0
176
     1
171
     0
176
     1
290
     0
176
     1
 93
        1
176
     1
 44
0.0
176
     1
173
     0
176
     1
  0
VISUALSTYLE
  5
2B
102
{ACAD_REACTORS
330
2A
102
}
330
2A
100
AcDbVisualStyle
  2
Flat
 70
     0
177
     2
291
     1
 71
     2
176
     1
 72
     1
176
     1
 73
     1
176
     1
 90
        2
176
     1
 40
0.6
176
     1
 41
30.0
176
     1
 63
     7
421
 16777215
176
     1
 74
     0
176
     1
 91
        4
176
     1
 64
     7
176
     1
 65
   257
176
     1
 75
     1
176
     1
175
     1
176
     1
 42
1.0
176
     1
 92
        8
176
     1
 66
     7
176
     1
 43
1.0
176
     1
 76
     1
176
     1
 77
     6
176
     1
 78
     2
176
     1
 67
     7
176
     1
 79
     5
176
     1
170
     0
176
     1
171
     0
176
     1
290
     0
176
     1
 93
       13
176
     1
 44
0.0
176
     1
173
     0
176
     1
  0
VISUALSTYLE
  5
2C
102
{ACAD_REACTORS
330
2A
102
}
330
2A
100
AcDbVisualStyle
  2
FlatWithEdges
 70
     1
177
     2
291
     1
 71
     2
176
     1
 72
     1
176
     1
 73
     1
176
     1
 90
        2
176
     1
 40
0.6
176
     1
 41
30.0
176
     1
 63
     7
421
 16777215
176
     1
 74
     1
176
     1
 91
        4
176
     1
 64
     7
176
     1
 65
   257
176
     1
 75
     1
176
     1
175
     1
176
     1
 42
1.0
176
     1
 92
        0
176
     1
 66
   257
176
     1
 43
1.0
176
     1
 76
     1
176
     1
 77
     6
176
     1
 78
     2
176
     1
 67
     7
176
     1
 79
     5
176
     1
170
     0
176
     1
171
     0
176
     1
290
     0
176
     1
 93
       13
176
     1
 44
0.0
176
     1
173
     0
176
     1
  0
VISUALSTYLE
  5
2D
102
{ACAD_REACTORS
330
2A
102
}
330
2A
100
AcDbVisualStyle
  2
Gouraud
 70
     2
177
     2
291
     1
 71
     2
176
     1
 72
     2
176
     1
 73
     1
176
     1
 90
        2
176
     1
 40
0.6
176
     1
 41
30.0
176
     1
 63
     7
421
 16777215
176
     1
 74
     0
176
     1
 91
        4
176
     1
 64
     7
176
     1
 65
   257
176
     1
 75
     1
176
     1
175
     1
176
     1
 42
1.0
176
     1
 92
        0
176
     1
 66
     7
176
     1
 43
1.0
176
     1
 76
     1
176
     1
 77
     6
176
     1
 78
     2
176
     1
 67
     7
176
     1
 79
     5
176
     1
170
     0
176
     1
171
     0
176
     1
290
     0
176
     1
 93
       13
176
     1
 44
0.0
176
     1
173
     0
176
     1
  0
VISUALSTYLE
  5
2E
102
{ACAD_REACTORS
330
2A
102
}
330
2A
100
AcDbVisualStyle
  2
GouraudWithEdges
 70
     3
177
     2
291
     1
 71
     2
176
     1
 72
     2
176
     1
 73
     1
176
     1
 90
        2
176
     1
 40
0.6
176
     1
 41
30.0
176
     1
 63
     7
421
 16777215
176
     1
 74
     1
176
     1
 91
        4
176
     1
 64
     7
176
     1
 65
   257
176
     1
 75
     1
176
     1
175
     1
176
     1
 42
1.0
176
     1
 92
        0
176
     1
 66
   257
176
     1
 43
1.0
176
     1
 76
     1
176
     1
 77
     6
176
     1
 78
     2
176
     1
 67
     7
176
     1
 79
     5
176
     1
170
     0
176
     1
171
     0
176
     1
290
     0
176
     1
 93
       13
176
     1
 44
0.0
176
     1
173
     0
176
     1
  0
VISUALSTYLE
  5
4E4
102
{ACAD_REACTORS
330
2A
102
}
330
2A
100
AcDbVisualStyle
  2
Hidden
 70
     6
177
     2
291
     0
 71
     1
176
     1
 72
     2
176
     1
 73
     2
176
     1
 90
        0
176
     1
 40
0.6
176
     1
 41
30.0
176
     1
 63
     7
421
 16777215
176
     1
 74
     2
176
     1
 91
        2
176
     1
 64
     7
176
     1
 65
   257
176
     1
 75
     2
176
     1
175
     1
176
     1
 42
40.0
176
     1
 92
        0
176
     1
 66
   257
176
     1
 43
1.0
176
     1
 76
     1
176
     1
 77
     6
176
     1
 78
     2
176
     1
 67
     7
176
     1
 79
     3
176
     1
170
     0
176
     1
171
     0
176
     1
290
     0
176
     1
 93
        1
176
     1
 44
0.0
176
     1
173
     0
176
     1
  0
VISUALSTYLE
  5
4EA
102
{ACAD_REACTORS
330
2A
102
}
330
2A
100
AcDbVisualStyle
  2
JitterOff
 70
    20
177
     2
291
     1
 71
     2
176
     0
 72
     2
176
     0
 73
     0
176
     0
 90
        0
176
     0
 40
0.6
176
     0
 41
30.0
176
     0
 63
     7
421
 16777215
176
     0
 74
     1
176
     0
 91
        4
176
     0
 64
     7
176
     0
 65
   257
176
     0
 75
     1
176
     0
175
     1
176
     0
 42
1.0
176
     0
 92
       10
176
     2
 66
     7
176
     0
 43
1.0
176
     0
 76
     1
176
     0
 77
     6
176
     0
 78
     2
176
     0
 67
     7
176
     0
 79
     5
176
     0
170
     0
176
     0
171
     0
176
     0
290
     0
176
     0
 93
        1
176
     0
 44
0.0
176
     0
173
     0
176
     0
  0
VISUALSTYLE
  5
38
102
{ACAD_REACTORS
330
2A
102
}
330
2A
100
AcDbVisualStyle
  2
Linepattern
 70
    14
177
     2
291
     1
 71
     2
176
     1
 72
     2
176
     1
 73
     0
176
     1
 90
        0
176
     1
 40
0.6
176
     1
 41
30.0
176
     1
 63
     7
421
 16777215
176
     1
 74
     1
176
     1
 91
        4
176
     1
 64
     7
176
     1
 65
   257
176
     1
 75
     7
176
     1
175
     7
176
     1
 42
1.0
176
     1
 92
        8
176
     1
 66
     7
176
     1
 43
1.0
176
     1
 76
     1
176
     1
 77
     6
176
     1
 78
     2
176
     1
 67
     7
176
     1
 79
     5
176
     1
170
     0
176
     1
171
     0
176
     1
290
     0
176
     1
 93
        1
176
     1
 44
0.0
176
     1
173
     0
176
     1
  0
VISUALSTYLE
  5
4EB
102
{ACAD_REACTORS
330
2A
102
}
330
2A
100
AcDbVisualStyle
  2
OverhangOff
 70
    21
177
     2
291
     1
 71
     2
176
     0
 72
     2
176
     0
 73
     0
176
     0
 90
        0
176
     0
 40
0.6
176
     0
 41
30.0
176
     0
 63
     7
421
 16777215
176
     0
 74
     1
176
     0
 91
        4
176
     0
 64
     7
176
     0
 65
   257
176
     0
 75
     1
176
     0
175
     1
176
     0
 42
1.0
176
     0
 92
        9
176
     2
 66
     7
176
     0
 43
1.0
176
     0
 76
     1
176
     0
 77
     6
176
     0
 78
     2
176
     0
 67
     7
176
     0
 79
     5
176
     0
170
     0
176
     0
171
     0
176
     0
290
     0
176
     0
 93
        1
176
     0
 44
0.0
176
     0
173
     0
176
     0
  0
VISUALSTYLE
  5
33
102
{ACAD_REACTORS
330
2A
102
}
330
2A
100
AcDbVisualStyle
  2
Realistic
 70
     8
177
     2
291
     0
 71
     2
176
     1
 72
     2
176
     1
 73
     0
176
     1
 90
        0
176
     1
 40
0.6
176
     1
 41
30.0
176
     1
 63
     7
421
 16777215
176
     1
 74
     1
176
     1
 91
        0
176
     1
 64
     7
176
     1
 65
   257
176
     1
 75
     1
176
     1
175
     1
176
     1
 42
1.0
176
     1
 92
        8
176
     1
 66
     8
424
  7895160
176
     1
 43
1.0
176
     1
 76
     1
176
     1
 77
     6
176
     1
 78
     2
176
     1
 67
     7
176
     1
 79
     5
176
     1
170
     0
176
     1
171
     0
176
     1
290
     0
176
     1
 93
       13
176
     1
 44
0.0
176
     1
173
     0
176
     1
  0
VISUALSTYLE
  5
4E9
102
{ACAD_REACTORS
330
2A
102
}
330
2A
100
AcDbVisualStyle
  2
Shaded
 70
    27
177
     2
291
     0
 71
     2
176
     1
 72
     2
176
     1
 73
     1
176
     1
 90
        2
176
     1
 40
0.6
176
     1
 41
30.0
176
     1
 63
     7
421
 16777215
176
     1
 74
     0
176
     1
 91
        4
176
     1
 64
     7
176
     1
 65
   257
176
     1
 75
     1
176
     1
175
     1
176
     1
 42
1.0
176
     1
 92
        8
176
     1
 66
   257
176
     1
 43
1.0
176
     1
 76
     1
176
     1
 77
     6
176
     1
 78
     2
176
     1
 67
     8
425
  7895160
176
     1
 79
     3
176
     1
170
     0
176
     1
171
     0
176
     1
290
     0
176
     1
 93
        5
176
     1
 44
0.0
176
     1
173
     0
176
     1
  0
VISUALSTYLE
  5
4E8
102
{ACAD_REACTORS
330
2A
102
}
330
2A
100
AcDbVisualStyle
  2
Shaded with edges
 70
    26
177
     2
291
     0
 71
     2
176
     1
 72
     2
176
     1
 73
     1
176
     1
 90
        2
176
     1
 40
0.6
176
     1
 41
30.0
176
     1
 63
     7
421
 16777215
176
     1
 74
     1
176
     1
 91
       10
176
     1
 64
     7
176
     1
 65
   257
176
     1
 75
     2
176
     1
175
     1
176
     1
 42
1.0
176
     1
 92
        8
176
     1
 66
   257
176
     1
 43
1.0
176
     1
 76
     1
176
     1
 77
     6
176
     1
 78
     2
176
     1
 67
     7
176
     1
 79
     3
176
     1
170
     0
176
     1
171
     0
176
     1
290
     0
176
     1
 93
        5
176
     1
 44
0.0
176
     1
173
     0
176
     1
  0
VISUALSTYLE
  5
4E5
102
{ACAD_REACTORS
330
2A
102
}
330
2A
100
AcDbVisualStyle
  2
Shades of Gray
 70
    23
177
     2
291
     0
 71
     2
176
     1
 72
     2
176
     1
 73
     3
176
     1
 90
        0
176
     1
 40
0.6
176
     1
 41
30.0
176
     1
 63
     7
421
 16777215
176
     1
 74
     2
176
     1
 91
        2
176
     1
 64
     7
176
     1
 65
     7
176
     1
 75
     1
176
     1
175
     1
176
     1
 42
40.0
176
     1
 92
        8
176
     1
 66
     7
176
     1
 43
1.0
176
     1
 76
     1
176
     1
 77
     6
176
     1
 78
     2
176
     1
 67
     7
176
     1
 79
     3
176
     1
170
     0
176
     1
171
     0
176
     1
290
     0
176
     1
 93
        1
176
     1
 44
0.0
176
     1
173
     0
176
     1
  0
VISUALSTYLE
  5
4E6
102
{ACAD_REACTORS
330
2A
102
}
330
2A
100
AcDbVisualStyle
  2
Sketchy
 70
    24
177
     2
291
     0
 71
     1
176
     1
 72
     2
176
     1
 73
     2
176
     1
 90
        0
176
     1
 40
0.6
176
     1
 41
30.0
176
     1
 63
     7
421
 16777215
176
     1
 74
     2
176
     1
 91
        2
176
     1
 64
     7
176
     1
 65
     7
176
     1
 75
     1
176
     1
175
     1
176
     1
 42
40.0
176
     1
 92
       11
176
     1
 66
     7
176
     1
 43
1.0
176
     1
 76
     1
176
     1
 77
     6
176
     1
 78
     2
176
     1
 67
     7
176
     1
 79
     6
176
     1
170
     0
176
     1
171
     0
176
     1
290
     0
176
     1
 93
        1
176
     1
 44
0.0
176
     1
173
     0
176
     1
  0
VISUALSTYLE
  5
37
102
{ACAD_REACTORS
330
2A
102
}
330
2A
100
AcDbVisualStyle
  2
Thicken
 70
    13
177
     2
291
     1
 71
     2
176
     1
 72
     2
176
     1
 73
     0
176
     1
 90
        0
176
     1
 40
0.6
176
     1
 41
30.0
176
     1
 63
     7
421
 16777215
176
     1
 74
     1
176
     1
 91
        4
176
     1
 64
     7
176
     1
 65
   257
176
     1
 75
     1
176
     1
175
     1
176
     1
 42
1.0
176
     1
 92
       12
176
     1
 66
     7
176
     1
 43
1.0
176
     1
 76
     1
176
     1
 77
     6
176
     1
 78
     2
176
     1
 67
     7
176
     1
 79
     5
176
     1
170
     0
176
     1
171
     0
176
     1
290
     0
176
     1
 93
        1
176
     1
 44
0.0
176
     1
173
     0
176
     1
  0
VISUALSTYLE
  5
4E3
102
{ACAD_REACTORS
330
2A
102
}
330
2A
100
AcDbVisualStyle
  2
Wireframe
 70
     5
177
     2
291
     0
 71
     0
176
     1
 72
     2
176
     1
 73
     0
176
     1
 90
        0
176
     1
 40
0.6
176
     1
 41
30.0
176
     1
 63
     7
421
 16777215
176
     1
 74
     1
176
     1
 91
        4
176
     1
 64
     7
176
     1
 65
   257
176
     1
 75
     1
176
     1
175
     1
176
     1
 42
1.0
176
     1
 92
        0
176
     1
 66
   257
176
     1
 43
1.0
176
     1
 76
     1
176
     1
 77
     6
176
     1
 78
     2
176
     1
 67
     7
176
     1
 79
     3
176
     1
170
     0
176
     1
171
     0
176
     1
290
     0
176
     1
 93
        1
176
     1
 44
0.0
176
     1
173
     0
176
     1
  0
VISUALSTYLE
  5
4E7
102
{ACAD_REACTORS
330
2A
102
}
330
2A
100
AcDbVisualStyle
  2
X-Ray
 70
    25
177
     2
291
     0
 71
     2
176
     1
 72
     2
176
     1
 73
     1
176
     1
 90
        1
176
     1
 40
0.5
176
     1
 41
30.0
176
     1
 63
     7
421
 16777215
176
     1
 74
     1
176
     1
 91
        0
176
     1
 64
     7
176
     1
 65
   257
176
     1
 75
     1
176
     1
175
     1
176
     1
 42
1.0
176
     1
 92
        8
176
     1
 66
     7
176
     1
 43
1.0
176
     1
 76
     1
176
     1
 77
     6
176
     1
 78
     2
176
     1
 67
     7
176
     1
 79
     3
176
     1
170
     0
176
     1
171
     0
176
     1
290
     0
176
     1
 93
       13
176
     1
 44
0.0
176
     1
173
     0
176
     1
  0
DICTIONARYVAR
  5
4DE
102
{ACAD_REACTORS
330
4DD
102
}
330
4DD
100
DictionaryVariables
280
     0
  1
1:1
  0
DICTIONARYVAR
  5
4F8
102
{ACAD_REACTORS
330
4DD
102
}
330
4DD
100
DictionaryVariables
280
     0
  1
STANDARD
  0
DICTIONARYVAR
  5
4F7
102
{ACAD_REACTORS
330
4DD
102
}
330
4DD
100
DictionaryVariables
280
     0
  1
STANDARD
  0
DICTIONARY
  5
4F9
330
4EE
100
AcDbDictionary
280
     1
281
     1
  3
ACAD_ROUNDTRIP_2008_TABLESTYLE_CELLSTYLEMAP
360
4FA
  0
CELLSTYLEMAP
  5
4FA
102
{ACAD_REACTORS
330
4F9
102
}
330
4F9
100
AcDbCellStyleMap
 90
        3
300
CELLSTYLE
  1
TABLEFORMAT_BEGIN
 90
        5
170
     1
 91
        0
 92
    32768
 62
   257
 93
        1
300
CONTENTFORMAT
  1
CONTENTFORMAT_BEGIN
 90
        0
 91
        0
 92
      512
 93
        0
300

 40
0.0
140
1.0
 94
        5
 62
     0
340
11
144
6.0
309
CONTENTFORMAT_END
171
     1
301
MARGIN
  1
CELLMARGIN_BEGIN
 40
1.5
 40
1.5
 40
1.5
 40
1.5
 40
4.5
 40
4.5
309
CELLMARGIN_END
 94
        6
 95
        1
302
GRIDFORMAT
  1
GRIDFORMAT_BEGIN
 90
        0
 91
        1
 62
     0
 92
       -2
340
0
 93
        0
 40
1.125
309
GRIDFORMAT_END
 95
        2
302
GRIDFORMAT
  1
GRIDFORMAT_BEGIN
 90
        0
 91
        1
 62
     0
 92
       -2
340
0
 93
        0
 40
1.125
309
GRIDFORMAT_END
 95
        4
302
GRIDFORMAT
  1
GRIDFORMAT_BEGIN
 90
        0
 91
        1
 62
     0
 92
       -2
340
0
 93
        0
 40
1.125
309
GRIDFORMAT_END
 95
        8
302
GRIDFORMAT
  1
GRIDFORMAT_BEGIN
 90
        0
 91
        1
 62
     0
 92
       -2
340
0
 93
        0
 40
1.125
309
GRIDFORMAT_END
 95
       16
302
GRIDFORMAT
  1
GRIDFORMAT_BEGIN
 90
        0
 91
        1
 62
     0
 92
       -2
340
0
 93
        0
 40
1.125
309
GRIDFORMAT_END
 95
       32
302
GRIDFORMAT
  1
GRIDFORMAT_BEGIN
 90
        0
 91
        1
 62
     0
 92
       -2
340
0
 93
        0
 40
1.125
309
GRIDFORMAT_END
309
TABLEFORMAT_END
  1
CELLSTYLE_BEGIN
 90
        1
 91
        1
300
_TITLE
309
CELLSTYLE_END
300
CELLSTYLE
  1
TABLEFORMAT_BEGIN
 90
        5
170
     1
 91
        0
 92
        0
 62
   257
 93
        1
300
CONTENTFORMAT
  1
CONTENTFORMAT_BEGIN
 90
        0
 91
        0
 92
      512
 93
        0
300

 40
0.0
140
1.0
 94
        5
 62
     0
340
11
144
4.5
309
CONTENTFORMAT_END
171
     1
301
MARGIN
  1
CELLMARGIN_BEGIN
 40
1.5
 40
1.5
 40
1.5
 40
1.5
 40
4.5
 40
4.5
309
CELLMARGIN_END
 94
        6
 95
        1
302
GRIDFORMAT
  1
GRIDFORMAT_BEGIN
 90
        0
 91
        1
 62
     0
 92
       -2
340
0
 93
        0
 40
1.125
309
GRIDFORMAT_END
 95
        2
302
GRIDFORMAT
  1
GRIDFORMAT_BEGIN
 90
        0
 91
        1
 62
     0
 92
       -2
340
0
 93
        0
 40
1.125
309
GRIDFORMAT_END
 95
        4
302
GRIDFORMAT
  1
GRIDFORMAT_BEGIN
 90
        0
 91
        1
 62
     0
 92
       -2
340
0
 93
        0
 40
1.125
309
GRIDFORMAT_END
 95
        8
302
GRIDFORMAT
  1
GRIDFORMAT_BEGIN
 90
        0
 91
        1
 62
     0
 92
       -2
340
0
 93
        0
 40
1.125
309
GRIDFORMAT_END
 95
       16
302
GRIDFORMAT
  1
GRIDFORMAT_BEGIN
 90
        0
 91
        1
 62
     0
 92
       -2
340
0
 93
        0
 40
1.125
309
GRIDFORMAT_END
 95
       32
302
GRIDFORMAT
  1
GRIDFORMAT_BEGIN
 90
        0
 91
        1
 62
     0
 92
       -2
340
0
 93
        0
 40
1.125
309
GRIDFORMAT_END
309
TABLEFORMAT_END
  1
CELLSTYLE_BEGIN
 90
        2
 91
        1
300
_HEADER
309
CELLSTYLE_END
300
CELLSTYLE
  1
TABLEFORMAT_BEGIN
 90
        5
170
     1
 91
        0
 92
        0
 62
   257
 93
        1
300
CONTENTFORMAT
  1
CONTENTFORMAT_BEGIN
 90
        0
 91
        0
 92
      512
 93
        0
300

 40
0.0
140
1.0
 94
        2
 62
     0
340
11
144
4.5
309
CONTENTFORMAT_END
171
     1
301
MARGIN
  1
CELLMARGIN_BEGIN
 40
1.5
 40
1.5
 40
1.5
 40
1.5
 40
4.5
 40
4.5
309
CELLMARGIN_END
 94
        6
 95
        1
302
GRIDFORMAT
  1
GRIDFORMAT_BEGIN
 90
        0
 91
        1
 62
     0
 92
       -2
340
0
 93
        0
 40
1.125
309
GRIDFORMAT_END
 95
        2
302
GRIDFORMAT
  1
GRIDFORMAT_BEGIN
 90
        0
 91
        1
 62
     0
 92
       -2
340
0
 93
        0
 40
1.125
309
GRIDFORMAT_END
 95
        4
302
GRIDFORMAT
  1
GRIDFORMAT_BEGIN
 90
        0
 91
        1
 62
     0
 92
       -2
340
0
 93
        0
 40
1.125
309
GRIDFORMAT_END
 95
        8
302
GRIDFORMAT
  1
GRIDFORMAT_BEGIN
 90
        0
 91
        1
 62
     0
 92
       -2
340
0
 93
        0
 40
1.125
309
GRIDFORMAT_END
 95
       16
302
GRIDFORMAT
  1
GRIDFORMAT_BEGIN
 90
        0
 91
        1
 62
     0
 92
       -2
340
0
 93
        0
 40
1.125
309
GRIDFORMAT_END
 95
       32
302
GRIDFORMAT
  1
GRIDFORMAT_BEGIN
 90
        0
 91
        1
 62
     0
 92
       -2
340
0
 93
        0
 40
1.125
309
GRIDFORMAT_END
309
TABLEFORMAT_END
  1
CELLSTYLE_BEGIN
 90
        3
 91
        2
300
_DATA
309
CELLSTYLE_END
  0
ENDSEC
  0
EOF
