  0
SECTION
  2
HEADER
  9
$ACADVER
  1
AC1024
  9
$ACADMAINTVER
 70
    38
  9
$DWGCODEPAGE
  3
ANSI_1252
  9
$LASTSAVEDBY
  1
SkudHome1
  9
$INSBASE
 10
0.0
 20
0.0
 30
0.0
  9
$EXTMIN
 10
0.698345483333328
 20
0.8298882113821042
 30
-0.0000000000001182
  9
$EXTMAX
 10
22.50001215000001
 20
17.33988821138211
 30
0.0
  9
$LIMMIN
 10
0.0
 20
0.0
  9
$LIMMAX
 10
23.28333333333333
 20
17.99166666666666
  9
$ORTHOMODE
 70
     0
  9
$REGENMODE
 70
     1
  9
$FILLMODE
 70
     1
  9
$QTEXTMODE
 70
     0
  9
$MIRRTEXT
 70
     1
  9
$LTSCALE
 40
0.0833333333333333
  9
$ATTMODE
 70
     1
  9
$TEXTSIZE
 40
2.5
  9
$TRACEWID
 40
1.0
  9
$TEXTSTYLE
  7
STANDARD
  9
$CLAYER
  8
0
  9
$CELTYPE
  6
ByLayer
  9
$CECOLOR
 62
   256
  9
$CELTSCALE
 40
1.0
  9
$DISPSILH
 70
     0
  9
$DIMSCALE
 40
1.0
  9
$DIMASZ
 40
0.1666666666666666
  9
$DIMEXO
 40
0.125
  9
$DIMDLI
 40
3.75
  9
$DIMRND
 40
0.0
  9
$DIMDLE
 40
0.0
  9
$DIMEXE
 40
0.1666666666666666
  9
$DIMTP
 40
0.0
  9
$DIMTM
 40
0.0
  9
$DIMTXT
 40
0.2939814814814814
  9
$DIMCEN
 40
2.5
  9
$DIMTSZ
 40
0.0
  9
$DIMTOL
 70
     0
  9
$DIMLIM
 70
     0
  9
$DIMTIH
 70
     1
  9
$DIMTOH
 70
     1
  9
$DIMSE1
 70
     0
  9
$DIMSE2
 70
     0
  9
$DIMTAD
 70
     1
  9
$DIMZIN
 70
     0
  9
$DIMBLK
  1

  9
$DIMASO
 70
     1
  9
$DIMSHO
 70
     1
  9
$DIMPOST
  1

  9
$DIMAPOST
  1

  9
$DIMALT
 70
     0
  9
$DIMALTD
 70
     3
  9
$DIMALTF
 40
0.0393700787401575
  9
$DIMLFAC
 40
1.0
  9
$DIMTOFL
 70
     1
  9
$DIMTVP
 40
0.0
  9
$DIMTIX
 70
     0
  9
$DIMSOXD
 70
     0
  9
$DIMSAH
 70
     0
  9
$DIMBLK1
  1

  9
$DIMBLK2
  1

  9
$DIMSTYLE
  2
ISO-25
  9
$DIMCLRD
 70
     0
  9
$DIMCLRE
 70
     0
  9
$DIMCLRT
 70
     0
  9
$DIMTFAC
 40
1.0
  9
$DIMGAP
 40
0.0833333333333333
  9
$DIMJUST
 70
     0
  9
$DIMSD1
 70
     0
  9
$DIMSD2
 70
     0
  9
$DIMTOLJ
 70
     0
  9
$DIMTZIN
 70
     0
  9
$DIMALTZ
 70
     0
  9
$DIMALTTZ
 70
     0
  9
$DIMUPT
 70
     0
  9
$DIMDEC
 70
     2
  9
$DIMTDEC
 70
     2
  9
$DIMALTU
 70
     2
  9
$DIMALTTD
 70
     3
  9
$DIMTXSTY
  7
STANDARD
  9
$DIMAUNIT
 70
     0
  9
$DIMADEC
 70
     1
  9
$DIMALTRND
 40
0.0
  9
$DIMAZIN
 70
     0
  9
$DIMDSEP
 70
    44
  9
$DIMATFIT
 70
     3
  9
$DIMFRAC
 70
     0
  9
$DIMLDRBLK
  1

  9
$DIMLUNIT
 70
     2
  9
$DIMLWD
 70
    -2
  9
$DIMLWE
 70
    -2
  9
$DIMTMOVE
 70
     0
  9
$DIMFXL
 40
1.0
  9
$DIMFXLON
 70
     0
  9
$DIMJOGANG
 40
0.7853981633974483
  9
$DIMTFILL
 70
     0
  9
$DIMTFILLCLR
 70
     0
  9
$DIMARCSYM
 70
     0
  9
$DIMLTYPE
  6

  9
$DIMLTEX1
  6

  9
$DIMLTEX2
  6

  9
$DIMTXTDIRECTION
 70
     0
  9
$LUNITS
 70
     2
  9
$LUPREC
 70
     2
  9
$SKETCHINC
 40
1.0
  9
$FILLETRAD
 40
10.0
  9
$AUNITS
 70
     0
  9
$AUPREC
 70
     1
  9
$MENU
  1
.
  9
$ELEVATION
 40
0.0
  9
$PELEVATION
 40
0.0
  9
$THICKNESS
 40
0.0
  9
$LIMCHECK
 70
     0
  9
$CHAMFERA
 40
10.0
  9
$CHAMFERB
 40
10.0
  9
$CHAMFERC
 40
20.0
  9
$CHAMFERD
 40
0.0
  9
$SKPOLY
 70
     0
  9
$TDCREATE
 40
2456105.555234757
  9
$TDUCREATE
 40
2456105.846901424
  9
$TDUPDATE
 40
2456105.561260174
  9
$TDUUPDATE
 40
2456105.852926840
  9
$TDINDWG
 40
0.0001030671
  9
$TDUSRTIMER
 40
0.0001030671
  9
$USRTIMER
 70
     1
  9
$ANGBASE
 50
0.0
  9
$ANGDIR
 70
     0
  9
$PDMODE
 70
     0
  9
$PDSIZE
 40
-1.0
  9
$PLINEWID
 40
0.0
  9
$SPLFRAME
 70
     0
  9
$SPLINETYPE
 70
     6
  9
$SPLINESEGS
 70
     8
  9
$HANDSEED
  5
534
  9
$SURFTAB1
 70
     6
  9
$SURFTAB2
 70
     6
  9
$SURFTYPE
 70
     6
  9
$SURFU
 70
     6
  9
$SURFV
 70
     6
  9
$UCSBASE
  2

  9
$UCSNAME
  2

  9
$UCSORG
 10
0.0
 20
0.0
 30
0.0
  9
$UCSXDIR
 10
1.0
 20
0.0
 30
0.0
  9
$UCSYDIR
 10
0.0
 20
1.0
 30
0.0
  9
$UCSORTHOREF
  2

  9
$UCSORTHOVIEW
 70
     0
  9
$UCSORGTOP
 10
0.0
 20
0.0
 30
0.0
  9
$UCSORGBOTTOM
 10
0.0
 20
0.0
 30
0.0
  9
$UCSORGLEFT
 10
0.0
 20
0.0
 30
0.0
  9
$UCSORGRIGHT
 10
0.0
 20
0.0
 30
0.0
  9
$UCSORGFRONT
 10
0.0
 20
0.0
 30
0.0
  9
$UCSORGBACK
 10
0.0
 20
0.0
 30
0.0
  9
$PUCSBASE
  2

  9
$PUCSNAME
  2

  9
$PUCSORG
 10
0.0
 20
0.0
 30
0.0
  9
$PUCSXDIR
 10
1.0
 20
0.0
 30
0.0
  9
$PUCSYDIR
 10
0.0
 20
1.0
 30
0.0
  9
$PUCSORTHOREF
  2

  9
$PUCSORTHOVIEW
 70
     0
  9
$PUCSORGTOP
 10
0.0
 20
0.0
 30
0.0
  9
$PUCSORGBOTTOM
 10
0.0
 20
0.0
 30
0.0
  9
$PUCSORGLEFT
 10
0.0
 20
0.0
 30
0.0
  9
$PUCSORGRIGHT
 10
0.0
 20
0.0
 30
0.0
  9
$PUCSORGFRONT
 10
0.0
 20
0.0
 30
0.0
  9
$PUCSORGBACK
 10
0.0
 20
0.0
 30
0.0
  9
$USERI1
 70
     0
  9
$USERI2
 70
     0
  9
$USERI3
 70
     0
  9
$USERI4
 70
     0
  9
$USERI5
 70
     0
  9
$USERR1
 40
0.0
  9
$USERR2
 40
0.0
  9
$USERR3
 40
0.0
  9
$USERR4
 40
0.0
  9
$USERR5
 40
0.0
  9
$WORLDVIEW
 70
     1
  9
$SHADEDGE
 70
     3
  9
$SHADEDIF
 70
    70
  9
$TILEMODE
 70
     1
  9
$MAXACTVP
 70
    64
  9
$PINSBASE
 10
0.0
 20
0.0
 30
0.0
  9
$PLIMCHECK
 70
     0
  9
$PEXTMIN
 10
1.000000000000000E+20
 20
1.000000000000000E+20
 30
1.000000000000000E+20
  9
$PEXTMAX
 10
-1.000000000000000E+20
 20
-1.000000000000000E+20
 30
-1.000000000000000E+20
  9
$PLIMMIN
 10
0.0
 20
0.0
  9
$PLIMMAX
 10
420.0
 20
297.0
  9
$UNITMODE
 70
     0
  9
$VISRETAIN
 70
     1
  9
$PLINEGEN
 70
     0
  9
$PSLTSCALE
 70
     1
  9
$TREEDEPTH
 70
  3020
  9
$CMLSTYLE
  2
Standard
  9
$CMLJUST
 70
     0
  9
$CMLSCALE
 40
20.0
  9
$PROXYGRAPHICS
 70
     1
  9
$MEASUREMENT
 70
     1
  9
$CELWEIGHT
370
    -1
  9
$ENDCAPS
280
     0
  9
$JOINSTYLE
280
     0
  9
$LWDISPLAY
290
     1
  9
$INSUNITS
 70
     4
  9
$HYPERLINKBASE
  1

  9
$STYLESHEET
  1

  9
$XEDIT
290
     1
  9
$CEPSNTYPE
380
     0
  9
$PSTYLEMODE
290
     1
  9
$FINGERPRINTGUID
  2
{7741F963-D5FD-4521-82E3-E498397FD1CA}
  9
$VERSIONGUID
  2
{FAEB1C32-E019-11D5-929B-00C0DF256EC4}
  9
$EXTNAMES
290
     1
  9
$PSVPSCALE
 40
0.0
  9
$OLESTARTUP
290
     0
  9
$SORTENTS
280
   127
  9
$INDEXCTL
280
     0
  9
$HIDETEXT
280
     1
  9
$XCLIPFRAME
280
     2
  9
$HALOGAP
280
     0
  9
$OBSCOLOR
 70
   257
  9
$OBSLTYPE
280
     0
  9
$INTERSECTIONDISPLAY
280
     0
  9
$INTERSECTIONCOLOR
 70
   257
  9
$DIMASSOC
280
     2
  9
$PROJECTNAME
  1

  9
$CAMERADISPLAY
290
     0
  9
$LENSLENGTH
 40
50.0
  9
$CAMERAHEIGHT
 40
0.0
  9
$STEPSPERSEC
 40
2.0
  9
$STEPSIZE
 40
6.0
  9
$3DDWFPREC
 40
2.0
  9
$PSOLWIDTH
 40
5.0
  9
$PSOLHEIGHT
 40
80.0
  9
$LOFTANG1
 40
1.570796326794896
  9
$LOFTANG2
 40
1.570796326794896
  9
$LOFTMAG1
 40
0.0
  9
$LOFTMAG2
 40
0.0
  9
$LOFTPARAM
 70
     7
  9
$LOFTNORMALS
280
     1
  9
$LATITUDE
 40
37.795
  9
$LONGITUDE
 40
-122.394
  9
$NORTHDIRECTION
 40
0.0
  9
$TIMEZONE
 70
 -8000
  9
$LIGHTGLYPHDISPLAY
280
     1
  9
$TILEMODELIGHTSYNCH
280
     1
  9
$CMATERIAL
347
3C
  9
$SOLIDHIST
280
     1
  9
$SHOWHIST
280
     1
  9
$DWFFRAME
280
     2
  9
$DGNFRAME
280
     2
  9
$REALWORLDSCALE
290
     1
  9
$INTERFERECOLOR
 62
   256
  9
$INTERFEREOBJVS
345
33
  9
$INTERFEREVPVS
346
51B
  9
$CSHADOW
280
     0
  9
$SHADOWPLANELOCATION
 40
0.0
  0
ENDSEC
  0
SECTION
  2
CLASSES
  0
CLASS
  1
ACDBDICTIONARYWDFLT
  2
AcDbDictionaryWithDefault
  3
ObjectDBX Classes
 90
        0
 91
        1
280
     0
281
     0
  0
CLASS
  1
VISUALSTYLE
  2
AcDbVisualStyle
  3
ObjectDBX Classes
 90
     4095
 91
       26
280
     0
281
     0
  0
CLASS
  1
MATERIAL
  2
AcDbMaterial
  3
ObjectDBX Classes
 90
     1153
 91
        3
280
     0
281
     0
  0
CLASS
  1
IMAGEDEF
  2
AcDbRasterImageDef
  3
ISM
 90
        0
 91
        1
280
     0
281
     0
  0
CLASS
  1
IMAGE
  2
AcDbRasterImage
  3
ISM
 90
     2175
 91
        1
280
     0
281
     1
  0
CLASS
  1
IMAGEDEF_REACTOR
  2
AcDbRasterImageDefReactor
  3
ISM
 90
        1
 91
        1
280
     0
281
     0
  0
CLASS
  1
SCALE
  2
AcDbScale
  3
ObjectDBX Classes
 90
     1153
 91
       33
280
     0
281
     0
  0
CLASS
  1
DICTIONARYVAR
  2
AcDbDictionaryVar
  3
ObjectDBX Classes
 90
        0
 91
        3
280
     0
281
     0
  0
CLASS
  1
RASTERVARIABLES
  2
AcDbRasterVariables
  3
ISM
 90
        0
 91
        1
280
     0
281
     0
  0
CLASS
  1
TABLESTYLE
  2
AcDbTableStyle
  3
ObjectDBX Classes
 90
     4095
 91
        1
280
     0
281
     0
  0
CLASS
  1
MLEADERSTYLE
  2
AcDbMLeaderStyle
  3
ACDB_MLEADERSTYLE_CLASS
 90
     4095
 91
        1
280
     0
281
     0
  0
CLASS
  1
CELLSTYLEMAP
  2
AcDbCellStyleMap
  3
ObjectDBX Classes
 90
     1152
 91
        1
280
     0
281
     0
  0
ENDSEC
  0
SECTION
  2
TABLES
  0
TABLE
  2
VPORT
  5
8
330
0
100
AcDbSymbolTable
 70
     1
  0
VPORT
  5
29
330
8
100
AcDbSymbolTableRecord
100
AcDbViewportTableRecord
  2
*Active
 70
     0
 10
0.0
 20
0.0
 11
1.0
 21
1.0
 12
20.54644003208985
 22
8.995833333333331
 13
0.0
 23
0.0
 14
10.0
 24
10.0
 15
10.0
 25
10.0
 16
0.0
 26
0.0
 36
1.0
 17
0.0
 27
0.0
 37
0.0
 40
17.99166666666666
 41
2.283995186522262
 42
50.0
 43
0.0
 44
0.0
 50
0.0
 51
0.0
 71
     0
 72
  2000
 73
     1
 74
     3
 75
     0
 76
     0
 77
     0
 78
     0
281
     0
 65
     1
110
0.0
120
0.0
130
0.0
111
1.0
121
0.0
131
0.0
112
0.0
122
1.0
132
0.0
 79
     0
146
0.0
348
2F
 60
     3
 61
     5
292
     1
282
     1
141
0.0
142
0.0
 63
   250
  0
ENDTAB
  0
TABLE
  2
LTYPE
  5
5
330
0
100
AcDbSymbolTable
 70
     6
  0
LTYPE
  5
14
330
5
100
AcDbSymbolTableRecord
100
AcDbLinetypeTableRecord
  2
ByBlock
 70
     0
  3

 72
    65
 73
     0
 40
0.0
  0
LTYPE
  5
15
330
5
100
AcDbSymbolTableRecord
100
AcDbLinetypeTableRecord
  2
ByLayer
 70
     0
  3

 72
    65
 73
     0
 40
0.0
  0
LTYPE
  5
16
330
5
100
AcDbSymbolTableRecord
100
AcDbLinetypeTableRecord
  2
Continuous
 70
     0
  3
Solid line
 72
    65
 73
     0
 40
0.0
  0
LTYPE
  5
3F
330
5
100
AcDbSymbolTableRecord
100
AcDbLinetypeTableRecord
  2
HIDDEN
 70
     0
  3
Hidden __ __ __ __ __ __ __ __ __ __ __ __ __ __
 72
    65
 73
     2
 40
1.905
 49
1.27
 74
     0
 49
-0.635
 74
     0
  0
LTYPE
  5
40
330
5
100
AcDbSymbolTableRecord
100
AcDbLinetypeTableRecord
  2
PHANTOM
 70
     0
  3
Phantom ______  __  __  ______  __  __  ______
 72
    65
 73
     6
 40
12.7
 49
6.349999999999999
 74
     0
 49
-1.27
 74
     0
 49
1.27
 74
     0
 49
-1.27
 74
     0
 49
1.27
 74
     0
 49
-1.27
 74
     0
  0
LTYPE
  5
41
330
5
100
AcDbSymbolTableRecord
100
AcDbLinetypeTableRecord
  2
CENTER
 70
     0
  3
Center ____ _ ____ _ ____ _ ____ _ ____ _ ____
 72
    65
 73
     4
 40
10.16
 49
6.349999999999999
 74
     0
 49
-1.27
 74
     0
 49
1.27
 74
     0
 49
-1.27
 74
     0
  0
LTYPE
  5
42
330
5
100
AcDbSymbolTableRecord
100
AcDbLinetypeTableRecord
  2
CENTERX2
 70
     0
  3
Center (2x) ________  __  ________  __  _____
 72
    65
 73
     4
 40
20.32
 49
12.7
 74
     0
 49
-2.54
 74
     0
 49
2.54
 74
     0
 49
-2.54
 74
     0
  0
LTYPE
  5
43
330
5
100
AcDbSymbolTableRecord
100
AcDbLinetypeTableRecord
  2
DOT2
 70
     0
  3
Dot (.5x) ........................................
 72
    65
 73
     2
 40
0.635
 49
0.0
 74
     0
 49
-0.635
 74
     0
  0
ENDTAB
  0
TABLE
  2
LAYER
  5
2
330
0
100
AcDbSymbolTable
 70
     2
  0
LAYER
  5
10
330
2
100
AcDbSymbolTableRecord
100
AcDbLayerTableRecord
  2
0
 70
     0
 62
     7
  6
Continuous
370
    -3
390
F
347
3E
  0
LAYER
  5
44
330
2
100
AcDbSymbolTableRecord
100
AcDbLayerTableRecord
  2
FORMAT
 70
     0
 62
     7
  6
Continuous
370
    -3
390
F
347
3E
  0
ENDTAB
  0
TABLE
  2
STYLE
  5
3
330
0
100
AcDbSymbolTable
 70
     4
  0
STYLE
  5
11
330
3
100
AcDbSymbolTableRecord
100
AcDbTextStyleTableRecord
  2
STANDARD
 70
     0
 40
0.0
 41
1.0
 50
0.0
 71
     0
 42
2.5
  3
GOTHIC.TTF
  4

1001
ACAD
1000
CENTURY GOTHIC
1071
       34
  0
STYLE
  5
68
330
3
100
AcDbSymbolTableRecord
100
AcDbTextStyleTableRecord
  2
SLDTEXTSTYLE0
 70
     0
 40
0.0
 41
0.913
 50
0.0
 71
     0
 42
0.2
  3
GOTHIC.TTF
  4

1001
ACAD
1000
Century Gothic
1071
      290
  0
STYLE
  5
BB
330
3
100
AcDbSymbolTableRecord
100
AcDbTextStyleTableRecord
  2
SLDTEXTSTYLE1
 70
     0
 40
0.0
 41
0.913
 50
0.0
 71
     0
 42
0.2
  3
GOTHIC.TTF
  4

1001
ACAD
1000
Century Gothic
1071
 33554722
  0
STYLE
  5
C5
330
3
100
AcDbSymbolTableRecord
100
AcDbTextStyleTableRecord
  2
SLDTEXTSTYLE2
 70
     0
 40
0.0
 41
0.948
 50
0.0
 71
     0
 42
0.2
  3
ARIAL.TTF
  4

1001
ACAD
1000
Arial
1071
      290
  0
ENDTAB
  0
TABLE
  2
VIEW
  5
6
330
0
100
AcDbSymbolTable
 70
     0
  0
ENDTAB
  0
TABLE
  2
UCS
  5
7
330
0
100
AcDbSymbolTable
 70
     0
  0
ENDTAB
  0
TABLE
  2
APPID
  5
9
330
0
100
AcDbSymbolTable
 70
     1
  0
APPID
  5
12
330
9
100
AcDbSymbolTableRecord
100
AcDbRegAppTableRecord
  2
ACAD
 70
     0
  0
ENDTAB
  0
TABLE
  2
DIMSTYLE
  5
A
330
0
100
AcDbSymbolTable
 70
    13
100
AcDbDimStyleTable
 71
     0
  0
DIMSTYLE
105
27
330
A
100
AcDbSymbolTableRecord
100
AcDbDimStyleTableRecord
  2
ISO-25
 70
     0
 41
2.5
 42
0.625
 43
3.75
 44
1.25
 73
     0
 74
     0
 77
     1
 78
     8
140
2.5
141
2.5
143
0.03937007874016
147
0.625
171
     3
172
     1
271
     2
272
     2
274
     3
278
    44
283
     0
284
     8
340
11
  0
DIMSTYLE
105
3B5
102
{ACAD_REACTORS
330
3B4
330
3F1
330
412
330
41D
102
}
330
A
100
AcDbSymbolTableRecord
100
AcDbDimStyleTableRecord
  2
SLDDIMSTYLE0
 70
     0
 41
0.1666666666666666
 44
0.0
 45
0.000000001
 78
    12
140
0.2204861111111111
144
0.8333333333333332
147
0.0551215277777778
173
     1
271
     2
272
     2
276
     2
284
    12
340
68
  0
DIMSTYLE
105
3C1
102
{ACAD_REACTORS
330
3C0
102
}
330
A
100
AcDbSymbolTableRecord
100
AcDbDimStyleTableRecord
  2
SLDDIMSTYLE1
 70
     0
 41
0.1666666666666666
 44
0.0
 45
0.000000001
 78
     4
140
0.2204861111111111
144
0.8333333333333332
147
0.0551215277777778
173
     1
271
     2
272
     3
276
     2
284
    12
340
68
  0
DIMSTYLE
105
3CD
102
{ACAD_REACTORS
330
3CC
330
3FC
330
407
102
}
330
A
100
AcDbSymbolTableRecord
100
AcDbDimStyleTableRecord
  2
SLDDIMSTYLE2
 70
     0
 41
0.1666666666666666
 44
0.0
 45
0.000000001
 78
     4
140
0.2204861111111111
144
0.8333333333333332
147
0.0551215277777778
173
     1
271
     2
272
     2
276
     2
284
    12
340
68
  0
DIMSTYLE
105
3D9
102
{ACAD_REACTORS
330
3D8
102
}
330
A
100
AcDbSymbolTableRecord
100
AcDbDimStyleTableRecord
  2
SLDDIMSTYLE3
 70
     0
 41
0.1666666666666666
 44
0.0
 45
0.000000001
 78
     4
140
0.2204861111111111
144
0.8333333333333332
147
0.0551215277777778
173
     1
271
     2
272
     3
276
     2
284
    12
340
68
  0
DIMSTYLE
105
3E5
102
{ACAD_REACTORS
330
3E4
102
}
330
A
100
AcDbSymbolTableRecord
100
AcDbDimStyleTableRecord
  2
SLDDIMSTYLE4
 70
     0
 41
0.1666666666666666
 44
0.0
 45
0.000000001
 78
    12
140
0.2204861111111111
144
0.8333333333333332
147
0.0551215277777778
173
     1
271
     2
272
     3
276
     2
284
    12
340
68
  0
DIMSTYLE
105
42E
330
A
100
AcDbSymbolTableRecord
100
AcDbDimStyleTableRecord
  2
SLDDIMSTYLE5
 70
     0
 41
0.1666666666666666
 44
0.0
 45
0.000000001
140
0.0
146
0.1666666666666666
147
0.0
173
     1
271
     0
272
     0
276
     2
340
11
  0
DIMSTYLE
105
440
330
A
100
AcDbSymbolTableRecord
100
AcDbDimStyleTableRecord
  2
SLDDIMSTYLE6
 70
     0
 41
0.0416666666666667
 44
0.0
 45
0.000000001
140
0.0
146
0.0416666666666667
147
0.0
173
     1
271
     0
272
     0
276
     2
340
11
341
441
343
441
344
441
  0
DIMSTYLE
105
4B9
102
{ACAD_REACTORS
330
4B8
330
4C4
330
4DB
102
}
330
A
100
AcDbSymbolTableRecord
100
AcDbDimStyleTableRecord
  2
SLDDIMSTYLE7
 70
     0
 41
0.1666666666666666
 44
0.0
 45
0.000000001
 78
     4
140
0.2204861111111111
144
0.25
147
0.0551215277777778
173
     1
271
     2
272
     2
276
     2
284
    12
340
68
  0
DIMSTYLE
105
4D0
102
{ACAD_REACTORS
330
4CF
102
}
330
A
100
AcDbSymbolTableRecord
100
AcDbDimStyleTableRecord
  2
SLDDIMSTYLE8
 70
     0
 41
0.1666666666666666
 44
0.0
 45
0.000000001
 78
    12
140
0.2204861111111111
144
0.25
147
0.0551215277777778
173
     1
271
     2
272
     2
276
     2
284
    12
340
68
  0
DIMSTYLE
105
4E7
102
{ACAD_REACTORS
330
4E6
102
}
330
A
100
AcDbSymbolTableRecord
100
AcDbDimStyleTableRecord
  2
SLDDIMSTYLE9
 70
     0
 41
0.1666666666666666
 44
0.0
 45
0.000000001
 78
    12
140
0.2204861111111111
144
0.25
147
0.0551215277777778
173
     1
271
     3
272
     3
276
     2
284
    12
340
68
  0
DIMSTYLE
105
4F6
102
{ACAD_REACTORS
330
4F5
102
}
330
A
100
AcDbSymbolTableRecord
100
AcDbDimStyleTableRecord
  2
SLDDIMSTYLE10
 70
     0
 41
0.1666666666666666
 44
0.0
 45
0.000000001
 78
     4
140
0.2204861111111111
144
0.25
147
0.0551215277777778
173
     1
271
     3
272
     3
276
     2
284
    12
340
68
  0
DIMSTYLE
105
504
102
{ACAD_REACTORS
330
503
102
}
330
A
100
AcDbSymbolTableRecord
100
AcDbDimStyleTableRecord
  2
SLDDIMSTYLE11
 70
     0
 41
0.1666666666666666
 44
0.0
 45
0.000000001
 78
    12
140
0.2204861111111111
141
0.0
144
0.25
147
0.0551215277777778
173
     1
271
     2
272
     2
276
     2
284
    12
340
68
  0
ENDTAB
  0
TABLE
  2
BLOCK_RECORD
  5
1
330
0
100
AcDbSymbolTable
 70
    29
  0
BLOCK_RECORD
  5
1F
330
1
100
AcDbSymbolTableRecord
100
AcDbBlockTableRecord
  2
*Model_Space
340
22
 70
     0
280
     1
281
     0
  0
BLOCK_RECORD
  5
1B
330
1
100
AcDbSymbolTableRecord
100
AcDbBlockTableRecord
  2
*Paper_Space
340
1E
 70
     0
280
     1
281
     0
  0
BLOCK_RECORD
  5
23
330
1
100
AcDbSymbolTableRecord
100
AcDbBlockTableRecord
  2
*Paper_Space0
340
26
 70
     0
280
     1
281
     0
  0
BLOCK_RECORD
  5
45
330
1
100
AcDbSymbolTableRecord
100
AcDbBlockTableRecord
  2
Block1
340
0
 70
     0
280
     1
281
     0
  0
BLOCK_RECORD
  5
65
330
1
100
AcDbSymbolTableRecord
100
AcDbBlockTableRecord
  2
SW_NOTE_18
340
0
102
{BLKREFS
331
8D
102
}
 70
     0
280
     1
281
     0
  0
BLOCK_RECORD
  5
8E
330
1
100
AcDbSymbolTableRecord
100
AcDbBlockTableRecord
  2
SW_NOTE_19
340
0
102
{BLKREFS
331
B3
102
}
 70
     0
280
     1
281
     0
  0
BLOCK_RECORD
  5
B4
330
1
100
AcDbSymbolTableRecord
100
AcDbBlockTableRecord
  2
SW_NOTE_20
340
0
102
{BLKREFS
331
B9
102
}
 70
     0
280
     1
281
     0
  0
BLOCK_RECORD
  5
C7
330
1
100
AcDbSymbolTableRecord
100
AcDbBlockTableRecord
  2
SW_NOTE_21
340
0
102
{BLKREFS
331
CC
102
}
 70
     0
280
     1
281
     0
  0
BLOCK_RECORD
  5
3B6
330
1
100
AcDbSymbolTableRecord
100
AcDbBlockTableRecord
  2
*D6
340
0
 70
     0
280
     1
281
     0
  0
BLOCK_RECORD
  5
3C2
330
1
100
AcDbSymbolTableRecord
100
AcDbBlockTableRecord
  2
*D7
340
0
 70
     0
280
     1
281
     0
  0
BLOCK_RECORD
  5
3CE
330
1
100
AcDbSymbolTableRecord
100
AcDbBlockTableRecord
  2
*D8
340
0
 70
     0
280
     1
281
     0
  0
BLOCK_RECORD
  5
3DA
330
1
100
AcDbSymbolTableRecord
100
AcDbBlockTableRecord
  2
*D9
340
0
 70
     0
280
     1
281
     0
  0
BLOCK_RECORD
  5
3E6
330
1
100
AcDbSymbolTableRecord
100
AcDbBlockTableRecord
  2
*D10
340
0
 70
     0
280
     1
281
     0
  0
BLOCK_RECORD
  5
3F2
330
1
100
AcDbSymbolTableRecord
100
AcDbBlockTableRecord
  2
*D11
340
0
 70
     0
280
     1
281
     0
  0
BLOCK_RECORD
  5
3FD
330
1
100
AcDbSymbolTableRecord
100
AcDbBlockTableRecord
  2
*D12
340
0
 70
     0
280
     1
281
     0
  0
BLOCK_RECORD
  5
408
330
1
100
AcDbSymbolTableRecord
100
AcDbBlockTableRecord
  2
*D13
340
0
 70
     0
280
     1
281
     0
  0
BLOCK_RECORD
  5
413
330
1
100
AcDbSymbolTableRecord
100
AcDbBlockTableRecord
  2
*D14
340
0
 70
     0
280
     1
281
     0
  0
BLOCK_RECORD
  5
41E
330
1
100
AcDbSymbolTableRecord
100
AcDbBlockTableRecord
  2
*D15
340
0
 70
     0
280
     1
281
     0
  0
BLOCK_RECORD
  5
428
330
1
100
AcDbSymbolTableRecord
100
AcDbBlockTableRecord
  2
SW_NOTE_22
340
0
102
{BLKREFS
331
42D
102
}
 70
     0
280
     1
281
     0
  0
BLOCK_RECORD
  5
430
330
1
100
AcDbSymbolTableRecord
100
AcDbBlockTableRecord
  2
SW_NOTE_23
340
0
102
{BLKREFS
331
436
102
}
 70
     0
280
     1
281
     0
  0
BLOCK_RECORD
  5
438
330
1
100
AcDbSymbolTableRecord
100
AcDbBlockTableRecord
  2
SW_NOTE_24
340
0
102
{BLKREFS
331
43D
102
}
 70
     0
280
     1
281
     0
  0
BLOCK_RECORD
  5
441
330
1
100
AcDbSymbolTableRecord
100
AcDbBlockTableRecord
  2
_DOT
340
0
 70
     0
280
     1
281
     0
  0
BLOCK_RECORD
  5
44C
330
1
100
AcDbSymbolTableRecord
100
AcDbBlockTableRecord
  2
SW_NOTE_25
340
0
102
{BLKREFS
331
451
102
}
 70
     0
280
     1
281
     0
  0
BLOCK_RECORD
  5
4BA
330
1
100
AcDbSymbolTableRecord
100
AcDbBlockTableRecord
  2
*D21
340
0
 70
     0
280
     1
281
     0
  0
BLOCK_RECORD
  5
4C5
330
1
100
AcDbSymbolTableRecord
100
AcDbBlockTableRecord
  2
*D22
340
0
 70
     0
280
     1
281
     0
  0
BLOCK_RECORD
  5
4D1
330
1
100
AcDbSymbolTableRecord
100
AcDbBlockTableRecord
  2
*D23
340
0
 70
     0
280
     1
281
     0
  0
BLOCK_RECORD
  5
4DC
330
1
100
AcDbSymbolTableRecord
100
AcDbBlockTableRecord
  2
*D24
340
0
 70
     0
280
     1
281
     0
  0
BLOCK_RECORD
  5
4E8
330
1
100
AcDbSymbolTableRecord
100
AcDbBlockTableRecord
  2
*D25
340
0
 70
     0
280
     1
281
     0
  0
BLOCK_RECORD
  5
4F7
330
1
100
AcDbSymbolTableRecord
100
AcDbBlockTableRecord
  2
*D26
340
0
 70
     0
280
     1
281
     0
  0
BLOCK_RECORD
  5
505
330
1
100
AcDbSymbolTableRecord
100
AcDbBlockTableRecord
  2
*D27
340
0
 70
     0
280
     1
281
     0
  0
BLOCK_RECORD
  5
50D
330
1
100
AcDbSymbolTableRecord
100
AcDbBlockTableRecord
  2
SW_NOTE_26
340
0
102
{BLKREFS
331
512
102
}
 70
     0
280
     1
281
     0
  0
ENDTAB
  0
ENDSEC
  0
SECTION
  2
BLOCKS
  0
BLOCK
  5
20
330
1F
100
AcDbEntity
  8
0
100
AcDbBlockBegin
  2
*Model_Space
 70
     0
 10
0.0
 20
0.0
 30
0.0
  3
*Model_Space
  1

  0
ENDBLK
  5
21
330
1F
100
AcDbEntity
  8
0
100
AcDbBlockEnd
  0
BLOCK
  5
1C
330
1B
100
AcDbEntity
 67
     1
  8
0
100
AcDbBlockBegin
  2
*Paper_Space
 70
     0
 10
0.0
 20
0.0
 30
0.0
  3
*Paper_Space
  1

  0
ENDBLK
  5
1D
330
1B
100
AcDbEntity
 67
     1
  8
0
100
AcDbBlockEnd
  0
BLOCK
  5
24
330
23
100
AcDbEntity
 67
     1
  8
0
100
AcDbBlockBegin
  2
*Paper_Space0
 70
     0
 10
0.0
 20
0.0
 30
0.0
  3
*Paper_Space0
  1

  0
ENDBLK
  5
25
330
23
100
AcDbEntity
 67
     1
  8
0
100
AcDbBlockEnd
  0
BLOCK
  5
46
330
45
100
AcDbEntity
  8
0
100
AcDbBlockBegin
  2
Block1
 70
     0
 10
0.0
 20
0.0
 30
0.0
  3
Block1
  1

  0
CIRCLE
  5
48
330
45
100
AcDbEntity
  8
0
  6
Continuous
 62
     7
370
     0
100
AcDbCircle
 10
11.58547793968276
 20
1.253090352234207
 30
0.0
 40
0.225120423317653
  0
CIRCLE
  5
49
330
45
100
AcDbEntity
  8
0
  6
Continuous
 62
     7
370
     0
100
AcDbCircle
 10
11.58547793968276
 20
1.253090352234207
 30
0.0
 40
0.109544330625019
  0
LINE
  5
4A
330
45
100
AcDbEntity
  8
0
  6
Continuous
 62
     7
370
     0
100
AcDbLine
 10
11.88205886380611
 20
1.253090352234207
 30
0.0
 11
11.00831395832574
 21
1.253090352234207
 31
0.0
  0
LINE
  5
4B
330
45
100
AcDbEntity
  8
0
  6
Continuous
 62
     7
370
     0
100
AcDbLine
 10
11.95252216263517
 20
1.253090352234207
 30
0.0
 11
12.07230977064457
 21
1.253090352234207
 31
0.0
  0
LINE
  5
4C
330
45
100
AcDbEntity
  8
0
  6
Continuous
 62
     7
370
     0
100
AcDbLine
 10
12.21675953324415
 20
1.254674841070472
 30
0.0
 11
13.0764117789587
 21
1.254674841070472
 31
0.0
  0
LINE
  5
4D
330
45
100
AcDbEntity
  8
0
  6
Continuous
 62
     7
370
     0
100
AcDbLine
 10
12.33397259614135
 20
1.362634682859225
 30
0.0
 11
12.33397259614135
 21
1.143546021609189
 31
0.0
  0
LINE
  5
4E
330
45
100
AcDbEntity
  8
0
  6
Continuous
 62
     7
370
     0
100
AcDbLine
 10
12.33397259614135
 20
1.143546021609189
 30
0.0
 11
12.9376261927485
 21
1.027969928916553
 31
0.0
  0
LINE
  5
4F
330
45
100
AcDbEntity
  8
0
  6
Continuous
 62
     7
370
     0
100
AcDbLine
 10
12.9376261927485
 20
1.027969928916553
 30
0.0
 11
12.9376261927485
 21
1.478210775551861
 31
0.0
  0
LINE
  5
50
330
45
100
AcDbEntity
  8
0
  6
Continuous
 62
     7
370
     0
100
AcDbLine
 10
12.9376261927485
 20
1.478210775551861
 30
0.0
 11
12.33397259614135
 21
1.362634682859225
 31
0.0
  0
LINE
  5
51
330
45
100
AcDbEntity
  8
0
  6
Continuous
 62
     7
370
     0
100
AcDbLine
 10
11.58547793968276
 20
1.478210775551861
 30
0.0
 11
11.58547793968276
 21
1.577036566463192
 31
0.0
  0
LINE
  5
52
330
45
100
AcDbEntity
  8
0
  6
Continuous
 62
     7
370
     0
100
AcDbLine
 10
11.58547793968276
 20
1.027969928916553
 30
0.0
 11
11.58547793968276
 21
0.9291441380052225
 31
0.0
  0
LINE
  5
53
330
45
100
AcDbEntity
  8
0
  6
Continuous
 62
     7
370
     0
100
AcDbLine
 10
11.58547793968276
 20
1.308404013372672
 30
0.0
 11
11.58547793968276
 21
1.197776691095741
 31
0.0
  0
ENDBLK
  5
47
330
45
100
AcDbEntity
  8
0
100
AcDbBlockEnd
  0
BLOCK
  5
66
330
65
100
AcDbEntity
  8
0
100
AcDbBlockBegin
  2
SW_NOTE_18
 70
     0
 10
0.0
 20
0.0
 30
0.0
  3
SW_NOTE_18
  1

  0
MTEXT
  5
8B
330
65
100
AcDbEntity
  8
0
  6
Continuous
 62
     0
370
     0
100
AcDbMText
 10
0.0
 20
0.3942911783854166
 30
0.0
 40
0.3086805555555555
 41
0.0
 46
0.0
 71
     1
 72
     1
  1
RECOMMENDED PCB 
  7
SLDTEXTSTYLE0
 73
     1
 44
1.0
  0
MTEXT
  5
8C
330
65
100
AcDbEntity
  8
0
  6
Continuous
 62
     0
370
     0
100
AcDbMText
 10
1.299745325619975
 20
-0.017282890714705
 30
0.0
 40
0.3086805555555555
 41
0.0
 46
0.0
 71
     1
 72
     1
  1
LAYOUT
  7
SLDTEXTSTYLE0
 73
     1
 44
1.0
  0
ENDBLK
  5
67
330
65
100
AcDbEntity
  8
0
100
AcDbBlockEnd
  0
BLOCK
  5
8F
330
8E
100
AcDbEntity
  8
0
100
AcDbBlockBegin
  2
SW_NOTE_19
 70
     0
 10
0.0
 20
0.0
 30
0.0
  3
SW_NOTE_19
  1

  0
MTEXT
  5
91
330
8E
100
AcDbEntity
  8
0
  6
Continuous
 62
     0
370
     0
100
AcDbMText
 10
0.0
 20
0.2816365559895837
 30
0.0
 40
0.2204861111111111
 41
0.0
 46
0.0
 71
     1
 72
     1
  1
Notes: (Unless Otherwise Specified).
  7
SLDTEXTSTYLE0
 73
     1
 44
1.0
  0
MTEXT
  5
92
330
8E
100
AcDbEntity
  8
0
  6
Continuous
 62
     0
370
     0
100
AcDbMText
 10
0.8333333147068817
 20
-0.0123449219390746
 30
0.0
 40
0.2204861111111111
 41
0.0
 46
0.0
 71
     1
 72
     1
  1
DIMENSIONS ARE PRESENTED ONLY AS A GUIDELINE. DESIGNERS  SHOULD USE THEIR OWN KNOWLEDGE 
  7
SLDTEXTSTYLE0
 73
     1
 44
1.0
  0
MTEXT
  5
93
330
8E
100
AcDbEntity
  8
0
  6
Continuous
 62
     0
370
     0
100
AcDbMText
 10
0.0
 20
-0.0123449219390746
 30
0.0
 40
0.2204861111111111
 41
0.0
 46
0.0
 71
     1
 72
     1
  1
1.
  7
SLDTEXTSTYLE0
 73
     1
 44
1.0
  0
MTEXT
  5
94
330
8E
100
AcDbEntity
  8
0
  6
Continuous
 62
     0
370
     0
100
AcDbMText
 10
0.8333333147068817
 20
-0.306326399867733
 30
0.0
 40
0.2204861111111111
 41
0.0
 46
0.0
 71
     1
 72
     1
  1
BASE WHEN DESIGNING THE PCB.
  7
SLDTEXTSTYLE0
 73
     1
 44
1.0
  0
MTEXT
  5
95
330
8E
100
AcDbEntity
  8
0
  6
Continuous
 62
     0
370
     0
100
AcDbMText
 10
0.8333333147068817
 20
-0.6003078777963913
 30
0.0
 40
0.2204861111111111
 41
0.0
 46
0.0
 71
     1
 72
     1
  1
SURROUND EACH SIDE OF I/O PERIMETER PADS WITH 0.060~0.075 mm (2.4~3.0mils) NSMD SOLDER MASK 
  7
SLDTEXTSTYLE0
 73
     1
 44
1.0
  0
MTEXT
  5
96
330
8E
100
AcDbEntity
  8
0
  6
Continuous
 62
     0
370
     0
100
AcDbMText
 10
0.0
 20
-0.6003078777963913
 30
0.0
 40
0.2204861111111111
 41
0.0
 46
0.0
 71
     1
 72
     1
  1
2.
  7
SLDTEXTSTYLE0
 73
     1
 44
1.0
  0
MTEXT
  5
97
330
8E
100
AcDbEntity
  8
0
  6
Continuous
 62
     0
370
     0
100
AcDbMText
 10
0.8333333147068817
 20
-0.8942893557250496
 30
0.0
 40
0.2204861111111111
 41
0.0
 46
0.0
 71
     1
 72
     1
  1
OPENING.  OPTIONALLY OK TO USE RECTANGLE (NSMD) MASK OPENING AROUND I/O PADS.
  7
SLDTEXTSTYLE0
 73
     1
 44
1.0
  0
MTEXT
  5
98
330
8E
100
AcDbEntity
  8
0
  6
Continuous
 62
     0
370
     0
100
AcDbMText
 10
0.8333333147068817
 20
-1.188270833653707
 30
0.0
 40
0.2204861111111111
 41
0.0
 46
0.0
 71
     1
 72
     1
  1
ROUNDED PCB LAND PADS REDUCE SOLDER BRIDGING.  PAD CHAMFER ANGLE MAY VARY.
  7
SLDTEXTSTYLE0
 73
     1
 44
1.0
  0
MTEXT
  5
99
330
8E
100
AcDbEntity
  8
0
  6
Continuous
 62
     0
370
     0
100
AcDbMText
 10
0.0
 20
-1.188270833653707
 30
0.0
 40
0.2204861111111111
 41
0.0
 46
0.0
 71
     1
 72
     1
  1
3.
  7
SLDTEXTSTYLE0
 73
     1
 44
1.0
  0
MTEXT
  5
9A
330
8E
100
AcDbEntity
  8
0
  6
Continuous
 62
     0
370
     0
100
AcDbMText
 10
0.8333333147068817
 20
-1.482252311582366
 30
0.0
 40
0.2204861111111111
 41
0.0
 46
0.0
 71
     1
 72
     1
  1
PCB LANDS SHOULD BE 0.2mm LONGER THAN THE PACKAGE I/O PADS.
  7
SLDTEXTSTYLE0
 73
     1
 44
1.0
  0
MTEXT
  5
9B
330
8E
100
AcDbEntity
  8
0
  6
Continuous
 62
     0
370
     0
100
AcDbMText
 10
0.0
 20
-1.482252311582366
 30
0.0
 40
0.2204861111111111
 41
0.0
 46
0.0
 71
     1
 72
     1
  1
4.
  7
SLDTEXTSTYLE0
 73
     1
 44
1.0
  0
MTEXT
  5
9C
330
8E
100
AcDbEntity
  8
0
  6
Continuous
 62
     0
370
     0
100
AcDbMText
 10
0.8333333147068817
 20
-1.776233789511025
 30
0.0
 40
0.2204861111111111
 41
0.0
 46
0.0
 71
     1
 72
     1
  1
THE WIDTH OF PERIMETER PCB PADS SHOULD MATCH (1:1) THE WIDTH OF THE PACKAGE PADS.
  7
SLDTEXTSTYLE0
 73
     1
 44
1.0
  0
MTEXT
  5
9D
330
8E
100
AcDbEntity
  8
0
  6
Continuous
 62
     0
370
     0
100
AcDbMText
 10
0.0
 20
-1.776233789511025
 30
0.0
 40
0.2204861111111111
 41
0.0
 46
0.0
 71
     1
 72
     1
  1
5.
  7
SLDTEXTSTYLE0
 73
     1
 44
1.0
  0
MTEXT
  5
9E
330
8E
100
AcDbEntity
  8
0
  6
Continuous
 62
     0
370
     0
100
AcDbMText
 10
0.8333333147068817
 20
-2.070215267439683
 30
0.0
 40
0.2204861111111111
 41
0.0
 46
0.0
 71
     1
 72
     1
  1
REFER TO INDUSTRY REFERENCES SUCH AS IPC-SM-782 FOR PCB LAND PATTERN DESIGN.
  7
SLDTEXTSTYLE0
 73
     1
 44
1.0
  0
MTEXT
  5
9F
330
8E
100
AcDbEntity
  8
0
  6
Continuous
 62
     0
370
     0
100
AcDbMText
 10
0.0
 20
-2.070215267439683
 30
0.0
 40
0.2204861111111111
 41
0.0
 46
0.0
 71
     1
 72
     1
  1
6.
  7
SLDTEXTSTYLE0
 73
     1
 44
1.0
  0
MTEXT
  5
A0
330
8E
100
AcDbEntity
  8
0
  6
Continuous
 62
     0
370
     0
100
AcDbMText
 10
0.8333333147068817
 20
-2.364196745368341
 30
0.0
 40
0.2204861111111111
 41
0.0
 46
0.0
 71
     1
 72
     1
  1
THERMAL GROUND PADS MAY BE CHANGED TO SUITE REQUIREMENTS OF THE DESIGNER.
  7
SLDTEXTSTYLE0
 73
     1
 44
1.0
  0
MTEXT
  5
A1
330
8E
100
AcDbEntity
  8
0
  6
Continuous
 62
     0
370
     0
100
AcDbMText
 10
0.0
 20
-2.364196745368341
 30
0.0
 40
0.2204861111111111
 41
0.0
 46
0.0
 71
     1
 72
     1
  1
7.
  7
SLDTEXTSTYLE0
 73
     1
 44
1.0
  0
MTEXT
  5
A2
330
8E
100
AcDbEntity
  8
0
  6
Continuous
 62
     0
370
     0
100
AcDbMText
 10
1.666666629413763
 20
-2.658178223296999
 30
0.0
 40
0.2204861111111111
 41
0.0
 46
0.0
 71
     1
 72
     1
  1
MAKE COPPER THERMAL PAD AS LARGE AS POSSIBLE.
  7
SLDTEXTSTYLE0
 73
     1
 44
1.0
  0
MTEXT
  5
A3
330
8E
100
AcDbEntity
  8
0
  6
Continuous
 62
     0
370
     0
100
AcDbMText
 10
0.8333333333333335
 20
-2.658178223296999
 30
0.0
 40
0.2204861111111111
 41
0.0
 46
0.0
 71
     1
 72
     1
  1
A.
  7
SLDTEXTSTYLE0
 73
     1
 44
1.0
  0
MTEXT
  5
A4
330
8E
100
AcDbEntity
  8
0
  6
Continuous
 62
     0
370
     0
100
AcDbMText
 10
1.666666629413763
 20
-2.952159701225658
 30
0.0
 40
0.2204861111111111
 41
0.0
 46
0.0
 71
     1
 72
     1
  1
DRILL MULTIPLE THERMAL VIAS 0.25~0.33mm DIAMETER USING 0.8~1.2mm PITCH GRID.
  7
SLDTEXTSTYLE0
 73
     1
 44
1.0
  0
MTEXT
  5
A5
330
8E
100
AcDbEntity
  8
0
  6
Continuous
 62
     0
370
     0
100
AcDbMText
 10
0.8333333333333335
 20
-2.952159701225658
 30
0.0
 40
0.2204861111111111
 41
0.0
 46
0.0
 71
     1
 72
     1
  1
B.
  7
SLDTEXTSTYLE0
 73
     1
 44
1.0
  0
MTEXT
  5
A6
330
8E
100
AcDbEntity
  8
0
  6
Continuous
 62
     0
370
     0
100
AcDbMText
 10
1.666666629413763
 20
-3.246141179154316
 30
0.0
 40
0.2204861111111111
 41
0.0
 46
0.0
 71
     1
 72
     1
  1
PLATE THERMAL VIA BARRELS WITH 1-OUNCE COPPER (18µm).
  7
SLDTEXTSTYLE0
 73
     1
 44
1.0
  0
MTEXT
  5
A7
330
8E
100
AcDbEntity
  8
0
  6
Continuous
 62
     0
370
     0
100
AcDbMText
 10
0.8333333333333335
 20
-3.246141179154316
 30
0.0
 40
0.2204861111111111
 41
0.0
 46
0.0
 71
     1
 72
     1
  1
C.
  7
SLDTEXTSTYLE0
 73
     1
 44
1.0
  0
MTEXT
  5
A8
330
8E
100
AcDbEntity
  8
0
  6
Continuous
 62
     0
370
     0
100
AcDbMText
 10
1.666666629413763
 20
-3.540122657082974
 30
0.0
 40
0.2204861111111111
 41
0.0
 46
0.0
 71
     1
 72
     1
  1
TENT (COVER) THERMAL VIAS WITH SOLDER MASK 0.1mm LARGER THAN THE VIA DIAMETER.
  7
SLDTEXTSTYLE0
 73
     1
 44
1.0
  0
MTEXT
  5
A9
330
8E
100
AcDbEntity
  8
0
  6
Continuous
 62
     0
370
     0
100
AcDbMText
 10
0.8333333333333335
 20
-3.540122657082974
 30
0.0
 40
0.2204861111111111
 41
0.0
 46
0.0
 71
     1
 72
     1
  1
D.
  7
SLDTEXTSTYLE0
 73
     1
 44
1.0
  0
MTEXT
  5
AA
330
8E
100
AcDbEntity
  8
0
  6
Continuous
 62
     0
370
     0
100
AcDbMText
 10
0.8333333147068817
 20
-3.834104135011632
 30
0.0
 40
0.2204861111111111
 41
0.0
 46
0.0
 71
     1
 72
     1
  1
STENCIL DESIGN MAY BE CHANGED TO SUITE REQUIREMENTS OF THE DESIGNER.
  7
SLDTEXTSTYLE0
 73
     1
 44
1.0
  0
MTEXT
  5
AB
330
8E
100
AcDbEntity
  8
0
  6
Continuous
 62
     0
370
     0
100
AcDbMText
 10
0.0
 20
-3.834104135011632
 30
0.0
 40
0.2204861111111111
 41
0.0
 46
0.0
 71
     1
 72
     1
  1
8.
  7
SLDTEXTSTYLE0
 73
     1
 44
1.0
  0
MTEXT
  5
AC
330
8E
100
AcDbEntity
  8
0
  6
Continuous
 62
     0
370
     0
100
AcDbMText
 10
1.666666629413763
 20
-4.12808561294029
 30
0.0
 40
0.2204861111111111
 41
0.0
 46
0.0
 71
     1
 72
     1
  1
LASER CUT STENCIL 0.125mm (5mil) THICK.  APERTURE SIZE-TO-LAND RATIO OF 1:1.
  7
SLDTEXTSTYLE0
 73
     1
 44
1.0
  0
MTEXT
  5
AD
330
8E
100
AcDbEntity
  8
0
  6
Continuous
 62
     0
370
     0
100
AcDbMText
 10
0.8333333333333335
 20
-4.12808561294029
 30
0.0
 40
0.2204861111111111
 41
0.0
 46
0.0
 71
     1
 72
     1
  1
A.
  7
SLDTEXTSTYLE0
 73
     1
 44
1.0
  0
MTEXT
  5
AE
330
8E
100
AcDbEntity
  8
0
  6
Continuous
 62
     0
370
     0
100
AcDbMText
 10
1.666666629413763
 20
-4.422067090868949
 30
0.0
 40
0.2204861111111111
 41
0.0
 46
0.0
 71
     1
 72
     1
  1
THE SOLDER PASTE OPENING IN THE THERMAL PAD AREA SHOULD BE A MATRIX ARRAY OF 
  7
SLDTEXTSTYLE0
 73
     1
 44
1.0
  0
MTEXT
  5
AF
330
8E
100
AcDbEntity
  8
0
  6
Continuous
 62
     0
370
     0
100
AcDbMText
 10
0.8333333333333335
 20
-4.422067090868949
 30
0.0
 40
0.2204861111111111
 41
0.0
 46
0.0
 71
     1
 72
     1
  1
B.
  7
SLDTEXTSTYLE0
 73
     1
 44
1.0
  0
MTEXT
  5
B0
330
8E
100
AcDbEntity
  8
0
  6
Continuous
 62
     0
370
     0
100
AcDbMText
 10
1.666666629413763
 20
-4.716048568797607
 30
0.0
 40
0.2204861111111111
 41
0.0
 46
0.0
 71
     1
 72
     1
  1
SMALLER APERATURES INSTEAD OF ONE LARGE APERATURE TO CONTROL PASTE AMOUNTS.
  7
SLDTEXTSTYLE0
 73
     1
 44
1.0
  0
MTEXT
  5
B1
330
8E
100
AcDbEntity
  8
0
  6
Continuous
 62
     0
370
     0
100
AcDbMText
 10
1.666666629413763
 20
-5.010030046726265
 30
0.0
 40
0.2204861111111111
 41
0.0
 46
0.0
 71
     1
 72
     1
  1
APPLY 50% TO 80% SOLDER PASTE COVERAGE IN THE PAD AREA.
  7
SLDTEXTSTYLE0
 73
     1
 44
1.0
  0
MTEXT
  5
B2
330
8E
100
AcDbEntity
  8
0
  6
Continuous
 62
     0
370
     0
100
AcDbMText
 10
0.8333333333333335
 20
-5.010030046726265
 30
0.0
 40
0.2204861111111111
 41
0.0
 46
0.0
 71
     1
 72
     1
  1
C.
  7
SLDTEXTSTYLE0
 73
     1
 44
1.0
  0
ENDBLK
  5
90
330
8E
100
AcDbEntity
  8
0
100
AcDbBlockEnd
  0
BLOCK
  5
B5
330
B4
100
AcDbEntity
  8
0
100
AcDbBlockBegin
  2
SW_NOTE_20
 70
     0
 10
0.0
 20
0.0
 30
0.0
  3
SW_NOTE_20
  1

  0
MTEXT
  5
B7
330
B4
100
AcDbEntity
  8
0
  6
Continuous
 62
     0
370
     0
100
AcDbMText
 10
0.0
 20
0.3942911783854166
 30
0.0
 40
0.3086805555555555
 41
0.0
 46
0.0
 71
     1
 72
     1
  1
28-LEAD 7mm P=0.80mm 
  7
SLDTEXTSTYLE0
 73
     1
 44
1.0
  0
MTEXT
  5
B8
330
B4
100
AcDbEntity
  8
0
  6
Continuous
 62
     0
370
     0
100
AcDbMText
 10
0.173811645557483
 20
-0.017282890714705
 30
0.0
 40
0.3086805555555555
 41
0.0
 46
0.0
 71
     1
 72
     1
  1
QFN CAVITY PACKAGE
  7
SLDTEXTSTYLE0
 73
     1
 44
1.0
  0
ENDBLK
  5
B6
330
B4
100
AcDbEntity
  8
0
100
AcDbBlockEnd
  0
BLOCK
  5
C8
330
C7
100
AcDbEntity
  8
0
100
AcDbBlockBegin
  2
SW_NOTE_21
 70
     0
 10
0.0
 20
0.0
 30
0.0
  3
SW_NOTE_21
  1

  0
MTEXT
  5
CA
330
C7
100
AcDbEntity
  8
0
  6
Continuous
 62
     0
370
     0
100
AcDbMText
 10
0.0
 20
0.3379638671874999
 30
0.0
 40
0.2645833333333333
 41
0.0
 46
0.0
 71
     1
 72
     1
  1
482870
  7
SLDTEXTSTYLE1
 73
     1
 44
1.0
  0
MTEXT
  5
CB
330
C7
100
AcDbEntity
  8
0
  6
Continuous
 62
     0
370
     0
100
AcDbMText
 10
-0.4958180943503975
 20
-0.0148139063268901
 30
0.0
 40
0.2645833333333333
 41
0.0
 46
0.0
 71
     1
 72
     1
  1
M-QFN28W.8
  7
SLDTEXTSTYLE1
 73
     1
 44
1.0
  0
ENDBLK
  5
C9
330
C7
100
AcDbEntity
  8
0
100
AcDbBlockEnd
  0
BLOCK
  5
3B7
330
3B6
100
AcDbEntity
  8
0
100
AcDbBlockBegin
  2
*D6
 70
     1
 10
0.0
 20
0.0
 30
0.0
  3
*D6
  1

  0
SOLID
  5
3B9
330
3B6
100
AcDbEntity
  8
0
  6
Continuous
 62
     7
440
 16777216
370
     0
100
AcDbTrace
 10
1.82401327344156
 20
7.964028740776346
 30
0.0
 11
1.844846606774893
 21
8.130695407443013
 31
0.0
 12
1.803179940108226
 22
8.130695407443013
 32
0.0
 13
1.803179940108226
 23
8.130695407443013
 33
0.0
  0
SOLID
  5
3BA
330
3B6
100
AcDbEntity
  8
0
  6
Continuous
 62
     7
440
 16777216
370
     0
100
AcDbTrace
 10
1.824013273441536
 20
14.96402874077635
 30
0.0
 11
1.803179940108203
 21
14.79736207410968
 31
0.0
 12
1.84484660677487
 22
14.79736207410968
 32
0.0
 13
1.84484660677487
 23
14.79736207410968
 33
0.0
  0
LINE
  5
3BB
330
3B6
100
AcDbEntity
  8
0
  6
Continuous
 62
     7
440
 16777216
370
     0
100
AcDbLine
 10
3.908455164730502
 20
7.964028740776354
 30
0.0
 11
1.657346606774894
 21
7.964028740776346
 31
0.0
  0
LINE
  5
3BC
330
3B6
100
AcDbEntity
  8
0
  6
Continuous
 62
     7
440
 16777216
370
     0
100
AcDbLine
 10
3.908455164730478
 20
14.96402874077635
 30
0.0
 11
1.657346606774869
 21
14.96402874077635
 31
0.0
  0
LINE
  5
3BD
330
3B6
100
AcDbEntity
  8
0
  6
Continuous
 62
     7
440
 16777216
370
     0
100
AcDbLine
 10
1.82401327344156
 20
7.964028740776346
 30
0.0
 11
1.824013273441549
 21
11.29652012008669
 31
0.0
  0
LINE
  5
3BE
330
3B6
100
AcDbEntity
  8
0
  6
Continuous
 62
     7
440
 16777216
370
     0
100
AcDbLine
 10
1.824013273441536
 20
14.96402874077635
 30
0.0
 11
1.824013273441548
 21
11.631537361466
 31
0.0
  0
MTEXT
  5
3BF
330
3B6
100
AcDbEntity
  8
0
  6
Continuous
 62
     7
440
 16777216
370
     0
100
AcDbMText
 10
1.749564997579479
 20
11.57815667122563
 30
-0.0000000000000801
 40
0.2204861111111111
 41
0.0
 46
0.0
 71
     1
 72
     1
  1
7
  7
SLDTEXTSTYLE0
 73
     1
 44
1.0
  0
ENDBLK
  5
3B8
330
3B6
100
AcDbEntity
  8
0
100
AcDbBlockEnd
  0
BLOCK
  5
3C3
330
3C2
100
AcDbEntity
  8
0
100
AcDbBlockBegin
  2
*D7
 70
     1
 10
0.0
 20
0.0
 30
0.0
  3
*D7
  1

  0
SOLID
  5
3C5
330
3C2
100
AcDbEntity
  8
0
  6
Continuous
 62
     7
440
 16777216
370
     0
100
AcDbTrace
 10
1.222026822303629
 20
15.16402874077634
 30
0.0
 11
1.201193488970296
 21
14.99736207410968
 31
0.0
 12
1.242860155636963
 22
14.99736207410968
 32
0.0
 13
1.242860155636963
 23
14.99736207410968
 33
0.0
  0
SOLID
  5
3C6
330
3C2
100
AcDbEntity
  8
0
  6
Continuous
 62
     7
440
 16777216
370
     0
100
AcDbTrace
 10
1.222026822303656
 20
7.764028740776344
 30
0.0
 11
1.242860155636988
 21
7.930695407443011
 31
0.0
 12
1.201193488970322
 22
7.930695407443011
 32
0.0
 13
1.201193488970322
 23
7.930695407443011
 33
0.0
  0
LINE
  5
3C7
330
3C2
100
AcDbEntity
  8
0
  6
Continuous
 62
     7
440
 16777216
370
     0
100
AcDbLine
 10
4.833455164730477
 20
15.16402874077635
 30
0.0
 11
1.055360155636962
 21
15.16402874077634
 31
0.0
  0
LINE
  5
3C8
330
3C2
100
AcDbEntity
  8
0
  6
Continuous
 62
     7
440
 16777216
370
     0
100
AcDbLine
 10
4.833455164730502
 20
7.764028740776358
 30
0.0
 11
1.055360155636989
 21
7.764028740776343
 31
0.0
  0
LINE
  5
3C9
330
3C2
100
AcDbEntity
  8
0
  6
Continuous
 62
     7
440
 16777216
370
     0
100
AcDbLine
 10
1.222026822303629
 20
15.16402874077634
 30
0.0
 11
1.222026822303642
 21
11.631537361466
 31
0.0
  0
LINE
  5
3CA
330
3C2
100
AcDbEntity
  8
0
  6
Continuous
 62
     7
440
 16777216
370
     0
100
AcDbLine
 10
1.222026822303656
 20
7.764028740776344
 30
0.0
 11
1.222026822303643
 21
11.29652012008668
 31
0.0
  0
MTEXT
  5
3CB
330
3C2
100
AcDbEntity
  8
0
  6
Continuous
 62
     7
440
 16777216
370
     0
100
AcDbMText
 10
0.942845787820886
 20
11.57815667122563
 30
-0.0000000000000801
 40
0.2204861111111111
 41
0.0
 46
0.0
 71
     1
 72
     1
  1
7.40
  7
SLDTEXTSTYLE0
 73
     1
 44
1.0
  0
ENDBLK
  5
3C4
330
3C2
100
AcDbEntity
  8
0
100
AcDbBlockEnd
  0
BLOCK
  5
3CF
330
3CE
100
AcDbEntity
  8
0
100
AcDbBlockBegin
  2
*D8
 70
     1
 10
0.0
 20
0.0
 30
0.0
  3
*D8
  1

  0
SOLID
  5
3D1
330
3CE
100
AcDbEntity
  8
0
  6
Continuous
 62
     7
440
 16777216
370
     0
100
AcDbTrace
 10
2.500121831397114
 20
13.86402874077633
 30
0.0
 11
2.479288498063782
 21
13.69736207410966
 31
0.0
 12
2.520955164730449
 22
13.69736207410966
 32
0.0
 13
2.520955164730449
 23
13.69736207410966
 33
0.0
  0
SOLID
  5
3D2
330
3CE
100
AcDbEntity
  8
0
  6
Continuous
 62
     7
440
 16777216
370
     0
100
AcDbTrace
 10
2.500121831397152
 20
9.064028740776326
 30
0.0
 11
2.520955164730485
 21
9.230695407442992
 31
0.0
 12
2.479288498063818
 22
9.230695407442992
 32
0.0
 13
2.479288498063818
 23
9.230695407442992
 33
0.0
  0
LINE
  5
3D3
330
3CE
100
AcDbEntity
  8
0
  6
Continuous
 62
     7
440
 16777216
370
     0
100
AcDbLine
 10
3.458455164730469
 20
13.86402874077633
 30
0.0
 11
2.333455164730448
 21
13.86402874077632
 31
0.0
  0
LINE
  5
3D4
330
3CE
100
AcDbEntity
  8
0
  6
Continuous
 62
     7
440
 16777216
370
     0
100
AcDbLine
 10
3.458455164730503
 20
9.064028740776333
 30
0.0
 11
2.333455164730485
 21
9.064028740776324
 31
0.0
  0
LINE
  5
3D5
330
3CE
100
AcDbEntity
  8
0
  6
Continuous
 62
     7
440
 16777216
370
     0
100
AcDbLine
 10
2.500121831397114
 20
13.86402874077633
 30
0.0
 11
2.500121831397132
 21
11.63153736146598
 31
0.0
  0
LINE
  5
3D6
330
3CE
100
AcDbEntity
  8
0
  6
Continuous
 62
     7
440
 16777216
370
     0
100
AcDbLine
 10
2.500121831397152
 20
9.064028740776326
 30
0.0
 11
2.500121831397135
 21
11.29652012008667
 31
0.0
  0
MTEXT
  5
3D7
330
3CE
100
AcDbEntity
  8
0
  6
Continuous
 62
     7
440
 16777216
370
     0
100
AcDbMText
 10
2.220940796914375
 20
11.57815667122561
 30
-0.0000000000000801
 40
0.2204861111111111
 41
0.0
 46
0.0
 71
     1
 72
     1
  1
4.80
  7
SLDTEXTSTYLE0
 73
     1
 44
1.0
  0
ENDBLK
  5
3D0
330
3CE
100
AcDbEntity
  8
0
100
AcDbBlockEnd
  0
BLOCK
  5
3DB
330
3DA
100
AcDbEntity
  8
0
100
AcDbBlockBegin
  2
*D9
 70
     1
 10
0.0
 20
0.0
 30
0.0
  3
*D9
  1

  0
SOLID
  5
3DD
330
3DA
100
AcDbEntity
  8
0
  6
Continuous
 62
     7
440
 16777216
370
     0
100
AcDbTrace
 10
3.000121831397131
 20
13.86402874077633
 30
0.0
 11
3.020955164730464
 21
14.030695407443
 31
0.0
 12
2.979288498063797
 22
14.030695407443
 32
0.0
 13
2.979288498063797
 23
14.030695407443
 33
0.0
  0
SOLID
  5
3DE
330
3DA
100
AcDbEntity
  8
0
  6
Continuous
 62
     7
440
 16777216
370
     0
100
AcDbTrace
 10
3.000121831397136
 20
13.06402874077633
 30
0.0
 11
2.979288498063803
 21
12.89736207410966
 31
0.0
 12
3.02095516473047
 22
12.89736207410966
 32
0.0
 13
3.02095516473047
 23
12.89736207410966
 33
0.0
  0
LINE
  5
3DF
330
3DA
100
AcDbEntity
  8
0
  6
Continuous
 62
     7
440
 16777216
370
     0
100
AcDbLine
 10
3.458455164730469
 20
13.86402874077633
 30
0.0
 11
2.833455164730465
 21
13.86402874077633
 31
0.0
  0
LINE
  5
3E0
330
3DA
100
AcDbEntity
  8
0
  6
Continuous
 62
     7
440
 16777216
370
     0
100
AcDbLine
 10
3.458455164730475
 20
13.06402874077633
 30
0.0
 11
2.833455164730469
 21
13.06402874077633
 31
0.0
  0
LINE
  5
3E1
330
3DA
100
AcDbEntity
  8
0
  6
Continuous
 62
     7
440
 16777216
370
     0
100
AcDbLine
 10
3.000121831397131
 20
13.86402874077633
 30
0.0
 11
3.000121831397129
 21
14.19736207410967
 31
0.0
  0
LINE
  5
3E2
330
3DA
100
AcDbEntity
  8
0
  6
Continuous
 62
     7
440
 16777216
370
     0
100
AcDbLine
 10
3.000121831397136
 20
13.06402874077633
 30
0.0
 11
3.000121831397138
 21
12.730695407443
 31
0.0
  0
MTEXT
  5
3E3
330
3DA
100
AcDbEntity
  8
0
  6
Continuous
 62
     7
440
 16777216
370
     0
100
AcDbMText
 10
2.720940796914373
 20
13.57815667122562
 30
-0.0000000000000941
 40
0.2204861111111111
 41
0.0
 46
0.0
 71
     1
 72
     1
  1
0.80
  7
SLDTEXTSTYLE0
 73
     1
 44
1.0
  0
ENDBLK
  5
3DC
330
3DA
100
AcDbEntity
  8
0
100
AcDbBlockEnd
  0
BLOCK
  5
3E7
330
3E6
100
AcDbEntity
  8
0
100
AcDbBlockBegin
  2
*D10
 70
     1
 10
0.0
 20
0.0
 30
0.0
  3
*D10
  1

  0
SOLID
  5
3E9
330
3E6
100
AcDbEntity
  8
0
  6
Continuous
 62
     7
440
 16777216
370
     0
100
AcDbTrace
 10
3.296028895572441
 20
9.239028740776337
 30
0.0
 11
3.316862228905773
 21
9.405695407443003
 31
0.0
 12
3.275195562239106
 22
9.405695407443003
 32
0.0
 13
3.275195562239106
 23
9.405695407443003
 33
0.0
  0
SOLID
  5
3EA
330
3E6
100
AcDbEntity
  8
0
  6
Continuous
 62
     7
440
 16777216
370
     0
100
AcDbTrace
 10
3.296028895572444
 20
8.889028740776335
 30
0.0
 11
3.275195562239112
 21
8.722362074109669
 31
0.0
 12
3.316862228905779
 22
8.722362074109669
 32
0.0
 13
3.316862228905779
 23
8.722362074109669
 33
0.0
  0
LINE
  5
3EB
330
3E6
100
AcDbEntity
  8
0
  6
Continuous
 62
     7
440
 16777216
370
     0
100
AcDbLine
 10
3.708455164730506
 20
9.239028740776339
 30
0.0
 11
3.129362228905775
 21
9.239028740776337
 31
0.0
  0
LINE
  5
3EC
330
3E6
100
AcDbEntity
  8
0
  6
Continuous
 62
     7
440
 16777216
370
     0
100
AcDbLine
 10
3.708455164730508
 20
8.889028740776339
 30
0.0
 11
3.129362228905777
 21
8.889028740776334
 31
0.0
  0
LINE
  5
3ED
330
3E6
100
AcDbEntity
  8
0
  6
Continuous
 62
     7
440
 16777216
370
     0
100
AcDbLine
 10
3.046028895572441
 20
8.399248609231872
 30
0.0
 11
3.296028895572441
 21
8.399248609231872
 31
0.0
  0
LINE
  5
3EE
330
3E6
100
AcDbEntity
  8
0
  6
Continuous
 62
     7
440
 16777216
370
     0
100
AcDbLine
 10
3.296028895572441
 20
8.399248609231872
 30
0.0
 11
3.296028895572444
 21
8.889028740776335
 31
0.0
  0
LINE
  5
3EF
330
3E6
100
AcDbEntity
  8
0
  6
Continuous
 62
     7
440
 16777216
370
     0
100
AcDbLine
 10
3.296028895572441
 20
9.239028740776337
 30
0.0
 11
3.296028895572441
 21
9.572362074109671
 31
0.0
  0
MTEXT
  5
3F0
330
3E6
100
AcDbEntity
  8
0
  6
Continuous
 62
     7
440
 16777216
370
     0
100
AcDbMText
 10
2.355375159940255
 20
8.513376539681161
 30
-0.0000000000000587
 40
0.2204861111111111
 41
0.0
 46
0.0
 71
     1
 72
     1
  1
0.35
  7
SLDTEXTSTYLE0
 73
     1
 44
1.0
  0
ENDBLK
  5
3E8
330
3E6
100
AcDbEntity
  8
0
100
AcDbBlockEnd
  0
BLOCK
  5
3F3
330
3F2
100
AcDbEntity
  8
0
100
AcDbBlockBegin
  2
*D11
 70
     1
 10
0.0
 20
0.0
 30
0.0
  3
*D11
  1

  0
SOLID
  5
3F5
330
3F2
100
AcDbEntity
  8
0
  6
Continuous
 62
     7
440
 16777216
370
     0
100
AcDbTrace
 10
4.033455164730473
 20
16.39917353766487
 30
0.0
 11
4.20012183139714
 21
16.37834020433154
 31
0.0
 12
4.20012183139714
 22
16.42000687099821
 32
0.0
 13
4.20012183139714
 23
16.42000687099821
 33
0.0
  0
SOLID
  5
3F6
330
3F2
100
AcDbEntity
  8
0
  6
Continuous
 62
     7
440
 16777216
370
     0
100
AcDbTrace
 10
11.03345516473047
 20
16.39917353766489
 30
0.0
 11
10.86678849806381
 21
16.42000687099823
 31
0.0
 12
10.86678849806381
 22
16.37834020433156
 32
0.0
 13
10.86678849806381
 23
16.37834020433156
 33
0.0
  0
LINE
  5
3F7
330
3F2
100
AcDbEntity
  8
0
  6
Continuous
 62
     7
440
 16777216
370
     0
100
AcDbLine
 10
4.033455164730478
 20
15.08902874077636
 30
0.0
 11
4.033455164730472
 21
16.56584020433154
 31
0.0
  0
LINE
  5
3F8
330
3F2
100
AcDbEntity
  8
0
  6
Continuous
 62
     7
440
 16777216
370
     0
100
AcDbLine
 10
11.03345516473048
 20
15.08902874077638
 30
0.0
 11
11.03345516473047
 21
16.56584020433156
 31
0.0
  0
LINE
  5
3F9
330
3F2
100
AcDbEntity
  8
0
  6
Continuous
 62
     7
440
 16777216
370
     0
100
AcDbLine
 10
4.033455164730473
 20
16.39917353766487
 30
0.0
 11
7.326715222201737
 21
16.39917353766488
 31
0.0
  0
LINE
  5
3FA
330
3F2
100
AcDbEntity
  8
0
  6
Continuous
 62
     7
440
 16777216
370
     0
100
AcDbLine
 10
11.03345516473047
 20
16.39917353766489
 30
0.0
 11
7.740195107259207
 21
16.39917353766489
 31
0.0
  0
MTEXT
  5
3FB
330
3F2
100
AcDbEntity
  8
0
  6
Continuous
 62
     7
440
 16777216
370
     0
100
AcDbMText
 10
7.459006888868405
 20
16.51330146811418
 30
-0.0000000000001146
 40
0.2204861111111111
 41
0.0
 46
0.0
 71
     1
 72
     1
  1
7
  7
SLDTEXTSTYLE0
 73
     1
 44
1.0
  0
ENDBLK
  5
3F4
330
3F2
100
AcDbEntity
  8
0
100
AcDbBlockEnd
  0
BLOCK
  5
3FE
330
3FD
100
AcDbEntity
  8
0
100
AcDbBlockBegin
  2
*D12
 70
     1
 10
0.0
 20
0.0
 30
0.0
  3
*D12
  1

  0
SOLID
  5
400
330
3FD
100
AcDbEntity
  8
0
  6
Continuous
 62
     7
440
 16777216
370
     0
100
AcDbTrace
 10
5.133455164730471
 20
15.8535685900908
 30
0.0
 11
5.300121831397138
 21
15.83273525675746
 31
0.0
 12
5.300121831397138
 22
15.87440192342413
 32
0.0
 13
5.300121831397138
 23
15.87440192342413
 33
0.0
  0
SOLID
  5
401
330
3FD
100
AcDbEntity
  8
0
  6
Continuous
 62
     7
440
 16777216
370
     0
100
AcDbTrace
 10
9.933455164730469
 20
15.85356859009082
 30
0.0
 11
9.766788498063803
 21
15.87440192342415
 31
0.0
 12
9.766788498063803
 22
15.83273525675749
 32
0.0
 13
9.766788498063803
 23
15.83273525675749
 33
0.0
  0
LINE
  5
402
330
3FD
100
AcDbEntity
  8
0
  6
Continuous
 62
     7
440
 16777216
370
     0
100
AcDbLine
 10
5.133455164730472
 20
15.53902874077635
 30
0.0
 11
5.133455164730471
 21
16.02023525675746
 31
0.0
  0
LINE
  5
403
330
3FD
100
AcDbEntity
  8
0
  6
Continuous
 62
     7
440
 16777216
370
     0
100
AcDbLine
 10
9.933455164730471
 20
15.53902874077637
 30
0.0
 11
9.933455164730469
 21
16.02023525675749
 31
0.0
  0
LINE
  5
404
330
3FD
100
AcDbEntity
  8
0
  6
Continuous
 62
     7
440
 16777216
370
     0
100
AcDbLine
 10
5.133455164730471
 20
15.8535685900908
 30
0.0
 11
7.121982463581045
 21
15.8535685900908
 31
0.0
  0
LINE
  5
405
330
3FD
100
AcDbEntity
  8
0
  6
Continuous
 62
     7
440
 16777216
370
     0
100
AcDbLine
 10
9.933455164730469
 20
15.85356859009082
 30
0.0
 11
7.944927865879899
 21
15.85356859009081
 31
0.0
  0
MTEXT
  5
406
330
3FD
100
AcDbEntity
  8
0
  6
Continuous
 62
     7
440
 16777216
370
     0
100
AcDbMText
 10
7.254274130247714
 20
15.9676965205401
 30
-0.0000000000001108
 40
0.2204861111111111
 41
0.0
 46
0.0
 71
     1
 72
     1
  1
4.80
  7
SLDTEXTSTYLE0
 73
     1
 44
1.0
  0
ENDBLK
  5
3FF
330
3FD
100
AcDbEntity
  8
0
100
AcDbBlockEnd
  0
BLOCK
  5
409
330
408
100
AcDbEntity
  8
0
100
AcDbBlockBegin
  2
*D13
 70
     1
 10
0.0
 20
0.0
 30
0.0
  3
*D13
  1

  0
SOLID
  5
40B
330
408
100
AcDbEntity
  8
0
  6
Continuous
 62
     7
440
 16777216
370
     0
100
AcDbTrace
 10
3.833455164730434
 20
16.912205055533
 30
0.0
 11
4.0001218313971
 21
16.89137172219967
 31
0.0
 12
4.0001218313971
 22
16.93303838886634
 32
0.0
 13
4.0001218313971
 23
16.93303838886634
 33
0.0
  0
SOLID
  5
40C
330
408
100
AcDbEntity
  8
0
  6
Continuous
 62
     7
440
 16777216
370
     0
100
AcDbTrace
 10
11.23345516473041
 20
16.9122050555331
 30
0.0
 11
11.06678849806375
 21
16.93303838886643
 31
0.0
 12
11.06678849806375
 22
16.89137172219977
 32
0.0
 13
11.06678849806375
 23
16.89137172219977
 33
0.0
  0
LINE
  5
40D
330
408
100
AcDbEntity
  8
0
  6
Continuous
 62
     7
440
 16777216
370
     0
100
AcDbLine
 10
3.83345516473047
 20
14.16402874077634
 30
0.0
 11
3.833455164730431
 21
17.07887172219967
 31
0.0
  0
LINE
  5
40E
330
408
100
AcDbEntity
  8
0
  6
Continuous
 62
     7
440
 16777216
370
     0
100
AcDbLine
 10
11.23345516473045
 20
14.16402874077642
 30
0.0
 11
11.23345516473041
 21
17.07887172219977
 31
0.0
  0
LINE
  5
40F
330
408
100
AcDbEntity
  8
0
  6
Continuous
 62
     7
440
 16777216
370
     0
100
AcDbLine
 10
3.833455164730434
 20
16.912205055533
 30
0.0
 11
7.121982463580999
 21
16.91220505553305
 31
0.0
  0
LINE
  5
410
330
408
100
AcDbEntity
  8
0
  6
Continuous
 62
     7
440
 16777216
370
     0
100
AcDbLine
 10
11.23345516473041
 20
16.9122050555331
 30
0.0
 11
7.944927865879851
 21
16.91220505553306
 31
0.0
  0
MTEXT
  5
411
330
408
100
AcDbEntity
  8
0
  6
Continuous
 62
     7
440
 16777216
370
     0
100
AcDbMText
 10
7.254274130247668
 20
17.02633298598234
 30
-0.0000000000001182
 40
0.2204861111111111
 41
0.0
 46
0.0
 71
     1
 72
     1
  1
7.40
  7
SLDTEXTSTYLE0
 73
     1
 44
1.0
  0
ENDBLK
  5
40A
330
408
100
AcDbEntity
  8
0
100
AcDbBlockEnd
  0
BLOCK
  5
414
330
413
100
AcDbEntity
  8
0
100
AcDbBlockBegin
  2
*D14
 70
     1
 10
0.0
 20
0.0
 30
0.0
  3
*D14
  1

  0
SOLID
  5
416
330
413
100
AcDbEntity
  8
0
  6
Continuous
 62
     7
440
 16777216
370
     0
100
AcDbTrace
 10
15.80695419715938
 20
14.18202874077639
 30
0.0
 11
15.78612086382604
 21
14.01536207410973
 31
0.0
 12
15.82778753049271
 22
14.01536207410973
 32
0.0
 13
15.82778753049271
 23
14.01536207410973
 33
0.0
  0
SOLID
  5
417
330
413
100
AcDbEntity
  8
0
  6
Continuous
 62
     7
440
 16777216
370
     0
100
AcDbTrace
 10
15.80695419715939
 20
8.746028740776395
 30
0.0
 11
15.82778753049273
 21
8.912695407443061
 31
0.0
 12
15.78612086382606
 22
8.912695407443061
 32
0.0
 13
15.78612086382606
 23
8.912695407443061
 33
0.0
  0
LINE
  5
418
330
413
100
AcDbEntity
  8
0
  6
Continuous
 62
     7
440
 16777216
370
     0
100
AcDbLine
 10
10.37645516473048
 20
14.18202874077637
 30
0.0
 11
15.97362086382604
 21
14.18202874077639
 31
0.0
  0
LINE
  5
419
330
413
100
AcDbEntity
  8
0
  6
Continuous
 62
     7
440
 16777216
370
     0
100
AcDbLine
 10
10.3764551647305
 20
8.746028740776376
 30
0.0
 11
15.97362086382606
 21
8.746028740776395
 31
0.0
  0
LINE
  5
41A
330
413
100
AcDbEntity
  8
0
  6
Continuous
 62
     7
440
 16777216
370
     0
100
AcDbLine
 10
15.80695419715938
 20
14.18202874077639
 30
0.0
 11
15.80695419715939
 21
11.63153736146605
 31
0.0
  0
LINE
  5
41B
330
413
100
AcDbEntity
  8
0
  6
Continuous
 62
     7
440
 16777216
370
     0
100
AcDbLine
 10
15.80695419715939
 20
8.746028740776395
 30
0.0
 11
15.80695419715939
 21
11.29652012008674
 31
0.0
  0
MTEXT
  5
41C
330
413
100
AcDbEntity
  8
0
  6
Continuous
 62
     7
440
 16777216
370
     0
100
AcDbMText
 10
15.52777316267663
 20
11.57815667122568
 30
-0.0000000000000801
 40
0.2204861111111111
 41
0.0
 46
0.0
 71
     1
 72
     1
  1
5.44
  7
SLDTEXTSTYLE0
 73
     1
 44
1.0
  0
ENDBLK
  5
415
330
413
100
AcDbEntity
  8
0
100
AcDbBlockEnd
  0
BLOCK
  5
41F
330
41E
100
AcDbEntity
  8
0
100
AcDbBlockBegin
  2
*D15
 70
     1
 10
0.0
 20
0.0
 30
0.0
  3
*D15
  1

  0
SOLID
  5
421
330
41E
100
AcDbEntity
  8
0
  6
Continuous
 62
     7
440
 16777216
370
     0
100
AcDbTrace
 10
14.97528849806388
 20
8.821028740776393
 30
0.0
 11
14.99612183139721
 21
8.987695407443059
 31
0.0
 12
14.95445516473054
 22
8.987695407443059
 32
0.0
 13
14.95445516473054
 23
8.987695407443059
 33
0.0
  0
SOLID
  5
422
330
41E
100
AcDbEntity
  8
0
  6
Continuous
 62
     7
440
 16777216
370
     0
100
AcDbTrace
 10
14.97528849806386
 20
14.10702874077639
 30
0.0
 11
14.95445516473053
 21
13.94036207410973
 31
0.0
 12
14.99612183139719
 22
13.94036207410973
 32
0.0
 13
14.99612183139719
 23
13.94036207410973
 33
0.0
  0
LINE
  5
423
330
41E
100
AcDbEntity
  8
0
  6
Continuous
 62
     7
440
 16777216
370
     0
100
AcDbLine
 10
10.3014551647305
 20
8.821028740776375
 30
0.0
 11
15.14195516473054
 21
8.821028740776393
 31
0.0
  0
LINE
  5
424
330
41E
100
AcDbEntity
  8
0
  6
Continuous
 62
     7
440
 16777216
370
     0
100
AcDbLine
 10
10.30145516473048
 20
14.10702874077637
 30
0.0
 11
15.14195516473052
 21
14.10702874077639
 31
0.0
  0
LINE
  5
425
330
41E
100
AcDbEntity
  8
0
  6
Continuous
 62
     7
440
 16777216
370
     0
100
AcDbLine
 10
14.97528849806388
 20
8.821028740776393
 30
0.0
 11
14.97528849806387
 21
11.29652012008673
 31
0.0
  0
LINE
  5
426
330
41E
100
AcDbEntity
  8
0
  6
Continuous
 62
     7
440
 16777216
370
     0
100
AcDbLine
 10
14.97528849806386
 20
14.10702874077639
 30
0.0
 11
14.97528849806387
 21
11.63153736146605
 31
0.0
  0
MTEXT
  5
427
330
41E
100
AcDbEntity
  8
0
  6
Continuous
 62
     7
440
 16777216
370
     0
100
AcDbMText
 10
14.69610746358111
 20
11.57815667122568
 30
-0.0000000000000801
 40
0.2204861111111111
 41
0.0
 46
0.0
 71
     1
 72
     1
  1
5.29
  7
SLDTEXTSTYLE0
 73
     1
 44
1.0
  0
ENDBLK
  5
420
330
41E
100
AcDbEntity
  8
0
100
AcDbBlockEnd
  0
BLOCK
  5
429
330
428
100
AcDbEntity
  8
0
100
AcDbBlockBegin
  2
SW_NOTE_22
 70
     0
 10
0.0
 20
0.0
 30
0.0
  3
SW_NOTE_22
  1

  0
MTEXT
  5
42B
330
428
100
AcDbEntity
  8
0
  6
Continuous
 62
     0
370
     0
100
AcDbMText
 10
0.0548654960230433
 20
0.1107661409241525
 30
0.0
 40
0.2645833333333333
 41
0.0
 46
0.0
 71
     1
 72
     1
  1
SOLDER MASK 
  7
SLDTEXTSTYLE0
 73
     1
 44
1.0
  0
MTEXT
  5
42C
330
428
100
AcDbEntity
  8
0
  6
Continuous
 62
     0
370
     0
100
AcDbMText
 10
0.0548654960230433
 20
-0.2371505168018174
 30
0.0
 40
0.2645833333333333
 41
0.0
 46
0.0
 71
     1
 72
     1
  1
OPENING
  7
SLDTEXTSTYLE0
 73
     1
 44
1.0
  0
ENDBLK
  5
42A
330
428
100
AcDbEntity
  8
0
100
AcDbBlockEnd
  0
BLOCK
  5
431
330
430
100
AcDbEntity
  8
0
100
AcDbBlockBegin
  2
SW_NOTE_23
 70
     0
 10
0.0
 20
0.0
 30
0.0
  3
SW_NOTE_23
  1

  0
MTEXT
  5
433
330
430
100
AcDbEntity
  8
0
  6
Continuous
 62
     0
370
     0
100
AcDbMText
 10
0.0600429395570072
 20
0.1115715367570209
 30
0.0
 40
0.2425347222222221
 41
0.0
 46
0.0
 71
     1
 72
     1
  1
PCB THERMAL PAD 
  7
SLDTEXTSTYLE0
 73
     1
 44
1.0
  0
MTEXT
  5
434
330
430
100
AcDbEntity
  8
0
  6
Continuous
 62
     0
370
     0
100
AcDbMText
 10
0.0600429395570072
 20
-0.2118080889645033
 30
0.0
 40
0.2425347222222221
 41
0.0
 46
0.0
 71
     1
 72
     1
  1
DESIGN OPTIONAL 
  7
SLDTEXTSTYLE0
 73
     1
 44
1.0
  0
MTEXT
  5
435
330
430
100
AcDbEntity
  8
0
  6
Continuous
 62
     0
370
     0
100
AcDbMText
 10
0.0600429395570072
 20
-0.5351877146860275
 30
0.0
 40
0.2425347222222221
 41
0.0
 46
0.0
 71
     1
 72
     1
  1
SEE NOTE 7, 8
  7
SLDTEXTSTYLE0
 73
     1
 44
1.0
  0
ENDBLK
  5
432
330
430
100
AcDbEntity
  8
0
100
AcDbBlockEnd
  0
BLOCK
  5
439
330
438
100
AcDbEntity
  8
0
100
AcDbBlockBegin
  2
SW_NOTE_24
 70
     0
 10
0.0
 20
0.0
 30
0.0
  3
SW_NOTE_24
  1

  0
MTEXT
  5
43B
330
438
100
AcDbEntity
  8
0
  6
Continuous
 62
     0
370
     0
100
AcDbMText
 10
0.0600429395570095
 20
0.1035071562849067
 30
0.0
 40
0.2425347222222221
 41
0.0
 46
0.0
 71
     1
 72
     1
  1
COMPONENT 
  7
SLDTEXTSTYLE0
 73
     1
 44
1.0
  0
MTEXT
  5
43C
330
438
100
AcDbEntity
  8
0
  6
Continuous
 62
     0
370
     0
100
AcDbMText
 10
0.0600429395570095
 20
-0.2198724694366175
 30
0.0
 40
0.2425347222222221
 41
0.0
 46
0.0
 71
     1
 72
     1
  1
PAD
  7
SLDTEXTSTYLE0
 73
     1
 44
1.0
  0
ENDBLK
  5
43A
330
438
100
AcDbEntity
  8
0
100
AcDbBlockEnd
  0
BLOCK
  5
442
330
441
100
AcDbEntity
  8
0
100
AcDbBlockBegin
  2
_DOT
 70
     0
 10
0.0
 20
0.0
 30
0.0
  3
_DOT
  1

  0
POLYLINE
  5
444
330
441
100
AcDbEntity
  8
0
  6
ByBlock
 62
     0
100
AcDb2dPolyline
 66
     1
 10
0.0
 20
0.0
 30
0.0
 70
     1
 40
0.5
 41
0.5
  0
VERTEX
  5
446
330
444
100
AcDbEntity
  8
0
  6
ByBlock
 62
     0
100
AcDbVertex
100
AcDb2dVertex
 10
-0.25
 20
0.0
 30
0.0
 42
1.0
  0
VERTEX
  5
447
330
444
100
AcDbEntity
  8
0
  6
ByBlock
 62
     0
100
AcDbVertex
100
AcDb2dVertex
 10
0.25
 20
0.0
 30
0.0
 42
1.0
  0
SEQEND
  5
448
330
444
100
AcDbEntity
  8
0
  6
ByBlock
 62
     0
  0
LINE
  5
445
330
441
100
AcDbEntity
  8
0
  6
ByBlock
 62
     0
370
    -2
100
AcDbLine
 10
-0.5
 20
0.0
 30
0.0
 11
-1.0
 21
0.0
 31
0.0
  0
ENDBLK
  5
443
330
441
100
AcDbEntity
  8
0
100
AcDbBlockEnd
  0
BLOCK
  5
44D
330
44C
100
AcDbEntity
  8
0
100
AcDbBlockBegin
  2
SW_NOTE_25
 70
     0
 10
0.0
 20
0.0
 30
0.0
  3
SW_NOTE_25
  1

  0
MTEXT
  5
44F
330
44C
100
AcDbEntity
  8
0
  6
Continuous
 62
     0
370
     0
100
AcDbMText
 10
0.0455972408094155
 20
0.1042873356840862
 30
0.0
 40
0.2425347222222221
 41
0.0
 46
0.0
 71
     1
 72
     1
  1
SOLDER MASK 
  7
SLDTEXTSTYLE0
 73
     1
 44
1.0
  0
MTEXT
  5
450
330
44C
100
AcDbEntity
  8
0
  6
Continuous
 62
     0
370
     0
100
AcDbMText
 10
0.0455972408094155
 20
-0.2190922900374379
 30
0.0
 40
0.2425347222222221
 41
0.0
 46
0.0
 71
     1
 72
     1
  1
OPENING
  7
SLDTEXTSTYLE0
 73
     1
 44
1.0
  0
ENDBLK
  5
44E
330
44C
100
AcDbEntity
  8
0
100
AcDbBlockEnd
  0
BLOCK
  5
4BB
330
4BA
100
AcDbEntity
  8
0
100
AcDbBlockBegin
  2
*D21
 70
     1
 10
0.0
 20
0.0
 30
0.0
  3
*D21
  1

  0
SOLID
  5
4BD
330
4BA
100
AcDbEntity
  8
0
  6
Continuous
 62
     7
440
 16777216
370
     0
100
AcDbTrace
 10
22.15501961045109
 20
9.575057887936521
 30
0.0
 11
22.17585294378443
 21
9.741724554603187
 31
0.0
 12
22.13418627711776
 22
9.741724554603187
 32
0.0
 13
22.13418627711776
 23
9.741724554603187
 33
0.0
  0
SOLID
  5
4BE
330
4BA
100
AcDbEntity
  8
0
  6
Continuous
 62
     7
440
 16777216
370
     0
100
AcDbTrace
 10
22.15501961045108
 20
11.57505788793652
 30
0.0
 11
22.13418627711775
 21
11.40839122126985
 31
0.0
 12
22.17585294378442
 22
11.40839122126985
 32
0.0
 13
22.17585294378442
 23
11.40839122126985
 33
0.0
  0
LINE
  5
4BF
330
4BA
100
AcDbEntity
  8
0
  6
Continuous
 62
     7
440
 16777216
370
     0
100
AcDbLine
 10
21.0928038762294
 20
9.57505788793652
 30
0.0
 11
22.32168627711776
 21
9.575057887936523
 31
0.0
  0
LINE
  5
4C0
330
4BA
100
AcDbEntity
  8
0
  6
Continuous
 62
     7
440
 16777216
370
     0
100
AcDbLine
 10
20.50947054289606
 20
11.57505788793651
 30
0.0
 11
22.32168627711775
 21
11.57505788793652
 31
0.0
  0
LINE
  5
4C1
330
4BA
100
AcDbEntity
  8
0
  6
Continuous
 62
     7
440
 16777216
370
     0
100
AcDbLine
 10
22.15501961045109
 20
9.575057887936521
 30
0.0
 11
22.15501961045109
 21
10.40754926724686
 31
0.0
  0
LINE
  5
4C2
330
4BA
100
AcDbEntity
  8
0
  6
Continuous
 62
     7
440
 16777216
370
     0
100
AcDbLine
 10
22.15501961045108
 20
11.57505788793652
 30
0.0
 11
22.15501961045109
 21
10.74256650862618
 31
0.0
  0
MTEXT
  5
4C3
330
4BA
100
AcDbEntity
  8
0
  6
Continuous
 62
     7
440
 16777216
370
     0
100
AcDbMText
 10
21.87583857596833
 20
10.68918581838581
 30
-0.0000000000000739
 40
0.2204861111111111
 41
0.0
 46
0.0
 71
     1
 72
     1
  1
0.60
  7
SLDTEXTSTYLE0
 73
     1
 44
1.0
  0
ENDBLK
  5
4BC
330
4BA
100
AcDbEntity
  8
0
100
AcDbBlockEnd
  0
BLOCK
  5
4C6
330
4C5
100
AcDbEntity
  8
0
100
AcDbBlockBegin
  2
*D22
 70
     1
 10
0.0
 20
0.0
 30
0.0
  3
*D22
  1

  0
SOLID
  5
4C8
330
4C5
100
AcDbEntity
  8
0
  6
Continuous
 62
     7
440
 16777216
370
     0
100
AcDbTrace
 10
21.31738103925821
 20
10.24172455460318
 30
0.0
 11
21.29654770592488
 21
10.07505788793652
 31
0.0
 12
21.33821437259154
 22
10.07505788793652
 32
0.0
 13
21.33821437259154
 23
10.07505788793652
 33
0.0
  0
SOLID
  5
4C9
330
4C5
100
AcDbEntity
  8
0
  6
Continuous
 62
     7
440
 16777216
370
     0
100
AcDbTrace
 10
21.31738103925822
 20
9.57505788793652
 30
0.0
 11
21.33821437259155
 21
9.741724554603186
 31
0.0
 12
21.29654770592488
 22
9.741724554603186
 32
0.0
 13
21.29654770592488
 23
9.741724554603186
 33
0.0
  0
LINE
  5
4CA
330
4C5
100
AcDbEntity
  8
0
  6
Continuous
 62
     7
440
 16777216
370
     0
100
AcDbLine
 10
21.0928038762294
 20
9.575057887936518
 30
0.0
 11
21.48404770592488
 21
9.57505788793652
 31
0.0
  0
LINE
  5
4CB
330
4C5
100
AcDbEntity
  8
0
  6
Continuous
 62
     7
440
 16777216
370
     0
100
AcDbLine
 10
21.56738103925821
 20
9.028127774114091
 30
0.0
 11
21.31738103925821
 21
9.028127774114091
 31
0.0
  0
LINE
  5
4CC
330
4C5
100
AcDbEntity
  8
0
  6
Continuous
 62
     7
440
 16777216
370
     0
100
AcDbLine
 10
21.31738103925821
 20
9.028127774114091
 30
0.0
 11
21.31738103925822
 21
9.57505788793652
 31
0.0
  0
LINE
  5
4CD
330
4C5
100
AcDbEntity
  8
0
  6
Continuous
 62
     7
440
 16777216
370
     0
100
AcDbLine
 10
21.31738103925821
 20
10.24172455460318
 30
0.0
 11
21.31738103925822
 21
9.57505788793652
 31
0.0
  0
MTEXT
  5
4CE
330
4C5
100
AcDbEntity
  8
0
  6
Continuous
 62
     7
440
 16777216
370
     0
100
AcDbMText
 10
21.69967270592489
 20
9.142255704563378
 30
-0.0000000000000631
 40
0.2204861111111111
 41
0.0
 46
0.0
 71
     1
 72
     1
  1
0.20
  7
SLDTEXTSTYLE0
 73
     1
 44
1.0
  0
ENDBLK
  5
4C7
330
4C5
100
AcDbEntity
  8
0
100
AcDbBlockEnd
  0
BLOCK
  5
4D2
330
4D1
100
AcDbEntity
  8
0
100
AcDbBlockBegin
  2
*D23
 70
     1
 10
0.0
 20
0.0
 30
0.0
  3
*D23
  1

  0
SOLID
  5
4D4
330
4D1
100
AcDbEntity
  8
0
  6
Continuous
 62
     7
440
 16777216
370
     0
100
AcDbTrace
 10
19.80113720956273
 20
8.395391281531567
 30
0.0
 11
19.9678038762294
 21
8.374557948198233
 31
0.0
 12
19.9678038762294
 22
8.416224614864901
 32
0.0
 13
19.9678038762294
 23
8.416224614864901
 33
0.0
  0
SOLID
  5
4D5
330
4D1
100
AcDbEntity
  8
0
  6
Continuous
 62
     7
440
 16777216
370
     0
100
AcDbTrace
 10
20.9678038762294
 20
8.395391281531573
 30
0.0
 11
20.80113720956273
 21
8.416224614864907
 31
0.0
 12
20.80113720956273
 22
8.374557948198239
 32
0.0
 13
20.80113720956273
 23
8.374557948198239
 33
0.0
  0
LINE
  5
4D6
330
4D1
100
AcDbEntity
  8
0
  6
Continuous
 62
     7
440
 16777216
370
     0
100
AcDbLine
 10
19.80113720956273
 20
9.450057887936511
 30
0.0
 11
19.80113720956273
 21
8.228724614864901
 31
0.0
  0
LINE
  5
4D7
330
4D1
100
AcDbEntity
  8
0
  6
Continuous
 62
     7
440
 16777216
370
     0
100
AcDbLine
 10
20.9678038762294
 20
9.450057887936514
 30
0.0
 11
20.9678038762294
 21
8.228724614864905
 31
0.0
  0
LINE
  5
4D8
330
4D1
100
AcDbEntity
  8
0
  6
Continuous
 62
     7
440
 16777216
370
     0
100
AcDbLine
 10
19.80113720956273
 20
8.395391281531567
 30
0.0
 11
20.9678038762294
 21
8.395391281531573
 31
0.0
  0
LINE
  5
4D9
330
4D1
100
AcDbEntity
  8
0
  6
Continuous
 62
     7
440
 16777216
370
     0
100
AcDbLine
 10
20.9678038762294
 20
8.395391281531573
 30
0.0
 11
21.04108155187348
 21
8.395391281531573
 31
0.0
  0
MTEXT
  5
4DA
330
4D1
100
AcDbEntity
  8
0
  6
Continuous
 62
     7
440
 16777216
370
     0
100
AcDbMText
 10
21.17337321854015
 20
8.509519211980862
 30
-0.0000000000000587
 40
0.2204861111111111
 41
0.0
 46
0.0
 71
     1
 72
     1
  1
0.35
  7
SLDTEXTSTYLE0
 73
     1
 44
1.0
  0
ENDBLK
  5
4D3
330
4D1
100
AcDbEntity
  8
0
100
AcDbBlockEnd
  0
BLOCK
  5
4DD
330
4DC
100
AcDbEntity
  8
0
100
AcDbBlockBegin
  2
*D24
 70
     1
 10
0.0
 20
0.0
 30
0.0
  3
*D24
  1

  0
SOLID
  5
4DF
330
4DC
100
AcDbEntity
  8
0
  6
Continuous
 62
     7
440
 16777216
370
     0
100
AcDbTrace
 10
17.71780387622938
 20
13.43603030771518
 30
0.0
 11
17.88447054289605
 21
13.41519697438184
 31
0.0
 12
17.88447054289605
 22
13.45686364104851
 32
0.0
 13
17.88447054289605
 23
13.45686364104851
 33
0.0
  0
SOLID
  5
4E0
330
4DC
100
AcDbEntity
  8
0
  6
Continuous
 62
     7
440
 16777216
370
     0
100
AcDbTrace
 10
20.38447054289605
 20
13.43603030771519
 30
0.0
 11
20.21780387622938
 21
13.45686364104852
 31
0.0
 12
20.21780387622938
 22
13.41519697438185
 32
0.0
 13
20.21780387622938
 23
13.41519697438185
 33
0.0
  0
LINE
  5
4E1
330
4DC
100
AcDbEntity
  8
0
  6
Continuous
 62
     7
440
 16777216
370
     0
100
AcDbLine
 10
17.71780387622939
 20
11.36672455460318
 30
0.0
 11
17.71780387622938
 21
13.60269697438185
 31
0.0
  0
LINE
  5
4E2
330
4DC
100
AcDbEntity
  8
0
  6
Continuous
 62
     7
440
 16777216
370
     0
100
AcDbLine
 10
20.38447054289606
 20
11.3667245546032
 30
0.0
 11
20.38447054289605
 21
13.60269697438186
 31
0.0
  0
LINE
  5
4E3
330
4DC
100
AcDbEntity
  8
0
  6
Continuous
 62
     7
440
 16777216
370
     0
100
AcDbLine
 10
17.71780387622938
 20
13.43603030771518
 30
0.0
 11
18.6396645084133
 21
13.43603030771518
 31
0.0
  0
LINE
  5
4E4
330
4DC
100
AcDbEntity
  8
0
  6
Continuous
 62
     7
440
 16777216
370
     0
100
AcDbLine
 10
20.38447054289605
 20
13.43603030771519
 30
0.0
 11
19.46260991071214
 21
13.43603030771518
 31
0.0
  0
MTEXT
  5
4E5
330
4DC
100
AcDbEntity
  8
0
  6
Continuous
 62
     7
440
 16777216
370
     0
100
AcDbMText
 10
18.77195617507997
 20
13.55015823816447
 30
-0.0000000000000939
 40
0.2204861111111111
 41
0.0
 46
0.0
 71
     1
 72
     1
  1
0.80
  7
SLDTEXTSTYLE0
 73
     1
 44
1.0
  0
ENDBLK
  5
4DE
330
4DC
100
AcDbEntity
  8
0
100
AcDbBlockEnd
  0
BLOCK
  5
4E9
330
4E8
100
AcDbEntity
  8
0
100
AcDbBlockBegin
  2
*D25
 70
     1
 10
0.0
 20
0.0
 30
0.0
  3
*D25
  1

  0
SOLID
  5
4EB
330
4E8
100
AcDbEntity
  8
0
  6
Continuous
 62
     7
440
 16777216
370
     0
100
AcDbTrace
 10
16.58807110869683
 20
9.325057887936502
 30
0.0
 11
16.5672377753635
 21
9.158391221269836
 31
0.0
 12
16.60890444203016
 22
9.158391221269836
 32
0.0
 13
16.60890444203016
 23
9.158391221269836
 33
0.0
  0
SOLID
  5
4EC
330
4E8
100
AcDbEntity
  8
0
  6
Continuous
 62
     7
440
 16777216
370
     0
100
AcDbTrace
 10
16.58807110869683
 20
9.5750578879365
 30
0.0
 11
16.60890444203016
 21
9.741724554603166
 31
0.0
 12
16.5672377753635
 22
9.741724554603166
 32
0.0
 13
16.5672377753635
 23
9.741724554603166
 33
0.0
  0
LINE
  5
4ED
330
4E8
100
AcDbEntity
  8
0
  6
Continuous
 62
     7
440
 16777216
370
     0
100
AcDbLine
 10
16.75947054289606
 20
9.325057887936504
 30
0.0
 11
16.42140444203016
 21
9.325057887936502
 31
0.0
  0
LINE
  5
4EE
330
4E8
100
AcDbEntity
  8
0
  6
Continuous
 62
     7
440
 16777216
370
     0
100
AcDbLine
 10
17.00947054289606
 20
9.575057887936502
 30
0.0
 11
16.42140444203016
 21
9.5750578879365
 31
0.0
  0
LINE
  5
4EF
330
4E8
100
AcDbEntity
  8
0
  6
Continuous
 62
     7
440
 16777216
370
     0
100
AcDbLine
 10
16.33807110869683
 20
8.113491627304819
 30
0.0
 11
16.58807110869683
 21
8.113491627304819
 31
0.0
  0
LINE
  5
4F0
330
4E8
100
AcDbEntity
  8
0
  6
Continuous
 62
     7
440
 16777216
370
     0
100
AcDbLine
 10
16.58807110869683
 20
8.113491627304819
 30
0.0
 11
16.58807110869683
 21
9.325057887936502
 31
0.0
  0
LINE
  5
4F1
330
4E8
100
AcDbEntity
  8
0
  6
Continuous
 62
     7
440
 16777216
370
     0
100
AcDbLine
 10
16.58807110869683
 20
9.5750578879365
 30
0.0
 11
16.58807110869683
 21
9.908391221269834
 31
0.0
  0
MTEXT
  5
4F2
330
4E8
100
AcDbEntity
  8
0
  6
Continuous
 62
     7
440
 16777216
370
     0
100
AcDbMText
 10
14.27943030409913
 20
8.395128178443762
 30
-0.0000000000000579
 40
0.2204861111111111
 41
0.0
 46
0.0
 71
     1
 72
     1
  1
0.060~
  7
SLDTEXTSTYLE0
 73
     1
 44
1.0
  0
MTEXT
  5
4F3
330
4E8
100
AcDbEntity
  8
0
  6
Continuous
 62
     7
440
 16777216
370
     0
100
AcDbMText
 10
15.17280961444396
 20
8.395128178443764
 30
-0.0000000000000579
 40
0.2204861111111111
 41
0.0
 46
0.0
 71
     1
 72
     1
  1
0.075
  7
SLDTEXTSTYLE0
 73
     1
 44
1.0
  0
MTEXT
  5
4F4
330
4E8
100
AcDbEntity
  8
0
  6
Continuous
 62
     7
440
 16777216
370
     0
100
AcDbMText
 10
14.00540408283476
 20
8.060110937064452
 30
-0.0000000000000556
 40
0.2204861111111111
 41
0.0
 46
0.0
 71
     1
 72
     1
  1
MASK OPENING
  7
SLDTEXTSTYLE0
 73
     1
 44
1.0
  0
ENDBLK
  5
4EA
330
4E8
100
AcDbEntity
  8
0
100
AcDbBlockEnd
  0
BLOCK
  5
4F8
330
4F7
100
AcDbEntity
  8
0
100
AcDbBlockBegin
  2
*D26
 70
     1
 10
0.0
 20
0.0
 30
0.0
  3
*D26
  1

  0
SOLID
  5
4FA
330
4F7
100
AcDbEntity
  8
0
  6
Continuous
 62
     7
440
 16777216
370
     0
100
AcDbTrace
 10
18.55113720956273
 20
7.398387954800569
 30
0.0
 11
18.7178038762294
 21
7.377554621467236
 31
0.0
 12
18.7178038762294
 22
7.419221288133902
 32
0.0
 13
18.7178038762294
 23
7.419221288133902
 33
0.0
  0
SOLID
  5
4FB
330
4F7
100
AcDbEntity
  8
0
  6
Continuous
 62
     7
440
 16777216
370
     0
100
AcDbTrace
 10
19.55113720956273
 20
7.398387954800572
 30
0.0
 11
19.38447054289606
 21
7.419221288133905
 31
0.0
 12
19.38447054289606
 22
7.377554621467239
 32
0.0
 13
19.38447054289606
 23
7.377554621467239
 33
0.0
  0
LINE
  5
4FC
330
4F7
100
AcDbEntity
  8
0
  6
Continuous
 62
     7
440
 16777216
370
     0
100
AcDbLine
 10
18.55113720956273
 20
9.200057887936507
 30
0.0
 11
18.55113720956273
 21
7.231721288133902
 31
0.0
  0
LINE
  5
4FD
330
4F7
100
AcDbEntity
  8
0
  6
Continuous
 62
     7
440
 16777216
370
     0
100
AcDbLine
 10
19.55113720956273
 20
9.200057887936511
 30
0.0
 11
19.55113720956273
 21
7.231721288133905
 31
0.0
  0
LINE
  5
4FE
330
4F7
100
AcDbEntity
  8
0
  6
Continuous
 62
     7
440
 16777216
370
     0
100
AcDbLine
 10
18.55113720956273
 20
7.398387954800569
 30
0.0
 11
16.4855538081851
 21
7.398387954800563
 31
0.0
  0
LINE
  5
4FF
330
4F7
100
AcDbEntity
  8
0
  6
Continuous
 62
     7
440
 16777216
370
     0
100
AcDbLine
 10
19.55113720956273
 20
7.398387954800572
 30
0.0
 11
18.55113720956273
 21
7.398387954800569
 31
0.0
  0
MTEXT
  5
500
330
4F7
100
AcDbEntity
  8
0
  6
Continuous
 62
     7
440
 16777216
370
     0
100
AcDbMText
 10
14.02675352082879
 20
7.512515885249848
 30
-0.0000000000000517
 40
0.2204861111111111
 41
0.0
 46
0.0
 71
     1
 72
     1
  1
0.285~
  7
SLDTEXTSTYLE0
 73
     1
 44
1.0
  0
MTEXT
  5
501
330
4F7
100
AcDbEntity
  8
0
  6
Continuous
 62
     7
440
 16777216
370
     0
100
AcDbMText
 10
14.92013283117362
 20
7.512515885249848
 30
-0.0000000000000517
 40
0.2204861111111111
 41
0.0
 46
0.0
 71
     1
 72
     1
  1
0.300
  7
SLDTEXTSTYLE0
 73
     1
 44
1.0
  0
MTEXT
  5
502
330
4F7
100
AcDbEntity
  8
0
  6
Continuous
 62
     7
440
 16777216
370
     0
100
AcDbMText
 10
15.64600352082879
 20
7.512515885249848
 30
-0.0000000000000517
 40
0.2204861111111111
 41
0.0
 46
0.0
 71
     1
 72
     1
  1
 MIN.
  7
SLDTEXTSTYLE0
 73
     1
 44
1.0
  0
ENDBLK
  5
4F9
330
4F7
100
AcDbEntity
  8
0
100
AcDbBlockEnd
  0
BLOCK
  5
506
330
505
100
AcDbEntity
  8
0
100
AcDbBlockBegin
  2
*D27
 70
     1
 10
0.0
 20
0.0
 30
0.0
  3
*D27
  1

  0
SOLID
  5
508
330
505
100
AcDbEntity
  8
0
  6
Continuous
 62
     7
440
 16777216
370
     0
100
AcDbTrace
 10
17.56356810017884
 20
11.55429819703931
 30
0.0
 11
17.53959265139426
 21
11.72054194402287
 31
0.0
 12
17.49940881979168
 22
11.7095251028764
 32
0.0
 13
17.49940881979168
 23
11.7095251028764
 33
0.0
  0
LINE
  5
509
330
505
100
AcDbEntity
  8
0
  6
Continuous
 62
     7
440
 16777216
370
     0
100
AcDbLine
 10
17.56356810017884
 20
11.55429819703931
 30
0.0
 11
17.26681345714259
 21
12.6367081587075
 31
0.0
  0
LINE
  5
50A
330
505
100
AcDbEntity
  8
0
  6
Continuous
 62
     7
440
 16777216
370
     0
100
AcDbLine
 10
17.26681345714259
 20
12.6367081587075
 30
0.0
 11
17.01681345714259
 21
12.6367081587075
 31
0.0
  0
MTEXT
  5
50B
330
505
100
AcDbEntity
  8
0
  6
Continuous
 62
     7
440
 16777216
370
     0
100
AcDbMText
 10
16.15865110082076
 20
12.75083608915678
 30
-0.0000000000000883
 40
0.2204861111111111
 41
0.0
 46
0.0
 71
     1
 72
     1
  1
R
  7
SLDTEXTSTYLE0
 73
     1
 44
1.0
  0
MTEXT
  5
50C
330
505
100
AcDbEntity
  8
0
  6
Continuous
 62
     7
440
 16777216
370
     0
100
AcDbMText
 10
16.32615972151041
 20
12.75083608915678
 30
-0.0000000000000883
 40
0.2204861111111111
 41
0.0
 46
0.0
 71
     1
 72
     1
  1
0.18
  7
SLDTEXTSTYLE0
 73
     1
 44
1.0
  0
ENDBLK
  5
507
330
505
100
AcDbEntity
  8
0
100
AcDbBlockEnd
  0
BLOCK
  5
50E
330
50D
100
AcDbEntity
  8
0
100
AcDbBlockBegin
  2
SW_NOTE_26
 70
     0
 10
0.0
 20
0.0
 30
0.0
  3
SW_NOTE_26
  1

  0
MTEXT
  5
510
330
50D
100
AcDbEntity
  8
0
  6
Continuous
 62
     0
370
     0
100
AcDbMText
 10
0.0
 20
0.3379638671875002
 30
0.0
 40
0.2645833333333333
 41
0.0
 46
0.0
 71
     1
 72
     1
  1
DETAIL A 
  7
SLDTEXTSTYLE0
 73
     1
 44
1.0
  0
MTEXT
  5
511
330
50D
100
AcDbEntity
  8
0
  6
Continuous
 62
     0
370
     0
100
AcDbMText
 10
-0.2454744341472784
 20
-0.0099527905384697
 30
0.0
 40
0.2645833333333333
 41
0.0
 46
0.0
 71
     1
 72
     1
  1
SCALE 40 : 1
  7
SLDTEXTSTYLE0
 73
     1
 44
1.0
  0
ENDBLK
  5
50F
330
50D
100
AcDbEntity
  8
0
100
AcDbBlockEnd
  0
ENDSEC
  0
SECTION
  2
ENTITIES
  0
IMAGE
  5
56
330
1F
100
AcDbEntity
  8
0
160
               140
310
8C0000000100000084000000060000000500000000A91150D6B63040E1D88251DF091140000000000000000000A91150D6B63040120437C3EFAC13400000000000000000239E6A3EA9483240120437C3EFAC13400000000000000000239E6A3EA9483240E1D88251DF091140000000000000000000A91150D6B63040E1D882
310
51DF0911400000000000000000
100
AcDbRasterImage
 90
        0
 10
16.71420765334278
 20
4.259640954600599
 30
0.0
 11
0.0104641653488042
 21
0.0
 31
0.0
 12
0.0
 22
0.0104641653488042
 32
0.0
 13
150.0
 23
63.0
340
55
 70
     7
280
     0
281
    50
282
    50
283
     0
290
     0
360
57
 71
     1
 91
        2
 14
-0.5
 24
-0.5
 14
149.5
 24
62.5
  0
LINE
  5
58
330
1F
100
AcDbEntity
  8
0
  6
Continuous
 62
     7
370
     0
100
AcDbLine
 10
0.698345483333328
 20
17.33988821138201
 30
0.0
 11
22.50001215000001
 21
17.33988821138211
 31
0.0
  0
LINE
  5
59
330
1F
100
AcDbEntity
  8
0
  6
Continuous
 62
     7
370
     0
100
AcDbLine
 10
0.698345483333328
 20
17.33988821138201
 30
0.0
 11
0.6983454833333301
 21
0.8298882113821042
 31
0.0
  0
LINE
  5
5A
330
1F
100
AcDbEntity
  8
0
  6
Continuous
 62
     7
370
     0
100
AcDbLine
 10
22.50001215
 20
0.8298882113821067
 30
0.0
 11
0.6983454833333301
 21
0.8298882113821042
 31
0.0
  0
LINE
  5
5B
330
1F
100
AcDbEntity
  8
0
  6
Continuous
 62
     7
370
     0
100
AcDbLine
 10
22.50001215
 20
0.8298882113821067
 30
0.0
 11
22.50001215000001
 21
17.33988821138211
 31
0.0
  0
LINE
  5
5C
330
1F
100
AcDbEntity
  8
0
  6
Continuous
 62
     7
370
     0
100
AcDbLine
 10
16.66072149266312
 20
4.987758072473796
 30
0.0
 11
16.66072149266312
 21
0.8298882113821177
 31
0.0
  0
LINE
  5
5D
330
1F
100
AcDbEntity
  8
0
  6
Continuous
 62
     7
370
     0
100
AcDbLine
 10
16.66072149266312
 20
1.280496571374754
 30
0.0
 11
22.50001215
 21
1.280496571374744
 31
0.0
  0
LINE
  5
5E
330
1F
100
AcDbEntity
  8
0
  6
Continuous
 62
     7
370
     0
100
AcDbLine
 10
16.66072149266312
 20
2.353598386655772
 30
0.0
 11
22.50001215
 21
2.353598386655761
 31
0.0
  0
LINE
  5
5F
330
1F
100
AcDbEntity
  8
0
  6
Continuous
 62
     7
370
     0
100
AcDbLine
 10
16.66072149266312
 20
4.210622284965196
 30
0.0
 11
22.50001215
 21
4.210622284965186
 31
0.0
  0
LINE
  5
60
330
1F
100
AcDbEntity
  8
0
  6
Continuous
 62
     7
370
     0
100
AcDbLine
 10
17.92419867694996
 20
2.353598386655772
 30
0.0
 11
17.92419867694996
 21
1.280496571374744
 31
0.0
  0
LINE
  5
61
330
1F
100
AcDbEntity
  8
0
  6
Continuous
 62
     7
370
     0
100
AcDbLine
 10
18.68313490654261
 20
2.353598386655772
 30
0.0
 11
18.68313490654261
 21
1.280496571374744
 31
0.0
  0
LINE
  5
62
330
1F
100
AcDbEntity
  8
0
  6
Continuous
 62
     7
370
     0
100
AcDbLine
 10
21.07061457021071
 20
2.353598386655772
 30
0.0
 11
21.07061457021071
 21
1.280496571374744
 31
0.0
  0
LINE
  5
63
330
1F
100
AcDbEntity
  8
0
  6
Continuous
 62
     7
370
     0
100
AcDbLine
 10
20.4602411535587
 20
1.280496571374744
 30
0.0
 11
20.4602411535587
 21
0.8298882113821072
 31
0.0
  0
LINE
  5
64
330
1F
100
AcDbEntity
  8
0
  6
Continuous
 62
     7
370
     0
100
AcDbLine
 10
16.66072149266312
 20
4.987758072473796
 30
0.0
 11
22.50001215
 21
4.987758072473796
 31
0.0
  0
INSERT
  5
8D
330
1F
100
AcDbEntity
  8
0
  6
Continuous
 62
     7
370
     0
100
AcDbBlockReference
  2
SW_NOTE_18
 10
17.82301326528155
 20
2.861493881427089
 30
0.0
  0
INSERT
  5
B3
330
1F
100
AcDbEntity
  8
0
  6
Continuous
 62
     7
370
     0
100
AcDbBlockReference
  2
SW_NOTE_19
 10
0.9211149425287384
 20
6.412567367795414
 30
0.0
  0
INSERT
  5
B9
330
1F
100
AcDbEntity
  8
0
  6
Continuous
 62
     7
370
     0
100
AcDbBlockReference
  2
SW_NOTE_20
 10
17.48514943808444
 20
3.708788272861247
 30
0.0
  0
MTEXT
  5
BA
330
1F
100
AcDbEntity
  8
0
  6
Continuous
 62
     7
370
     0
100
AcDbMText
 10
20.65258727895672
 20
1.166815789791587
 30
0.0
 40
0.2116666666666667
 41
0.0
 46
0.0
 71
     1
 72
     1
  1
SHEET 4 OF 4
  7
SLDTEXTSTYLE0
 73
     1
 44
1.0
  0
MTEXT
  5
BC
330
1F
100
AcDbEntity
  8
0
  6
Continuous
 62
     7
370
     0
100
AcDbMText
 10
16.88519544553508
 20
1.819933905280857
 30
0.0
 40
0.3086805555555555
 41
0.0
 46
0.0
 71
     1
 72
     1
  1
12:1
  7
SLDTEXTSTYLE1
 73
     1
 44
1.0
  0
MTEXT
  5
BD
330
1F
100
AcDbEntity
  8
0
  6
Continuous
 62
     7
370
     0
100
AcDbMText
 10
19.158249411013
 20
2.262170893288621
 30
0.0
 40
0.2116666666666667
 41
0.0
 46
0.0
 71
     1
 72
     1
  1
DWG.  NO.
  7
SLDTEXTSTYLE0
 73
     1
 44
1.0
  0
MTEXT
  5
BE
330
1F
100
AcDbEntity
  8
0
  6
Continuous
 62
     7
370
     0
100
AcDbMText
 10
18.05586377502093
 20
1.865031776016059
 30
0.0
 40
0.5291666666666666
 41
0.0
 46
0.0
 71
     1
 72
     1
  1
A
  7
SLDTEXTSTYLE1
 73
     1
 44
1.0
  0
MTEXT
  5
BF
330
1F
100
AcDbEntity
  8
0
  6
Continuous
 62
     7
370
     0
100
AcDbMText
 10
18.07656191477536
 20
2.262170893288621
 30
0.0
 40
0.2116666666666667
 41
0.0
 46
0.0
 71
     1
 72
     1
  1
SIZE
  7
SLDTEXTSTYLE0
 73
     1
 44
1.0
  0
MTEXT
  5
C0
330
1F
100
AcDbEntity
  8
0
  6
Continuous
 62
     7
370
     0
100
AcDbMText
 10
16.75779905080668
 20
4.135153260845695
 30
0.0
 40
0.2116666666666667
 41
0.0
 46
0.0
 71
     1
 72
     1
  1
TITLE:
  7
SLDTEXTSTYLE0
 73
     1
 44
1.0
  0
MTEXT
  5
C1
330
1F
100
AcDbEntity
  8
0
  6
Continuous
 62
     7
370
     0
100
AcDbMText
 10
16.83583673913975
 20
1.166815789791587
 30
0.0
 40
0.2116666666666667
 41
0.0
 46
0.0
 71
     1
 72
     1
  1
DO NOT SCALE DRAWING
  7
SLDTEXTSTYLE0
 73
     1
 44
1.0
  0
MTEXT
  5
C2
330
1F
100
AcDbEntity
  8
0
  6
Continuous
 62
     7
370
     0
100
AcDbMText
 10
16.84736368676523
 20
2.262170893288621
 30
0.0
 40
0.2116666666666667
 41
0.0
 46
0.0
 71
     1
 72
     1
  1
SCALE
  7
SLDTEXTSTYLE0
 73
     1
 44
1.0
  0
MTEXT
  5
C3
330
1F
100
AcDbEntity
  8
0
  6
Continuous
 62
     7
370
     0
100
AcDbMText
 10
21.55853437739787
 20
2.262170893288621
 30
0.0
 40
0.2116666666666667
 41
0.0
 46
0.0
 71
     1
 72
     1
  1
REV
  7
SLDTEXTSTYLE0
 73
     1
 44
1.0
  0
MTEXT
  5
C4
330
1F
100
AcDbEntity
  8
0
  6
Continuous
 62
     7
370
     0
100
AcDbMText
 10
21.57549193004648
 20
1.933179296748142
 30
0.0
 40
0.5291666666666666
 41
0.0
 46
0.0
 71
     1
 72
     1
  1
A
  7
SLDTEXTSTYLE0
 73
     1
 44
1.0
  0
MTEXT
  5
C6
330
1F
100
AcDbEntity
  8
0
  6
Continuous
 62
     7
370
     0
100
AcDbMText
 10
19.09562329578288
 20
4.764759740052111
 30
0.0
 40
0.2204861111111111
 41
0.0
 46
0.0
 71
     1
 72
     1
  1
www.MirrorSemi.com
  7
SLDTEXTSTYLE2
 73
     1
 44
1.0
  0
INSERT
  5
CC
330
1F
100
AcDbEntity
  8
0
  6
Continuous
 62
     7
370
     0
100
AcDbBlockReference
  2
SW_NOTE_21
 10
19.30972644537808
 20
1.638114951267641
 30
0.0
  0
ARC
  5
CD
330
1F
100
AcDbEntity
  8
0
  6
Continuous
 62
     7
100
AcDbCircle
 10
5.133455164730501
 20
8.189028740776358
 30
0.0
 40
0.25
100
AcDbArc
 50
0.0000000000004536
 51
179.9999999999998
  0
ARC
  5
CE
330
1F
100
AcDbEntity
  8
0
  6
Continuous
 62
     7
100
AcDbCircle
 10
5.933455164730502
 20
8.189028740776361
 30
0.0
 40
0.25
100
AcDbArc
 50
0.0000000000001998
 51
179.9999999999998
  0
ARC
  5
CF
330
1F
100
AcDbEntity
  8
0
  6
Continuous
 62
     7
100
AcDbCircle
 10
6.733455164730502
 20
8.189028740776365
 30
0.0
 40
0.25
100
AcDbArc
 50
0.0000000000002002
 51
179.9999999999998
  0
ARC
  5
D0
330
1F
100
AcDbEntity
  8
0
  6
Continuous
 62
     7
100
AcDbCircle
 10
7.533455164730502
 20
8.189028740776366
 30
0.0
 40
0.25
100
AcDbArc
 50
0.0000000000004537
 51
179.9999999999998
  0
ARC
  5
D1
330
1F
100
AcDbEntity
  8
0
  6
Continuous
 62
     7
100
AcDbCircle
 10
8.333455164730501
 20
8.189028740776368
 30
0.0
 40
0.25
100
AcDbArc
 50
0.0000000000004537
 51
179.9999999999998
  0
ARC
  5
D2
330
1F
100
AcDbEntity
  8
0
  6
Continuous
 62
     7
100
AcDbCircle
 10
9.133455164730502
 20
8.189028740776372
 30
0.0
 40
0.25
100
AcDbArc
 50
0.0000000000004537
 51
180.0000000000013
  0
ARC
  5
D3
330
1F
100
AcDbEntity
  8
0
  6
Continuous
 62
     7
100
AcDbCircle
 10
9.933455164730503
 20
8.189028740776373
 30
0.0
 40
0.2500000000000018
100
AcDbArc
 50
0.0000000000004536
 51
179.9999999999998
  0
ARC
  5
D4
330
1F
100
AcDbEntity
  8
0
  6
Continuous
 62
     7
100
AcDbCircle
 10
10.80845516473052
 20
9.064028740776411
 30
0.0
 40
0.25
100
AcDbArc
 50
90.00000000000122
 51
270.0000000000012
  0
ARC
  5
D5
330
1F
100
AcDbEntity
  8
0
  6
Continuous
 62
     7
100
AcDbCircle
 10
10.80845516473051
 20
9.864028740776412
 30
0.0
 40
0.25
100
AcDbArc
 50
90.0000000000004
 51
270.0000000000012
  0
ARC
  5
D6
330
1F
100
AcDbEntity
  8
0
  6
Continuous
 62
     7
100
AcDbCircle
 10
10.8084551647305
 20
10.66402874077641
 30
0.0
 40
0.25
100
AcDbArc
 50
90.00000000000081
 51
270.0000000000017
  0
ARC
  5
D7
330
1F
100
AcDbEntity
  8
0
  6
Continuous
 62
     7
100
AcDbCircle
 10
10.80845516473049
 20
11.46402874077641
 30
0.0
 40
0.25
100
AcDbArc
 50
90.00000000000081
 51
270.0000000000008
  0
ARC
  5
D8
330
1F
100
AcDbEntity
  8
0
  6
Continuous
 62
     7
100
AcDbCircle
 10
10.80845516473048
 20
12.26402874077641
 30
0.0
 40
0.25
100
AcDbArc
 50
90.00000000000122
 51
270.0000000000012
  0
ARC
  5
D9
330
1F
100
AcDbEntity
  8
0
  6
Continuous
 62
     7
100
AcDbCircle
 10
10.80845516473047
 20
13.06402874077641
 30
0.0
 40
0.2500000000000018
100
AcDbArc
 50
90.00000000000081
 51
270.0000000000017
  0
ARC
  5
DA
330
1F
100
AcDbEntity
  8
0
  6
Continuous
 62
     7
100
AcDbCircle
 10
10.80845516473045
 20
13.86402874077641
 30
0.0
 40
0.25
100
AcDbArc
 50
90.0000000000004
 51
270.0000000000012
  0
ARC
  5
DB
330
1F
100
AcDbEntity
  8
0
  6
Continuous
 62
     7
100
AcDbCircle
 10
9.93345516473048
 20
14.73902874077637
 30
0.0
 40
0.2500000000000018
100
AcDbArc
 50
180.0000000000016
 51
0.0000000000002
  0
ARC
  5
DC
330
1F
100
AcDbEntity
  8
0
  6
Continuous
 62
     7
100
AcDbCircle
 10
9.133455164730477
 20
14.73902874077637
 30
0.0
 40
0.2500000000000018
100
AcDbArc
 50
179.9999999999998
 51
0.0000000000002002
  0
ARC
  5
DD
330
1F
100
AcDbEntity
  8
0
  6
Continuous
 62
     7
100
AcDbCircle
 10
8.333455164730478
 20
14.73902874077637
 30
0.0
 40
0.25
100
AcDbArc
 50
179.9999999999998
 51
0.0000000000002002
  0
ARC
  5
DE
330
1F
100
AcDbEntity
  8
0
  6
Continuous
 62
     7
100
AcDbCircle
 10
7.533455164730479
 20
14.73902874077636
 30
0.0
 40
0.25
100
AcDbArc
 50
179.9999999999998
 51
0.0000000000002002
  0
ARC
  5
DF
330
1F
100
AcDbEntity
  8
0
  6
Continuous
 62
     7
100
AcDbCircle
 10
6.733455164730479
 20
14.73902874077636
 30
0.0
 40
0.25
100
AcDbArc
 50
180.0000000000013
 51
0.0000000000002002
  0
ARC
  5
E0
330
1F
100
AcDbEntity
  8
0
  6
Continuous
 62
     7
100
AcDbCircle
 10
5.933455164730478
 20
14.73902874077636
 30
0.0
 40
0.25
100
AcDbArc
 50
180.0000000000013
 51
0.0000000000001998
  0
ARC
  5
E1
330
1F
100
AcDbEntity
  8
0
  6
Continuous
 62
     7
100
AcDbCircle
 10
5.133455164730479
 20
14.73902874077636
 30
0.0
 40
0.25
100
AcDbArc
 50
179.9999999999998
 51
0.0000000000002
  0
ARC
  5
E2
330
1F
100
AcDbEntity
  8
0
  6
Continuous
 62
     7
100
AcDbCircle
 10
4.258455164730474
 20
13.86402874077634
 30
0.0
 40
0.25
100
AcDbArc
 50
270.0000000000012
 51
90.0000000000004
  0
ARC
  5
E3
330
1F
100
AcDbEntity
  8
0
  6
Continuous
 62
     7
100
AcDbCircle
 10
4.258455164730478
 20
13.06402874077634
 30
0.0
 40
0.2500000000000018
100
AcDbArc
 50
270.0000000000014
 51
90.0
  0
ARC
  5
E4
330
1F
100
AcDbEntity
  8
0
  6
Continuous
 62
     7
100
AcDbCircle
 10
4.258455164730485
 20
12.26402874077634
 30
0.0
 40
0.25
100
AcDbArc
 50
270.0000000000012
 51
90.0000000000004
  0
ARC
  5
E5
330
1F
100
AcDbEntity
  8
0
  6
Continuous
 62
     7
100
AcDbCircle
 10
4.258455164730491
 20
11.46402874077634
 30
0.0
 40
0.25
100
AcDbArc
 50
270.000000000001
 51
90.0000000000004
  0
ARC
  5
E6
330
1F
100
AcDbEntity
  8
0
  6
Continuous
 62
     7
100
AcDbCircle
 10
4.258455164730495
 20
10.66402874077634
 30
0.0
 40
0.25
100
AcDbArc
 50
270.0000000000014
 51
90.0
  0
ARC
  5
E7
330
1F
100
AcDbEntity
  8
0
  6
Continuous
 62
     7
100
AcDbCircle
 10
4.258455164730502
 20
9.864028740776344
 30
0.0
 40
0.25
100
AcDbArc
 50
270.000000000001
 51
90.0000000000004
  0
ARC
  5
E8
330
1F
100
AcDbEntity
  8
0
  6
Continuous
 62
     7
100
AcDbCircle
 10
4.258455164730507
 20
9.064028740776343
 30
0.0
 40
0.25
100
AcDbArc
 50
270.0000000000012
 51
90.00000000000019
  0
ARC
  5
E9
330
1F
100
AcDbEntity
  8
0
  6
Continuous
 62
     7
100
AcDbCircle
 10
5.133455164730501
 20
8.189028740776358
 30
0.0
 40
0.25
100
AcDbArc
 50
0.0000000000004536
 51
179.9999999999998
  0
ARC
  5
EA
330
1F
100
AcDbEntity
  8
0
  6
Continuous
 62
     7
100
AcDbCircle
 10
5.933455164730502
 20
8.189028740776361
 30
0.0
 40
0.25
100
AcDbArc
 50
0.0000000000001998
 51
179.9999999999998
  0
ARC
  5
EB
330
1F
100
AcDbEntity
  8
0
  6
Continuous
 62
     7
100
AcDbCircle
 10
6.733455164730502
 20
8.189028740776365
 30
0.0
 40
0.25
100
AcDbArc
 50
0.0000000000002002
 51
179.9999999999998
  0
ARC
  5
EC
330
1F
100
AcDbEntity
  8
0
  6
Continuous
 62
     7
100
AcDbCircle
 10
7.533455164730502
 20
8.189028740776366
 30
0.0
 40
0.25
100
AcDbArc
 50
0.0000000000004537
 51
179.9999999999998
  0
ARC
  5
ED
330
1F
100
AcDbEntity
  8
0
  6
Continuous
 62
     7
100
AcDbCircle
 10
8.333455164730501
 20
8.189028740776368
 30
0.0
 40
0.25
100
AcDbArc
 50
0.0000000000004537
 51
179.9999999999998
  0
ARC
  5
EE
330
1F
100
AcDbEntity
  8
0
  6
Continuous
 62
     7
100
AcDbCircle
 10
9.133455164730502
 20
8.189028740776372
 30
0.0
 40
0.25
100
AcDbArc
 50
0.0000000000004537
 51
180.0000000000013
  0
ARC
  5
EF
330
1F
100
AcDbEntity
  8
0
  6
Continuous
 62
     7
100
AcDbCircle
 10
9.933455164730503
 20
8.189028740776373
 30
0.0
 40
0.2500000000000018
100
AcDbArc
 50
0.0000000000004536
 51
179.9999999999998
  0
ARC
  5
F0
330
1F
100
AcDbEntity
  8
0
  6
Continuous
 62
     7
100
AcDbCircle
 10
10.80845516473052
 20
9.064028740776411
 30
0.0
 40
0.25
100
AcDbArc
 50
90.00000000000122
 51
270.0000000000012
  0
ARC
  5
F1
330
1F
100
AcDbEntity
  8
0
  6
Continuous
 62
     7
100
AcDbCircle
 10
10.80845516473051
 20
9.864028740776412
 30
0.0
 40
0.25
100
AcDbArc
 50
90.0000000000004
 51
270.0000000000012
  0
ARC
  5
F2
330
1F
100
AcDbEntity
  8
0
  6
Continuous
 62
     7
100
AcDbCircle
 10
10.8084551647305
 20
10.66402874077641
 30
0.0
 40
0.25
100
AcDbArc
 50
90.00000000000081
 51
270.0000000000017
  0
ARC
  5
F3
330
1F
100
AcDbEntity
  8
0
  6
Continuous
 62
     7
100
AcDbCircle
 10
10.80845516473049
 20
11.46402874077641
 30
0.0
 40
0.25
100
AcDbArc
 50
90.00000000000081
 51
270.0000000000008
  0
ARC
  5
F4
330
1F
100
AcDbEntity
  8
0
  6
Continuous
 62
     7
100
AcDbCircle
 10
10.80845516473048
 20
12.26402874077641
 30
0.0
 40
0.25
100
AcDbArc
 50
90.00000000000122
 51
270.0000000000012
  0
ARC
  5
F5
330
1F
100
AcDbEntity
  8
0
  6
Continuous
 62
     7
100
AcDbCircle
 10
10.80845516473047
 20
13.06402874077641
 30
0.0
 40
0.2500000000000018
100
AcDbArc
 50
90.00000000000081
 51
270.0000000000017
  0
ARC
  5
F6
330
1F
100
AcDbEntity
  8
0
  6
Continuous
 62
     7
100
AcDbCircle
 10
10.80845516473045
 20
13.86402874077641
 30
0.0
 40
0.25
100
AcDbArc
 50
90.0000000000004
 51
270.0000000000012
  0
ARC
  5
F7
330
1F
100
AcDbEntity
  8
0
  6
Continuous
 62
     7
100
AcDbCircle
 10
9.93345516473048
 20
14.73902874077637
 30
0.0
 40
0.2500000000000018
100
AcDbArc
 50
180.0000000000016
 51
0.0000000000002
  0
ARC
  5
F8
330
1F
100
AcDbEntity
  8
0
  6
Continuous
 62
     7
100
AcDbCircle
 10
9.133455164730477
 20
14.73902874077637
 30
0.0
 40
0.2500000000000018
100
AcDbArc
 50
179.9999999999998
 51
0.0000000000002002
  0
ARC
  5
F9
330
1F
100
AcDbEntity
  8
0
  6
Continuous
 62
     7
100
AcDbCircle
 10
8.333455164730478
 20
14.73902874077637
 30
0.0
 40
0.25
100
AcDbArc
 50
179.9999999999998
 51
0.0000000000002002
  0
ARC
  5
FA
330
1F
100
AcDbEntity
  8
0
  6
Continuous
 62
     7
100
AcDbCircle
 10
7.533455164730479
 20
14.73902874077636
 30
0.0
 40
0.25
100
AcDbArc
 50
179.9999999999998
 51
0.0000000000002002
  0
ARC
  5
FB
330
1F
100
AcDbEntity
  8
0
  6
Continuous
 62
     7
100
AcDbCircle
 10
6.733455164730479
 20
14.73902874077636
 30
0.0
 40
0.25
100
AcDbArc
 50
180.0000000000013
 51
0.0000000000002002
  0
ARC
  5
FC
330
1F
100
AcDbEntity
  8
0
  6
Continuous
 62
     7
100
AcDbCircle
 10
5.933455164730478
 20
14.73902874077636
 30
0.0
 40
0.25
100
AcDbArc
 50
180.0000000000013
 51
0.0000000000001998
  0
ARC
  5
FD
330
1F
100
AcDbEntity
  8
0
  6
Continuous
 62
     7
100
AcDbCircle
 10
5.133455164730479
 20
14.73902874077636
 30
0.0
 40
0.25
100
AcDbArc
 50
179.9999999999998
 51
0.0000000000002
  0
ARC
  5
FE
330
1F
100
AcDbEntity
  8
0
  6
Continuous
 62
     7
100
AcDbCircle
 10
4.258455164730474
 20
13.86402874077634
 30
0.0
 40
0.25
100
AcDbArc
 50
270.0000000000012
 51
90.0000000000004
  0
ARC
  5
FF
330
1F
100
AcDbEntity
  8
0
  6
Continuous
 62
     7
100
AcDbCircle
 10
4.258455164730478
 20
13.06402874077634
 30
0.0
 40
0.2500000000000018
100
AcDbArc
 50
270.0000000000014
 51
90.0
  0
ARC
  5
100
330
1F
100
AcDbEntity
  8
0
  6
Continuous
 62
     7
100
AcDbCircle
 10
4.258455164730485
 20
12.26402874077634
 30
0.0
 40
0.25
100
AcDbArc
 50
270.0000000000012
 51
90.0000000000004
  0
ARC
  5
101
330
1F
100
AcDbEntity
  8
0
  6
Continuous
 62
     7
100
AcDbCircle
 10
4.258455164730491
 20
11.46402874077634
 30
0.0
 40
0.25
100
AcDbArc
 50
270.000000000001
 51
90.0000000000004
  0
ARC
  5
102
330
1F
100
AcDbEntity
  8
0
  6
Continuous
 62
     7
100
AcDbCircle
 10
4.258455164730495
 20
10.66402874077634
 30
0.0
 40
0.25
100
AcDbArc
 50
270.0000000000014
 51
90.0
  0
ARC
  5
103
330
1F
100
AcDbEntity
  8
0
  6
Continuous
 62
     7
100
AcDbCircle
 10
4.258455164730502
 20
9.864028740776344
 30
0.0
 40
0.25
100
AcDbArc
 50
270.000000000001
 51
90.0000000000004
  0
ARC
  5
104
330
1F
100
AcDbEntity
  8
0
  6
Continuous
 62
     7
100
AcDbCircle
 10
4.258455164730507
 20
9.064028740776343
 30
0.0
 40
0.25
100
AcDbArc
 50
270.0000000000012
 51
90.00000000000019
  0
LINE
  5
105
330
1F
100
AcDbEntity
  8
0
  6
Continuous
 62
     7
100
AcDbLine
 10
4.890455164730479
 20
14.10702874077635
 30
0.0
 11
4.890455164730497
 21
8.821028740776357
 31
0.0
  0
LINE
  5
106
330
1F
100
AcDbEntity
  8
0
  6
Continuous
 62
     7
100
AcDbLine
 10
4.890455164730497
 20
8.821028740776357
 30
0.0
 11
10.1764551647305
 21
8.821028740776375
 31
0.0
  0
LINE
  5
107
330
1F
100
AcDbEntity
  8
0
  6
Continuous
 62
     7
100
AcDbLine
 10
10.1764551647305
 20
8.821028740776375
 30
0.0
 11
10.17645516473048
 21
14.10702874077637
 31
0.0
  0
LINE
  5
108
330
1F
100
AcDbEntity
  8
0
  6
Continuous
 62
     7
100
AcDbLine
 10
10.17645516473048
 20
14.10702874077637
 30
0.0
 11
4.890455164730479
 21
14.10702874077635
 31
0.0
  0
LINE
  5
109
330
1F
100
AcDbEntity
  8
0
  6
Continuous
 62
     7
100
AcDbLine
 10
4.033455164730503
 20
7.964028740776354
 30
0.0
 11
11.0334551647305
 21
7.964028740776378
 31
0.0
  0
LINE
  5
10A
330
1F
100
AcDbEntity
  8
0
  6
Continuous
 62
     7
100
AcDbLine
 10
4.033455164730503
 20
7.964028740776354
 30
0.0
 11
4.033455164730478
 21
14.96402874077635
 31
0.0
  0
LINE
  5
10B
330
1F
100
AcDbEntity
  8
0
  6
Continuous
 62
     7
100
AcDbLine
 10
4.033455164730478
 20
14.96402874077635
 30
0.0
 11
11.03345516473048
 21
14.96402874077638
 31
0.0
  0
LINE
  5
10C
330
1F
100
AcDbEntity
  8
0
  6
Continuous
 62
     7
100
AcDbLine
 10
11.0334551647305
 20
7.964028740776378
 30
0.0
 11
11.03345516473048
 21
14.96402874077638
 31
0.0
  0
LINE
  5
10D
330
1F
100
AcDbEntity
  8
0
  6
Continuous
 62
     7
100
AcDbLine
 10
5.383455164730503
 20
7.689028740776358
 30
0.0
 11
5.383455164730501
 21
8.189028740776359
 31
0.0
  0
LINE
  5
10E
330
1F
100
AcDbEntity
  8
0
  6
Continuous
 62
     7
100
AcDbLine
 10
4.883455164730501
 20
8.189028740776358
 30
0.0
 11
4.883455164730502
 21
7.689028740776357
 31
0.0
  0
LINE
  5
10F
330
1F
100
AcDbEntity
  8
0
  6
Continuous
 62
     7
100
AcDbLine
 10
4.883455164730502
 20
7.689028740776357
 30
0.0
 11
5.383455164730503
 21
7.689028740776358
 31
0.0
  0
LINE
  5
110
330
1F
100
AcDbEntity
  8
0
  6
Continuous
 62
     7
100
AcDbLine
 10
6.183455164730504
 20
7.689028740776361
 30
0.0
 11
6.183455164730501
 21
8.189028740776361
 31
0.0
  0
LINE
  5
111
330
1F
100
AcDbEntity
  8
0
  6
Continuous
 62
     7
100
AcDbLine
 10
5.683455164730502
 20
8.189028740776361
 30
0.0
 11
5.683455164730503
 21
7.68902874077636
 31
0.0
  0
LINE
  5
112
330
1F
100
AcDbEntity
  8
0
  6
Continuous
 62
     7
100
AcDbLine
 10
5.683455164730503
 20
7.68902874077636
 30
0.0
 11
6.183455164730504
 21
7.689028740776361
 31
0.0
  0
LINE
  5
113
330
1F
100
AcDbEntity
  8
0
  6
Continuous
 62
     7
100
AcDbLine
 10
6.983455164730504
 20
7.689028740776365
 30
0.0
 11
6.983455164730501
 21
8.189028740776365
 31
0.0
  0
LINE
  5
114
330
1F
100
AcDbEntity
  8
0
  6
Continuous
 62
     7
100
AcDbLine
 10
6.483455164730502
 20
8.189028740776365
 30
0.0
 11
6.483455164730503
 21
7.689028740776364
 31
0.0
  0
LINE
  5
115
330
1F
100
AcDbEntity
  8
0
  6
Continuous
 62
     7
100
AcDbLine
 10
6.483455164730503
 20
7.689028740776364
 30
0.0
 11
6.983455164730504
 21
7.689028740776365
 31
0.0
  0
LINE
  5
116
330
1F
100
AcDbEntity
  8
0
  6
Continuous
 62
     7
100
AcDbLine
 10
10.2514551647305
 20
8.746028740776376
 30
0.0
 11
10.25145516473049
 21
9.499028740776376
 31
0.0
  0
LINE
  5
117
330
1F
100
AcDbEntity
  8
0
  6
Continuous
 62
     7
100
AcDbLine
 10
9.498455164730497
 20
8.926028740776372
 30
0.0
 11
9.498455164730499
 21
8.746028740776372
 31
0.0
  0
LINE
  5
118
330
1F
100
AcDbEntity
  8
0
  6
Continuous
 62
     7
100
AcDbLine
 10
9.318455164730497
 20
8.926028740776372
 30
0.0
 11
9.498455164730497
 21
8.926028740776372
 31
0.0
  0
LINE
  5
119
330
1F
100
AcDbEntity
  8
0
  6
Continuous
 62
     7
100
AcDbLine
 10
9.318455164730497
 20
8.746028740776372
 30
0.0
 11
9.318455164730497
 21
8.926028740776372
 31
0.0
  0
LINE
  5
11A
330
1F
100
AcDbEntity
  8
0
  6
Continuous
 62
     7
100
AcDbLine
 10
8.748455164730497
 20
8.74602874077637
 30
0.0
 11
9.318455164730497
 21
8.746028740776372
 31
0.0
  0
LINE
  5
11B
330
1F
100
AcDbEntity
  8
0
  6
Continuous
 62
     7
100
AcDbLine
 10
8.748455164730497
 20
8.92602874077637
 30
0.0
 11
8.748455164730497
 21
8.74602874077637
 31
0.0
  0
LINE
  5
11C
330
1F
100
AcDbEntity
  8
0
  6
Continuous
 62
     7
100
AcDbLine
 10
8.568455164730497
 20
8.92602874077637
 30
0.0
 11
8.748455164730497
 21
8.92602874077637
 31
0.0
  0
LINE
  5
11D
330
1F
100
AcDbEntity
  8
0
  6
Continuous
 62
     7
100
AcDbLine
 10
8.568455164730497
 20
8.746028740776369
 30
0.0
 11
8.568455164730497
 21
8.92602874077637
 31
0.0
  0
LINE
  5
11E
330
1F
100
AcDbEntity
  8
0
  6
Continuous
 62
     7
100
AcDbLine
 10
7.998455164730498
 20
8.746028740776369
 30
0.0
 11
8.568455164730497
 21
8.746028740776369
 31
0.0
  0
LINE
  5
11F
330
1F
100
AcDbEntity
  8
0
  6
Continuous
 62
     7
100
AcDbLine
 10
10.07145516473049
 20
10.42902874077638
 30
0.0
 11
10.25145516473049
 21
10.42902874077638
 31
0.0
  0
LINE
  5
120
330
1F
100
AcDbEntity
  8
0
  6
Continuous
 62
     7
100
AcDbLine
 10
7.783455164730503
 20
7.689028740776367
 30
0.0
 11
7.783455164730501
 21
8.189028740776368
 31
0.0
  0
LINE
  5
121
330
1F
100
AcDbEntity
  8
0
  6
Continuous
 62
     7
100
AcDbLine
 10
10.07145516473049
 20
10.24902874077637
 30
0.0
 11
10.07145516473049
 21
10.42902874077638
 31
0.0
  0
LINE
  5
122
330
1F
100
AcDbEntity
  8
0
  6
Continuous
 62
     7
100
AcDbLine
 10
10.25145516473049
 20
10.24902874077637
 30
0.0
 11
10.07145516473049
 21
10.24902874077637
 31
0.0
  0
LINE
  5
123
330
1F
100
AcDbEntity
  8
0
  6
Continuous
 62
     7
100
AcDbLine
 10
10.25145516473049
 20
9.679028740776375
 30
0.0
 11
10.25145516473049
 21
10.24902874077637
 31
0.0
  0
LINE
  5
124
330
1F
100
AcDbEntity
  8
0
  6
Continuous
 62
     7
100
AcDbLine
 10
10.0714551647305
 20
9.679028740776375
 30
0.0
 11
10.25145516473049
 21
9.679028740776375
 31
0.0
  0
LINE
  5
125
330
1F
100
AcDbEntity
  8
0
  6
Continuous
 62
     7
100
AcDbLine
 10
10.0714551647305
 20
9.499028740776376
 30
0.0
 11
10.0714551647305
 21
9.679028740776375
 31
0.0
  0
LINE
  5
126
330
1F
100
AcDbEntity
  8
0
  6
Continuous
 62
     7
100
AcDbLine
 10
10.25145516473049
 20
9.499028740776376
 30
0.0
 11
10.0714551647305
 21
9.499028740776376
 31
0.0
  0
LINE
  5
127
330
1F
100
AcDbEntity
  8
0
  6
Continuous
 62
     7
100
AcDbLine
 10
7.283455164730502
 20
8.189028740776366
 30
0.0
 11
7.283455164730503
 21
7.689028740776365
 31
0.0
  0
LINE
  5
128
330
1F
100
AcDbEntity
  8
0
  6
Continuous
 62
     7
100
AcDbLine
 10
7.283455164730503
 20
7.689028740776365
 30
0.0
 11
7.783455164730503
 21
7.689028740776367
 31
0.0
  0
LINE
  5
129
330
1F
100
AcDbEntity
  8
0
  6
Continuous
 62
     7
100
AcDbLine
 10
8.583455164730503
 20
7.689028740776371
 30
0.0
 11
8.583455164730501
 21
8.18902874077637
 31
0.0
  0
LINE
  5
12A
330
1F
100
AcDbEntity
  8
0
  6
Continuous
 62
     7
100
AcDbLine
 10
8.083455164730501
 20
8.189028740776368
 30
0.0
 11
8.083455164730503
 21
7.689028740776368
 31
0.0
  0
LINE
  5
12B
330
1F
100
AcDbEntity
  8
0
  6
Continuous
 62
     7
100
AcDbLine
 10
8.083455164730503
 20
7.689028740776368
 30
0.0
 11
8.583455164730503
 21
7.689028740776371
 31
0.0
  0
LINE
  5
12C
330
1F
100
AcDbEntity
  8
0
  6
Continuous
 62
     7
100
AcDbLine
 10
10.25145516473049
 20
10.99902874077637
 30
0.0
 11
10.07145516473049
 21
10.99902874077637
 31
0.0
  0
LINE
  5
12D
330
1F
100
AcDbEntity
  8
0
  6
Continuous
 62
     7
100
AcDbLine
 10
10.25145516473049
 20
10.42902874077638
 30
0.0
 11
10.25145516473049
 21
10.99902874077637
 31
0.0
  0
LINE
  5
12E
330
1F
100
AcDbEntity
  8
0
  6
Continuous
 62
     7
100
AcDbLine
 10
9.498455164730499
 20
8.746028740776372
 30
0.0
 11
10.2514551647305
 21
8.746028740776376
 31
0.0
  0
LINE
  5
12F
330
1F
100
AcDbEntity
  8
0
  6
Continuous
 62
     7
100
AcDbLine
 10
7.998455164730498
 20
8.926028740776368
 30
0.0
 11
7.998455164730498
 21
8.746028740776369
 31
0.0
  0
LINE
  5
130
330
1F
100
AcDbEntity
  8
0
  6
Continuous
 62
     7
100
AcDbLine
 10
7.818455164730497
 20
8.926028740776366
 30
0.0
 11
7.998455164730498
 21
8.926028740776368
 31
0.0
  0
LINE
  5
131
330
1F
100
AcDbEntity
  8
0
  6
Continuous
 62
     7
100
AcDbLine
 10
7.818455164730499
 20
8.746028740776365
 30
0.0
 11
7.818455164730497
 21
8.926028740776366
 31
0.0
  0
LINE
  5
132
330
1F
100
AcDbEntity
  8
0
  6
Continuous
 62
     7
100
AcDbLine
 10
7.2484551647305
 20
8.746028740776365
 30
0.0
 11
7.818455164730499
 21
8.746028740776365
 31
0.0
  0
LINE
  5
133
330
1F
100
AcDbEntity
  8
0
  6
Continuous
 62
     7
100
AcDbLine
 10
7.248455164730498
 20
8.926028740776365
 30
0.0
 11
7.2484551647305
 21
8.746028740776365
 31
0.0
  0
LINE
  5
134
330
1F
100
AcDbEntity
  8
0
  6
Continuous
 62
     7
100
AcDbLine
 10
7.068455164730498
 20
8.926028740776363
 30
0.0
 11
7.248455164730498
 21
8.926028740776365
 31
0.0
  0
LINE
  5
135
330
1F
100
AcDbEntity
  8
0
  6
Continuous
 62
     7
100
AcDbLine
 10
7.068455164730498
 20
8.746028740776363
 30
0.0
 11
7.068455164730498
 21
8.926028740776363
 31
0.0
  0
LINE
  5
136
330
1F
100
AcDbEntity
  8
0
  6
Continuous
 62
     7
100
AcDbLine
 10
6.498455164730498
 20
8.746028740776363
 30
0.0
 11
7.068455164730498
 21
8.746028740776363
 31
0.0
  0
LINE
  5
137
330
1F
100
AcDbEntity
  8
0
  6
Continuous
 62
     7
100
AcDbLine
 10
6.498455164730498
 20
8.926028740776361
 30
0.0
 11
6.498455164730498
 21
8.746028740776363
 31
0.0
  0
LINE
  5
138
330
1F
100
AcDbEntity
  8
0
  6
Continuous
 62
     7
100
AcDbLine
 10
6.318455164730497
 20
8.926028740776361
 30
0.0
 11
6.498455164730498
 21
8.926028740776361
 31
0.0
  0
LINE
  5
139
330
1F
100
AcDbEntity
  8
0
  6
Continuous
 62
     7
100
AcDbLine
 10
6.318455164730498
 20
8.746028740776361
 30
0.0
 11
6.318455164730497
 21
8.926028740776361
 31
0.0
  0
LINE
  5
13A
330
1F
100
AcDbEntity
  8
0
  6
Continuous
 62
     7
100
AcDbLine
 10
5.748455164730499
 20
8.746028740776361
 30
0.0
 11
6.318455164730498
 21
8.746028740776361
 31
0.0
  0
LINE
  5
13B
330
1F
100
AcDbEntity
  8
0
  6
Continuous
 62
     7
100
AcDbLine
 10
5.748455164730499
 20
8.926028740776358
 30
0.0
 11
5.748455164730499
 21
8.746028740776361
 31
0.0
  0
LINE
  5
13C
330
1F
100
AcDbEntity
  8
0
  6
Continuous
 62
     7
100
AcDbLine
 10
5.568455164730496
 20
8.926028740776358
 30
0.0
 11
5.748455164730499
 21
8.926028740776358
 31
0.0
  0
LINE
  5
13D
330
1F
100
AcDbEntity
  8
0
  6
Continuous
 62
     7
100
AcDbLine
 10
5.568455164730498
 20
8.74602874077636
 30
0.0
 11
5.568455164730496
 21
8.926028740776358
 31
0.0
  0
LINE
  5
13E
330
1F
100
AcDbEntity
  8
0
  6
Continuous
 62
     7
100
AcDbLine
 10
4.8154551647305
 20
8.746028740776358
 30
0.0
 11
5.568455164730498
 21
8.74602874077636
 31
0.0
  0
LINE
  5
13F
330
1F
100
AcDbEntity
  8
0
  6
Continuous
 62
     7
100
AcDbLine
 10
4.815455164730497
 20
9.499028740776356
 30
0.0
 11
4.8154551647305
 21
8.746028740776358
 31
0.0
  0
LINE
  5
140
330
1F
100
AcDbEntity
  8
0
  6
Continuous
 62
     7
100
AcDbLine
 10
4.995455164730496
 20
9.499028740776356
 30
0.0
 11
4.815455164730497
 21
9.499028740776356
 31
0.0
  0
LINE
  5
141
330
1F
100
AcDbEntity
  8
0
  6
Continuous
 62
     7
100
AcDbLine
 10
4.995455164730496
 20
9.679028740776356
 30
0.0
 11
4.995455164730496
 21
9.499028740776356
 31
0.0
  0
LINE
  5
142
330
1F
100
AcDbEntity
  8
0
  6
Continuous
 62
     7
100
AcDbLine
 10
4.815455164730495
 20
9.679028740776356
 30
0.0
 11
4.995455164730496
 21
9.679028740776356
 31
0.0
  0
LINE
  5
143
330
1F
100
AcDbEntity
  8
0
  6
Continuous
 62
     7
100
AcDbLine
 10
4.815455164730495
 20
10.24902874077635
 30
0.0
 11
4.815455164730495
 21
9.679028740776356
 31
0.0
  0
LINE
  5
144
330
1F
100
AcDbEntity
  8
0
  6
Continuous
 62
     7
100
AcDbLine
 10
4.995455164730494
 20
10.24902874077636
 30
0.0
 11
4.815455164730495
 21
10.24902874077635
 31
0.0
  0
LINE
  5
145
330
1F
100
AcDbEntity
  8
0
  6
Continuous
 62
     7
100
AcDbLine
 10
4.995455164730493
 20
10.42902874077635
 30
0.0
 11
4.995455164730494
 21
10.24902874077636
 31
0.0
  0
LINE
  5
146
330
1F
100
AcDbEntity
  8
0
  6
Continuous
 62
     7
100
AcDbLine
 10
4.815455164730493
 20
10.42902874077635
 30
0.0
 11
4.995455164730493
 21
10.42902874077635
 31
0.0
  0
LINE
  5
147
330
1F
100
AcDbEntity
  8
0
  6
Continuous
 62
     7
100
AcDbLine
 10
4.815455164730493
 20
10.99902874077635
 30
0.0
 11
4.815455164730493
 21
10.42902874077635
 31
0.0
  0
LINE
  5
148
330
1F
100
AcDbEntity
  8
0
  6
Continuous
 62
     7
100
AcDbLine
 10
4.995455164730492
 20
10.99902874077635
 30
0.0
 11
4.815455164730493
 21
10.99902874077635
 31
0.0
  0
LINE
  5
149
330
1F
100
AcDbEntity
  8
0
  6
Continuous
 62
     7
100
AcDbLine
 10
4.995455164730491
 20
11.17902874077635
 30
0.0
 11
4.995455164730492
 21
10.99902874077635
 31
0.0
  0
LINE
  5
14A
330
1F
100
AcDbEntity
  8
0
  6
Continuous
 62
     7
100
AcDbLine
 10
4.81545516473049
 20
11.17902874077635
 30
0.0
 11
4.995455164730491
 21
11.17902874077635
 31
0.0
  0
LINE
  5
14B
330
1F
100
AcDbEntity
  8
0
  6
Continuous
 62
     7
100
AcDbLine
 10
4.81545516473049
 20
11.74902874077635
 30
0.0
 11
4.81545516473049
 21
11.17902874077635
 31
0.0
  0
LINE
  5
14C
330
1F
100
AcDbEntity
  8
0
  6
Continuous
 62
     7
100
AcDbLine
 10
5.815455164730481
 20
14.18202874077636
 30
0.0
 11
4.815455164730485
 21
13.18202874077635
 31
0.0
  0
LINE
  5
14D
330
1F
100
AcDbEntity
  8
0
  6
Continuous
 62
     7
100
AcDbLine
 10
6.318455164730481
 20
14.18202874077636
 30
0.0
 11
5.815455164730481
 21
14.18202874077636
 31
0.0
  0
LINE
  5
14E
330
1F
100
AcDbEntity
  8
0
  6
Continuous
 62
     7
100
AcDbLine
 10
7.818455164730482
 20
14.00202874077637
 30
0.0
 11
7.818455164730482
 21
14.18202874077637
 31
0.0
  0
LINE
  5
14F
330
1F
100
AcDbEntity
  8
0
  6
Continuous
 62
     7
100
AcDbLine
 10
7.998455164730482
 20
14.00202874077637
 30
0.0
 11
7.818455164730482
 21
14.00202874077637
 31
0.0
  0
LINE
  5
150
330
1F
100
AcDbEntity
  8
0
  6
Continuous
 62
     7
100
AcDbLine
 10
7.998455164730482
 20
14.18202874077637
 30
0.0
 11
7.998455164730482
 21
14.00202874077637
 31
0.0
  0
LINE
  5
151
330
1F
100
AcDbEntity
  8
0
  6
Continuous
 62
     7
100
AcDbLine
 10
8.568455164730481
 20
14.18202874077637
 30
0.0
 11
7.998455164730482
 21
14.18202874077637
 31
0.0
  0
LINE
  5
152
330
1F
100
AcDbEntity
  8
0
  6
Continuous
 62
     7
100
AcDbLine
 10
8.568455164730483
 20
14.00202874077637
 30
0.0
 11
8.568455164730481
 21
14.18202874077637
 31
0.0
  0
LINE
  5
153
330
1F
100
AcDbEntity
  8
0
  6
Continuous
 62
     7
100
AcDbLine
 10
8.748455164730483
 20
14.00202874077637
 30
0.0
 11
8.568455164730483
 21
14.00202874077637
 31
0.0
  0
LINE
  5
154
330
1F
100
AcDbEntity
  8
0
  6
Continuous
 62
     7
100
AcDbLine
 10
8.748455164730481
 20
14.18202874077637
 30
0.0
 11
8.748455164730483
 21
14.00202874077637
 31
0.0
  0
LINE
  5
155
330
1F
100
AcDbEntity
  8
0
  6
Continuous
 62
     7
100
AcDbLine
 10
9.318455164730481
 20
14.18202874077637
 30
0.0
 11
8.748455164730481
 21
14.18202874077637
 31
0.0
  0
LINE
  5
156
330
1F
100
AcDbEntity
  8
0
  6
Continuous
 62
     7
100
AcDbLine
 10
9.318455164730483
 20
14.00202874077637
 30
0.0
 11
9.318455164730481
 21
14.18202874077637
 31
0.0
  0
LINE
  5
157
330
1F
100
AcDbEntity
  8
0
  6
Continuous
 62
     7
100
AcDbLine
 10
9.498455164730483
 20
14.00202874077637
 30
0.0
 11
9.318455164730483
 21
14.00202874077637
 31
0.0
  0
LINE
  5
158
330
1F
100
AcDbEntity
  8
0
  6
Continuous
 62
     7
100
AcDbLine
 10
9.498455164730483
 20
14.18202874077637
 30
0.0
 11
9.498455164730483
 21
14.00202874077637
 31
0.0
  0
LINE
  5
159
330
1F
100
AcDbEntity
  8
0
  6
Continuous
 62
     7
100
AcDbLine
 10
10.25145516473048
 20
14.18202874077637
 30
0.0
 11
9.498455164730483
 21
14.18202874077637
 31
0.0
  0
LINE
  5
15A
330
1F
100
AcDbEntity
  8
0
  6
Continuous
 62
     7
100
AcDbLine
 10
10.25145516473048
 20
13.42902874077638
 30
0.0
 11
10.25145516473048
 21
14.18202874077637
 31
0.0
  0
LINE
  5
15B
330
1F
100
AcDbEntity
  8
0
  6
Continuous
 62
     7
100
AcDbLine
 10
10.07145516473048
 20
13.42902874077637
 30
0.0
 11
10.25145516473048
 21
13.42902874077638
 31
0.0
  0
LINE
  5
15C
330
1F
100
AcDbEntity
  8
0
  6
Continuous
 62
     7
100
AcDbLine
 10
10.07145516473048
 20
13.24902874077637
 30
0.0
 11
10.07145516473048
 21
13.42902874077637
 31
0.0
  0
LINE
  5
15D
330
1F
100
AcDbEntity
  8
0
  6
Continuous
 62
     7
100
AcDbLine
 10
10.25145516473048
 20
13.24902874077637
 30
0.0
 11
10.07145516473048
 21
13.24902874077637
 31
0.0
  0
LINE
  5
15E
330
1F
100
AcDbEntity
  8
0
  6
Continuous
 62
     7
100
AcDbLine
 10
10.25145516473048
 20
12.67902874077637
 30
0.0
 11
10.25145516473048
 21
13.24902874077637
 31
0.0
  0
LINE
  5
15F
330
1F
100
AcDbEntity
  8
0
  6
Continuous
 62
     7
100
AcDbLine
 10
10.07145516473048
 20
12.67902874077637
 30
0.0
 11
10.25145516473048
 21
12.67902874077637
 31
0.0
  0
LINE
  5
160
330
1F
100
AcDbEntity
  8
0
  6
Continuous
 62
     7
100
AcDbLine
 10
10.07145516473048
 20
12.49902874077637
 30
0.0
 11
10.07145516473048
 21
12.67902874077637
 31
0.0
  0
LINE
  5
161
330
1F
100
AcDbEntity
  8
0
  6
Continuous
 62
     7
100
AcDbLine
 10
10.25145516473048
 20
12.49902874077637
 30
0.0
 11
10.07145516473048
 21
12.49902874077637
 31
0.0
  0
LINE
  5
162
330
1F
100
AcDbEntity
  8
0
  6
Continuous
 62
     7
100
AcDbLine
 10
10.25145516473049
 20
11.92902874077637
 30
0.0
 11
10.25145516473048
 21
12.49902874077637
 31
0.0
  0
LINE
  5
163
330
1F
100
AcDbEntity
  8
0
  6
Continuous
 62
     7
100
AcDbLine
 10
10.07145516473049
 20
11.92902874077637
 30
0.0
 11
10.25145516473049
 21
11.92902874077637
 31
0.0
  0
LINE
  5
164
330
1F
100
AcDbEntity
  8
0
  6
Continuous
 62
     7
100
AcDbLine
 10
10.07145516473049
 20
11.74902874077637
 30
0.0
 11
10.07145516473049
 21
11.92902874077637
 31
0.0
  0
LINE
  5
165
330
1F
100
AcDbEntity
  8
0
  6
Continuous
 62
     7
100
AcDbLine
 10
10.25145516473049
 20
11.74902874077637
 30
0.0
 11
10.07145516473049
 21
11.74902874077637
 31
0.0
  0
LINE
  5
166
330
1F
100
AcDbEntity
  8
0
  6
Continuous
 62
     7
100
AcDbLine
 10
10.25145516473049
 20
11.17902874077637
 30
0.0
 11
10.25145516473049
 21
11.74902874077637
 31
0.0
  0
LINE
  5
167
330
1F
100
AcDbEntity
  8
0
  6
Continuous
 62
     7
100
AcDbLine
 10
10.07145516473049
 20
11.17902874077637
 30
0.0
 11
10.25145516473049
 21
11.17902874077637
 31
0.0
  0
LINE
  5
168
330
1F
100
AcDbEntity
  8
0
  6
Continuous
 62
     7
100
AcDbLine
 10
10.07145516473049
 20
10.99902874077637
 30
0.0
 11
10.07145516473049
 21
11.17902874077637
 31
0.0
  0
LINE
  5
169
330
1F
100
AcDbEntity
  8
0
  6
Continuous
 62
     7
100
AcDbLine
 10
9.383455164730504
 20
7.689028740776373
 30
0.0
 11
9.383455164730502
 21
8.189028740776373
 31
0.0
  0
LINE
  5
16A
330
1F
100
AcDbEntity
  8
0
  6
Continuous
 62
     7
100
AcDbLine
 10
8.883455164730502
 20
8.18902874077637
 30
0.0
 11
8.883455164730504
 21
7.689028740776371
 31
0.0
  0
LINE
  5
16B
330
1F
100
AcDbEntity
  8
0
  6
Continuous
 62
     7
100
AcDbLine
 10
8.883455164730504
 20
7.689028740776371
 30
0.0
 11
9.383455164730504
 21
7.689028740776373
 31
0.0
  0
LINE
  5
16C
330
1F
100
AcDbEntity
  8
0
  6
Continuous
 62
     7
100
AcDbLine
 10
10.1834551647305
 20
7.689028740776375
 30
0.0
 11
10.1834551647305
 21
8.189028740776375
 31
0.0
  0
LINE
  5
16D
330
1F
100
AcDbEntity
  8
0
  6
Continuous
 62
     7
100
AcDbLine
 10
9.683455164730501
 20
8.189028740776373
 30
0.0
 11
9.683455164730501
 21
7.689028740776373
 31
0.0
  0
LINE
  5
16E
330
1F
100
AcDbEntity
  8
0
  6
Continuous
 62
     7
100
AcDbLine
 10
9.683455164730501
 20
7.689028740776373
 30
0.0
 11
10.1834551647305
 21
7.689028740776375
 31
0.0
  0
LINE
  5
16F
330
1F
100
AcDbEntity
  8
0
  6
Continuous
 62
     7
100
AcDbLine
 10
11.30845516473052
 20
9.314028740776418
 30
0.0
 11
10.80845516473052
 21
9.314028740776411
 31
0.0
  0
LINE
  5
170
330
1F
100
AcDbEntity
  8
0
  6
Continuous
 62
     7
100
AcDbLine
 10
10.80845516473052
 20
8.814028740776413
 30
0.0
 11
11.30845516473052
 21
8.814028740776418
 31
0.0
  0
LINE
  5
171
330
1F
100
AcDbEntity
  8
0
  6
Continuous
 62
     7
100
AcDbLine
 10
11.30845516473052
 20
8.814028740776418
 30
0.0
 11
11.30845516473052
 21
9.314028740776418
 31
0.0
  0
LINE
  5
172
330
1F
100
AcDbEntity
  8
0
  6
Continuous
 62
     7
100
AcDbLine
 10
11.30845516473051
 20
10.11402874077642
 30
0.0
 11
10.80845516473051
 21
10.11402874077641
 31
0.0
  0
LINE
  5
173
330
1F
100
AcDbEntity
  8
0
  6
Continuous
 62
     7
100
AcDbLine
 10
10.80845516473051
 20
9.614028740776413
 30
0.0
 11
11.30845516473051
 21
9.614028740776419
 31
0.0
  0
LINE
  5
174
330
1F
100
AcDbEntity
  8
0
  6
Continuous
 62
     7
100
AcDbLine
 10
11.30845516473051
 20
9.614028740776419
 30
0.0
 11
11.30845516473051
 21
10.11402874077642
 31
0.0
  0
LINE
  5
175
330
1F
100
AcDbEntity
  8
0
  6
Continuous
 62
     7
100
AcDbLine
 10
11.30845516473049
 20
10.91402874077642
 30
0.0
 11
10.8084551647305
 21
10.91402874077641
 31
0.0
  0
LINE
  5
176
330
1F
100
AcDbEntity
  8
0
  6
Continuous
 62
     7
100
AcDbLine
 10
10.8084551647305
 20
10.41402874077641
 30
0.0
 11
11.3084551647305
 21
10.41402874077641
 31
0.0
  0
LINE
  5
177
330
1F
100
AcDbEntity
  8
0
  6
Continuous
 62
     7
100
AcDbLine
 10
11.3084551647305
 20
10.41402874077641
 30
0.0
 11
11.30845516473049
 21
10.91402874077642
 31
0.0
  0
LINE
  5
178
330
1F
100
AcDbEntity
  8
0
  6
Continuous
 62
     7
100
AcDbLine
 10
11.30845516473049
 20
11.71402874077642
 30
0.0
 11
10.80845516473049
 21
11.71402874077641
 31
0.0
  0
LINE
  5
179
330
1F
100
AcDbEntity
  8
0
  6
Continuous
 62
     7
100
AcDbLine
 10
10.80845516473049
 20
11.21402874077641
 30
0.0
 11
11.30845516473049
 21
11.21402874077642
 31
0.0
  0
LINE
  5
17A
330
1F
100
AcDbEntity
  8
0
  6
Continuous
 62
     7
100
AcDbLine
 10
11.30845516473049
 20
11.21402874077642
 30
0.0
 11
11.30845516473049
 21
11.71402874077642
 31
0.0
  0
LINE
  5
17B
330
1F
100
AcDbEntity
  8
0
  6
Continuous
 62
     7
100
AcDbLine
 10
11.30845516473047
 20
12.51402874077642
 30
0.0
 11
10.80845516473047
 21
12.51402874077641
 31
0.0
  0
LINE
  5
17C
330
1F
100
AcDbEntity
  8
0
  6
Continuous
 62
     7
100
AcDbLine
 10
10.80845516473048
 20
12.01402874077641
 30
0.0
 11
11.30845516473048
 21
12.01402874077642
 31
0.0
  0
LINE
  5
17D
330
1F
100
AcDbEntity
  8
0
  6
Continuous
 62
     7
100
AcDbLine
 10
11.30845516473048
 20
12.01402874077642
 30
0.0
 11
11.30845516473047
 21
12.51402874077642
 31
0.0
  0
LINE
  5
17E
330
1F
100
AcDbEntity
  8
0
  6
Continuous
 62
     7
100
AcDbLine
 10
11.30845516473046
 20
13.31402874077642
 30
0.0
 11
10.80845516473046
 21
13.31402874077641
 31
0.0
  0
LINE
  5
17F
330
1F
100
AcDbEntity
  8
0
  6
Continuous
 62
     7
100
AcDbLine
 10
10.80845516473047
 20
12.81402874077641
 30
0.0
 11
11.30845516473047
 21
12.81402874077642
 31
0.0
  0
LINE
  5
180
330
1F
100
AcDbEntity
  8
0
  6
Continuous
 62
     7
100
AcDbLine
 10
11.30845516473047
 20
12.81402874077642
 30
0.0
 11
11.30845516473046
 21
13.31402874077642
 31
0.0
  0
LINE
  5
181
330
1F
100
AcDbEntity
  8
0
  6
Continuous
 62
     7
100
AcDbLine
 10
11.30845516473045
 20
14.11402874077642
 30
0.0
 11
10.80845516473045
 21
14.11402874077641
 31
0.0
  0
LINE
  5
182
330
1F
100
AcDbEntity
  8
0
  6
Continuous
 62
     7
100
AcDbLine
 10
10.80845516473046
 20
13.61402874077641
 30
0.0
 11
11.30845516473046
 21
13.61402874077642
 31
0.0
  0
LINE
  5
183
330
1F
100
AcDbEntity
  8
0
  6
Continuous
 62
     7
100
AcDbLine
 10
11.30845516473046
 20
13.61402874077642
 30
0.0
 11
11.30845516473045
 21
14.11402874077642
 31
0.0
  0
LINE
  5
184
330
1F
100
AcDbEntity
  8
0
  6
Continuous
 62
     7
100
AcDbLine
 10
4.995455164730489
 20
11.74902874077635
 30
0.0
 11
4.81545516473049
 21
11.74902874077635
 31
0.0
  0
LINE
  5
185
330
1F
100
AcDbEntity
  8
0
  6
Continuous
 62
     7
100
AcDbLine
 10
4.995455164730488
 20
11.92902874077635
 30
0.0
 11
4.995455164730489
 21
11.74902874077635
 31
0.0
  0
LINE
  5
186
330
1F
100
AcDbEntity
  8
0
  6
Continuous
 62
     7
100
AcDbLine
 10
9.683455164730478
 20
15.23902874077637
 30
0.0
 11
9.683455164730478
 21
14.73902874077637
 31
0.0
  0
LINE
  5
187
330
1F
100
AcDbEntity
  8
0
  6
Continuous
 62
     7
100
AcDbLine
 10
10.18345516473048
 20
14.73902874077637
 30
0.0
 11
10.18345516473048
 21
15.23902874077637
 31
0.0
  0
LINE
  5
188
330
1F
100
AcDbEntity
  8
0
  6
Continuous
 62
     7
100
AcDbLine
 10
10.18345516473048
 20
15.23902874077637
 30
0.0
 11
9.683455164730478
 21
15.23902874077637
 31
0.0
  0
LINE
  5
189
330
1F
100
AcDbEntity
  8
0
  6
Continuous
 62
     7
100
AcDbLine
 10
4.815455164730487
 20
11.92902874077635
 30
0.0
 11
4.995455164730488
 21
11.92902874077635
 31
0.0
  0
LINE
  5
18A
330
1F
100
AcDbEntity
  8
0
  6
Continuous
 62
     7
100
AcDbLine
 10
8.883455164730477
 20
15.23902874077637
 30
0.0
 11
8.883455164730479
 21
14.73902874077637
 31
0.0
  0
LINE
  5
18B
330
1F
100
AcDbEntity
  8
0
  6
Continuous
 62
     7
100
AcDbLine
 10
9.383455164730479
 20
14.73902874077637
 30
0.0
 11
9.383455164730477
 21
15.23902874077637
 31
0.0
  0
LINE
  5
18C
330
1F
100
AcDbEntity
  8
0
  6
Continuous
 62
     7
100
AcDbLine
 10
9.383455164730477
 20
15.23902874077637
 30
0.0
 11
8.883455164730477
 21
15.23902874077637
 31
0.0
  0
LINE
  5
18D
330
1F
100
AcDbEntity
  8
0
  6
Continuous
 62
     7
100
AcDbLine
 10
4.815455164730487
 20
12.49902874077635
 30
0.0
 11
4.815455164730487
 21
11.92902874077635
 31
0.0
  0
LINE
  5
18E
330
1F
100
AcDbEntity
  8
0
  6
Continuous
 62
     7
100
AcDbLine
 10
4.995455164730487
 20
12.49902874077635
 30
0.0
 11
4.815455164730487
 21
12.49902874077635
 31
0.0
  0
LINE
  5
18F
330
1F
100
AcDbEntity
  8
0
  6
Continuous
 62
     7
100
AcDbLine
 10
8.083455164730477
 20
15.23902874077637
 30
0.0
 11
8.08345516473048
 21
14.73902874077637
 31
0.0
  0
LINE
  5
190
330
1F
100
AcDbEntity
  8
0
  6
Continuous
 62
     7
100
AcDbLine
 10
8.583455164730478
 20
14.73902874077637
 30
0.0
 11
8.583455164730477
 21
15.23902874077637
 31
0.0
  0
LINE
  5
191
330
1F
100
AcDbEntity
  8
0
  6
Continuous
 62
     7
100
AcDbLine
 10
8.583455164730477
 20
15.23902874077637
 30
0.0
 11
8.083455164730477
 21
15.23902874077637
 31
0.0
  0
LINE
  5
192
330
1F
100
AcDbEntity
  8
0
  6
Continuous
 62
     7
100
AcDbLine
 10
4.995455164730486
 20
12.67902874077635
 30
0.0
 11
4.995455164730487
 21
12.49902874077635
 31
0.0
  0
LINE
  5
193
330
1F
100
AcDbEntity
  8
0
  6
Continuous
 62
     7
100
AcDbLine
 10
7.283455164730477
 20
15.23902874077637
 30
0.0
 11
7.283455164730479
 21
14.73902874077636
 31
0.0
  0
LINE
  5
194
330
1F
100
AcDbEntity
  8
0
  6
Continuous
 62
     7
100
AcDbLine
 10
7.783455164730479
 20
14.73902874077636
 30
0.0
 11
7.783455164730478
 21
15.23902874077637
 31
0.0
  0
LINE
  5
195
330
1F
100
AcDbEntity
  8
0
  6
Continuous
 62
     7
100
AcDbLine
 10
7.783455164730478
 20
15.23902874077637
 30
0.0
 11
7.283455164730477
 21
15.23902874077637
 31
0.0
  0
LINE
  5
196
330
1F
100
AcDbEntity
  8
0
  6
Continuous
 62
     7
100
AcDbLine
 10
4.815455164730486
 20
12.67902874077635
 30
0.0
 11
4.995455164730486
 21
12.67902874077635
 31
0.0
  0
LINE
  5
197
330
1F
100
AcDbEntity
  8
0
  6
Continuous
 62
     7
100
AcDbLine
 10
4.815455164730485
 20
13.18202874077635
 30
0.0
 11
4.815455164730486
 21
12.67902874077635
 31
0.0
  0
LINE
  5
198
330
1F
100
AcDbEntity
  8
0
  6
Continuous
 62
     7
100
AcDbLine
 10
6.483455164730478
 20
15.23902874077636
 30
0.0
 11
6.483455164730479
 21
14.73902874077636
 31
0.0
  0
LINE
  5
199
330
1F
100
AcDbEntity
  8
0
  6
Continuous
 62
     7
100
AcDbLine
 10
6.983455164730479
 20
14.73902874077636
 30
0.0
 11
6.983455164730478
 21
15.23902874077636
 31
0.0
  0
LINE
  5
19A
330
1F
100
AcDbEntity
  8
0
  6
Continuous
 62
     7
100
AcDbLine
 10
6.983455164730478
 20
15.23902874077636
 30
0.0
 11
6.483455164730478
 21
15.23902874077636
 31
0.0
  0
LINE
  5
19B
330
1F
100
AcDbEntity
  8
0
  6
Continuous
 62
     7
100
AcDbLine
 10
5.683455164730476
 20
15.23902874077636
 30
0.0
 11
5.683455164730479
 21
14.73902874077636
 31
0.0
  0
LINE
  5
19C
330
1F
100
AcDbEntity
  8
0
  6
Continuous
 62
     7
100
AcDbLine
 10
6.183455164730478
 20
14.73902874077636
 30
0.0
 11
6.183455164730477
 21
15.23902874077636
 31
0.0
  0
LINE
  5
19D
330
1F
100
AcDbEntity
  8
0
  6
Continuous
 62
     7
100
AcDbLine
 10
6.183455164730477
 20
15.23902874077636
 30
0.0
 11
5.683455164730476
 21
15.23902874077636
 31
0.0
  0
LINE
  5
19E
330
1F
100
AcDbEntity
  8
0
  6
Continuous
 62
     7
100
AcDbLine
 10
4.883455164730477
 20
15.23902874077635
 30
0.0
 11
4.883455164730479
 21
14.73902874077636
 31
0.0
  0
LINE
  5
19F
330
1F
100
AcDbEntity
  8
0
  6
Continuous
 62
     7
100
AcDbLine
 10
5.383455164730478
 20
14.73902874077636
 30
0.0
 11
5.383455164730478
 21
15.23902874077635
 31
0.0
  0
LINE
  5
1A0
330
1F
100
AcDbEntity
  8
0
  6
Continuous
 62
     7
100
AcDbLine
 10
5.383455164730478
 20
15.23902874077635
 30
0.0
 11
4.883455164730477
 21
15.23902874077635
 31
0.0
  0
LINE
  5
1A1
330
1F
100
AcDbEntity
  8
0
  6
Continuous
 62
     7
100
AcDbLine
 10
3.758455164730476
 20
13.61402874077634
 30
0.0
 11
4.258455164730476
 21
13.61402874077634
 31
0.0
  0
LINE
  5
1A2
330
1F
100
AcDbEntity
  8
0
  6
Continuous
 62
     7
100
AcDbLine
 10
4.258455164730472
 20
14.11402874077634
 30
0.0
 11
3.758455164730471
 21
14.11402874077634
 31
0.0
  0
LINE
  5
1A3
330
1F
100
AcDbEntity
  8
0
  6
Continuous
 62
     7
100
AcDbLine
 10
3.758455164730471
 20
14.11402874077634
 30
0.0
 11
3.758455164730476
 21
13.61402874077634
 31
0.0
  0
LINE
  5
1A4
330
1F
100
AcDbEntity
  8
0
  6
Continuous
 62
     7
100
AcDbLine
 10
3.758455164730481
 20
12.81402874077634
 30
0.0
 11
4.258455164730481
 21
12.81402874077634
 31
0.0
  0
LINE
  5
1A5
330
1F
100
AcDbEntity
  8
0
  6
Continuous
 62
     7
100
AcDbLine
 10
4.258455164730478
 20
13.31402874077634
 30
0.0
 11
3.758455164730477
 21
13.31402874077634
 31
0.0
  0
LINE
  5
1A6
330
1F
100
AcDbEntity
  8
0
  6
Continuous
 62
     7
100
AcDbLine
 10
3.758455164730477
 20
13.31402874077634
 30
0.0
 11
3.758455164730481
 21
12.81402874077634
 31
0.0
  0
LINE
  5
1A7
330
1F
100
AcDbEntity
  8
0
  6
Continuous
 62
     7
100
AcDbLine
 10
3.758455164730487
 20
12.01402874077634
 30
0.0
 11
4.258455164730487
 21
12.01402874077634
 31
0.0
  0
LINE
  5
1A8
330
1F
100
AcDbEntity
  8
0
  6
Continuous
 62
     7
100
AcDbLine
 10
4.258455164730484
 20
12.51402874077634
 30
0.0
 11
3.758455164730483
 21
12.51402874077634
 31
0.0
  0
LINE
  5
1A9
330
1F
100
AcDbEntity
  8
0
  6
Continuous
 62
     7
100
AcDbLine
 10
3.758455164730483
 20
12.51402874077634
 30
0.0
 11
3.758455164730487
 21
12.01402874077634
 31
0.0
  0
LINE
  5
1AA
330
1F
100
AcDbEntity
  8
0
  6
Continuous
 62
     7
100
AcDbLine
 10
6.318455164730482
 20
14.00202874077636
 30
0.0
 11
6.318455164730481
 21
14.18202874077636
 31
0.0
  0
LINE
  5
1AB
330
1F
100
AcDbEntity
  8
0
  6
Continuous
 62
     7
100
AcDbLine
 10
3.758455164730492
 20
11.21402874077634
 30
0.0
 11
4.258455164730492
 21
11.21402874077634
 31
0.0
  0
LINE
  5
1AC
330
1F
100
AcDbEntity
  8
0
  6
Continuous
 62
     7
100
AcDbLine
 10
4.258455164730489
 20
11.71402874077634
 30
0.0
 11
3.758455164730488
 21
11.71402874077634
 31
0.0
  0
LINE
  5
1AD
330
1F
100
AcDbEntity
  8
0
  6
Continuous
 62
     7
100
AcDbLine
 10
3.758455164730488
 20
11.71402874077634
 30
0.0
 11
3.758455164730492
 21
11.21402874077634
 31
0.0
  0
LINE
  5
1AE
330
1F
100
AcDbEntity
  8
0
  6
Continuous
 62
     7
100
AcDbLine
 10
6.498455164730483
 20
14.00202874077636
 30
0.0
 11
6.318455164730482
 21
14.00202874077636
 31
0.0
  0
LINE
  5
1AF
330
1F
100
AcDbEntity
  8
0
  6
Continuous
 62
     7
100
AcDbLine
 10
3.758455164730498
 20
10.41402874077634
 30
0.0
 11
4.258455164730498
 21
10.41402874077634
 31
0.0
  0
LINE
  5
1B0
330
1F
100
AcDbEntity
  8
0
  6
Continuous
 62
     7
100
AcDbLine
 10
4.258455164730495
 20
10.91402874077634
 30
0.0
 11
3.758455164730494
 21
10.91402874077634
 31
0.0
  0
LINE
  5
1B1
330
1F
100
AcDbEntity
  8
0
  6
Continuous
 62
     7
100
AcDbLine
 10
3.758455164730494
 20
10.91402874077634
 30
0.0
 11
3.758455164730498
 21
10.41402874077634
 31
0.0
  0
LINE
  5
1B2
330
1F
100
AcDbEntity
  8
0
  6
Continuous
 62
     7
100
AcDbLine
 10
6.498455164730482
 20
14.18202874077636
 30
0.0
 11
6.498455164730483
 21
14.00202874077636
 31
0.0
  0
LINE
  5
1B3
330
1F
100
AcDbEntity
  8
0
  6
Continuous
 62
     7
100
AcDbLine
 10
7.068455164730482
 20
14.18202874077636
 30
0.0
 11
6.498455164730482
 21
14.18202874077636
 31
0.0
  0
LINE
  5
1B4
330
1F
100
AcDbEntity
  8
0
  6
Continuous
 62
     7
100
AcDbLine
 10
3.758455164730503
 20
9.61402874077634
 30
0.0
 11
4.258455164730503
 21
9.614028740776344
 31
0.0
  0
LINE
  5
1B5
330
1F
100
AcDbEntity
  8
0
  6
Continuous
 62
     7
100
AcDbLine
 10
4.2584551647305
 20
10.11402874077634
 30
0.0
 11
3.758455164730499
 21
10.11402874077634
 31
0.0
  0
LINE
  5
1B6
330
1F
100
AcDbEntity
  8
0
  6
Continuous
 62
     7
100
AcDbLine
 10
3.758455164730499
 20
10.11402874077634
 30
0.0
 11
3.758455164730503
 21
9.61402874077634
 31
0.0
  0
LINE
  5
1B7
330
1F
100
AcDbEntity
  8
0
  6
Continuous
 62
     7
100
AcDbLine
 10
7.068455164730482
 20
14.00202874077636
 30
0.0
 11
7.068455164730482
 21
14.18202874077636
 31
0.0
  0
LINE
  5
1B8
330
1F
100
AcDbEntity
  8
0
  6
Continuous
 62
     7
100
AcDbLine
 10
3.758455164730509
 20
8.81402874077634
 30
0.0
 11
4.258455164730508
 21
8.814028740776343
 31
0.0
  0
LINE
  5
1B9
330
1F
100
AcDbEntity
  8
0
  6
Continuous
 62
     7
100
AcDbLine
 10
4.258455164730506
 20
9.314028740776343
 30
0.0
 11
3.758455164730505
 21
9.31402874077634
 31
0.0
  0
LINE
  5
1BA
330
1F
100
AcDbEntity
  8
0
  6
Continuous
 62
     7
100
AcDbLine
 10
3.758455164730505
 20
9.31402874077634
 30
0.0
 11
3.758455164730509
 21
8.81402874077634
 31
0.0
  0
LINE
  5
1BB
330
1F
100
AcDbEntity
  8
0
  6
Continuous
 62
     7
100
AcDbLine
 10
7.248455164730483
 20
14.00202874077636
 30
0.0
 11
7.068455164730482
 21
14.00202874077636
 31
0.0
  0
LINE
  5
1BC
330
1F
100
AcDbEntity
  8
0
  6
Continuous
 62
     7
100
AcDbLine
 10
7.248455164730482
 20
14.18202874077636
 30
0.0
 11
7.248455164730483
 21
14.00202874077636
 31
0.0
  0
LINE
  5
1BD
330
1F
100
AcDbEntity
  8
0
  6
Continuous
 62
     7
100
AcDbLine
 10
7.818455164730482
 20
14.18202874077637
 30
0.0
 11
7.248455164730482
 21
14.18202874077636
 31
0.0
  0
LINE
  5
1BE
330
1F
100
AcDbEntity
  8
0
  6
Continuous
 62
     7
100
AcDbLine
 10
4.890455164730479
 20
14.10702874077635
 30
0.0
 11
4.890455164730497
 21
8.821028740776357
 31
0.0
  0
LINE
  5
1BF
330
1F
100
AcDbEntity
  8
0
  6
Continuous
 62
     7
100
AcDbLine
 10
4.890455164730497
 20
8.821028740776357
 30
0.0
 11
10.1764551647305
 21
8.821028740776375
 31
0.0
  0
LINE
  5
1C0
330
1F
100
AcDbEntity
  8
0
  6
Continuous
 62
     7
100
AcDbLine
 10
10.1764551647305
 20
8.821028740776375
 30
0.0
 11
10.17645516473048
 21
14.10702874077637
 31
0.0
  0
LINE
  5
1C1
330
1F
100
AcDbEntity
  8
0
  6
Continuous
 62
     7
100
AcDbLine
 10
10.17645516473048
 20
14.10702874077637
 30
0.0
 11
4.890455164730479
 21
14.10702874077635
 31
0.0
  0
LINE
  5
1C2
330
1F
100
AcDbEntity
  8
0
  6
Continuous
 62
     7
100
AcDbLine
 10
4.033455164730503
 20
7.964028740776354
 30
0.0
 11
11.0334551647305
 21
7.964028740776378
 31
0.0
  0
LINE
  5
1C3
330
1F
100
AcDbEntity
  8
0
  6
Continuous
 62
     7
100
AcDbLine
 10
4.033455164730503
 20
7.964028740776354
 30
0.0
 11
4.033455164730478
 21
14.96402874077635
 31
0.0
  0
LINE
  5
1C4
330
1F
100
AcDbEntity
  8
0
  6
Continuous
 62
     7
100
AcDbLine
 10
4.033455164730478
 20
14.96402874077635
 30
0.0
 11
11.03345516473048
 21
14.96402874077638
 31
0.0
  0
LINE
  5
1C5
330
1F
100
AcDbEntity
  8
0
  6
Continuous
 62
     7
100
AcDbLine
 10
11.0334551647305
 20
7.964028740776378
 30
0.0
 11
11.03345516473048
 21
14.96402874077638
 31
0.0
  0
LINE
  5
1C6
330
1F
100
AcDbEntity
  8
0
  6
Continuous
 62
     7
100
AcDbLine
 10
5.383455164730503
 20
7.689028740776358
 30
0.0
 11
5.383455164730501
 21
8.189028740776359
 31
0.0
  0
LINE
  5
1C7
330
1F
100
AcDbEntity
  8
0
  6
Continuous
 62
     7
100
AcDbLine
 10
4.883455164730501
 20
8.189028740776358
 30
0.0
 11
4.883455164730502
 21
7.689028740776357
 31
0.0
  0
LINE
  5
1C8
330
1F
100
AcDbEntity
  8
0
  6
Continuous
 62
     7
100
AcDbLine
 10
4.883455164730502
 20
7.689028740776357
 30
0.0
 11
5.383455164730503
 21
7.689028740776358
 31
0.0
  0
LINE
  5
1C9
330
1F
100
AcDbEntity
  8
0
  6
Continuous
 62
     7
100
AcDbLine
 10
6.183455164730504
 20
7.689028740776361
 30
0.0
 11
6.183455164730501
 21
8.189028740776361
 31
0.0
  0
LINE
  5
1CA
330
1F
100
AcDbEntity
  8
0
  6
Continuous
 62
     7
100
AcDbLine
 10
5.683455164730502
 20
8.189028740776361
 30
0.0
 11
5.683455164730503
 21
7.68902874077636
 31
0.0
  0
LINE
  5
1CB
330
1F
100
AcDbEntity
  8
0
  6
Continuous
 62
     7
100
AcDbLine
 10
5.683455164730503
 20
7.68902874077636
 30
0.0
 11
6.183455164730504
 21
7.689028740776361
 31
0.0
  0
LINE
  5
1CC
330
1F
100
AcDbEntity
  8
0
  6
Continuous
 62
     7
100
AcDbLine
 10
6.983455164730504
 20
7.689028740776365
 30
0.0
 11
6.983455164730501
 21
8.189028740776365
 31
0.0
  0
LINE
  5
1CD
330
1F
100
AcDbEntity
  8
0
  6
Continuous
 62
     7
100
AcDbLine
 10
6.483455164730502
 20
8.189028740776365
 30
0.0
 11
6.483455164730503
 21
7.689028740776364
 31
0.0
  0
LINE
  5
1CE
330
1F
100
AcDbEntity
  8
0
  6
Continuous
 62
     7
100
AcDbLine
 10
6.483455164730503
 20
7.689028740776364
 30
0.0
 11
6.983455164730504
 21
7.689028740776365
 31
0.0
  0
LINE
  5
1CF
330
1F
100
AcDbEntity
  8
0
  6
Continuous
 62
     7
100
AcDbLine
 10
10.2514551647305
 20
8.746028740776376
 30
0.0
 11
10.25145516473049
 21
9.499028740776376
 31
0.0
  0
LINE
  5
1D0
330
1F
100
AcDbEntity
  8
0
  6
Continuous
 62
     7
100
AcDbLine
 10
9.498455164730497
 20
8.926028740776372
 30
0.0
 11
9.498455164730499
 21
8.746028740776372
 31
0.0
  0
LINE
  5
1D1
330
1F
100
AcDbEntity
  8
0
  6
Continuous
 62
     7
100
AcDbLine
 10
9.318455164730497
 20
8.926028740776372
 30
0.0
 11
9.498455164730497
 21
8.926028740776372
 31
0.0
  0
LINE
  5
1D2
330
1F
100
AcDbEntity
  8
0
  6
Continuous
 62
     7
100
AcDbLine
 10
9.318455164730497
 20
8.746028740776372
 30
0.0
 11
9.318455164730497
 21
8.926028740776372
 31
0.0
  0
LINE
  5
1D3
330
1F
100
AcDbEntity
  8
0
  6
Continuous
 62
     7
100
AcDbLine
 10
8.748455164730497
 20
8.74602874077637
 30
0.0
 11
9.318455164730497
 21
8.746028740776372
 31
0.0
  0
LINE
  5
1D4
330
1F
100
AcDbEntity
  8
0
  6
Continuous
 62
     7
100
AcDbLine
 10
8.748455164730497
 20
8.92602874077637
 30
0.0
 11
8.748455164730497
 21
8.74602874077637
 31
0.0
  0
LINE
  5
1D5
330
1F
100
AcDbEntity
  8
0
  6
Continuous
 62
     7
100
AcDbLine
 10
8.568455164730497
 20
8.92602874077637
 30
0.0
 11
8.748455164730497
 21
8.92602874077637
 31
0.0
  0
LINE
  5
1D6
330
1F
100
AcDbEntity
  8
0
  6
Continuous
 62
     7
100
AcDbLine
 10
8.568455164730497
 20
8.746028740776369
 30
0.0
 11
8.568455164730497
 21
8.92602874077637
 31
0.0
  0
LINE
  5
1D7
330
1F
100
AcDbEntity
  8
0
  6
Continuous
 62
     7
100
AcDbLine
 10
7.998455164730498
 20
8.746028740776369
 30
0.0
 11
8.568455164730497
 21
8.746028740776369
 31
0.0
  0
LINE
  5
1D8
330
1F
100
AcDbEntity
  8
0
  6
Continuous
 62
     7
100
AcDbLine
 10
10.07145516473049
 20
10.42902874077638
 30
0.0
 11
10.25145516473049
 21
10.42902874077638
 31
0.0
  0
LINE
  5
1D9
330
1F
100
AcDbEntity
  8
0
  6
Continuous
 62
     7
100
AcDbLine
 10
7.783455164730503
 20
7.689028740776367
 30
0.0
 11
7.783455164730501
 21
8.189028740776368
 31
0.0
  0
LINE
  5
1DA
330
1F
100
AcDbEntity
  8
0
  6
Continuous
 62
     7
100
AcDbLine
 10
10.07145516473049
 20
10.24902874077637
 30
0.0
 11
10.07145516473049
 21
10.42902874077638
 31
0.0
  0
LINE
  5
1DB
330
1F
100
AcDbEntity
  8
0
  6
Continuous
 62
     7
100
AcDbLine
 10
10.25145516473049
 20
10.24902874077637
 30
0.0
 11
10.07145516473049
 21
10.24902874077637
 31
0.0
  0
LINE
  5
1DC
330
1F
100
AcDbEntity
  8
0
  6
Continuous
 62
     7
100
AcDbLine
 10
10.25145516473049
 20
9.679028740776375
 30
0.0
 11
10.25145516473049
 21
10.24902874077637
 31
0.0
  0
LINE
  5
1DD
330
1F
100
AcDbEntity
  8
0
  6
Continuous
 62
     7
100
AcDbLine
 10
10.0714551647305
 20
9.679028740776375
 30
0.0
 11
10.25145516473049
 21
9.679028740776375
 31
0.0
  0
LINE
  5
1DE
330
1F
100
AcDbEntity
  8
0
  6
Continuous
 62
     7
100
AcDbLine
 10
10.0714551647305
 20
9.499028740776376
 30
0.0
 11
10.0714551647305
 21
9.679028740776375
 31
0.0
  0
LINE
  5
1DF
330
1F
100
AcDbEntity
  8
0
  6
Continuous
 62
     7
100
AcDbLine
 10
10.25145516473049
 20
9.499028740776376
 30
0.0
 11
10.0714551647305
 21
9.499028740776376
 31
0.0
  0
LINE
  5
1E0
330
1F
100
AcDbEntity
  8
0
  6
Continuous
 62
     7
100
AcDbLine
 10
7.283455164730502
 20
8.189028740776366
 30
0.0
 11
7.283455164730503
 21
7.689028740776365
 31
0.0
  0
LINE
  5
1E1
330
1F
100
AcDbEntity
  8
0
  6
Continuous
 62
     7
100
AcDbLine
 10
7.283455164730503
 20
7.689028740776365
 30
0.0
 11
7.783455164730503
 21
7.689028740776367
 31
0.0
  0
LINE
  5
1E2
330
1F
100
AcDbEntity
  8
0
  6
Continuous
 62
     7
100
AcDbLine
 10
8.583455164730503
 20
7.689028740776371
 30
0.0
 11
8.583455164730501
 21
8.18902874077637
 31
0.0
  0
LINE
  5
1E3
330
1F
100
AcDbEntity
  8
0
  6
Continuous
 62
     7
100
AcDbLine
 10
8.083455164730501
 20
8.189028740776368
 30
0.0
 11
8.083455164730503
 21
7.689028740776368
 31
0.0
  0
LINE
  5
1E4
330
1F
100
AcDbEntity
  8
0
  6
Continuous
 62
     7
100
AcDbLine
 10
8.083455164730503
 20
7.689028740776368
 30
0.0
 11
8.583455164730503
 21
7.689028740776371
 31
0.0
  0
LINE
  5
1E5
330
1F
100
AcDbEntity
  8
0
  6
Continuous
 62
     7
100
AcDbLine
 10
10.25145516473049
 20
10.99902874077637
 30
0.0
 11
10.07145516473049
 21
10.99902874077637
 31
0.0
  0
LINE
  5
1E6
330
1F
100
AcDbEntity
  8
0
  6
Continuous
 62
     7
100
AcDbLine
 10
10.25145516473049
 20
10.42902874077638
 30
0.0
 11
10.25145516473049
 21
10.99902874077637
 31
0.0
  0
LINE
  5
1E7
330
1F
100
AcDbEntity
  8
0
  6
Continuous
 62
     7
100
AcDbLine
 10
9.498455164730499
 20
8.746028740776372
 30
0.0
 11
10.2514551647305
 21
8.746028740776376
 31
0.0
  0
LINE
  5
1E8
330
1F
100
AcDbEntity
  8
0
  6
Continuous
 62
     7
100
AcDbLine
 10
7.998455164730498
 20
8.926028740776368
 30
0.0
 11
7.998455164730498
 21
8.746028740776369
 31
0.0
  0
LINE
  5
1E9
330
1F
100
AcDbEntity
  8
0
  6
Continuous
 62
     7
100
AcDbLine
 10
7.818455164730497
 20
8.926028740776366
 30
0.0
 11
7.998455164730498
 21
8.926028740776368
 31
0.0
  0
LINE
  5
1EA
330
1F
100
AcDbEntity
  8
0
  6
Continuous
 62
     7
100
AcDbLine
 10
7.818455164730499
 20
8.746028740776365
 30
0.0
 11
7.818455164730497
 21
8.926028740776366
 31
0.0
  0
LINE
  5
1EB
330
1F
100
AcDbEntity
  8
0
  6
Continuous
 62
     7
100
AcDbLine
 10
7.2484551647305
 20
8.746028740776365
 30
0.0
 11
7.818455164730499
 21
8.746028740776365
 31
0.0
  0
LINE
  5
1EC
330
1F
100
AcDbEntity
  8
0
  6
Continuous
 62
     7
100
AcDbLine
 10
7.248455164730498
 20
8.926028740776365
 30
0.0
 11
7.2484551647305
 21
8.746028740776365
 31
0.0
  0
LINE
  5
1ED
330
1F
100
AcDbEntity
  8
0
  6
Continuous
 62
     7
100
AcDbLine
 10
7.068455164730498
 20
8.926028740776363
 30
0.0
 11
7.248455164730498
 21
8.926028740776365
 31
0.0
  0
LINE
  5
1EE
330
1F
100
AcDbEntity
  8
0
  6
Continuous
 62
     7
100
AcDbLine
 10
7.068455164730498
 20
8.746028740776363
 30
0.0
 11
7.068455164730498
 21
8.926028740776363
 31
0.0
  0
LINE
  5
1EF
330
1F
100
AcDbEntity
  8
0
  6
Continuous
 62
     7
100
AcDbLine
 10
6.498455164730498
 20
8.746028740776363
 30
0.0
 11
7.068455164730498
 21
8.746028740776363
 31
0.0
  0
LINE
  5
1F0
330
1F
100
AcDbEntity
  8
0
  6
Continuous
 62
     7
100
AcDbLine
 10
6.498455164730498
 20
8.926028740776361
 30
0.0
 11
6.498455164730498
 21
8.746028740776363
 31
0.0
  0
LINE
  5
1F1
330
1F
100
AcDbEntity
  8
0
  6
Continuous
 62
     7
100
AcDbLine
 10
6.318455164730497
 20
8.926028740776361
 30
0.0
 11
6.498455164730498
 21
8.926028740776361
 31
0.0
  0
LINE
  5
1F2
330
1F
100
AcDbEntity
  8
0
  6
Continuous
 62
     7
100
AcDbLine
 10
6.318455164730498
 20
8.746028740776361
 30
0.0
 11
6.318455164730497
 21
8.926028740776361
 31
0.0
  0
LINE
  5
1F3
330
1F
100
AcDbEntity
  8
0
  6
Continuous
 62
     7
100
AcDbLine
 10
5.748455164730499
 20
8.746028740776361
 30
0.0
 11
6.318455164730498
 21
8.746028740776361
 31
0.0
  0
LINE
  5
1F4
330
1F
100
AcDbEntity
  8
0
  6
Continuous
 62
     7
100
AcDbLine
 10
5.748455164730499
 20
8.926028740776358
 30
0.0
 11
5.748455164730499
 21
8.746028740776361
 31
0.0
  0
LINE
  5
1F5
330
1F
100
AcDbEntity
  8
0
  6
Continuous
 62
     7
100
AcDbLine
 10
5.568455164730496
 20
8.926028740776358
 30
0.0
 11
5.748455164730499
 21
8.926028740776358
 31
0.0
  0
LINE
  5
1F6
330
1F
100
AcDbEntity
  8
0
  6
Continuous
 62
     7
100
AcDbLine
 10
5.568455164730498
 20
8.74602874077636
 30
0.0
 11
5.568455164730496
 21
8.926028740776358
 31
0.0
  0
LINE
  5
1F7
330
1F
100
AcDbEntity
  8
0
  6
Continuous
 62
     7
100
AcDbLine
 10
4.8154551647305
 20
8.746028740776358
 30
0.0
 11
5.568455164730498
 21
8.74602874077636
 31
0.0
  0
LINE
  5
1F8
330
1F
100
AcDbEntity
  8
0
  6
Continuous
 62
     7
100
AcDbLine
 10
4.815455164730497
 20
9.499028740776356
 30
0.0
 11
4.8154551647305
 21
8.746028740776358
 31
0.0
  0
LINE
  5
1F9
330
1F
100
AcDbEntity
  8
0
  6
Continuous
 62
     7
100
AcDbLine
 10
4.995455164730496
 20
9.499028740776356
 30
0.0
 11
4.815455164730497
 21
9.499028740776356
 31
0.0
  0
LINE
  5
1FA
330
1F
100
AcDbEntity
  8
0
  6
Continuous
 62
     7
100
AcDbLine
 10
4.995455164730496
 20
9.679028740776356
 30
0.0
 11
4.995455164730496
 21
9.499028740776356
 31
0.0
  0
LINE
  5
1FB
330
1F
100
AcDbEntity
  8
0
  6
Continuous
 62
     7
100
AcDbLine
 10
4.815455164730495
 20
9.679028740776356
 30
0.0
 11
4.995455164730496
 21
9.679028740776356
 31
0.0
  0
LINE
  5
1FC
330
1F
100
AcDbEntity
  8
0
  6
Continuous
 62
     7
100
AcDbLine
 10
4.815455164730495
 20
10.24902874077635
 30
0.0
 11
4.815455164730495
 21
9.679028740776356
 31
0.0
  0
LINE
  5
1FD
330
1F
100
AcDbEntity
  8
0
  6
Continuous
 62
     7
100
AcDbLine
 10
4.995455164730494
 20
10.24902874077636
 30
0.0
 11
4.815455164730495
 21
10.24902874077635
 31
0.0
  0
LINE
  5
1FE
330
1F
100
AcDbEntity
  8
0
  6
Continuous
 62
     7
100
AcDbLine
 10
4.995455164730493
 20
10.42902874077635
 30
0.0
 11
4.995455164730494
 21
10.24902874077636
 31
0.0
  0
LINE
  5
1FF
330
1F
100
AcDbEntity
  8
0
  6
Continuous
 62
     7
100
AcDbLine
 10
4.815455164730493
 20
10.42902874077635
 30
0.0
 11
4.995455164730493
 21
10.42902874077635
 31
0.0
  0
LINE
  5
200
330
1F
100
AcDbEntity
  8
0
  6
Continuous
 62
     7
100
AcDbLine
 10
4.815455164730493
 20
10.99902874077635
 30
0.0
 11
4.815455164730493
 21
10.42902874077635
 31
0.0
  0
LINE
  5
201
330
1F
100
AcDbEntity
  8
0
  6
Continuous
 62
     7
100
AcDbLine
 10
4.995455164730492
 20
10.99902874077635
 30
0.0
 11
4.815455164730493
 21
10.99902874077635
 31
0.0
  0
LINE
  5
202
330
1F
100
AcDbEntity
  8
0
  6
Continuous
 62
     7
100
AcDbLine
 10
4.995455164730491
 20
11.17902874077635
 30
0.0
 11
4.995455164730492
 21
10.99902874077635
 31
0.0
  0
LINE
  5
203
330
1F
100
AcDbEntity
  8
0
  6
Continuous
 62
     7
100
AcDbLine
 10
4.81545516473049
 20
11.17902874077635
 30
0.0
 11
4.995455164730491
 21
11.17902874077635
 31
0.0
  0
LINE
  5
204
330
1F
100
AcDbEntity
  8
0
  6
Continuous
 62
     7
100
AcDbLine
 10
4.81545516473049
 20
11.74902874077635
 30
0.0
 11
4.81545516473049
 21
11.17902874077635
 31
0.0
  0
LINE
  5
205
330
1F
100
AcDbEntity
  8
0
  6
Continuous
 62
     7
100
AcDbLine
 10
5.815455164730481
 20
14.18202874077636
 30
0.0
 11
4.815455164730485
 21
13.18202874077635
 31
0.0
  0
LINE
  5
206
330
1F
100
AcDbEntity
  8
0
  6
Continuous
 62
     7
100
AcDbLine
 10
6.318455164730481
 20
14.18202874077636
 30
0.0
 11
5.815455164730481
 21
14.18202874077636
 31
0.0
  0
LINE
  5
207
330
1F
100
AcDbEntity
  8
0
  6
Continuous
 62
     7
100
AcDbLine
 10
7.818455164730482
 20
14.00202874077637
 30
0.0
 11
7.818455164730482
 21
14.18202874077637
 31
0.0
  0
LINE
  5
208
330
1F
100
AcDbEntity
  8
0
  6
Continuous
 62
     7
100
AcDbLine
 10
7.998455164730482
 20
14.00202874077637
 30
0.0
 11
7.818455164730482
 21
14.00202874077637
 31
0.0
  0
LINE
  5
209
330
1F
100
AcDbEntity
  8
0
  6
Continuous
 62
     7
100
AcDbLine
 10
7.998455164730482
 20
14.18202874077637
 30
0.0
 11
7.998455164730482
 21
14.00202874077637
 31
0.0
  0
LINE
  5
20A
330
1F
100
AcDbEntity
  8
0
  6
Continuous
 62
     7
100
AcDbLine
 10
8.568455164730481
 20
14.18202874077637
 30
0.0
 11
7.998455164730482
 21
14.18202874077637
 31
0.0
  0
LINE
  5
20B
330
1F
100
AcDbEntity
  8
0
  6
Continuous
 62
     7
100
AcDbLine
 10
8.568455164730483
 20
14.00202874077637
 30
0.0
 11
8.568455164730481
 21
14.18202874077637
 31
0.0
  0
LINE
  5
20C
330
1F
100
AcDbEntity
  8
0
  6
Continuous
 62
     7
100
AcDbLine
 10
8.748455164730483
 20
14.00202874077637
 30
0.0
 11
8.568455164730483
 21
14.00202874077637
 31
0.0
  0
LINE
  5
20D
330
1F
100
AcDbEntity
  8
0
  6
Continuous
 62
     7
100
AcDbLine
 10
8.748455164730481
 20
14.18202874077637
 30
0.0
 11
8.748455164730483
 21
14.00202874077637
 31
0.0
  0
LINE
  5
20E
330
1F
100
AcDbEntity
  8
0
  6
Continuous
 62
     7
100
AcDbLine
 10
9.318455164730481
 20
14.18202874077637
 30
0.0
 11
8.748455164730481
 21
14.18202874077637
 31
0.0
  0
LINE
  5
20F
330
1F
100
AcDbEntity
  8
0
  6
Continuous
 62
     7
100
AcDbLine
 10
9.318455164730483
 20
14.00202874077637
 30
0.0
 11
9.318455164730481
 21
14.18202874077637
 31
0.0
  0
LINE
  5
210
330
1F
100
AcDbEntity
  8
0
  6
Continuous
 62
     7
100
AcDbLine
 10
9.498455164730483
 20
14.00202874077637
 30
0.0
 11
9.318455164730483
 21
14.00202874077637
 31
0.0
  0
LINE
  5
211
330
1F
100
AcDbEntity
  8
0
  6
Continuous
 62
     7
100
AcDbLine
 10
9.498455164730483
 20
14.18202874077637
 30
0.0
 11
9.498455164730483
 21
14.00202874077637
 31
0.0
  0
LINE
  5
212
330
1F
100
AcDbEntity
  8
0
  6
Continuous
 62
     7
100
AcDbLine
 10
10.25145516473048
 20
14.18202874077637
 30
0.0
 11
9.498455164730483
 21
14.18202874077637
 31
0.0
  0
LINE
  5
213
330
1F
100
AcDbEntity
  8
0
  6
Continuous
 62
     7
100
AcDbLine
 10
10.25145516473048
 20
13.42902874077638
 30
0.0
 11
10.25145516473048
 21
14.18202874077637
 31
0.0
  0
LINE
  5
214
330
1F
100
AcDbEntity
  8
0
  6
Continuous
 62
     7
100
AcDbLine
 10
10.07145516473048
 20
13.42902874077637
 30
0.0
 11
10.25145516473048
 21
13.42902874077638
 31
0.0
  0
LINE
  5
215
330
1F
100
AcDbEntity
  8
0
  6
Continuous
 62
     7
100
AcDbLine
 10
10.07145516473048
 20
13.24902874077637
 30
0.0
 11
10.07145516473048
 21
13.42902874077637
 31
0.0
  0
LINE
  5
216
330
1F
100
AcDbEntity
  8
0
  6
Continuous
 62
     7
100
AcDbLine
 10
10.25145516473048
 20
13.24902874077637
 30
0.0
 11
10.07145516473048
 21
13.24902874077637
 31
0.0
  0
LINE
  5
217
330
1F
100
AcDbEntity
  8
0
  6
Continuous
 62
     7
100
AcDbLine
 10
10.25145516473048
 20
12.67902874077637
 30
0.0
 11
10.25145516473048
 21
13.24902874077637
 31
0.0
  0
LINE
  5
218
330
1F
100
AcDbEntity
  8
0
  6
Continuous
 62
     7
100
AcDbLine
 10
10.07145516473048
 20
12.67902874077637
 30
0.0
 11
10.25145516473048
 21
12.67902874077637
 31
0.0
  0
LINE
  5
219
330
1F
100
AcDbEntity
  8
0
  6
Continuous
 62
     7
100
AcDbLine
 10
10.07145516473048
 20
12.49902874077637
 30
0.0
 11
10.07145516473048
 21
12.67902874077637
 31
0.0
  0
LINE
  5
21A
330
1F
100
AcDbEntity
  8
0
  6
Continuous
 62
     7
100
AcDbLine
 10
10.25145516473048
 20
12.49902874077637
 30
0.0
 11
10.07145516473048
 21
12.49902874077637
 31
0.0
  0
LINE
  5
21B
330
1F
100
AcDbEntity
  8
0
  6
Continuous
 62
     7
100
AcDbLine
 10
10.25145516473049
 20
11.92902874077637
 30
0.0
 11
10.25145516473048
 21
12.49902874077637
 31
0.0
  0
LINE
  5
21C
330
1F
100
AcDbEntity
  8
0
  6
Continuous
 62
     7
100
AcDbLine
 10
10.07145516473049
 20
11.92902874077637
 30
0.0
 11
10.25145516473049
 21
11.92902874077637
 31
0.0
  0
LINE
  5
21D
330
1F
100
AcDbEntity
  8
0
  6
Continuous
 62
     7
100
AcDbLine
 10
10.07145516473049
 20
11.74902874077637
 30
0.0
 11
10.07145516473049
 21
11.92902874077637
 31
0.0
  0
LINE
  5
21E
330
1F
100
AcDbEntity
  8
0
  6
Continuous
 62
     7
100
AcDbLine
 10
10.25145516473049
 20
11.74902874077637
 30
0.0
 11
10.07145516473049
 21
11.74902874077637
 31
0.0
  0
LINE
  5
21F
330
1F
100
AcDbEntity
  8
0
  6
Continuous
 62
     7
100
AcDbLine
 10
10.25145516473049
 20
11.17902874077637
 30
0.0
 11
10.25145516473049
 21
11.74902874077637
 31
0.0
  0
LINE
  5
220
330
1F
100
AcDbEntity
  8
0
  6
Continuous
 62
     7
100
AcDbLine
 10
10.07145516473049
 20
11.17902874077637
 30
0.0
 11
10.25145516473049
 21
11.17902874077637
 31
0.0
  0
LINE
  5
221
330
1F
100
AcDbEntity
  8
0
  6
Continuous
 62
     7
100
AcDbLine
 10
10.07145516473049
 20
10.99902874077637
 30
0.0
 11
10.07145516473049
 21
11.17902874077637
 31
0.0
  0
LINE
  5
222
330
1F
100
AcDbEntity
  8
0
  6
Continuous
 62
     7
100
AcDbLine
 10
9.383455164730504
 20
7.689028740776373
 30
0.0
 11
9.383455164730502
 21
8.189028740776373
 31
0.0
  0
LINE
  5
223
330
1F
100
AcDbEntity
  8
0
  6
Continuous
 62
     7
100
AcDbLine
 10
8.883455164730502
 20
8.18902874077637
 30
0.0
 11
8.883455164730504
 21
7.689028740776371
 31
0.0
  0
LINE
  5
224
330
1F
100
AcDbEntity
  8
0
  6
Continuous
 62
     7
100
AcDbLine
 10
8.883455164730504
 20
7.689028740776371
 30
0.0
 11
9.383455164730504
 21
7.689028740776373
 31
0.0
  0
LINE
  5
225
330
1F
100
AcDbEntity
  8
0
  6
Continuous
 62
     7
100
AcDbLine
 10
10.1834551647305
 20
7.689028740776375
 30
0.0
 11
10.1834551647305
 21
8.189028740776375
 31
0.0
  0
LINE
  5
226
330
1F
100
AcDbEntity
  8
0
  6
Continuous
 62
     7
100
AcDbLine
 10
9.683455164730501
 20
8.189028740776373
 30
0.0
 11
9.683455164730501
 21
7.689028740776373
 31
0.0
  0
LINE
  5
227
330
1F
100
AcDbEntity
  8
0
  6
Continuous
 62
     7
100
AcDbLine
 10
9.683455164730501
 20
7.689028740776373
 30
0.0
 11
10.1834551647305
 21
7.689028740776375
 31
0.0
  0
LINE
  5
228
330
1F
100
AcDbEntity
  8
0
  6
Continuous
 62
     7
100
AcDbLine
 10
11.30845516473052
 20
9.314028740776418
 30
0.0
 11
10.80845516473052
 21
9.314028740776411
 31
0.0
  0
LINE
  5
229
330
1F
100
AcDbEntity
  8
0
  6
Continuous
 62
     7
100
AcDbLine
 10
10.80845516473052
 20
8.814028740776413
 30
0.0
 11
11.30845516473052
 21
8.814028740776418
 31
0.0
  0
LINE
  5
22A
330
1F
100
AcDbEntity
  8
0
  6
Continuous
 62
     7
100
AcDbLine
 10
11.30845516473052
 20
8.814028740776418
 30
0.0
 11
11.30845516473052
 21
9.314028740776418
 31
0.0
  0
LINE
  5
22B
330
1F
100
AcDbEntity
  8
0
  6
Continuous
 62
     7
100
AcDbLine
 10
11.30845516473051
 20
10.11402874077642
 30
0.0
 11
10.80845516473051
 21
10.11402874077641
 31
0.0
  0
LINE
  5
22C
330
1F
100
AcDbEntity
  8
0
  6
Continuous
 62
     7
100
AcDbLine
 10
10.80845516473051
 20
9.614028740776413
 30
0.0
 11
11.30845516473051
 21
9.614028740776419
 31
0.0
  0
LINE
  5
22D
330
1F
100
AcDbEntity
  8
0
  6
Continuous
 62
     7
100
AcDbLine
 10
11.30845516473051
 20
9.614028740776419
 30
0.0
 11
11.30845516473051
 21
10.11402874077642
 31
0.0
  0
LINE
  5
22E
330
1F
100
AcDbEntity
  8
0
  6
Continuous
 62
     7
100
AcDbLine
 10
11.30845516473049
 20
10.91402874077642
 30
0.0
 11
10.8084551647305
 21
10.91402874077641
 31
0.0
  0
LINE
  5
22F
330
1F
100
AcDbEntity
  8
0
  6
Continuous
 62
     7
100
AcDbLine
 10
10.8084551647305
 20
10.41402874077641
 30
0.0
 11
11.3084551647305
 21
10.41402874077641
 31
0.0
  0
LINE
  5
230
330
1F
100
AcDbEntity
  8
0
  6
Continuous
 62
     7
100
AcDbLine
 10
11.3084551647305
 20
10.41402874077641
 30
0.0
 11
11.30845516473049
 21
10.91402874077642
 31
0.0
  0
LINE
  5
231
330
1F
100
AcDbEntity
  8
0
  6
Continuous
 62
     7
100
AcDbLine
 10
11.30845516473049
 20
11.71402874077642
 30
0.0
 11
10.80845516473049
 21
11.71402874077641
 31
0.0
  0
LINE
  5
232
330
1F
100
AcDbEntity
  8
0
  6
Continuous
 62
     7
100
AcDbLine
 10
10.80845516473049
 20
11.21402874077641
 30
0.0
 11
11.30845516473049
 21
11.21402874077642
 31
0.0
  0
LINE
  5
233
330
1F
100
AcDbEntity
  8
0
  6
Continuous
 62
     7
100
AcDbLine
 10
11.30845516473049
 20
11.21402874077642
 30
0.0
 11
11.30845516473049
 21
11.71402874077642
 31
0.0
  0
LINE
  5
234
330
1F
100
AcDbEntity
  8
0
  6
Continuous
 62
     7
100
AcDbLine
 10
11.30845516473047
 20
12.51402874077642
 30
0.0
 11
10.80845516473047
 21
12.51402874077641
 31
0.0
  0
LINE
  5
235
330
1F
100
AcDbEntity
  8
0
  6
Continuous
 62
     7
100
AcDbLine
 10
10.80845516473048
 20
12.01402874077641
 30
0.0
 11
11.30845516473048
 21
12.01402874077642
 31
0.0
  0
LINE
  5
236
330
1F
100
AcDbEntity
  8
0
  6
Continuous
 62
     7
100
AcDbLine
 10
11.30845516473048
 20
12.01402874077642
 30
0.0
 11
11.30845516473047
 21
12.51402874077642
 31
0.0
  0
LINE
  5
237
330
1F
100
AcDbEntity
  8
0
  6
Continuous
 62
     7
100
AcDbLine
 10
11.30845516473046
 20
13.31402874077642
 30
0.0
 11
10.80845516473046
 21
13.31402874077641
 31
0.0
  0
LINE
  5
238
330
1F
100
AcDbEntity
  8
0
  6
Continuous
 62
     7
100
AcDbLine
 10
10.80845516473047
 20
12.81402874077641
 30
0.0
 11
11.30845516473047
 21
12.81402874077642
 31
0.0
  0
LINE
  5
239
330
1F
100
AcDbEntity
  8
0
  6
Continuous
 62
     7
100
AcDbLine
 10
11.30845516473047
 20
12.81402874077642
 30
0.0
 11
11.30845516473046
 21
13.31402874077642
 31
0.0
  0
LINE
  5
23A
330
1F
100
AcDbEntity
  8
0
  6
Continuous
 62
     7
100
AcDbLine
 10
11.30845516473045
 20
14.11402874077642
 30
0.0
 11
10.80845516473045
 21
14.11402874077641
 31
0.0
  0
LINE
  5
23B
330
1F
100
AcDbEntity
  8
0
  6
Continuous
 62
     7
100
AcDbLine
 10
10.80845516473046
 20
13.61402874077641
 30
0.0
 11
11.30845516473046
 21
13.61402874077642
 31
0.0
  0
LINE
  5
23C
330
1F
100
AcDbEntity
  8
0
  6
Continuous
 62
     7
100
AcDbLine
 10
11.30845516473046
 20
13.61402874077642
 30
0.0
 11
11.30845516473045
 21
14.11402874077642
 31
0.0
  0
LINE
  5
23D
330
1F
100
AcDbEntity
  8
0
  6
Continuous
 62
     7
100
AcDbLine
 10
4.995455164730489
 20
11.74902874077635
 30
0.0
 11
4.81545516473049
 21
11.74902874077635
 31
0.0
  0
LINE
  5
23E
330
1F
100
AcDbEntity
  8
0
  6
Continuous
 62
     7
100
AcDbLine
 10
4.995455164730488
 20
11.92902874077635
 30
0.0
 11
4.995455164730489
 21
11.74902874077635
 31
0.0
  0
LINE
  5
23F
330
1F
100
AcDbEntity
  8
0
  6
Continuous
 62
     7
100
AcDbLine
 10
9.683455164730478
 20
15.23902874077637
 30
0.0
 11
9.683455164730478
 21
14.73902874077637
 31
0.0
  0
LINE
  5
240
330
1F
100
AcDbEntity
  8
0
  6
Continuous
 62
     7
100
AcDbLine
 10
10.18345516473048
 20
14.73902874077637
 30
0.0
 11
10.18345516473048
 21
15.23902874077637
 31
0.0
  0
LINE
  5
241
330
1F
100
AcDbEntity
  8
0
  6
Continuous
 62
     7
100
AcDbLine
 10
10.18345516473048
 20
15.23902874077637
 30
0.0
 11
9.683455164730478
 21
15.23902874077637
 31
0.0
  0
LINE
  5
242
330
1F
100
AcDbEntity
  8
0
  6
Continuous
 62
     7
100
AcDbLine
 10
4.815455164730487
 20
11.92902874077635
 30
0.0
 11
4.995455164730488
 21
11.92902874077635
 31
0.0
  0
LINE
  5
243
330
1F
100
AcDbEntity
  8
0
  6
Continuous
 62
     7
100
AcDbLine
 10
8.883455164730477
 20
15.23902874077637
 30
0.0
 11
8.883455164730479
 21
14.73902874077637
 31
0.0
  0
LINE
  5
244
330
1F
100
AcDbEntity
  8
0
  6
Continuous
 62
     7
100
AcDbLine
 10
9.383455164730479
 20
14.73902874077637
 30
0.0
 11
9.383455164730477
 21
15.23902874077637
 31
0.0
  0
LINE
  5
245
330
1F
100
AcDbEntity
  8
0
  6
Continuous
 62
     7
100
AcDbLine
 10
9.383455164730477
 20
15.23902874077637
 30
0.0
 11
8.883455164730477
 21
15.23902874077637
 31
0.0
  0
LINE
  5
246
330
1F
100
AcDbEntity
  8
0
  6
Continuous
 62
     7
100
AcDbLine
 10
4.815455164730487
 20
12.49902874077635
 30
0.0
 11
4.815455164730487
 21
11.92902874077635
 31
0.0
  0
LINE
  5
247
330
1F
100
AcDbEntity
  8
0
  6
Continuous
 62
     7
100
AcDbLine
 10
4.995455164730487
 20
12.49902874077635
 30
0.0
 11
4.815455164730487
 21
12.49902874077635
 31
0.0
  0
LINE
  5
248
330
1F
100
AcDbEntity
  8
0
  6
Continuous
 62
     7
100
AcDbLine
 10
8.083455164730477
 20
15.23902874077637
 30
0.0
 11
8.08345516473048
 21
14.73902874077637
 31
0.0
  0
LINE
  5
249
330
1F
100
AcDbEntity
  8
0
  6
Continuous
 62
     7
100
AcDbLine
 10
8.583455164730478
 20
14.73902874077637
 30
0.0
 11
8.583455164730477
 21
15.23902874077637
 31
0.0
  0
LINE
  5
24A
330
1F
100
AcDbEntity
  8
0
  6
Continuous
 62
     7
100
AcDbLine
 10
8.583455164730477
 20
15.23902874077637
 30
0.0
 11
8.083455164730477
 21
15.23902874077637
 31
0.0
  0
LINE
  5
24B
330
1F
100
AcDbEntity
  8
0
  6
Continuous
 62
     7
100
AcDbLine
 10
4.995455164730486
 20
12.67902874077635
 30
0.0
 11
4.995455164730487
 21
12.49902874077635
 31
0.0
  0
LINE
  5
24C
330
1F
100
AcDbEntity
  8
0
  6
Continuous
 62
     7
100
AcDbLine
 10
7.283455164730477
 20
15.23902874077637
 30
0.0
 11
7.283455164730479
 21
14.73902874077636
 31
0.0
  0
LINE
  5
24D
330
1F
100
AcDbEntity
  8
0
  6
Continuous
 62
     7
100
AcDbLine
 10
7.783455164730479
 20
14.73902874077636
 30
0.0
 11
7.783455164730478
 21
15.23902874077637
 31
0.0
  0
LINE
  5
24E
330
1F
100
AcDbEntity
  8
0
  6
Continuous
 62
     7
100
AcDbLine
 10
7.783455164730478
 20
15.23902874077637
 30
0.0
 11
7.283455164730477
 21
15.23902874077637
 31
0.0
  0
LINE
  5
24F
330
1F
100
AcDbEntity
  8
0
  6
Continuous
 62
     7
100
AcDbLine
 10
4.815455164730486
 20
12.67902874077635
 30
0.0
 11
4.995455164730486
 21
12.67902874077635
 31
0.0
  0
LINE
  5
250
330
1F
100
AcDbEntity
  8
0
  6
Continuous
 62
     7
100
AcDbLine
 10
4.815455164730485
 20
13.18202874077635
 30
0.0
 11
4.815455164730486
 21
12.67902874077635
 31
0.0
  0
LINE
  5
251
330
1F
100
AcDbEntity
  8
0
  6
Continuous
 62
     7
100
AcDbLine
 10
6.483455164730478
 20
15.23902874077636
 30
0.0
 11
6.483455164730479
 21
14.73902874077636
 31
0.0
  0
LINE
  5
252
330
1F
100
AcDbEntity
  8
0
  6
Continuous
 62
     7
100
AcDbLine
 10
6.983455164730479
 20
14.73902874077636
 30
0.0
 11
6.983455164730478
 21
15.23902874077636
 31
0.0
  0
LINE
  5
253
330
1F
100
AcDbEntity
  8
0
  6
Continuous
 62
     7
100
AcDbLine
 10
6.983455164730478
 20
15.23902874077636
 30
0.0
 11
6.483455164730478
 21
15.23902874077636
 31
0.0
  0
LINE
  5
254
330
1F
100
AcDbEntity
  8
0
  6
Continuous
 62
     7
100
AcDbLine
 10
5.683455164730476
 20
15.23902874077636
 30
0.0
 11
5.683455164730479
 21
14.73902874077636
 31
0.0
  0
LINE
  5
255
330
1F
100
AcDbEntity
  8
0
  6
Continuous
 62
     7
100
AcDbLine
 10
6.183455164730478
 20
14.73902874077636
 30
0.0
 11
6.183455164730477
 21
15.23902874077636
 31
0.0
  0
LINE
  5
256
330
1F
100
AcDbEntity
  8
0
  6
Continuous
 62
     7
100
AcDbLine
 10
6.183455164730477
 20
15.23902874077636
 30
0.0
 11
5.683455164730476
 21
15.23902874077636
 31
0.0
  0
LINE
  5
257
330
1F
100
AcDbEntity
  8
0
  6
Continuous
 62
     7
100
AcDbLine
 10
4.883455164730477
 20
15.23902874077635
 30
0.0
 11
4.883455164730479
 21
14.73902874077636
 31
0.0
  0
LINE
  5
258
330
1F
100
AcDbEntity
  8
0
  6
Continuous
 62
     7
100
AcDbLine
 10
5.383455164730478
 20
14.73902874077636
 30
0.0
 11
5.383455164730478
 21
15.23902874077635
 31
0.0
  0
LINE
  5
259
330
1F
100
AcDbEntity
  8
0
  6
Continuous
 62
     7
100
AcDbLine
 10
5.383455164730478
 20
15.23902874077635
 30
0.0
 11
4.883455164730477
 21
15.23902874077635
 31
0.0
  0
LINE
  5
25A
330
1F
100
AcDbEntity
  8
0
  6
Continuous
 62
     7
100
AcDbLine
 10
3.758455164730476
 20
13.61402874077634
 30
0.0
 11
4.258455164730476
 21
13.61402874077634
 31
0.0
  0
LINE
  5
25B
330
1F
100
AcDbEntity
  8
0
  6
Continuous
 62
     7
100
AcDbLine
 10
4.258455164730472
 20
14.11402874077634
 30
0.0
 11
3.758455164730471
 21
14.11402874077634
 31
0.0
  0
LINE
  5
25C
330
1F
100
AcDbEntity
  8
0
  6
Continuous
 62
     7
100
AcDbLine
 10
3.758455164730471
 20
14.11402874077634
 30
0.0
 11
3.758455164730476
 21
13.61402874077634
 31
0.0
  0
LINE
  5
25D
330
1F
100
AcDbEntity
  8
0
  6
Continuous
 62
     7
100
AcDbLine
 10
3.758455164730481
 20
12.81402874077634
 30
0.0
 11
4.258455164730481
 21
12.81402874077634
 31
0.0
  0
LINE
  5
25E
330
1F
100
AcDbEntity
  8
0
  6
Continuous
 62
     7
100
AcDbLine
 10
4.258455164730478
 20
13.31402874077634
 30
0.0
 11
3.758455164730477
 21
13.31402874077634
 31
0.0
  0
LINE
  5
25F
330
1F
100
AcDbEntity
  8
0
  6
Continuous
 62
     7
100
AcDbLine
 10
3.758455164730477
 20
13.31402874077634
 30
0.0
 11
3.758455164730481
 21
12.81402874077634
 31
0.0
  0
LINE
  5
260
330
1F
100
AcDbEntity
  8
0
  6
Continuous
 62
     7
100
AcDbLine
 10
3.758455164730487
 20
12.01402874077634
 30
0.0
 11
4.258455164730487
 21
12.01402874077634
 31
0.0
  0
LINE
  5
261
330
1F
100
AcDbEntity
  8
0
  6
Continuous
 62
     7
100
AcDbLine
 10
4.258455164730484
 20
12.51402874077634
 30
0.0
 11
3.758455164730483
 21
12.51402874077634
 31
0.0
  0
LINE
  5
262
330
1F
100
AcDbEntity
  8
0
  6
Continuous
 62
     7
100
AcDbLine
 10
3.758455164730483
 20
12.51402874077634
 30
0.0
 11
3.758455164730487
 21
12.01402874077634
 31
0.0
  0
LINE
  5
263
330
1F
100
AcDbEntity
  8
0
  6
Continuous
 62
     7
100
AcDbLine
 10
6.318455164730482
 20
14.00202874077636
 30
0.0
 11
6.318455164730481
 21
14.18202874077636
 31
0.0
  0
LINE
  5
264
330
1F
100
AcDbEntity
  8
0
  6
Continuous
 62
     7
100
AcDbLine
 10
3.758455164730492
 20
11.21402874077634
 30
0.0
 11
4.258455164730492
 21
11.21402874077634
 31
0.0
  0
LINE
  5
265
330
1F
100
AcDbEntity
  8
0
  6
Continuous
 62
     7
100
AcDbLine
 10
4.258455164730489
 20
11.71402874077634
 30
0.0
 11
3.758455164730488
 21
11.71402874077634
 31
0.0
  0
LINE
  5
266
330
1F
100
AcDbEntity
  8
0
  6
Continuous
 62
     7
100
AcDbLine
 10
3.758455164730488
 20
11.71402874077634
 30
0.0
 11
3.758455164730492
 21
11.21402874077634
 31
0.0
  0
LINE
  5
267
330
1F
100
AcDbEntity
  8
0
  6
Continuous
 62
     7
100
AcDbLine
 10
6.498455164730483
 20
14.00202874077636
 30
0.0
 11
6.318455164730482
 21
14.00202874077636
 31
0.0
  0
LINE
  5
268
330
1F
100
AcDbEntity
  8
0
  6
Continuous
 62
     7
100
AcDbLine
 10
3.758455164730498
 20
10.41402874077634
 30
0.0
 11
4.258455164730498
 21
10.41402874077634
 31
0.0
  0
LINE
  5
269
330
1F
100
AcDbEntity
  8
0
  6
Continuous
 62
     7
100
AcDbLine
 10
4.258455164730495
 20
10.91402874077634
 30
0.0
 11
3.758455164730494
 21
10.91402874077634
 31
0.0
  0
LINE
  5
26A
330
1F
100
AcDbEntity
  8
0
  6
Continuous
 62
     7
100
AcDbLine
 10
3.758455164730494
 20
10.91402874077634
 30
0.0
 11
3.758455164730498
 21
10.41402874077634
 31
0.0
  0
LINE
  5
26B
330
1F
100
AcDbEntity
  8
0
  6
Continuous
 62
     7
100
AcDbLine
 10
6.498455164730482
 20
14.18202874077636
 30
0.0
 11
6.498455164730483
 21
14.00202874077636
 31
0.0
  0
LINE
  5
26C
330
1F
100
AcDbEntity
  8
0
  6
Continuous
 62
     7
100
AcDbLine
 10
7.068455164730482
 20
14.18202874077636
 30
0.0
 11
6.498455164730482
 21
14.18202874077636
 31
0.0
  0
LINE
  5
26D
330
1F
100
AcDbEntity
  8
0
  6
Continuous
 62
     7
100
AcDbLine
 10
3.758455164730503
 20
9.61402874077634
 30
0.0
 11
4.258455164730503
 21
9.614028740776344
 31
0.0
  0
LINE
  5
26E
330
1F
100
AcDbEntity
  8
0
  6
Continuous
 62
     7
100
AcDbLine
 10
4.2584551647305
 20
10.11402874077634
 30
0.0
 11
3.758455164730499
 21
10.11402874077634
 31
0.0
  0
LINE
  5
26F
330
1F
100
AcDbEntity
  8
0
  6
Continuous
 62
     7
100
AcDbLine
 10
3.758455164730499
 20
10.11402874077634
 30
0.0
 11
3.758455164730503
 21
9.61402874077634
 31
0.0
  0
LINE
  5
270
330
1F
100
AcDbEntity
  8
0
  6
Continuous
 62
     7
100
AcDbLine
 10
7.068455164730482
 20
14.00202874077636
 30
0.0
 11
7.068455164730482
 21
14.18202874077636
 31
0.0
  0
LINE
  5
271
330
1F
100
AcDbEntity
  8
0
  6
Continuous
 62
     7
100
AcDbLine
 10
3.758455164730509
 20
8.81402874077634
 30
0.0
 11
4.258455164730508
 21
8.814028740776343
 31
0.0
  0
LINE
  5
272
330
1F
100
AcDbEntity
  8
0
  6
Continuous
 62
     7
100
AcDbLine
 10
4.258455164730506
 20
9.314028740776343
 30
0.0
 11
3.758455164730505
 21
9.31402874077634
 31
0.0
  0
LINE
  5
273
330
1F
100
AcDbEntity
  8
0
  6
Continuous
 62
     7
100
AcDbLine
 10
3.758455164730505
 20
9.31402874077634
 30
0.0
 11
3.758455164730509
 21
8.81402874077634
 31
0.0
  0
LINE
  5
274
330
1F
100
AcDbEntity
  8
0
  6
Continuous
 62
     7
100
AcDbLine
 10
7.248455164730483
 20
14.00202874077636
 30
0.0
 11
7.068455164730482
 21
14.00202874077636
 31
0.0
  0
LINE
  5
275
330
1F
100
AcDbEntity
  8
0
  6
Continuous
 62
     7
100
AcDbLine
 10
7.248455164730482
 20
14.18202874077636
 30
0.0
 11
7.248455164730483
 21
14.00202874077636
 31
0.0
  0
LINE
  5
276
330
1F
100
AcDbEntity
  8
0
  6
Continuous
 62
     7
100
AcDbLine
 10
7.818455164730482
 20
14.18202874077637
 30
0.0
 11
7.248455164730482
 21
14.18202874077636
 31
0.0
  0
LINE
  5
277
330
1F
100
AcDbEntity
  8
0
  6
Continuous
 62
     7
370
    15
100
AcDbLine
 10
4.433455075696052
 20
11.6390287345365
 30
0.0
 11
4.433455075696052
 21
11.28902874701623
 31
0.0
  0
LINE
  5
278
330
1F
100
AcDbEntity
  8
0
  6
Continuous
 62
     7
370
    15
100
AcDbLine
 10
4.033455056697071
 20
11.6390287345365
 30
0.0
 11
4.433455075696052
 21
11.6390287345365
 31
0.0
  0
LINE
  5
279
330
1F
100
AcDbEntity
  8
0
  6
Continuous
 62
     7
370
    15
100
AcDbLine
 10
4.433455075696052
 20
11.28902874701623
 30
0.0
 11
4.033455056697071
 21
11.28902874701623
 31
0.0
  0
LINE
  5
27A
330
1F
100
AcDbEntity
  8
0
  6
Continuous
 62
     7
370
    15
100
AcDbLine
 10
4.033455056697071
 20
11.6390287345365
 30
0.0
 11
4.033455056697071
 21
11.28902874701623
 31
0.0
  0
LINE
  5
27B
330
1F
100
AcDbEntity
  8
0
  6
Continuous
 62
     7
370
    15
100
AcDbLine
 10
11.23345516584808
 20
11.28902874701623
 30
0.0
 11
11.23345516584808
 21
11.6390287345365
 31
0.0
  0
LINE
  5
27C
330
1F
100
AcDbEntity
  8
0
  6
Continuous
 62
     7
370
    15
100
AcDbLine
 10
10.80845518931741
 20
11.28902874701623
 30
0.0
 11
11.23345516584808
 21
11.28902874701623
 31
0.0
  0
LINE
  5
27D
330
1F
100
AcDbEntity
  8
0
  6
Continuous
 62
     7
370
    15
100
AcDbLine
 10
11.23345516584808
 20
11.6390287345365
 30
0.0
 11
10.80845518931741
 21
11.6390287345365
 31
0.0
  0
ARC
  5
27E
330
1F
100
AcDbEntity
  8
0
  6
Continuous
 62
     7
370
    15
100
AcDbCircle
 10
10.80845516473049
 20
11.4640287407764
 30
0.0
 40
0.1750000000000007
100
AcDbArc
 50
90.00000000000058
 51
270.0000000000008
  0
ARC
  5
27F
330
1F
100
AcDbEntity
  8
0
  6
Continuous
 62
     7
370
    15
100
AcDbCircle
 10
4.258455164730482
 20
13.86402874077635
 30
0.0
 40
0.1750000000000025
100
AcDbArc
 50
270.0000000000011
 51
90.0
  0
LINE
  5
280
330
1F
100
AcDbEntity
  8
0
  6
Continuous
 62
     7
370
    15
100
AcDbLine
 10
3.833455163612903
 20
13.68902868638713
 30
0.0
 11
4.258455140143574
 21
13.68902868638713
 31
0.0
  0
LINE
  5
281
330
1F
100
AcDbEntity
  8
0
  6
Continuous
 62
     7
370
    15
100
AcDbLine
 10
4.258455140143574
 20
14.03902879032273
 30
0.0
 11
3.833455163612903
 21
14.03902879032273
 31
0.0
  0
LINE
  5
282
330
1F
100
AcDbEntity
  8
0
  6
Continuous
 62
     7
370
    15
100
AcDbLine
 10
3.833455163612903
 20
14.03902879032273
 30
0.0
 11
3.833455163612903
 21
13.68902868638713
 31
0.0
  0
LINE
  5
283
330
1F
100
AcDbEntity
  8
0
  6
Continuous
 62
     7
370
    15
100
AcDbLine
 10
4.433455075696052
 20
13.23902875232477
 30
0.0
 11
4.433455075696052
 21
12.88902876480449
 31
0.0
  0
LINE
  5
284
330
1F
100
AcDbEntity
  8
0
  6
Continuous
 62
     7
370
    15
100
AcDbLine
 10
4.433455075696052
 20
12.88902876480449
 30
0.0
 11
4.033455056697071
 21
12.88902876480449
 31
0.0
  0
LINE
  5
285
330
1F
100
AcDbEntity
  8
0
  6
Continuous
 62
     7
370
    15
100
AcDbLine
 10
4.033455056697071
 20
13.23902875232477
 30
0.0
 11
4.433455075696052
 21
13.23902875232477
 31
0.0
  0
LINE
  5
286
330
1F
100
AcDbEntity
  8
0
  6
Continuous
 62
     7
370
    15
100
AcDbLine
 10
4.033455056697071
 20
13.23902875232477
 30
0.0
 11
4.033455056697071
 21
12.88902876480449
 31
0.0
  0
LINE
  5
287
330
1F
100
AcDbEntity
  8
0
  6
Continuous
 62
     7
370
    15
100
AcDbLine
 10
10.63345525376493
 20
10.8390287547462
 30
0.0
 11
11.03345527276391
 21
10.8390287547462
 31
0.0
  0
LINE
  5
288
330
1F
100
AcDbEntity
  8
0
  6
Continuous
 62
     7
370
    15
100
AcDbLine
 10
11.03345527276391
 20
10.48902876722593
 30
0.0
 11
11.03345527276391
 21
10.8390287547462
 31
0.0
  0
LINE
  5
289
330
1F
100
AcDbEntity
  8
0
  6
Continuous
 62
     7
370
    15
100
AcDbLine
 10
10.63345525376493
 20
10.48902876722593
 30
0.0
 11
10.63345525376493
 21
10.8390287547462
 31
0.0
  0
LINE
  5
28A
330
1F
100
AcDbEntity
  8
0
  6
Continuous
 62
     7
370
    15
100
AcDbLine
 10
11.03345527276391
 20
10.48902876722593
 30
0.0
 11
10.63345525376493
 21
10.48902876722593
 31
0.0
  0
LINE
  5
28B
330
1F
100
AcDbEntity
  8
0
  6
Continuous
 62
     7
370
    15
100
AcDbLine
 10
11.23345516584808
 20
13.68902868638713
 30
0.0
 11
11.23345516584808
 21
14.03902879032273
 31
0.0
  0
LINE
  5
28C
330
1F
100
AcDbEntity
  8
0
  6
Continuous
 62
     7
370
    15
100
AcDbLine
 10
10.80845518931741
 20
13.68902868638713
 30
0.0
 11
11.23345516584808
 21
13.68902868638713
 31
0.0
  0
ARC
  5
28D
330
1F
100
AcDbEntity
  8
0
  6
Continuous
 62
     7
370
    15
100
AcDbCircle
 10
10.80845516473046
 20
13.8640287407764
 30
0.0
 40
0.1750000000000007
100
AcDbArc
 50
90.00000000000058
 51
270.0000000000008
  0
LINE
  5
28E
330
1F
100
AcDbEntity
  8
0
  6
Continuous
 62
     7
370
    15
100
AcDbLine
 10
11.23345516584808
 20
14.03902879032273
 30
0.0
 11
10.80845518931741
 21
14.03902879032273
 31
0.0
  0
LINE
  5
28F
330
1F
100
AcDbEntity
  8
0
  6
Continuous
 62
     7
370
    15
100
AcDbLine
 10
4.433455075696052
 20
9.239028795165605
 30
0.0
 11
4.433455075696052
 21
8.889028691230006
 31
0.0
  0
LINE
  5
290
330
1F
100
AcDbEntity
  8
0
  6
Continuous
 62
     7
370
    15
100
AcDbLine
 10
4.433455075696052
 20
8.889028691230006
 30
0.0
 11
4.033455056697071
 21
8.889028691230006
 31
0.0
  0
LINE
  5
291
330
1F
100
AcDbEntity
  8
0
  6
Continuous
 62
     7
370
    15
100
AcDbLine
 10
4.033455056697071
 20
9.239028795165605
 30
0.0
 11
4.433455075696052
 21
9.239028795165605
 31
0.0
  0
LINE
  5
292
330
1F
100
AcDbEntity
  8
0
  6
Continuous
 62
     7
370
    15
100
AcDbLine
 10
4.033455056697071
 20
9.239028795165605
 30
0.0
 11
4.033455056697071
 21
8.889028691230006
 31
0.0
  0
LINE
  5
293
330
1F
100
AcDbEntity
  8
0
  6
Continuous
 62
     7
370
    15
100
AcDbLine
 10
3.833455163612903
 20
11.6390287345365
 30
0.0
 11
3.833455163612903
 21
11.28902874701623
 31
0.0
  0
LINE
  5
294
330
1F
100
AcDbEntity
  8
0
  6
Continuous
 62
     7
370
    15
100
AcDbLine
 10
4.258455140143574
 20
11.6390287345365
 30
0.0
 11
3.833455163612903
 21
11.6390287345365
 31
0.0
  0
ARC
  5
295
330
1F
100
AcDbEntity
  8
0
  6
Continuous
 62
     7
370
    15
100
AcDbCircle
 10
4.258455164730491
 20
11.46402874077635
 30
0.0
 40
0.1750000000000025
100
AcDbArc
 50
270.0000000000008
 51
90.0
  0
LINE
  5
296
330
1F
100
AcDbEntity
  8
0
  6
Continuous
 62
     7
370
    15
100
AcDbLine
 10
3.833455163612903
 20
11.28902874701623
 30
0.0
 11
4.258455140143574
 21
11.28902874701623
 31
0.0
  0
LINE
  5
297
330
1F
100
AcDbEntity
  8
0
  6
Continuous
 62
     7
370
    15
100
AcDbLine
 10
3.833455163612903
 20
9.239028795165605
 30
0.0
 11
3.833455163612903
 21
8.889028691230006
 31
0.0
  0
LINE
  5
298
330
1F
100
AcDbEntity
  8
0
  6
Continuous
 62
     7
370
    15
100
AcDbLine
 10
4.258455140143574
 20
9.239028795165605
 30
0.0
 11
3.833455163612903
 21
9.239028795165605
 31
0.0
  0
ARC
  5
299
330
1F
100
AcDbEntity
  8
0
  6
Continuous
 62
     7
370
    15
100
AcDbCircle
 10
4.258455164730499
 20
9.064028740776356
 30
0.0
 40
0.1750000000000007
100
AcDbArc
 50
270.0000000000011
 51
90.0
  0
LINE
  5
29A
330
1F
100
AcDbEntity
  8
0
  6
Continuous
 62
     7
370
    15
100
AcDbLine
 10
3.833455163612903
 20
8.889028691230006
 30
0.0
 11
4.258455140143574
 21
8.889028691230006
 31
0.0
  0
LINE
  5
29B
330
1F
100
AcDbEntity
  8
0
  6
Continuous
 62
     7
370
    15
100
AcDbLine
 10
9.498455226048768
 20
8.926028740135617
 30
0.0
 11
9.498455226048768
 21
8.746028766510672
 31
0.0
  0
LINE
  5
29C
330
1F
100
AcDbEntity
  8
0
  6
Continuous
 62
     7
370
    15
100
AcDbLine
 10
9.318455136008502
 20
8.926028740135617
 30
0.0
 11
9.498455226048768
 21
8.926028740135617
 31
0.0
  0
LINE
  5
29D
330
1F
100
AcDbEntity
  8
0
  6
Continuous
 62
     7
370
    15
100
AcDbLine
 10
9.318455136008502
 20
8.746028766510672
 30
0.0
 11
9.318455136008502
 21
8.926028740135617
 31
0.0
  0
LINE
  5
29E
330
1F
100
AcDbEntity
  8
0
  6
Continuous
 62
     7
370
    15
100
AcDbLine
 10
8.74845521952951
 20
8.746028766510672
 30
0.0
 11
9.318455136008502
 21
8.746028766510672
 31
0.0
  0
LINE
  5
29F
330
1F
100
AcDbEntity
  8
0
  6
Continuous
 62
     7
370
    15
100
AcDbLine
 10
8.74845521952951
 20
8.926028740135617
 30
0.0
 11
8.74845521952951
 21
8.746028766510672
 31
0.0
  0
LINE
  5
2A0
330
1F
100
AcDbEntity
  8
0
  6
Continuous
 62
     7
370
    15
100
AcDbLine
 10
8.568455129489244
 20
8.926028740135617
 30
0.0
 11
8.74845521952951
 21
8.926028740135617
 31
0.0
  0
LINE
  5
2A1
330
1F
100
AcDbEntity
  8
0
  6
Continuous
 62
     7
370
    15
100
AcDbLine
 10
8.568455129489244
 20
8.746028766510672
 30
0.0
 11
8.568455129489244
 21
8.926028740135617
 31
0.0
  0
LINE
  5
2A2
330
1F
100
AcDbEntity
  8
0
  6
Continuous
 62
     7
370
    15
100
AcDbLine
 10
7.998455154802591
 20
8.746028766510672
 30
0.0
 11
8.568455129489244
 21
8.746028766510672
 31
0.0
  0
LINE
  5
2A3
330
1F
100
AcDbEntity
  8
0
  6
Continuous
 62
     7
370
    15
100
AcDbLine
 10
7.998455154802591
 20
8.926028740135617
 30
0.0
 11
7.998455154802591
 21
8.746028766510672
 31
0.0
  0
LINE
  5
2A4
330
1F
100
AcDbEntity
  8
0
  6
Continuous
 62
     7
370
    15
100
AcDbLine
 10
7.818455152073816
 20
8.926028740135617
 30
0.0
 11
7.998455154802591
 21
8.926028740135617
 31
0.0
  0
LINE
  5
2A5
330
1F
100
AcDbEntity
  8
0
  6
Continuous
 62
     7
370
    15
100
AcDbLine
 10
7.818455152073816
 20
8.746028766510672
 30
0.0
 11
7.818455152073816
 21
8.926028740135617
 31
0.0
  0
LINE
  5
2A6
330
1F
100
AcDbEntity
  8
0
  6
Continuous
 62
     7
370
    15
100
AcDbLine
 10
7.248455177387164
 20
8.746028766510672
 30
0.0
 11
7.818455152073816
 21
8.746028766510672
 31
0.0
  0
LINE
  5
2A7
330
1F
100
AcDbEntity
  8
0
  6
Continuous
 62
     7
370
    15
100
AcDbLine
 10
7.248455177387164
 20
8.926028740135617
 30
0.0
 11
7.248455177387164
 21
8.746028766510672
 31
0.0
  0
LINE
  5
2A8
330
1F
100
AcDbEntity
  8
0
  6
Continuous
 62
     7
370
    15
100
AcDbLine
 10
7.068455174658389
 20
8.926028740135617
 30
0.0
 11
7.248455177387164
 21
8.926028740135617
 31
0.0
  0
LINE
  5
2A9
330
1F
100
AcDbEntity
  8
0
  6
Continuous
 62
     7
370
    15
100
AcDbLine
 10
7.068455174658389
 20
8.746028766510672
 30
0.0
 11
7.068455174658389
 21
8.926028740135617
 31
0.0
  0
LINE
  5
2AA
330
1F
100
AcDbEntity
  8
0
  6
Continuous
 62
     7
370
    15
100
AcDbLine
 10
6.498455199971736
 20
8.746028766510672
 30
0.0
 11
7.068455174658389
 21
8.746028766510672
 31
0.0
  0
LINE
  5
2AB
330
1F
100
AcDbEntity
  8
0
  6
Continuous
 62
     7
370
    15
100
AcDbLine
 10
6.498455199971736
 20
8.926028740135617
 30
0.0
 11
6.498455199971736
 21
8.746028766510672
 31
0.0
  0
LINE
  5
2AC
330
1F
100
AcDbEntity
  8
0
  6
Continuous
 62
     7
370
    15
100
AcDbLine
 10
6.31845510993147
 20
8.926028740135617
 30
0.0
 11
6.498455199971736
 21
8.926028740135617
 31
0.0
  0
LINE
  5
2AD
330
1F
100
AcDbEntity
  8
0
  6
Continuous
 62
     7
370
    15
100
AcDbLine
 10
6.31845510993147
 20
8.746028766510672
 30
0.0
 11
6.31845510993147
 21
8.926028740135617
 31
0.0
  0
LINE
  5
2AE
330
1F
100
AcDbEntity
  8
0
  6
Continuous
 62
     7
370
    15
100
AcDbLine
 10
5.748455193452478
 20
8.746028766510672
 30
0.0
 11
6.31845510993147
 21
8.746028766510672
 31
0.0
  0
LINE
  5
2AF
330
1F
100
AcDbEntity
  8
0
  6
Continuous
 62
     7
370
    15
100
AcDbLine
 10
5.748455193452478
 20
8.926028740135617
 30
0.0
 11
5.748455193452478
 21
8.746028766510672
 31
0.0
  0
LINE
  5
2B0
330
1F
100
AcDbEntity
  8
0
  6
Continuous
 62
     7
370
    15
100
AcDbLine
 10
5.568455103412212
 20
8.926028740135617
 30
0.0
 11
5.748455193452478
 21
8.926028740135617
 31
0.0
  0
LINE
  5
2B1
330
1F
100
AcDbEntity
  8
0
  6
Continuous
 62
     7
370
    15
100
AcDbLine
 10
5.568455103412212
 20
8.746028766510672
 30
0.0
 11
5.568455103412212
 21
8.926028740135617
 31
0.0
  0
LINE
  5
2B2
330
1F
100
AcDbEntity
  8
0
  6
Continuous
 62
     7
370
    15
100
AcDbLine
 10
4.815455190464795
 20
8.746028766510672
 30
0.0
 11
5.568455103412212
 21
8.746028766510672
 31
0.0
  0
LINE
  5
2B3
330
1F
100
AcDbEntity
  8
0
  6
Continuous
 62
     7
370
    15
100
AcDbLine
 10
4.815455190464795
 20
9.499028679458088
 30
0.0
 11
4.815455190464795
 21
8.746028766510672
 31
0.0
  0
LINE
  5
2B4
330
1F
100
AcDbEntity
  8
0
  6
Continuous
 62
     7
370
    15
100
AcDbLine
 10
4.99545516408974
 20
9.679028769498355
 30
0.0
 11
4.99545516408974
 21
9.499028679458088
 31
0.0
  0
LINE
  5
2B5
330
1F
100
AcDbEntity
  8
0
  6
Continuous
 62
     7
370
    15
100
AcDbLine
 10
4.99545516408974
 20
10.42902877601761
 30
0.0
 11
4.99545516408974
 21
10.24902868597735
 31
0.0
  0
LINE
  5
2B6
330
1F
100
AcDbEntity
  8
0
  6
Continuous
 62
     7
370
    15
100
AcDbLine
 10
4.815455190464795
 20
10.99902875070426
 30
0.0
 11
4.815455190464795
 21
10.42902877601761
 31
0.0
  0
LINE
  5
2B7
330
1F
100
AcDbEntity
  8
0
  6
Continuous
 62
     7
370
    15
100
AcDbLine
 10
4.99545516408974
 20
10.99902875070426
 30
0.0
 11
4.815455190464795
 21
10.99902875070426
 31
0.0
  0
LINE
  5
2B8
330
1F
100
AcDbEntity
  8
0
  6
Continuous
 62
     7
370
    15
100
AcDbLine
 10
4.99545516408974
 20
11.17902875343304
 30
0.0
 11
4.99545516408974
 21
10.99902875070426
 31
0.0
  0
LINE
  5
2B9
330
1F
100
AcDbEntity
  8
0
  6
Continuous
 62
     7
370
    15
100
AcDbLine
 10
4.815455190464795
 20
11.17902875343304
 30
0.0
 11
4.99545516408974
 21
11.17902875343304
 31
0.0
  0
LINE
  5
2BA
330
1F
100
AcDbEntity
  8
0
  6
Continuous
 62
     7
370
    15
100
AcDbLine
 10
4.815455190464795
 20
11.74902872811969
 30
0.0
 11
4.815455190464795
 21
11.17902875343304
 31
0.0
  0
LINE
  5
2BB
330
1F
100
AcDbEntity
  8
0
  6
Continuous
 62
     7
370
    15
100
AcDbLine
 10
4.99545516408974
 20
11.74902872811969
 30
0.0
 11
4.815455190464795
 21
11.74902872811969
 31
0.0
  0
LINE
  5
2BC
330
1F
100
AcDbEntity
  8
0
  6
Continuous
 62
     7
370
    15
100
AcDbLine
 10
4.99545516408974
 20
11.92902873084847
 30
0.0
 11
4.99545516408974
 21
11.74902872811969
 31
0.0
  0
LINE
  5
2BD
330
1F
100
AcDbEntity
  8
0
  6
Continuous
 62
     7
370
    15
100
AcDbLine
 10
4.815455190464795
 20
11.92902873084847
 30
0.0
 11
4.99545516408974
 21
11.92902873084847
 31
0.0
  0
LINE
  5
2BE
330
1F
100
AcDbEntity
  8
0
  6
Continuous
 62
     7
370
    15
100
AcDbLine
 10
4.815455190464795
 20
12.49902870553512
 30
0.0
 11
4.815455190464795
 21
11.92902873084847
 31
0.0
  0
LINE
  5
2BF
330
1F
100
AcDbEntity
  8
0
  6
Continuous
 62
     7
370
    15
100
AcDbLine
 10
4.99545516408974
 20
12.67902879557539
 30
0.0
 11
4.99545516408974
 21
12.49902870553512
 31
0.0
  0
LINE
  5
2C0
330
1F
100
AcDbEntity
  8
0
  6
Continuous
 62
     7
370
    15
100
AcDbLine
 10
4.815455190464795
 20
13.18202878395993
 30
0.0
 11
4.815455190464795
 21
12.67902879557539
 31
0.0
  0
LINE
  5
2C1
330
1F
100
AcDbEntity
  8
0
  6
Continuous
 62
     7
370
    15
100
AcDbLine
 10
6.31845510993147
 20
14.18202871504206
 30
0.0
 11
5.815455121546925
 21
14.18202871504206
 31
0.0
  0
LINE
  5
2C2
330
1F
100
AcDbEntity
  8
0
  6
Continuous
 62
     7
370
    15
100
AcDbLine
 10
6.31845510993147
 20
14.00202874141712
 30
0.0
 11
6.31845510993147
 21
14.18202871504206
 31
0.0
  0
LINE
  5
2C3
330
1F
100
AcDbEntity
  8
0
  6
Continuous
 62
     7
370
    15
100
AcDbLine
 10
6.498455199971736
 20
14.00202874141712
 30
0.0
 11
6.31845510993147
 21
14.00202874141712
 31
0.0
  0
LINE
  5
2C4
330
1F
100
AcDbEntity
  8
0
  6
Continuous
 62
     7
370
    15
100
AcDbLine
 10
6.498455199971736
 20
14.18202871504206
 30
0.0
 11
6.498455199971736
 21
14.00202874141712
 31
0.0
  0
LINE
  5
2C5
330
1F
100
AcDbEntity
  8
0
  6
Continuous
 62
     7
370
    15
100
AcDbLine
 10
7.068455174658389
 20
14.18202871504206
 30
0.0
 11
6.498455199971736
 21
14.18202871504206
 31
0.0
  0
LINE
  5
2C6
330
1F
100
AcDbEntity
  8
0
  6
Continuous
 62
     7
370
    15
100
AcDbLine
 10
7.068455174658389
 20
14.00202874141712
 30
0.0
 11
7.068455174658389
 21
14.18202871504206
 31
0.0
  0
LINE
  5
2C7
330
1F
100
AcDbEntity
  8
0
  6
Continuous
 62
     7
370
    15
100
AcDbLine
 10
7.248455177387164
 20
14.00202874141712
 30
0.0
 11
7.068455174658389
 21
14.00202874141712
 31
0.0
  0
LINE
  5
2C8
330
1F
100
AcDbEntity
  8
0
  6
Continuous
 62
     7
370
    15
100
AcDbLine
 10
7.248455177387164
 20
14.18202871504206
 30
0.0
 11
7.248455177387164
 21
14.00202874141712
 31
0.0
  0
LINE
  5
2C9
330
1F
100
AcDbEntity
  8
0
  6
Continuous
 62
     7
370
    15
100
AcDbLine
 10
7.818455152073816
 20
14.18202871504206
 30
0.0
 11
7.248455177387164
 21
14.18202871504206
 31
0.0
  0
LINE
  5
2CA
330
1F
100
AcDbEntity
  8
0
  6
Continuous
 62
     7
370
    15
100
AcDbLine
 10
7.818455152073816
 20
14.00202874141712
 30
0.0
 11
7.818455152073816
 21
14.18202871504206
 31
0.0
  0
LINE
  5
2CB
330
1F
100
AcDbEntity
  8
0
  6
Continuous
 62
     7
370
    15
100
AcDbLine
 10
7.998455154802591
 20
14.00202874141712
 30
0.0
 11
7.818455152073816
 21
14.00202874141712
 31
0.0
  0
LINE
  5
2CC
330
1F
100
AcDbEntity
  8
0
  6
Continuous
 62
     7
370
    15
100
AcDbLine
 10
7.998455154802591
 20
14.18202871504206
 30
0.0
 11
7.998455154802591
 21
14.00202874141712
 31
0.0
  0
LINE
  5
2CD
330
1F
100
AcDbEntity
  8
0
  6
Continuous
 62
     7
370
    15
100
AcDbLine
 10
8.568455129489244
 20
14.18202871504206
 30
0.0
 11
7.998455154802591
 21
14.18202871504206
 31
0.0
  0
LINE
  5
2CE
330
1F
100
AcDbEntity
  8
0
  6
Continuous
 62
     7
370
    15
100
AcDbLine
 10
8.568455129489244
 20
14.00202874141712
 30
0.0
 11
8.568455129489244
 21
14.18202871504206
 31
0.0
  0
LINE
  5
2CF
330
1F
100
AcDbEntity
  8
0
  6
Continuous
 62
     7
370
    15
100
AcDbLine
 10
8.74845521952951
 20
14.00202874141712
 30
0.0
 11
8.568455129489244
 21
14.00202874141712
 31
0.0
  0
LINE
  5
2D0
330
1F
100
AcDbEntity
  8
0
  6
Continuous
 62
     7
370
    15
100
AcDbLine
 10
8.74845521952951
 20
14.18202871504206
 30
0.0
 11
8.74845521952951
 21
14.00202874141712
 31
0.0
  0
LINE
  5
2D1
330
1F
100
AcDbEntity
  8
0
  6
Continuous
 62
     7
370
    15
100
AcDbLine
 10
9.318455136008502
 20
14.18202871504206
 30
0.0
 11
8.74845521952951
 21
14.18202871504206
 31
0.0
  0
LINE
  5
2D2
330
1F
100
AcDbEntity
  8
0
  6
Continuous
 62
     7
370
    15
100
AcDbLine
 10
9.318455136008502
 20
14.00202874141712
 30
0.0
 11
9.318455136008502
 21
14.18202871504206
 31
0.0
  0
LINE
  5
2D3
330
1F
100
AcDbEntity
  8
0
  6
Continuous
 62
     7
370
    15
100
AcDbLine
 10
9.498455226048768
 20
14.00202874141712
 30
0.0
 11
9.318455136008502
 21
14.00202874141712
 31
0.0
  0
LINE
  5
2D4
330
1F
100
AcDbEntity
  8
0
  6
Continuous
 62
     7
370
    15
100
AcDbLine
 10
9.498455226048768
 20
14.18202871504206
 30
0.0
 11
9.498455226048768
 21
14.00202874141712
 31
0.0
  0
LINE
  5
2D5
330
1F
100
AcDbEntity
  8
0
  6
Continuous
 62
     7
370
    15
100
AcDbLine
 10
10.25145513899618
 20
14.18202871504206
 30
0.0
 11
9.498455226048768
 21
14.18202871504206
 31
0.0
  0
LINE
  5
2D6
330
1F
100
AcDbEntity
  8
0
  6
Continuous
 62
     7
370
    15
100
AcDbLine
 10
10.25145513899618
 20
13.42902880209464
 30
0.0
 11
10.25145513899618
 21
14.18202871504206
 31
0.0
  0
LINE
  5
2D7
330
1F
100
AcDbEntity
  8
0
  6
Continuous
 62
     7
370
    15
100
AcDbLine
 10
10.07145516537124
 20
13.42902880209464
 30
0.0
 11
10.25145513899618
 21
13.42902880209464
 31
0.0
  0
LINE
  5
2D8
330
1F
100
AcDbEntity
  8
0
  6
Continuous
 62
     7
370
    15
100
AcDbLine
 10
10.07145516537124
 20
13.24902871205438
 30
0.0
 11
10.07145516537124
 21
13.42902880209464
 31
0.0
  0
LINE
  5
2D9
330
1F
100
AcDbEntity
  8
0
  6
Continuous
 62
     7
370
    15
100
AcDbLine
 10
10.25145513899618
 20
13.24902871205438
 30
0.0
 11
10.07145516537124
 21
13.24902871205438
 31
0.0
  0
LINE
  5
2DA
330
1F
100
AcDbEntity
  8
0
  6
Continuous
 62
     7
370
    15
100
AcDbLine
 10
10.25145513899618
 20
12.67902879557539
 30
0.0
 11
10.25145513899618
 21
13.24902871205438
 31
0.0
  0
LINE
  5
2DB
330
1F
100
AcDbEntity
  8
0
  6
Continuous
 62
     7
370
    15
100
AcDbLine
 10
10.07145516537124
 20
12.67902879557539
 30
0.0
 11
10.25145513899618
 21
12.67902879557539
 31
0.0
  0
LINE
  5
2DC
330
1F
100
AcDbEntity
  8
0
  6
Continuous
 62
     7
370
    15
100
AcDbLine
 10
10.07145516537124
 20
12.49902870553512
 30
0.0
 11
10.07145516537124
 21
12.67902879557539
 31
0.0
  0
LINE
  5
2DD
330
1F
100
AcDbEntity
  8
0
  6
Continuous
 62
     7
370
    15
100
AcDbLine
 10
10.25145513899618
 20
12.49902870553512
 30
0.0
 11
10.07145516537124
 21
12.49902870553512
 31
0.0
  0
LINE
  5
2DE
330
1F
100
AcDbEntity
  8
0
  6
Continuous
 62
     7
370
    15
100
AcDbLine
 10
10.25145513899618
 20
11.92902873084847
 30
0.0
 11
10.25145513899618
 21
12.49902870553512
 31
0.0
  0
LINE
  5
2DF
330
1F
100
AcDbEntity
  8
0
  6
Continuous
 62
     7
370
    15
100
AcDbLine
 10
10.07145516537124
 20
11.92902873084847
 30
0.0
 11
10.25145513899618
 21
11.92902873084847
 31
0.0
  0
LINE
  5
2E0
330
1F
100
AcDbEntity
  8
0
  6
Continuous
 62
     7
370
    15
100
AcDbLine
 10
10.07145516537124
 20
11.74902872811969
 30
0.0
 11
10.07145516537124
 21
11.92902873084847
 31
0.0
  0
LINE
  5
2E1
330
1F
100
AcDbEntity
  8
0
  6
Continuous
 62
     7
370
    15
100
AcDbLine
 10
10.25145513899618
 20
11.74902872811969
 30
0.0
 11
10.07145516537124
 21
11.74902872811969
 31
0.0
  0
LINE
  5
2E2
330
1F
100
AcDbEntity
  8
0
  6
Continuous
 62
     7
370
    15
100
AcDbLine
 10
10.25145513899618
 20
11.17902875343304
 30
0.0
 11
10.25145513899618
 21
11.74902872811969
 31
0.0
  0
LINE
  5
2E3
330
1F
100
AcDbEntity
  8
0
  6
Continuous
 62
     7
370
    15
100
AcDbLine
 10
10.07145516537124
 20
11.17902875343304
 30
0.0
 11
10.25145513899618
 21
11.17902875343304
 31
0.0
  0
LINE
  5
2E4
330
1F
100
AcDbEntity
  8
0
  6
Continuous
 62
     7
370
    15
100
AcDbLine
 10
10.07145516537124
 20
10.99902875070426
 30
0.0
 11
10.07145516537124
 21
11.17902875343304
 31
0.0
  0
LINE
  5
2E5
330
1F
100
AcDbEntity
  8
0
  6
Continuous
 62
     7
370
    15
100
AcDbLine
 10
10.25145513899618
 20
10.99902875070426
 30
0.0
 11
10.07145516537124
 21
10.99902875070426
 31
0.0
  0
LINE
  5
2E6
330
1F
100
AcDbEntity
  8
0
  6
Continuous
 62
     7
370
    15
100
AcDbLine
 10
10.25145513899618
 20
10.42902877601761
 30
0.0
 11
10.25145513899618
 21
10.99902875070426
 31
0.0
  0
LINE
  5
2E7
330
1F
100
AcDbEntity
  8
0
  6
Continuous
 62
     7
370
    15
100
AcDbLine
 10
10.07145516537124
 20
10.42902877601761
 30
0.0
 11
10.25145513899618
 21
10.42902877601761
 31
0.0
  0
LINE
  5
2E8
330
1F
100
AcDbEntity
  8
0
  6
Continuous
 62
     7
370
    15
100
AcDbLine
 10
10.07145516537124
 20
10.24902868597735
 30
0.0
 11
10.07145516537124
 21
10.42902877601761
 31
0.0
  0
LINE
  5
2E9
330
1F
100
AcDbEntity
  8
0
  6
Continuous
 62
     7
370
    15
100
AcDbLine
 10
10.25145513899618
 20
10.24902868597735
 30
0.0
 11
10.07145516537124
 21
10.24902868597735
 31
0.0
  0
LINE
  5
2EA
330
1F
100
AcDbEntity
  8
0
  6
Continuous
 62
     7
370
    15
100
AcDbLine
 10
10.25145513899618
 20
9.679028769498355
 30
0.0
 11
10.25145513899618
 21
10.24902868597735
 31
0.0
  0
LINE
  5
2EB
330
1F
100
AcDbEntity
  8
0
  6
Continuous
 62
     7
370
    15
100
AcDbLine
 10
10.07145516537124
 20
9.679028769498355
 30
0.0
 11
10.25145513899618
 21
9.679028769498355
 31
0.0
  0
LINE
  5
2EC
330
1F
100
AcDbEntity
  8
0
  6
Continuous
 62
     7
370
    15
100
AcDbLine
 10
10.07145516537124
 20
9.499028679458088
 30
0.0
 11
10.07145516537124
 21
9.679028769498355
 31
0.0
  0
LINE
  5
2ED
330
1F
100
AcDbEntity
  8
0
  6
Continuous
 62
     7
370
    15
100
AcDbLine
 10
10.25145513899618
 20
9.499028679458088
 30
0.0
 11
10.07145516537124
 21
9.499028679458088
 31
0.0
  0
LINE
  5
2EE
330
1F
100
AcDbEntity
  8
0
  6
Continuous
 62
     7
370
    15
100
AcDbLine
 10
10.25145513899618
 20
8.746028766510672
 30
0.0
 11
10.25145513899618
 21
9.499028679458088
 31
0.0
  0
LINE
  5
2EF
330
1F
100
AcDbEntity
  8
0
  6
Continuous
 62
     7
370
    15
100
AcDbLine
 10
9.498455226048768
 20
8.746028766510672
 30
0.0
 11
10.25145513899618
 21
8.746028766510672
 31
0.0
  0
LINE
  5
2F0
330
1F
100
AcDbEntity
  8
0
  6
Continuous
 62
     7
370
    15
100
AcDbLine
 10
4.99545516408974
 20
10.24902868597735
 30
0.0
 11
4.815455190464795
 21
10.24902868597735
 31
0.0
  0
LINE
  5
2F1
330
1F
100
AcDbEntity
  8
0
  6
Continuous
 62
     7
370
    15
100
AcDbLine
 10
4.99545516408974
 20
9.499028679458088
 30
0.0
 11
4.815455190464795
 21
9.499028679458088
 31
0.0
  0
LINE
  5
2F2
330
1F
100
AcDbEntity
  8
0
  6
Continuous
 62
     7
370
    15
100
AcDbLine
 10
4.815455190464795
 20
9.679028769498355
 30
0.0
 11
4.99545516408974
 21
9.679028769498355
 31
0.0
  0
LINE
  5
2F3
330
1F
100
AcDbEntity
  8
0
  6
Continuous
 62
     7
370
    15
100
AcDbLine
 10
4.815455190464795
 20
12.67902879557539
 30
0.0
 11
4.99545516408974
 21
12.67902879557539
 31
0.0
  0
LINE
  5
2F4
330
1F
100
AcDbEntity
  8
0
  6
Continuous
 62
     7
370
    15
100
AcDbLine
 10
4.815455190464795
 20
10.24902868597735
 30
0.0
 11
4.815455190464795
 21
9.679028769498355
 31
0.0
  0
LINE
  5
2F5
330
1F
100
AcDbEntity
  8
0
  6
Continuous
 62
     7
370
    15
100
AcDbLine
 10
4.99545516408974
 20
12.49902870553512
 30
0.0
 11
4.815455190464795
 21
12.49902870553512
 31
0.0
  0
LINE
  5
2F6
330
1F
100
AcDbEntity
  8
0
  6
Continuous
 62
     7
370
    15
100
AcDbLine
 10
5.815455121546925
 20
14.18202871504206
 30
0.0
 11
4.815455190464795
 21
13.18202878395993
 31
0.0
  0
LINE
  5
2F7
330
1F
100
AcDbEntity
  8
0
  6
Continuous
 62
     7
370
    15
100
AcDbLine
 10
4.815455190464795
 20
10.42902877601761
 30
0.0
 11
4.99545516408974
 21
10.42902877601761
 31
0.0
  0
LINE
  5
2F8
330
1F
100
AcDbEntity
  8
0
  6
Continuous
 62
     7
370
    15
100
AcDbLine
 10
11.03345527276391
 20
12.88902876480449
 30
0.0
 11
11.03345527276391
 21
13.23902875232477
 31
0.0
  0
LINE
  5
2F9
330
1F
100
AcDbEntity
  8
0
  6
Continuous
 62
     7
370
    15
100
AcDbLine
 10
10.63345525376493
 20
12.88902876480449
 30
0.0
 11
10.63345525376493
 21
13.23902875232477
 31
0.0
  0
LINE
  5
2FA
330
1F
100
AcDbEntity
  8
0
  6
Continuous
 62
     7
370
    15
100
AcDbLine
 10
10.63345525376493
 20
13.23902875232477
 30
0.0
 11
11.03345527276391
 21
13.23902875232477
 31
0.0
  0
LINE
  5
2FB
330
1F
100
AcDbEntity
  8
0
  6
Continuous
 62
     7
370
    15
100
AcDbLine
 10
11.03345527276391
 20
12.88902876480449
 30
0.0
 11
10.63345525376493
 21
12.88902876480449
 31
0.0
  0
LINE
  5
2FC
330
1F
100
AcDbEntity
  8
0
  6
Continuous
 62
     7
370
    15
100
AcDbLine
 10
11.23345516584808
 20
8.889028691230006
 30
0.0
 11
11.23345516584808
 21
9.239028795165605
 31
0.0
  0
LINE
  5
2FD
330
1F
100
AcDbEntity
  8
0
  6
Continuous
 62
     7
370
    15
100
AcDbLine
 10
10.80845518931741
 20
8.889028691230006
 30
0.0
 11
11.23345516584808
 21
8.889028691230006
 31
0.0
  0
ARC
  5
2FE
330
1F
100
AcDbEntity
  8
0
  6
Continuous
 62
     7
370
    15
100
AcDbCircle
 10
10.80845516473051
 20
9.0640287407764
 30
0.0
 40
0.1750000000000007
100
AcDbArc
 50
90.0
 51
270.000000000002
  0
LINE
  5
2FF
330
1F
100
AcDbEntity
  8
0
  6
Continuous
 62
     7
370
    15
100
AcDbLine
 10
11.23345516584808
 20
9.239028795165605
 30
0.0
 11
10.80845518931741
 21
9.239028795165605
 31
0.0
  0
LINE
  5
300
330
1F
100
AcDbEntity
  8
0
  6
Continuous
 62
     7
370
    15
100
AcDbLine
 10
10.63345525376493
 20
8.889028691230006
 30
0.0
 11
10.63345525376493
 21
9.239028795165605
 31
0.0
  0
LINE
  5
301
330
1F
100
AcDbEntity
  8
0
  6
Continuous
 62
     7
370
    15
100
AcDbLine
 10
10.63345525376493
 20
9.239028795165605
 30
0.0
 11
11.03345527276391
 21
9.239028795165605
 31
0.0
  0
LINE
  5
302
330
1F
100
AcDbEntity
  8
0
  6
Continuous
 62
     7
370
    15
100
AcDbLine
 10
11.03345527276391
 20
8.889028691230006
 30
0.0
 11
11.03345527276391
 21
9.239028795165605
 31
0.0
  0
LINE
  5
303
330
1F
100
AcDbEntity
  8
0
  6
Continuous
 62
     7
370
    15
100
AcDbLine
 10
11.03345527276391
 20
8.889028691230006
 30
0.0
 11
10.63345525376493
 21
8.889028691230006
 31
0.0
  0
LINE
  5
304
330
1F
100
AcDbEntity
  8
0
  6
Continuous
 62
     7
370
    15
100
AcDbLine
 10
11.23345516584808
 20
10.48902876722593
 30
0.0
 11
11.23345516584808
 21
10.8390287547462
 31
0.0
  0
LINE
  5
305
330
1F
100
AcDbEntity
  8
0
  6
Continuous
 62
     7
370
    15
100
AcDbLine
 10
10.80845518931741
 20
10.48902876722593
 30
0.0
 11
11.23345516584808
 21
10.48902876722593
 31
0.0
  0
ARC
  5
306
330
1F
100
AcDbEntity
  8
0
  6
Continuous
 62
     7
370
    15
100
AcDbCircle
 10
10.8084551647305
 20
10.6640287407764
 30
0.0
 40
0.1750000000000025
100
AcDbArc
 50
90.00000000000058
 51
270.000000000002
  0
LINE
  5
307
330
1F
100
AcDbEntity
  8
0
  6
Continuous
 62
     7
370
    15
100
AcDbLine
 10
11.23345516584808
 20
10.8390287547462
 30
0.0
 11
10.80845518931741
 21
10.8390287547462
 31
0.0
  0
LINE
  5
308
330
1F
100
AcDbEntity
  8
0
  6
Continuous
 62
     7
370
    15
100
AcDbLine
 10
4.433455075696052
 20
10.8390287547462
 30
0.0
 11
4.433455075696052
 21
10.48902876722593
 31
0.0
  0
LINE
  5
309
330
1F
100
AcDbEntity
  8
0
  6
Continuous
 62
     7
370
    15
100
AcDbLine
 10
4.033455056697071
 20
10.8390287547462
 30
0.0
 11
4.433455075696052
 21
10.8390287547462
 31
0.0
  0
LINE
  5
30A
330
1F
100
AcDbEntity
  8
0
  6
Continuous
 62
     7
370
    15
100
AcDbLine
 10
4.033455056697071
 20
10.8390287547462
 30
0.0
 11
4.033455056697071
 21
10.48902876722593
 31
0.0
  0
LINE
  5
30B
330
1F
100
AcDbEntity
  8
0
  6
Continuous
 62
     7
370
    15
100
AcDbLine
 10
4.433455075696052
 20
10.48902876722593
 30
0.0
 11
4.033455056697071
 21
10.48902876722593
 31
0.0
  0
LINE
  5
30C
330
1F
100
AcDbEntity
  8
0
  6
Continuous
 62
     7
370
    15
100
AcDbLine
 10
11.23345516584808
 20
12.88902876480449
 30
0.0
 11
11.23345516584808
 21
13.23902875232477
 31
0.0
  0
LINE
  5
30D
330
1F
100
AcDbEntity
  8
0
  6
Continuous
 62
     7
370
    15
100
AcDbLine
 10
10.80845518931741
 20
12.88902876480449
 30
0.0
 11
11.23345516584808
 21
12.88902876480449
 31
0.0
  0
LINE
  5
30E
330
1F
100
AcDbEntity
  8
0
  6
Continuous
 62
     7
370
    15
100
AcDbLine
 10
11.23345516584808
 20
13.23902875232477
 30
0.0
 11
10.80845518931741
 21
13.23902875232477
 31
0.0
  0
ARC
  5
30F
330
1F
100
AcDbEntity
  8
0
  6
Continuous
 62
     7
370
    15
100
AcDbCircle
 10
10.80845516473047
 20
13.0640287407764
 30
0.0
 40
0.1749999999999989
100
AcDbArc
 50
90.0
 51
270.0000000000013
  0
LINE
  5
310
330
1F
100
AcDbEntity
  8
0
  6
Continuous
 62
     7
370
    15
100
AcDbLine
 10
4.258455140143574
 20
12.4390287143268
 30
0.0
 11
3.833455163612903
 21
12.4390287143268
 31
0.0
  0
ARC
  5
311
330
1F
100
AcDbEntity
  8
0
  6
Continuous
 62
     7
370
    15
100
AcDbCircle
 10
4.258455164730488
 20
12.26402874077635
 30
0.0
 40
0.1750000000000007
100
AcDbArc
 50
270.0000000000008
 51
90.0000000000003
  0
LINE
  5
312
330
1F
100
AcDbEntity
  8
0
  6
Continuous
 62
     7
370
    15
100
AcDbLine
 10
3.833455163612903
 20
12.4390287143268
 30
0.0
 11
3.833455163612903
 21
12.08902872680653
 31
0.0
  0
LINE
  5
313
330
1F
100
AcDbEntity
  8
0
  6
Continuous
 62
     7
370
    15
100
AcDbLine
 10
3.833455163612903
 20
12.08902872680653
 30
0.0
 11
4.258455140143574
 21
12.08902872680653
 31
0.0
  0
LINE
  5
314
330
1F
100
AcDbEntity
  8
0
  6
Continuous
 62
     7
370
    15
100
AcDbLine
 10
10.63345525376493
 20
11.28902874701623
 30
0.0
 11
10.63345525376493
 21
11.6390287345365
 31
0.0
  0
LINE
  5
315
330
1F
100
AcDbEntity
  8
0
  6
Continuous
 62
     7
370
    15
100
AcDbLine
 10
10.63345525376493
 20
11.6390287345365
 30
0.0
 11
11.03345527276391
 21
11.6390287345365
 31
0.0
  0
LINE
  5
316
330
1F
100
AcDbEntity
  8
0
  6
Continuous
 62
     7
370
    15
100
AcDbLine
 10
11.03345527276391
 20
11.28902874701623
 30
0.0
 11
11.03345527276391
 21
11.6390287345365
 31
0.0
  0
LINE
  5
317
330
1F
100
AcDbEntity
  8
0
  6
Continuous
 62
     7
370
    15
100
AcDbLine
 10
11.03345527276391
 20
11.28902874701623
 30
0.0
 11
10.63345525376493
 21
11.28902874701623
 31
0.0
  0
LINE
  5
318
330
1F
100
AcDbEntity
  8
0
  6
Continuous
 62
     7
370
    15
100
AcDbLine
 10
3.833455163612903
 20
10.03902871674824
 30
0.0
 11
3.833455163612903
 21
9.689028729227967
 31
0.0
  0
LINE
  5
319
330
1F
100
AcDbEntity
  8
0
  6
Continuous
 62
     7
370
    15
100
AcDbLine
 10
4.258455140143574
 20
10.03902871674824
 30
0.0
 11
3.833455163612903
 21
10.03902871674824
 31
0.0
  0
ARC
  5
31A
330
1F
100
AcDbEntity
  8
0
  6
Continuous
 62
     7
370
    15
100
AcDbCircle
 10
4.258455164730496
 20
9.864028740776355
 30
0.0
 40
0.1750000000000007
100
AcDbArc
 50
270.0000000000011
 51
90.0000000000003
  0
LINE
  5
31B
330
1F
100
AcDbEntity
  8
0
  6
Continuous
 62
     7
370
    15
100
AcDbLine
 10
3.833455163612903
 20
9.689028729227967
 30
0.0
 11
4.258455140143574
 21
9.689028729227967
 31
0.0
  0
LINE
  5
31C
330
1F
100
AcDbEntity
  8
0
  6
Continuous
 62
     7
370
    15
100
AcDbLine
 10
4.433455075696052
 20
12.4390287143268
 30
0.0
 11
4.433455075696052
 21
12.08902872680653
 31
0.0
  0
LINE
  5
31D
330
1F
100
AcDbEntity
  8
0
  6
Continuous
 62
     7
370
    15
100
AcDbLine
 10
4.433455075696052
 20
12.08902872680653
 30
0.0
 11
4.033455056697071
 21
12.08902872680653
 31
0.0
  0
LINE
  5
31E
330
1F
100
AcDbEntity
  8
0
  6
Continuous
 62
     7
370
    15
100
AcDbLine
 10
4.033455056697071
 20
12.4390287143268
 30
0.0
 11
4.033455056697071
 21
12.08902872680653
 31
0.0
  0
LINE
  5
31F
330
1F
100
AcDbEntity
  8
0
  6
Continuous
 62
     7
370
    15
100
AcDbLine
 10
4.033455056697071
 20
12.4390287143268
 30
0.0
 11
4.433455075696052
 21
12.4390287143268
 31
0.0
  0
LINE
  5
320
330
1F
100
AcDbEntity
  8
0
  6
Continuous
 62
     7
370
    15
100
AcDbLine
 10
11.23345516584808
 20
9.689028729227967
 30
0.0
 11
11.23345516584808
 21
10.03902871674824
 31
0.0
  0
LINE
  5
321
330
1F
100
AcDbEntity
  8
0
  6
Continuous
 62
     7
370
    15
100
AcDbLine
 10
10.80845518931741
 20
9.689028729227967
 30
0.0
 11
11.23345516584808
 21
9.689028729227967
 31
0.0
  0
LINE
  5
322
330
1F
100
AcDbEntity
  8
0
  6
Continuous
 62
     7
370
    15
100
AcDbLine
 10
11.23345516584808
 20
10.03902871674824
 30
0.0
 11
10.80845518931741
 21
10.03902871674824
 31
0.0
  0
ARC
  5
323
330
1F
100
AcDbEntity
  8
0
  6
Continuous
 62
     7
370
    15
100
AcDbCircle
 10
10.80845516473051
 20
9.864028740776401
 30
0.0
 40
0.1750000000000007
100
AcDbArc
 50
90.00000000000117
 51
270.0000000000013
  0
LINE
  5
324
330
1F
100
AcDbEntity
  8
0
  6
Continuous
 62
     7
370
    15
100
AcDbLine
 10
10.63345525376493
 20
9.689028729227967
 30
0.0
 11
10.63345525376493
 21
10.03902871674824
 31
0.0
  0
LINE
  5
325
330
1F
100
AcDbEntity
  8
0
  6
Continuous
 62
     7
370
    15
100
AcDbLine
 10
11.03345527276391
 20
9.689028729227967
 30
0.0
 11
11.03345527276391
 21
10.03902871674824
 31
0.0
  0
LINE
  5
326
330
1F
100
AcDbEntity
  8
0
  6
Continuous
 62
     7
370
    15
100
AcDbLine
 10
11.03345527276391
 20
9.689028729227967
 30
0.0
 11
10.63345525376493
 21
9.689028729227967
 31
0.0
  0
LINE
  5
327
330
1F
100
AcDbEntity
  8
0
  6
Continuous
 62
     7
370
    15
100
AcDbLine
 10
10.63345525376493
 20
10.03902871674824
 30
0.0
 11
11.03345527276391
 21
10.03902871674824
 31
0.0
  0
LINE
  5
328
330
1F
100
AcDbEntity
  8
0
  6
Continuous
 62
     7
370
    15
100
AcDbLine
 10
11.03345527276391
 20
13.68902868638713
 30
0.0
 11
11.03345527276391
 21
14.03902879032273
 31
0.0
  0
LINE
  5
329
330
1F
100
AcDbEntity
  8
0
  6
Continuous
 62
     7
370
    15
100
AcDbLine
 10
10.63345525376493
 20
14.03902879032273
 30
0.0
 11
11.03345527276391
 21
14.03902879032273
 31
0.0
  0
LINE
  5
32A
330
1F
100
AcDbEntity
  8
0
  6
Continuous
 62
     7
370
    15
100
AcDbLine
 10
10.63345525376493
 20
13.68902868638713
 30
0.0
 11
10.63345525376493
 21
14.03902879032273
 31
0.0
  0
LINE
  5
32B
330
1F
100
AcDbEntity
  8
0
  6
Continuous
 62
     7
370
    15
100
AcDbLine
 10
11.03345527276391
 20
13.68902868638713
 30
0.0
 11
10.63345525376493
 21
13.68902868638713
 31
0.0
  0
LINE
  5
32C
330
1F
100
AcDbEntity
  8
0
  6
Continuous
 62
     7
370
    15
100
AcDbLine
 10
11.23345516584808
 20
12.08902872680653
 30
0.0
 11
11.23345516584808
 21
12.4390287143268
 31
0.0
  0
LINE
  5
32D
330
1F
100
AcDbEntity
  8
0
  6
Continuous
 62
     7
370
    15
100
AcDbLine
 10
10.80845518931741
 20
12.08902872680653
 30
0.0
 11
11.23345516584808
 21
12.08902872680653
 31
0.0
  0
ARC
  5
32E
330
1F
100
AcDbEntity
  8
0
  6
Continuous
 62
     7
370
    15
100
AcDbCircle
 10
10.80845516473048
 20
12.2640287407764
 30
0.0
 40
0.1750000000000007
100
AcDbArc
 50
90.00000000000058
 51
270.0000000000008
  0
LINE
  5
32F
330
1F
100
AcDbEntity
  8
0
  6
Continuous
 62
     7
370
    15
100
AcDbLine
 10
11.23345516584808
 20
12.4390287143268
 30
0.0
 11
10.80845518931741
 21
12.4390287143268
 31
0.0
  0
ARC
  5
330
330
1F
100
AcDbEntity
  8
0
  6
Continuous
 62
     7
370
    15
100
AcDbCircle
 10
4.258455164730484
 20
13.06402874077635
 30
0.0
 40
0.1750000000000025
100
AcDbArc
 50
270.0000000000011
 51
90.0
  0
LINE
  5
331
330
1F
100
AcDbEntity
  8
0
  6
Continuous
 62
     7
370
    15
100
AcDbLine
 10
3.833455163612903
 20
13.23902875232477
 30
0.0
 11
3.833455163612903
 21
12.88902876480449
 31
0.0
  0
LINE
  5
332
330
1F
100
AcDbEntity
  8
0
  6
Continuous
 62
     7
370
    15
100
AcDbLine
 10
3.833455163612903
 20
12.88902876480449
 30
0.0
 11
4.258455140143574
 21
12.88902876480449
 31
0.0
  0
LINE
  5
333
330
1F
100
AcDbEntity
  8
0
  6
Continuous
 62
     7
370
    15
100
AcDbLine
 10
4.258455140143574
 20
13.23902875232477
 30
0.0
 11
3.833455163612903
 21
13.23902875232477
 31
0.0
  0
LINE
  5
334
330
1F
100
AcDbEntity
  8
0
  6
Continuous
 62
     7
370
    15
100
AcDbLine
 10
4.433455075696052
 20
10.03902871674824
 30
0.0
 11
4.433455075696052
 21
9.689028729227967
 31
0.0
  0
LINE
  5
335
330
1F
100
AcDbEntity
  8
0
  6
Continuous
 62
     7
370
    15
100
AcDbLine
 10
4.433455075696052
 20
9.689028729227967
 30
0.0
 11
4.033455056697071
 21
9.689028729227967
 31
0.0
  0
LINE
  5
336
330
1F
100
AcDbEntity
  8
0
  6
Continuous
 62
     7
370
    15
100
AcDbLine
 10
4.033455056697071
 20
10.03902871674824
 30
0.0
 11
4.433455075696052
 21
10.03902871674824
 31
0.0
  0
LINE
  5
337
330
1F
100
AcDbEntity
  8
0
  6
Continuous
 62
     7
370
    15
100
AcDbLine
 10
4.033455056697071
 20
10.03902871674824
 30
0.0
 11
4.033455056697071
 21
9.689028729227967
 31
0.0
  0
LINE
  5
338
330
1F
100
AcDbEntity
  8
0
  6
Continuous
 62
     7
370
    15
100
AcDbLine
 10
4.433455075696052
 20
14.03902879032273
 30
0.0
 11
4.433455075696052
 21
13.68902868638713
 31
0.0
  0
LINE
  5
339
330
1F
100
AcDbEntity
  8
0
  6
Continuous
 62
     7
370
    15
100
AcDbLine
 10
4.433455075696052
 20
13.68902868638713
 30
0.0
 11
4.033455056697071
 21
13.68902868638713
 31
0.0
  0
LINE
  5
33A
330
1F
100
AcDbEntity
  8
0
  6
Continuous
 62
     7
370
    15
100
AcDbLine
 10
4.033455056697071
 20
14.03902879032273
 30
0.0
 11
4.033455056697071
 21
13.68902868638713
 31
0.0
  0
LINE
  5
33B
330
1F
100
AcDbEntity
  8
0
  6
Continuous
 62
     7
370
    15
100
AcDbLine
 10
4.033455056697071
 20
14.03902879032273
 30
0.0
 11
4.433455075696052
 21
14.03902879032273
 31
0.0
  0
LINE
  5
33C
330
1F
100
AcDbEntity
  8
0
  6
Continuous
 62
     7
370
    15
100
AcDbLine
 10
3.833455163612903
 20
10.8390287547462
 30
0.0
 11
3.833455163612903
 21
10.48902876722593
 31
0.0
  0
ARC
  5
33D
330
1F
100
AcDbEntity
  8
0
  6
Continuous
 62
     7
370
    15
100
AcDbCircle
 10
4.258455164730493
 20
10.66402874077635
 30
0.0
 40
0.1749999999999989
100
AcDbArc
 50
270.0000000000008
 51
90.0
  0
LINE
  5
33E
330
1F
100
AcDbEntity
  8
0
  6
Continuous
 62
     7
370
    15
100
AcDbLine
 10
3.833455163612903
 20
10.48902876722593
 30
0.0
 11
4.258455140143574
 21
10.48902876722593
 31
0.0
  0
LINE
  5
33F
330
1F
100
AcDbEntity
  8
0
  6
Continuous
 62
     7
370
    15
100
AcDbLine
 10
4.258455140143574
 20
10.8390287547462
 30
0.0
 11
3.833455163612903
 21
10.8390287547462
 31
0.0
  0
LINE
  5
340
330
1F
100
AcDbEntity
  8
0
  6
Continuous
 62
     7
370
    15
100
AcDbLine
 10
10.63345525376493
 20
12.08902872680653
 30
0.0
 11
10.63345525376493
 21
12.4390287143268
 31
0.0
  0
LINE
  5
341
330
1F
100
AcDbEntity
  8
0
  6
Continuous
 62
     7
370
    15
100
AcDbLine
 10
10.63345525376493
 20
12.4390287143268
 30
0.0
 11
11.03345527276391
 21
12.4390287143268
 31
0.0
  0
LINE
  5
342
330
1F
100
AcDbEntity
  8
0
  6
Continuous
 62
     7
370
    15
100
AcDbLine
 10
11.03345527276391
 20
12.08902872680653
 30
0.0
 11
11.03345527276391
 21
12.4390287143268
 31
0.0
  0
LINE
  5
343
330
1F
100
AcDbEntity
  8
0
  6
Continuous
 62
     7
370
    15
100
AcDbLine
 10
11.03345527276391
 20
12.08902872680653
 30
0.0
 11
10.63345525376493
 21
12.08902872680653
 31
0.0
  0
LINE
  5
344
330
1F
100
AcDbEntity
  8
0
  6
Continuous
 62
     7
370
    15
100
AcDbLine
 10
10.10845521427685
 20
14.96402884880978
 30
0.0
 11
10.10845521427685
 21
14.5640288298108
 31
0.0
  0
LINE
  5
345
330
1F
100
AcDbEntity
  8
0
  6
Continuous
 62
     7
370
    15
100
AcDbLine
 10
10.10845521427685
 20
14.96402884880978
 30
0.0
 11
9.758455110341252
 21
14.96402884880978
 31
0.0
  0
LINE
  5
346
330
1F
100
AcDbEntity
  8
0
  6
Continuous
 62
     7
370
    15
100
AcDbLine
 10
10.10845521427685
 20
14.5640288298108
 30
0.0
 11
9.758455110341252
 21
14.5640288298108
 31
0.0
  0
LINE
  5
347
330
1F
100
AcDbEntity
  8
0
  6
Continuous
 62
     7
370
    15
100
AcDbLine
 10
9.758455110341252
 20
14.5640288298108
 30
0.0
 11
9.758455110341252
 21
14.96402884880978
 31
0.0
  0
LINE
  5
348
330
1F
100
AcDbEntity
  8
0
  6
Continuous
 62
     7
370
    15
100
AcDbLine
 10
9.30845517627889
 20
14.5640288298108
 30
0.0
 11
8.958455188758613
 21
14.5640288298108
 31
0.0
  0
LINE
  5
349
330
1F
100
AcDbEntity
  8
0
  6
Continuous
 62
     7
370
    15
100
AcDbLine
 10
9.30845517627889
 20
14.96402884880978
 30
0.0
 11
8.958455188758613
 21
14.96402884880978
 31
0.0
  0
LINE
  5
34A
330
1F
100
AcDbEntity
  8
0
  6
Continuous
 62
     7
370
    15
100
AcDbLine
 10
9.30845517627889
 20
14.96402884880978
 30
0.0
 11
9.30845517627889
 21
14.5640288298108
 31
0.0
  0
LINE
  5
34B
330
1F
100
AcDbEntity
  8
0
  6
Continuous
 62
     7
370
    15
100
AcDbLine
 10
8.958455188758613
 20
14.5640288298108
 30
0.0
 11
8.958455188758613
 21
14.96402884880978
 31
0.0
  0
LINE
  5
34C
330
1F
100
AcDbEntity
  8
0
  6
Continuous
 62
     7
370
    15
100
AcDbLine
 10
8.508455138280929
 20
14.96402884880978
 30
0.0
 11
8.508455138280929
 21
14.5640288298108
 31
0.0
  0
LINE
  5
34D
330
1F
100
AcDbEntity
  8
0
  6
Continuous
 62
     7
370
    15
100
AcDbLine
 10
8.508455138280929
 20
14.96402884880978
 30
0.0
 11
8.158455150760651
 21
14.96402884880978
 31
0.0
  0
LINE
  5
34E
330
1F
100
AcDbEntity
  8
0
  6
Continuous
 62
     7
370
    15
100
AcDbLine
 10
8.508455138280929
 20
14.5640288298108
 30
0.0
 11
8.158455150760651
 21
14.5640288298108
 31
0.0
  0
LINE
  5
34F
330
1F
100
AcDbEntity
  8
0
  6
Continuous
 62
     7
370
    15
100
AcDbLine
 10
8.158455150760651
 20
14.5640288298108
 30
0.0
 11
8.158455150760651
 21
14.96402884880978
 31
0.0
  0
LINE
  5
350
330
1F
100
AcDbEntity
  8
0
  6
Continuous
 62
     7
370
    15
100
AcDbLine
 10
7.708455158490629
 20
14.5640288298108
 30
0.0
 11
7.358455170970351
 21
14.5640288298108
 31
0.0
  0
LINE
  5
351
330
1F
100
AcDbEntity
  8
0
  6
Continuous
 62
     7
370
    15
100
AcDbLine
 10
7.708455158490629
 20
14.96402884880978
 30
0.0
 11
7.708455158490629
 21
14.5640288298108
 31
0.0
  0
LINE
  5
352
330
1F
100
AcDbEntity
  8
0
  6
Continuous
 62
     7
370
    15
100
AcDbLine
 10
7.358455170970351
 20
14.5640288298108
 30
0.0
 11
7.358455170970351
 21
14.96402884880978
 31
0.0
  0
LINE
  5
353
330
1F
100
AcDbEntity
  8
0
  6
Continuous
 62
     7
370
    15
100
AcDbLine
 10
7.708455158490629
 20
14.96402884880978
 30
0.0
 11
7.358455170970351
 21
14.96402884880978
 31
0.0
  0
LINE
  5
354
330
1F
100
AcDbEntity
  8
0
  6
Continuous
 62
     7
370
    15
100
AcDbLine
 10
6.908455178700329
 20
14.5640288298108
 30
0.0
 11
6.558455191180051
 21
14.5640288298108
 31
0.0
  0
LINE
  5
355
330
1F
100
AcDbEntity
  8
0
  6
Continuous
 62
     7
370
    15
100
AcDbLine
 10
6.558455191180051
 20
14.5640288298108
 30
0.0
 11
6.558455191180051
 21
14.96402884880978
 31
0.0
  0
LINE
  5
356
330
1F
100
AcDbEntity
  8
0
  6
Continuous
 62
     7
370
    15
100
AcDbLine
 10
6.908455178700329
 20
14.96402884880978
 30
0.0
 11
6.558455191180051
 21
14.96402884880978
 31
0.0
  0
LINE
  5
357
330
1F
100
AcDbEntity
  8
0
  6
Continuous
 62
     7
370
    15
100
AcDbLine
 10
6.908455178700329
 20
14.96402884880978
 30
0.0
 11
6.908455178700329
 21
14.5640288298108
 31
0.0
  0
LINE
  5
358
330
1F
100
AcDbEntity
  8
0
  6
Continuous
 62
     7
370
    15
100
AcDbLine
 10
6.108455140702368
 20
14.5640288298108
 30
0.0
 11
5.75845515318209
 21
14.5640288298108
 31
0.0
  0
LINE
  5
359
330
1F
100
AcDbEntity
  8
0
  6
Continuous
 62
     7
370
    15
100
AcDbLine
 10
5.75845515318209
 20
14.5640288298108
 30
0.0
 11
5.75845515318209
 21
14.96402884880978
 31
0.0
  0
LINE
  5
35A
330
1F
100
AcDbEntity
  8
0
  6
Continuous
 62
     7
370
    15
100
AcDbLine
 10
6.108455140702368
 20
14.96402884880978
 30
0.0
 11
6.108455140702368
 21
14.5640288298108
 31
0.0
  0
LINE
  5
35B
330
1F
100
AcDbEntity
  8
0
  6
Continuous
 62
     7
370
    15
100
AcDbLine
 10
6.108455140702368
 20
14.96402884880978
 30
0.0
 11
5.75845515318209
 21
14.96402884880978
 31
0.0
  0
LINE
  5
35C
330
1F
100
AcDbEntity
  8
0
  6
Continuous
 62
     7
370
    15
100
AcDbLine
 10
5.308455219119728
 20
14.5640288298108
 30
0.0
 11
4.958455115184129
 21
14.5640288298108
 31
0.0
  0
LINE
  5
35D
330
1F
100
AcDbEntity
  8
0
  6
Continuous
 62
     7
370
    15
100
AcDbLine
 10
4.958455115184129
 20
14.5640288298108
 30
0.0
 11
4.958455115184129
 21
14.96402884880978
 31
0.0
  0
LINE
  5
35E
330
1F
100
AcDbEntity
  8
0
  6
Continuous
 62
     7
370
    15
100
AcDbLine
 10
5.308455219119728
 20
14.96402884880978
 30
0.0
 11
4.958455115184129
 21
14.96402884880978
 31
0.0
  0
LINE
  5
35F
330
1F
100
AcDbEntity
  8
0
  6
Continuous
 62
     7
370
    15
100
AcDbLine
 10
5.308455219119728
 20
14.96402884880978
 30
0.0
 11
5.308455219119728
 21
14.5640288298108
 31
0.0
  0
LINE
  5
360
330
1F
100
AcDbEntity
  8
0
  6
Continuous
 62
     7
370
    15
100
AcDbLine
 10
5.308455219119728
 20
8.364028651741929
 30
0.0
 11
5.308455219119728
 21
7.964028632742948
 31
0.0
  0
LINE
  5
361
330
1F
100
AcDbEntity
  8
0
  6
Continuous
 62
     7
370
    15
100
AcDbLine
 10
4.958455115184129
 20
7.964028632742948
 30
0.0
 11
4.958455115184129
 21
8.364028651741929
 31
0.0
  0
LINE
  5
362
330
1F
100
AcDbEntity
  8
0
  6
Continuous
 62
     7
370
    15
100
AcDbLine
 10
4.958455115184129
 20
8.364028651741929
 30
0.0
 11
5.308455219119728
 21
8.364028651741929
 31
0.0
  0
LINE
  5
363
330
1F
100
AcDbEntity
  8
0
  6
Continuous
 62
     7
370
    15
100
AcDbLine
 10
4.958455115184129
 20
7.964028632742948
 30
0.0
 11
5.308455219119728
 21
7.964028632742948
 31
0.0
  0
LINE
  5
364
330
1F
100
AcDbEntity
  8
0
  6
Continuous
 62
     7
370
    15
100
AcDbLine
 10
6.108455140702368
 20
8.364028651741929
 30
0.0
 11
6.108455140702368
 21
7.964028632742948
 31
0.0
  0
LINE
  5
365
330
1F
100
AcDbEntity
  8
0
  6
Continuous
 62
     7
370
    15
100
AcDbLine
 10
5.75845515318209
 20
7.964028632742948
 30
0.0
 11
6.108455140702368
 21
7.964028632742948
 31
0.0
  0
LINE
  5
366
330
1F
100
AcDbEntity
  8
0
  6
Continuous
 62
     7
370
    15
100
AcDbLine
 10
5.75845515318209
 20
7.964028632742948
 30
0.0
 11
5.75845515318209
 21
8.364028651741929
 31
0.0
  0
LINE
  5
367
330
1F
100
AcDbEntity
  8
0
  6
Continuous
 62
     7
370
    15
100
AcDbLine
 10
5.75845515318209
 20
8.364028651741929
 30
0.0
 11
6.108455140702368
 21
8.364028651741929
 31
0.0
  0
LINE
  5
368
330
1F
100
AcDbEntity
  8
0
  6
Continuous
 62
     7
370
    15
100
AcDbLine
 10
6.558455191180051
 20
8.364028651741929
 30
0.0
 11
6.908455178700329
 21
8.364028651741929
 31
0.0
  0
LINE
  5
369
330
1F
100
AcDbEntity
  8
0
  6
Continuous
 62
     7
370
    15
100
AcDbLine
 10
6.908455178700329
 20
8.364028651741929
 30
0.0
 11
6.908455178700329
 21
7.964028632742948
 31
0.0
  0
LINE
  5
36A
330
1F
100
AcDbEntity
  8
0
  6
Continuous
 62
     7
370
    15
100
AcDbLine
 10
6.558455191180051
 20
7.964028632742948
 30
0.0
 11
6.908455178700329
 21
7.964028632742948
 31
0.0
  0
LINE
  5
36B
330
1F
100
AcDbEntity
  8
0
  6
Continuous
 62
     7
370
    15
100
AcDbLine
 10
6.558455191180051
 20
7.964028632742948
 30
0.0
 11
6.558455191180051
 21
8.364028651741929
 31
0.0
  0
LINE
  5
36C
330
1F
100
AcDbEntity
  8
0
  6
Continuous
 62
     7
370
    15
100
AcDbLine
 10
7.358455170970351
 20
8.364028651741929
 30
0.0
 11
7.708455158490629
 21
8.364028651741929
 31
0.0
  0
LINE
  5
36D
330
1F
100
AcDbEntity
  8
0
  6
Continuous
 62
     7
370
    15
100
AcDbLine
 10
7.708455158490629
 20
8.364028651741929
 30
0.0
 11
7.708455158490629
 21
7.964028632742948
 31
0.0
  0
LINE
  5
36E
330
1F
100
AcDbEntity
  8
0
  6
Continuous
 62
     7
370
    15
100
AcDbLine
 10
7.358455170970351
 20
7.964028632742948
 30
0.0
 11
7.708455158490629
 21
7.964028632742948
 31
0.0
  0
LINE
  5
36F
330
1F
100
AcDbEntity
  8
0
  6
Continuous
 62
     7
370
    15
100
AcDbLine
 10
7.358455170970351
 20
7.964028632742948
 30
0.0
 11
7.358455170970351
 21
8.364028651741929
 31
0.0
  0
LINE
  5
370
330
1F
100
AcDbEntity
  8
0
  6
Continuous
 62
     7
370
    15
100
AcDbLine
 10
8.158455150760651
 20
8.364028651741929
 30
0.0
 11
8.508455138280929
 21
8.364028651741929
 31
0.0
  0
LINE
  5
371
330
1F
100
AcDbEntity
  8
0
  6
Continuous
 62
     7
370
    15
100
AcDbLine
 10
8.508455138280929
 20
8.364028651741929
 30
0.0
 11
8.508455138280929
 21
7.964028632742948
 31
0.0
  0
LINE
  5
372
330
1F
100
AcDbEntity
  8
0
  6
Continuous
 62
     7
370
    15
100
AcDbLine
 10
8.158455150760651
 20
7.964028632742948
 30
0.0
 11
8.508455138280929
 21
7.964028632742948
 31
0.0
  0
LINE
  5
373
330
1F
100
AcDbEntity
  8
0
  6
Continuous
 62
     7
370
    15
100
AcDbLine
 10
8.158455150760651
 20
7.964028632742948
 30
0.0
 11
8.158455150760651
 21
8.364028651741929
 31
0.0
  0
LINE
  5
374
330
1F
100
AcDbEntity
  8
0
  6
Continuous
 62
     7
370
    15
100
AcDbLine
 10
9.30845517627889
 20
8.364028651741929
 30
0.0
 11
9.30845517627889
 21
7.964028632742948
 31
0.0
  0
LINE
  5
375
330
1F
100
AcDbEntity
  8
0
  6
Continuous
 62
     7
370
    15
100
AcDbLine
 10
8.958455188758613
 20
7.964028632742948
 30
0.0
 11
8.958455188758613
 21
8.364028651741929
 31
0.0
  0
LINE
  5
376
330
1F
100
AcDbEntity
  8
0
  6
Continuous
 62
     7
370
    15
100
AcDbLine
 10
8.958455188758613
 20
7.964028632742948
 30
0.0
 11
9.30845517627889
 21
7.964028632742948
 31
0.0
  0
LINE
  5
377
330
1F
100
AcDbEntity
  8
0
  6
Continuous
 62
     7
370
    15
100
AcDbLine
 10
8.958455188758613
 20
8.364028651741929
 30
0.0
 11
9.30845517627889
 21
8.364028651741929
 31
0.0
  0
LINE
  5
378
330
1F
100
AcDbEntity
  8
0
  6
Continuous
 62
     7
370
    15
100
AcDbLine
 10
9.758455110341252
 20
8.364028651741929
 30
0.0
 11
10.10845521427685
 21
8.364028651741929
 31
0.0
  0
LINE
  5
379
330
1F
100
AcDbEntity
  8
0
  6
Continuous
 62
     7
370
    15
100
AcDbLine
 10
10.10845521427685
 20
8.364028651741929
 30
0.0
 11
10.10845521427685
 21
7.964028632742948
 31
0.0
  0
LINE
  5
37A
330
1F
100
AcDbEntity
  8
0
  6
Continuous
 62
     7
370
    15
100
AcDbLine
 10
9.758455110341252
 20
7.964028632742948
 30
0.0
 11
10.10845521427685
 21
7.964028632742948
 31
0.0
  0
LINE
  5
37B
330
1F
100
AcDbEntity
  8
0
  6
Continuous
 62
     7
370
    15
100
AcDbLine
 10
9.758455110341252
 20
7.964028632742948
 30
0.0
 11
9.758455110341252
 21
8.364028651741929
 31
0.0
  0
LINE
  5
37C
330
1F
100
AcDbEntity
  8
0
  6
Continuous
 62
     7
370
    15
100
AcDbLine
 10
5.308455219119728
 20
15.16402874189395
 30
0.0
 11
4.958455115184129
 21
15.16402874189395
 31
0.0
  0
LINE
  5
37D
330
1F
100
AcDbEntity
  8
0
  6
Continuous
 62
     7
370
    15
100
AcDbLine
 10
5.308455219119728
 20
14.73902876536328
 30
0.0
 11
5.308455219119728
 21
15.16402874189395
 31
0.0
  0
ARC
  5
37E
330
1F
100
AcDbEntity
  8
0
  6
Continuous
 62
     7
370
    15
100
AcDbCircle
 10
5.133455164730491
 20
14.73902874077636
 30
0.0
 40
0.1749999999999998
100
AcDbArc
 50
180.0
 51
0.0
  0
LINE
  5
37F
330
1F
100
AcDbEntity
  8
0
  6
Continuous
 62
     7
370
    15
100
AcDbLine
 10
4.958455115184129
 20
15.16402874189395
 30
0.0
 11
4.958455115184129
 21
14.73902876536328
 31
0.0
  0
LINE
  5
380
330
1F
100
AcDbEntity
  8
0
  6
Continuous
 62
     7
370
    15
100
AcDbLine
 10
6.108455140702368
 20
14.73902876536328
 30
0.0
 11
6.108455140702368
 21
15.16402874189395
 31
0.0
  0
LINE
  5
381
330
1F
100
AcDbEntity
  8
0
  6
Continuous
 62
     7
370
    15
100
AcDbLine
 10
5.75845515318209
 20
15.16402874189395
 30
0.0
 11
5.75845515318209
 21
14.73902876536328
 31
0.0
  0
ARC
  5
382
330
1F
100
AcDbEntity
  8
0
  6
Continuous
 62
     7
370
    15
100
AcDbCircle
 10
5.93345516473049
 20
14.73902874077636
 30
0.0
 40
0.1750000000000016
100
AcDbArc
 50
180.0
 51
0.0
  0
LINE
  5
383
330
1F
100
AcDbEntity
  8
0
  6
Continuous
 62
     7
370
    15
100
AcDbLine
 10
6.108455140702368
 20
15.16402874189395
 30
0.0
 11
5.75845515318209
 21
15.16402874189395
 31
0.0
  0
LINE
  5
384
330
1F
100
AcDbEntity
  8
0
  6
Continuous
 62
     7
370
    15
100
AcDbLine
 10
6.908455178700329
 20
14.73902876536328
 30
0.0
 11
6.908455178700329
 21
15.16402874189395
 31
0.0
  0
ARC
  5
385
330
1F
100
AcDbEntity
  8
0
  6
Continuous
 62
     7
370
    15
100
AcDbCircle
 10
6.73345516473049
 20
14.73902874077636
 30
0.0
 40
0.1750000000000007
100
AcDbArc
 50
180.0
 51
0.0
  0
LINE
  5
386
330
1F
100
AcDbEntity
  8
0
  6
Continuous
 62
     7
370
    15
100
AcDbLine
 10
6.558455191180051
 20
15.16402874189395
 30
0.0
 11
6.558455191180051
 21
14.73902876536328
 31
0.0
  0
LINE
  5
387
330
1F
100
AcDbEntity
  8
0
  6
Continuous
 62
     7
370
    15
100
AcDbLine
 10
6.908455178700329
 20
15.16402874189395
 30
0.0
 11
6.558455191180051
 21
15.16402874189395
 31
0.0
  0
LINE
  5
388
330
1F
100
AcDbEntity
  8
0
  6
Continuous
 62
     7
370
    15
100
AcDbLine
 10
7.708455158490629
 20
15.16402874189395
 30
0.0
 11
7.358455170970351
 21
15.16402874189395
 31
0.0
  0
LINE
  5
389
330
1F
100
AcDbEntity
  8
0
  6
Continuous
 62
     7
370
    15
100
AcDbLine
 10
7.708455158490629
 20
14.73902876536328
 30
0.0
 11
7.708455158490629
 21
15.16402874189395
 31
0.0
  0
ARC
  5
38A
330
1F
100
AcDbEntity
  8
0
  6
Continuous
 62
     7
370
    15
100
AcDbCircle
 10
7.53345516473049
 20
14.73902874077636
 30
0.0
 40
0.1750000000000007
100
AcDbArc
 50
180.0
 51
0.0
  0
LINE
  5
38B
330
1F
100
AcDbEntity
  8
0
  6
Continuous
 62
     7
370
    15
100
AcDbLine
 10
7.358455170970351
 20
15.16402874189395
 30
0.0
 11
7.358455170970351
 21
14.73902876536328
 31
0.0
  0
LINE
  5
38C
330
1F
100
AcDbEntity
  8
0
  6
Continuous
 62
     7
370
    15
100
AcDbLine
 10
8.508455138280929
 20
15.16402874189395
 30
0.0
 11
8.158455150760651
 21
15.16402874189395
 31
0.0
  0
LINE
  5
38D
330
1F
100
AcDbEntity
  8
0
  6
Continuous
 62
     7
370
    15
100
AcDbLine
 10
8.508455138280929
 20
14.73902876536328
 30
0.0
 11
8.508455138280929
 21
15.16402874189395
 31
0.0
  0
ARC
  5
38E
330
1F
100
AcDbEntity
  8
0
  6
Continuous
 62
     7
370
    15
100
AcDbCircle
 10
8.333455164730489
 20
14.73902874077636
 30
0.0
 40
0.1750000000000007
100
AcDbArc
 50
180.0
 51
0.0
  0
LINE
  5
38F
330
1F
100
AcDbEntity
  8
0
  6
Continuous
 62
     7
370
    15
100
AcDbLine
 10
8.158455150760651
 20
15.16402874189395
 30
0.0
 11
8.158455150760651
 21
14.73902876536328
 31
0.0
  0
LINE
  5
390
330
1F
100
AcDbEntity
  8
0
  6
Continuous
 62
     7
370
    15
100
AcDbLine
 10
9.30845517627889
 20
15.16402874189395
 30
0.0
 11
8.958455188758613
 21
15.16402874189395
 31
0.0
  0
LINE
  5
391
330
1F
100
AcDbEntity
  8
0
  6
Continuous
 62
     7
370
    15
100
AcDbLine
 10
9.30845517627889
 20
14.73902876536328
 30
0.0
 11
9.30845517627889
 21
15.16402874189395
 31
0.0
  0
LINE
  5
392
330
1F
100
AcDbEntity
  8
0
  6
Continuous
 62
     7
370
    15
100
AcDbLine
 10
8.958455188758613
 20
15.16402874189395
 30
0.0
 11
8.958455188758613
 21
14.73902876536328
 31
0.0
  0
ARC
  5
393
330
1F
100
AcDbEntity
  8
0
  6
Continuous
 62
     7
370
    15
100
AcDbCircle
 10
9.133455164730492
 20
14.73902874077636
 30
0.0
 40
0.1750000000000007
100
AcDbArc
 50
180.0
 51
0.0
  0
LINE
  5
394
330
1F
100
AcDbEntity
  8
0
  6
Continuous
 62
     7
370
    15
100
AcDbLine
 10
10.10845521427685
 20
14.73902876536328
 30
0.0
 11
10.10845521427685
 21
15.16402874189395
 31
0.0
  0
LINE
  5
395
330
1F
100
AcDbEntity
  8
0
  6
Continuous
 62
     7
370
    15
100
AcDbLine
 10
9.758455110341252
 20
15.16402874189395
 30
0.0
 11
9.758455110341252
 21
14.73902876536328
 31
0.0
  0
LINE
  5
396
330
1F
100
AcDbEntity
  8
0
  6
Continuous
 62
     7
370
    15
100
AcDbLine
 10
10.10845521427685
 20
15.16402874189395
 30
0.0
 11
9.758455110341252
 21
15.16402874189395
 31
0.0
  0
ARC
  5
397
330
1F
100
AcDbEntity
  8
0
  6
Continuous
 62
     7
370
    15
100
AcDbCircle
 10
9.93345516473049
 20
14.73902874077636
 30
0.0
 40
0.1750000000000007
100
AcDbArc
 50
180.0
 51
0.0
  0
LINE
  5
398
330
1F
100
AcDbEntity
  8
0
  6
Continuous
 62
     7
370
    15
100
AcDbLine
 10
9.758455110341252
 20
8.189028716189451
 30
0.0
 11
9.758455110341252
 21
7.76402873965878
 31
0.0
  0
ARC
  5
399
330
1F
100
AcDbEntity
  8
0
  6
Continuous
 62
     7
370
    15
100
AcDbCircle
 10
9.93345516473049
 20
8.189028740776366
 30
0.0
 40
0.1750000000000007
100
AcDbArc
 50
0.0
 51
180.0
  0
LINE
  5
39A
330
1F
100
AcDbEntity
  8
0
  6
Continuous
 62
     7
370
    15
100
AcDbLine
 10
10.10845521427685
 20
7.76402873965878
 30
0.0
 11
10.10845521427685
 21
8.189028716189451
 31
0.0
  0
LINE
  5
39B
330
1F
100
AcDbEntity
  8
0
  6
Continuous
 62
     7
370
    15
100
AcDbLine
 10
9.758455110341252
 20
7.76402873965878
 30
0.0
 11
10.10845521427685
 21
7.76402873965878
 31
0.0
  0
LINE
  5
39C
330
1F
100
AcDbEntity
  8
0
  6
Continuous
 62
     7
370
    15
100
AcDbLine
 10
8.958455188758613
 20
7.76402873965878
 30
0.0
 11
9.30845517627889
 21
7.76402873965878
 31
0.0
  0
LINE
  5
39D
330
1F
100
AcDbEntity
  8
0
  6
Continuous
 62
     7
370
    15
100
AcDbLine
 10
8.958455188758613
 20
8.189028716189451
 30
0.0
 11
8.958455188758613
 21
7.76402873965878
 31
0.0
  0
LINE
  5
39E
330
1F
100
AcDbEntity
  8
0
  6
Continuous
 62
     7
370
    15
100
AcDbLine
 10
9.30845517627889
 20
7.76402873965878
 30
0.0
 11
9.30845517627889
 21
8.189028716189451
 31
0.0
  0
ARC
  5
39F
330
1F
100
AcDbEntity
  8
0
  6
Continuous
 62
     7
370
    15
100
AcDbCircle
 10
9.133455164730492
 20
8.189028740776366
 30
0.0
 40
0.1750000000000007
100
AcDbArc
 50
0.0
 51
180.0
  0
LINE
  5
3A0
330
1F
100
AcDbEntity
  8
0
  6
Continuous
 62
     7
370
    15
100
AcDbLine
 10
8.158455150760651
 20
7.76402873965878
 30
0.0
 11
8.508455138280929
 21
7.76402873965878
 31
0.0
  0
LINE
  5
3A1
330
1F
100
AcDbEntity
  8
0
  6
Continuous
 62
     7
370
    15
100
AcDbLine
 10
8.508455138280929
 20
7.76402873965878
 30
0.0
 11
8.508455138280929
 21
8.189028716189451
 31
0.0
  0
LINE
  5
3A2
330
1F
100
AcDbEntity
  8
0
  6
Continuous
 62
     7
370
    15
100
AcDbLine
 10
8.158455150760651
 20
8.189028716189451
 30
0.0
 11
8.158455150760651
 21
7.76402873965878
 31
0.0
  0
ARC
  5
3A3
330
1F
100
AcDbEntity
  8
0
  6
Continuous
 62
     7
370
    15
100
AcDbCircle
 10
8.333455164730491
 20
8.189028740776366
 30
0.0
 40
0.1750000000000007
100
AcDbArc
 50
0.0
 51
180.0
  0
LINE
  5
3A4
330
1F
100
AcDbEntity
  8
0
  6
Continuous
 62
     7
370
    15
100
AcDbLine
 10
7.358455170970351
 20
7.76402873965878
 30
0.0
 11
7.708455158490629
 21
7.76402873965878
 31
0.0
  0
LINE
  5
3A5
330
1F
100
AcDbEntity
  8
0
  6
Continuous
 62
     7
370
    15
100
AcDbLine
 10
7.358455170970351
 20
8.189028716189451
 30
0.0
 11
7.358455170970351
 21
7.76402873965878
 31
0.0
  0
ARC
  5
3A6
330
1F
100
AcDbEntity
  8
0
  6
Continuous
 62
     7
370
    15
100
AcDbCircle
 10
7.53345516473049
 20
8.189028740776366
 30
0.0
 40
0.1750000000000007
100
AcDbArc
 50
0.0
 51
180.0
  0
LINE
  5
3A7
330
1F
100
AcDbEntity
  8
0
  6
Continuous
 62
     7
370
    15
100
AcDbLine
 10
7.708455158490629
 20
7.76402873965878
 30
0.0
 11
7.708455158490629
 21
8.189028716189451
 31
0.0
  0
LINE
  5
3A8
330
1F
100
AcDbEntity
  8
0
  6
Continuous
 62
     7
370
    15
100
AcDbLine
 10
6.558455191180051
 20
7.76402873965878
 30
0.0
 11
6.908455178700329
 21
7.76402873965878
 31
0.0
  0
LINE
  5
3A9
330
1F
100
AcDbEntity
  8
0
  6
Continuous
 62
     7
370
    15
100
AcDbLine
 10
6.558455191180051
 20
8.189028716189451
 30
0.0
 11
6.558455191180051
 21
7.76402873965878
 31
0.0
  0
ARC
  5
3AA
330
1F
100
AcDbEntity
  8
0
  6
Continuous
 62
     7
370
    15
100
AcDbCircle
 10
6.73345516473049
 20
8.189028740776366
 30
0.0
 40
0.1750000000000007
100
AcDbArc
 50
0.0
 51
180.0
  0
LINE
  5
3AB
330
1F
100
AcDbEntity
  8
0
  6
Continuous
 62
     7
370
    15
100
AcDbLine
 10
6.908455178700329
 20
7.76402873965878
 30
0.0
 11
6.908455178700329
 21
8.189028716189451
 31
0.0
  0
LINE
  5
3AC
330
1F
100
AcDbEntity
  8
0
  6
Continuous
 62
     7
370
    15
100
AcDbLine
 10
5.75845515318209
 20
7.76402873965878
 30
0.0
 11
6.108455140702368
 21
7.76402873965878
 31
0.0
  0
LINE
  5
3AD
330
1F
100
AcDbEntity
  8
0
  6
Continuous
 62
     7
370
    15
100
AcDbLine
 10
5.75845515318209
 20
8.189028716189451
 30
0.0
 11
5.75845515318209
 21
7.76402873965878
 31
0.0
  0
ARC
  5
3AE
330
1F
100
AcDbEntity
  8
0
  6
Continuous
 62
     7
370
    15
100
AcDbCircle
 10
5.93345516473049
 20
8.189028740776366
 30
0.0
 40
0.1750000000000007
100
AcDbArc
 50
0.0
 51
180.0
  0
LINE
  5
3AF
330
1F
100
AcDbEntity
  8
0
  6
Continuous
 62
     7
370
    15
100
AcDbLine
 10
6.108455140702368
 20
7.76402873965878
 30
0.0
 11
6.108455140702368
 21
8.189028716189451
 31
0.0
  0
LINE
  5
3B0
330
1F
100
AcDbEntity
  8
0
  6
Continuous
 62
     7
370
    15
100
AcDbLine
 10
4.958455115184129
 20
7.76402873965878
 30
0.0
 11
5.308455219119728
 21
7.76402873965878
 31
0.0
  0
LINE
  5
3B1
330
1F
100
AcDbEntity
  8
0
  6
Continuous
 62
     7
370
    15
100
AcDbLine
 10
5.308455219119728
 20
7.76402873965878
 30
0.0
 11
5.308455219119728
 21
8.189028716189451
 31
0.0
  0
ARC
  5
3B2
330
1F
100
AcDbEntity
  8
0
  6
Continuous
 62
     7
370
    15
100
AcDbCircle
 10
5.133455164730491
 20
8.189028740776366
 30
0.0
 40
0.1750000000000007
100
AcDbArc
 50
0.0
 51
180.0
  0
LINE
  5
3B3
330
1F
100
AcDbEntity
  8
0
  6
Continuous
 62
     7
370
    15
100
AcDbLine
 10
4.958455115184129
 20
8.189028716189451
 30
0.0
 11
4.958455115184129
 21
7.76402873965878
 31
0.0
  0
DIMENSION
  5
3B4
330
1F
100
AcDbEntity
  8
0
  6
Continuous
 62
     7
370
     0
100
AcDbDimension
280
     0
  2
*D6
 10
1.824013273441535
 20
14.96402874077635
 30
0.0
 11
1.824013273441547
 21
11.46402874077634
 31
0.0
 70
   160
 71
     2
 42
-1.0
 73
     0
 74
     0
 75
     0
  3
SLDDIMSTYLE0
100
AcDbAlignedDimension
 13
4.033455164730503
 23
7.964028740776354
 33
0.0
 14
4.033455164730478
 24
14.96402874077635
 34
0.0
 50
90.00000000000019
100
AcDbRotatedDimension
  0
DIMENSION
  5
3C0
330
1F
100
AcDbEntity
  8
0
  6
Continuous
 62
     7
370
     0
100
AcDbDimension
280
     0
  2
*D7
 10
1.222026822303657
 20
7.764028740776344
 30
0.0
 11
1.222026822303643
 21
11.46402874077634
 31
0.0
 70
   160
 71
     2
 42
-1.0
 73
     0
 74
     0
 75
     0
  3
SLDDIMSTYLE1
100
AcDbAlignedDimension
 13
4.958455164730477
 23
15.16402874077635
 33
0.0
 14
4.958455164730502
 24
7.764028740776358
 34
0.0
 50
90.00000000000019
100
AcDbRotatedDimension
  0
DIMENSION
  5
3CC
330
1F
100
AcDbEntity
  8
0
  6
Continuous
 62
     7
370
     0
100
AcDbDimension
280
     0
  2
*D8
 10
2.500121831397153
 20
9.064028740776326
 30
0.0
 11
2.500121831397134
 21
11.46402874077633
 31
0.0
 70
   160
 71
     2
 42
-1.0
 73
     0
 74
     0
 75
     0
  3
SLDDIMSTYLE2
100
AcDbAlignedDimension
 13
3.583455164730469
 23
13.86402874077633
 33
0.0
 14
3.583455164730503
 24
9.064028740776334
 34
0.0
 50
90.00000000000019
100
AcDbRotatedDimension
  0
DIMENSION
  5
3D8
330
1F
100
AcDbEntity
  8
0
  6
Continuous
 62
     7
370
     0
100
AcDbDimension
280
     0
  2
*D9
 10
3.000121831397136
 20
13.06402874077633
 30
0.0
 11
3.000121831397134
 21
13.46402874077633
 31
0.0
 70
   160
 71
     2
 42
-1.0
 73
     0
 74
     0
 75
     0
  3
SLDDIMSTYLE3
100
AcDbAlignedDimension
 13
3.583455164730469
 23
13.86402874077633
 33
0.0
 14
3.583455164730476
 24
13.06402874077633
 34
0.0
 50
90.00000000000019
100
AcDbRotatedDimension
  0
DIMENSION
  5
3E4
330
1F
100
AcDbEntity
  8
0
  6
Continuous
 62
     7
370
     0
100
AcDbDimension
280
     0
  2
*D10
 10
3.296028895572443
 20
8.889028740776337
 30
0.0
 11
3.296028895572447
 21
8.39924860923187
 31
0.0
 70
   160
 71
     2
 42
-1.0
 73
     0
 74
     0
 75
     0
  3
SLDDIMSTYLE4
100
AcDbAlignedDimension
 13
3.833455164730506
 23
9.23902874077634
 33
0.0
 14
3.833455164730508
 24
8.889028740776341
 34
0.0
 50
90.00000000000019
100
AcDbRotatedDimension
  0
DIMENSION
  5
3F1
330
1F
100
AcDbEntity
  8
0
  6
Continuous
 62
     7
370
     0
100
AcDbDimension
280
     0
  2
*D11
 10
11.03345516473047
 20
16.39917353766489
 30
0.0
 11
7.533455164730473
 21
16.39917353766488
 31
0.0
 70
   160
 71
     2
 42
-1.0
 73
     0
 74
     0
 75
     0
  3
SLDDIMSTYLE0
100
AcDbAlignedDimension
 13
4.033455164730478
 23
14.96402874077635
 33
0.0
 14
11.03345516473048
 24
14.96402874077638
 34
0.0
 50
0.0000000000001745
100
AcDbRotatedDimension
  0
DIMENSION
  5
3FC
330
1F
100
AcDbEntity
  8
0
  6
Continuous
 62
     7
370
     0
100
AcDbDimension
280
     0
  2
*D12
 10
9.933455164730471
 20
15.85356859009082
 30
0.0
 11
7.533455164730471
 21
15.85356859009081
 31
0.0
 70
   160
 71
     2
 42
-1.0
 73
     0
 74
     0
 75
     0
  3
SLDDIMSTYLE2
100
AcDbAlignedDimension
 13
5.133455164730472
 23
15.41402874077635
 33
0.0
 14
9.933455164730473
 24
15.41402874077637
 34
0.0
 50
0.0000000000002544
100
AcDbRotatedDimension
  0
DIMENSION
  5
407
330
1F
100
AcDbEntity
  8
0
  6
Continuous
 62
     7
370
     0
100
AcDbDimension
280
     0
  2
*D13
 10
11.23345516473041
 20
16.9122050555331
 30
0.0
 11
7.533455164730424
 21
16.91220505553305
 31
0.0
 70
   160
 71
     2
 42
-1.0
 73
     0
 74
     0
 75
     0
  3
SLDDIMSTYLE2
100
AcDbAlignedDimension
 13
3.833455164730472
 23
14.03902874077634
 33
0.0
 14
11.23345516473045
 24
14.03902874077641
 34
0.0
 50
0.0000000000007702
100
AcDbRotatedDimension
  0
DIMENSION
  5
412
330
1F
100
AcDbEntity
  8
0
  6
Continuous
 62
     7
370
     0
100
AcDbDimension
280
     0
  2
*D14
 10
15.80695419715939
 20
8.746028740776395
 30
0.0
 11
15.80695419715939
 21
11.46402874077639
 31
0.0
 70
   160
 71
     2
 42
-1.0
 73
     0
 74
     0
 75
     0
  3
SLDDIMSTYLE0
100
AcDbAlignedDimension
 13
10.25145516473048
 23
14.18202874077637
 33
0.0
 14
10.2514551647305
 24
8.746028740776376
 34
0.0
 50
90.00000000000019
100
AcDbRotatedDimension
  0
DIMENSION
  5
41D
330
1F
100
AcDbEntity
  8
0
  6
Continuous
 62
     7
370
     0
100
AcDbDimension
280
     0
  2
*D15
 10
14.97528849806386
 20
14.10702874077639
 30
0.0
 11
14.97528849806387
 21
11.46402874077639
 31
0.0
 70
   160
 71
     2
 42
-1.0
 73
     0
 74
     0
 75
     0
  3
SLDDIMSTYLE0
100
AcDbAlignedDimension
 13
10.1764551647305
 23
8.821028740776375
 33
0.0
 14
10.17645516473048
 24
14.10702874077637
 34
0.0
 50
90.00000000000019
100
AcDbRotatedDimension
  0
INSERT
  5
42D
102
{ACAD_REACTORS
330
42F
102
}
330
1F
100
AcDbEntity
  8
0
  6
Continuous
 62
     7
370
     0
100
AcDbBlockReference
  2
SW_NOTE_22
 10
11.91640517241379
 20
11.58291091954023
 30
0.0
  0
LEADER
  5
42F
330
1F
100
AcDbEntity
  8
0
  6
Continuous
 62
     7
370
     0
100
AcDbLeader
  3
SLDDIMSTYLE5
 73
     2
 76
     3
 10
10.17645516473049
 20
11.07887924300801
 30
0.0
 10
11.66640517241379
 20
11.58291091954023
 30
0.0
 10
11.91640517241379
 20
11.58291091954023
 30
0.0
340
42D
  0
INSERT
  5
436
102
{ACAD_REACTORS
330
437
102
}
330
1F
100
AcDbEntity
  8
0
  6
Continuous
 62
     7
370
     0
100
AcDbBlockReference
  2
SW_NOTE_23
 10
11.91640517241379
 20
12.71824712643678
 30
0.0
  0
LEADER
  5
437
330
1F
100
AcDbEntity
  8
0
  6
Continuous
 62
     7
370
     0
100
AcDbLeader
  3
SLDDIMSTYLE5
 73
     2
 76
     3
 10
10.25145516473049
 20
11.49456872275474
 30
0.0
 10
11.66640517241379
 20
12.71824712643678
 30
0.0
 10
11.91640517241379
 20
12.71824712643678
 30
0.0
340
436
  0
INSERT
  5
43D
102
{ACAD_REACTORS
330
43E
102
}
330
1F
100
AcDbEntity
  8
0
  6
Continuous
 62
     7
370
     0
100
AcDbBlockReference
  2
SW_NOTE_24
 10
11.91640517241379
 20
13.59301436781609
 30
0.0
  0
LEADER
  5
43E
330
1F
100
AcDbEntity
  8
0
  6
Continuous
 62
     7
370
     0
100
AcDbLeader
  3
SLDDIMSTYLE5
 73
     2
 76
     3
 10
9.093914409488377
 20
11.15074372642828
 30
0.0
 10
11.66640517241379
 20
13.59301436781609
 30
0.0
 10
11.91640517241379
 20
13.59301436781609
 30
0.0
340
43D
  0
MTEXT
  5
43F
330
1F
100
AcDbEntity
  8
0
  6
Continuous
 62
     7
370
     0
100
AcDbMText
 10
11.94363933340693
 20
14.62795015331536
 30
0.0
 40
0.2425347222222221
 41
0.0
 46
0.0
 71
     1
 72
     1
  1
PCB PAD
  7
SLDTEXTSTYLE0
 73
     1
 44
1.0
  0
LEADER
  5
449
330
1F
100
AcDbEntity
  8
0
  6
Continuous
 62
     7
370
     0
100
AcDbLeader
  3
SLDDIMSTYLE6
 76
     3
 10
11.13440969305999
 20
13.85396977827136
 30
0.0
 10
11.64779310344828
 20
14.52361781609195
 30
0.0
 10
11.89779310344827
 20
14.52361781609195
 30
0.0
  0
MTEXT
  5
44A
330
1F
100
AcDbEntity
  8
0
  6
Continuous
 62
     7
370
     0
100
AcDbMText
 10
12.01433335831648
 20
15.15772344837144
 30
0.0
 40
0.2425347222222221
 41
0.0
 46
0.0
 71
     1
 72
     1
  1
COMPONENT PAD
  7
SLDTEXTSTYLE0
 73
     1
 44
1.0
  0
LEADER
  5
44B
330
1F
100
AcDbEntity
  8
0
  6
Continuous
 62
     7
370
     0
100
AcDbLeader
  3
SLDDIMSTYLE6
 76
     3
 10
10.67168079105006
 20
14.01594338638687
 30
0.0
 10
11.72224137931035
 20
15.06336781609195
 30
0.0
 10
11.97224137931034
 20
15.06336781609195
 30
0.0
  0
INSERT
  5
451
102
{ACAD_REACTORS
330
452
102
}
330
1F
100
AcDbEntity
  8
0
  6
Continuous
 62
     7
370
     0
100
AcDbBlockReference
  2
SW_NOTE_25
 10
12.04668965517241
 20
15.90091091954023
 30
0.0
  0
LEADER
  5
452
330
1F
100
AcDbEntity
  8
0
  6
Continuous
 62
     7
370
     0
100
AcDbLeader
  3
SLDDIMSTYLE5
 73
     2
 76
     3
 10
10.68357144245604
 20
14.08060218307921
 30
0.0
 10
11.79668965517241
 20
15.90091091954023
 30
0.0
 10
12.04668965517241
 20
15.90091091954023
 30
0.0
340
451
  0
ARC
  5
453
330
1F
100
AcDbEntity
  8
0
  6
Continuous
 62
     7
370
     0
100
AcDbCircle
 10
9.531881366386427
 20
8.027969902361908
 30
0.0
 40
0.7868226227201714
100
AcDbArc
 50
298.7840628160673
 51
278.6468521122412
  0
SOLID
  5
454
330
1F
100
AcDbEntity
  8
0
  6
Continuous
 62
     7
370
     0
100
AcDbTrace
 10
9.910744252873564
 20
7.338366572275051
 30
0.0
 11
10.39346852006329
 21
7.571096216759154
 31
0.0
 12
10.29675540704162
 22
7.710093884176399
 32
0.0
 13
10.29675540704162
 23
7.710093884176399
 33
0.0
  0
SOLID
  5
455
330
1F
100
AcDbEntity
  8
0
  6
Continuous
 62
     7
370
     0
100
AcDbTrace
 10
9.650175287356324
 20
7.250090485044663
 30
0.0
 11
9.117711438466583
 21
7.310654956321787
 31
0.0
 12
9.125396226156203
 22
7.141496090707409
 32
0.0
 13
9.125396226156203
 23
7.141496090707409
 33
0.0
  0
MTEXT
  5
456
330
1F
100
AcDbEntity
  8
0
  6
Continuous
 62
     7
370
     0
100
AcDbMText
 10
9.650175287356324
 20
7.469643678160918
 30
-0.0000000000000534
 40
0.2645833333333333
 41
0.0
 46
0.0
 71
     1
 72
     1
  1
A
  7
SLDTEXTSTYLE0
 73
     1
 44
1.0
  0
LINE
  5
457
330
1F
100
AcDbEntity
  8
0
  6
CENTERX2
 62
     7
370
     0
100
AcDbLine
 10
3.583455164730469
 20
13.86402874077633
 30
0.0
 11
4.508455164730469
 21
13.86402874077634
 31
0.0
  0
LINE
  5
458
330
1F
100
AcDbEntity
  8
0
  6
CENTERX2
 62
     7
370
     0
100
AcDbLine
 10
3.583455164730474
 20
13.06402874077633
 30
0.0
 11
4.508455164730476
 21
13.06402874077634
 31
0.0
  0
LINE
  5
459
330
1F
100
AcDbEntity
  8
0
  6
CENTERX2
 62
     7
370
     0
100
AcDbLine
 10
3.583455164730502
 20
9.064028740776333
 30
0.0
 11
4.508455164730503
 21
9.064028740776342
 31
0.0
  0
LINE
  5
45A
330
1F
100
AcDbEntity
  8
0
  6
CENTERX2
 62
     7
370
     0
100
AcDbLine
 10
5.133455164730472
 20
15.41402874077635
 30
0.0
 11
5.133455164730476
 21
14.48902874077635
 31
0.0
  0
LINE
  5
45B
330
1F
100
AcDbEntity
  8
0
  6
CENTERX2
 62
     7
370
     0
100
AcDbLine
 10
9.933455164730476
 20
14.48902874077637
 30
0.0
 11
9.933455164730473
 21
15.41402874077637
 31
0.0
  0
LINE
  5
45C
330
1F
100
AcDbEntity
  8
0
  6
CENTERX2
 62
     7
100
AcDbLine
 10
16.43182382919221
 20
10.24172419449177
 30
0.0
 11
21.6599583222253
 21
10.24172419449179
 31
0.0
  0
LINE
  5
45D
330
1F
100
AcDbEntity
  8
0
  6
CENTERX2
 62
     7
100
AcDbLine
 10
18.93447074729033
 20
13.07523587485639
 30
0.0
 11
18.93447074729033
 21
12.84839130705086
 31
0.0
  0
LINE
  5
45E
330
1F
100
AcDbEntity
  8
0
  6
CENTERX2
 62
     7
100
AcDbLine
 10
18.33447044715611
 20
12.84839130705086
 30
0.0
 11
18.33447044715611
 21
12.9792739489723
 31
0.0
  0
LINE
  5
45F
330
1F
100
AcDbEntity
  8
0
  6
CENTERX2
 62
     7
100
AcDbLine
 10
17.9736073967102
 20
12.84839130705085
 30
0.0
 11
18.33447044715611
 21
12.84839130705086
 31
0.0
  0
LINE
  5
460
330
1F
100
AcDbEntity
  8
0
  6
CENTERX2
 62
     7
100
AcDbLine
 10
18.93447074729033
 20
12.84839130705086
 30
0.0
 11
20.1181747547073
 21
12.84839130705086
 31
0.0
  0
LINE
  5
461
330
1F
100
AcDbEntity
  8
0
  6
CENTERX2
 62
     7
100
AcDbLine
 10
18.55113721142539
 20
9.325057532792166
 30
0.0
 11
18.55113721142539
 21
10.99172447264679
 31
0.0
  0
LINE
  5
462
330
1F
100
AcDbEntity
  8
0
  6
CENTERX2
 62
     7
100
AcDbLine
 10
16.88447065962184
 20
10.99172447264678
 30
0.0
 11
16.88447065962185
 21
9.325057532792161
 31
0.0
  0
LINE
  5
463
330
1F
100
AcDbEntity
  8
0
  6
CENTERX2
 62
     7
100
AcDbLine
 10
16.88447065962185
 20
9.325057532792161
 30
0.0
 11
18.55113721142539
 21
9.325057532792166
 31
0.0
  0
LINE
  5
464
330
1F
100
AcDbEntity
  8
0
  6
CENTERX2
 62
     7
100
AcDbLine
 10
21.21780361670086
 20
9.325057532792175
 30
0.0
 11
21.21780361670085
 21
10.99172447264679
 31
0.0
  0
LINE
  5
465
330
1F
100
AcDbEntity
  8
0
  6
CENTERX2
 62
     7
100
AcDbLine
 10
19.55113745294838
 20
10.99172447264679
 30
0.0
 11
19.55113745294838
 21
9.32505753279217
 31
0.0
  0
LINE
  5
466
330
1F
100
AcDbEntity
  8
0
  6
CENTERX2
 62
     7
100
AcDbLine
 10
19.55113745294838
 20
9.32505753279217
 30
0.0
 11
21.21780361670086
 21
9.325057532792175
 31
0.0
  0
LINE
  5
467
330
1F
100
AcDbEntity
  8
0
  6
CENTERX2
 62
     7
100
AcDbLine
 10
18.55113721142539
 20
10.99172447264679
 30
0.0
 11
18.54657217860548
 21
11.07883184915272
 31
0.0
  0
LINE
  5
468
330
1F
100
AcDbEntity
  8
0
  6
CENTERX2
 62
     7
100
AcDbLine
 10
18.54657217860548
 20
11.07883184915272
 30
0.0
 11
18.53292675068307
 21
11.16498462001967
 31
0.0
  0
LINE
  5
469
330
1F
100
AcDbEntity
  8
0
  6
CENTERX2
 62
     7
100
AcDbLine
 10
18.53292675068307
 20
11.16498462001967
 30
0.0
 11
18.51035110342332
 21
11.24923904503869
 31
0.0
  0
LINE
  5
46A
330
1F
100
AcDbEntity
  8
0
  6
CENTERX2
 62
     7
100
AcDbLine
 10
18.51035110342332
 20
11.24923904503869
 30
0.0
 11
18.47909164925743
 21
11.33067156265664
 31
0.0
  0
LINE
  5
46B
330
1F
100
AcDbEntity
  8
0
  6
CENTERX2
 62
     7
100
AcDbLine
 10
18.47909164925743
 20
11.33067156265664
 30
0.0
 11
18.43949181338478
 21
11.40839120761044
 31
0.0
  0
LINE
  5
46C
330
1F
100
AcDbEntity
  8
0
  6
CENTERX2
 62
     7
100
AcDbLine
 10
18.43949181338478
 20
11.40839120761044
 30
0.0
 11
18.39198466080256
 21
11.48154581974434
 31
0.0
  0
LINE
  5
46D
330
1F
100
AcDbEntity
  8
0
  6
CENTERX2
 62
     7
100
AcDbLine
 10
18.39198466080256
 20
11.48154581974434
 30
0.0
 11
18.33709134410151
 21
11.54933368554202
 31
0.0
  0
LINE
  5
46E
330
1F
100
AcDbEntity
  8
0
  6
CENTERX2
 62
     7
100
AcDbLine
 10
18.33709134410151
 20
11.54933368554202
 30
0.0
 11
18.27541256634224
 21
11.61101207525022
 31
0.0
  0
LINE
  5
46F
330
1F
100
AcDbEntity
  8
0
  6
CENTERX2
 62
     7
100
AcDbLine
 10
18.27541256634224
 20
11.61101207525022
 30
0.0
 11
18.20762508859563
 21
11.6659050039002
 31
0.0
  0
LINE
  5
470
330
1F
100
AcDbEntity
  8
0
  6
CENTERX2
 62
     7
100
AcDbLine
 10
18.20762508859563
 20
11.6659050039002
 30
0.0
 11
18.13447047646173
 21
11.71341254453349
 31
0.0
  0
LINE
  5
471
330
1F
100
AcDbEntity
  8
0
  6
CENTERX2
 62
     7
100
AcDbLine
 10
18.13447047646173
 20
11.71341254453349
 30
0.0
 11
18.056751219559
 21
11.75301238040614
 31
0.0
  0
LINE
  5
472
330
1F
100
AcDbEntity
  8
0
  6
CENTERX2
 62
     7
100
AcDbLine
 10
18.056751219559
 20
11.75301238040614
 30
0.0
 11
17.97531792583891
 21
11.78427144652096
 31
0.0
  0
LINE
  5
473
330
1F
100
AcDbEntity
  8
0
  6
CENTERX2
 62
     7
100
AcDbLine
 10
17.97531792583891
 20
11.78427144652096
 30
0.0
 11
17.89106350081988
 21
11.80684748183178
 31
0.0
  0
LINE
  5
474
330
1F
100
AcDbEntity
  8
0
  6
CENTERX2
 62
     7
100
AcDbLine
 10
17.89106350081988
 20
11.80684748183178
 30
0.0
 11
17.804911118004
 21
11.82049290975419
 31
0.0
  0
LINE
  5
475
330
1F
100
AcDbEntity
  8
0
  6
CENTERX2
 62
     7
100
AcDbLine
 10
17.804911118004
 20
11.82049290975419
 30
0.0
 11
17.71780374149807
 21
11.82505794257409
 31
0.0
  0
LINE
  5
476
330
1F
100
AcDbEntity
  8
0
  6
CENTERX2
 62
     7
100
AcDbLine
 10
17.71780374149807
 20
11.82505794257409
 30
0.0
 11
17.63069675304322
 21
11.82049290975419
 31
0.0
  0
LINE
  5
477
330
1F
100
AcDbEntity
  8
0
  6
CENTERX2
 62
     7
100
AcDbLine
 10
17.63069675304322
 20
11.82049290975419
 30
0.0
 11
17.54454398217626
 21
11.80684748183178
 31
0.0
  0
LINE
  5
478
330
1F
100
AcDbEntity
  8
0
  6
CENTERX2
 62
     7
100
AcDbLine
 10
17.54454398217626
 20
11.80684748183178
 30
0.0
 11
17.46028955715724
 21
11.78427144652095
 31
0.0
  0
LINE
  5
479
330
1F
100
AcDbEntity
  8
0
  6
CENTERX2
 62
     7
100
AcDbLine
 10
17.46028955715724
 20
11.78427144652095
 30
0.0
 11
17.37885665148823
 21
11.75301238040613
 31
0.0
  0
LINE
  5
47A
330
1F
100
AcDbEntity
  8
0
  6
CENTERX2
 62
     7
100
AcDbLine
 10
17.37885665148823
 20
11.75301238040613
 30
0.0
 11
17.30113739458549
 21
11.71341254453348
 31
0.0
  0
LINE
  5
47B
330
1F
100
AcDbEntity
  8
0
  6
CENTERX2
 62
     7
100
AcDbLine
 10
17.30113739458549
 20
11.71341254453348
 30
0.0
 11
17.22798278245159
 21
11.6659050039002
 31
0.0
  0
LINE
  5
47C
330
1F
100
AcDbEntity
  8
0
  6
CENTERX2
 62
     7
100
AcDbLine
 10
17.22798278245159
 20
11.6659050039002
 30
0.0
 11
17.16019491665391
 21
11.61101207525022
 31
0.0
  0
LINE
  5
47D
330
1F
100
AcDbEntity
  8
0
  6
CENTERX2
 62
     7
100
AcDbLine
 10
17.16019491665391
 20
11.61101207525022
 30
0.0
 11
17.09851652694571
 21
11.54933368554202
 31
0.0
  0
LINE
  5
47E
330
1F
100
AcDbEntity
  8
0
  6
CENTERX2
 62
     7
100
AcDbLine
 10
17.09851652694571
 20
11.54933368554202
 30
0.0
 11
17.04362321024466
 21
11.48154581974434
 31
0.0
  0
LINE
  5
47F
330
1F
100
AcDbEntity
  8
0
  6
CENTERX2
 62
     7
100
AcDbLine
 10
17.04362321024466
 20
11.48154581974434
 30
0.0
 11
16.99611605766245
 21
11.40839120761044
 31
0.0
  0
LINE
  5
480
330
1F
100
AcDbEntity
  8
0
  6
CENTERX2
 62
     7
100
AcDbLine
 10
16.99611605766245
 20
11.40839120761044
 30
0.0
 11
16.95651583373873
 21
11.33067156265663
 31
0.0
  0
LINE
  5
481
330
1F
100
AcDbEntity
  8
0
  6
CENTERX2
 62
     7
100
AcDbLine
 10
16.95651583373873
 20
11.33067156265663
 30
0.0
 11
16.92525676762391
 21
11.24923904503869
 31
0.0
  0
LINE
  5
482
330
1F
100
AcDbEntity
  8
0
  6
CENTERX2
 62
     7
100
AcDbLine
 10
16.92525676762391
 20
11.24923904503869
 30
0.0
 11
16.90268073231308
 21
11.16498462001966
 31
0.0
  0
LINE
  5
483
330
1F
100
AcDbEntity
  8
0
  6
CENTERX2
 62
     7
100
AcDbLine
 10
16.90268073231308
 20
11.16498462001966
 30
0.0
 11
16.88903569244175
 21
11.07883184915271
 31
0.0
  0
LINE
  5
484
330
1F
100
AcDbEntity
  8
0
  6
CENTERX2
 62
     7
100
AcDbLine
 10
16.88903569244175
 20
11.07883184915271
 30
0.0
 11
16.88447065962184
 21
10.99172447264678
 31
0.0
  0
LINE
  5
485
330
1F
100
AcDbEntity
  8
0
  6
CENTERX2
 62
     7
100
AcDbLine
 10
21.21780361670085
 20
10.99172447264679
 30
0.0
 11
21.21323858388095
 21
11.07883184915273
 31
0.0
  0
LINE
  5
486
330
1F
100
AcDbEntity
  8
0
  6
CENTERX2
 62
     7
100
AcDbLine
 10
21.21323858388095
 20
11.07883184915273
 30
0.0
 11
21.19959315595854
 21
11.16498462001968
 31
0.0
  0
LINE
  5
487
330
1F
100
AcDbEntity
  8
0
  6
CENTERX2
 62
     7
100
AcDbLine
 10
21.19959315595854
 20
11.16498462001968
 30
0.0
 11
21.17701789674986
 21
11.2492390450387
 31
0.0
  0
LINE
  5
488
330
1F
100
AcDbEntity
  8
0
  6
CENTERX2
 62
     7
100
AcDbLine
 10
21.17701789674986
 20
11.2492390450387
 30
0.0
 11
21.14575805453289
 21
11.33067156265664
 31
0.0
  0
LINE
  5
489
330
1F
100
AcDbEntity
  8
0
  6
CENTERX2
 62
     7
100
AcDbLine
 10
21.14575805453289
 20
11.33067156265664
 30
0.0
 11
21.10615821866024
 21
11.40839120761045
 31
0.0
  0
LINE
  5
48A
330
1F
100
AcDbEntity
  8
0
  6
CENTERX2
 62
     7
100
AcDbLine
 10
21.10615821866024
 20
11.40839120761045
 30
0.0
 11
21.05865145412911
 21
11.48154581974435
 31
0.0
  0
LINE
  5
48B
330
1F
100
AcDbEntity
  8
0
  6
CENTERX2
 62
     7
100
AcDbLine
 10
21.05865145412911
 20
11.48154581974435
 30
0.0
 11
21.00375774937698
 21
11.54933368554203
 31
0.0
  0
LINE
  5
48C
330
1F
100
AcDbEntity
  8
0
  6
CENTERX2
 62
     7
100
AcDbLine
 10
21.00375774937698
 20
11.54933368554203
 30
0.0
 11
20.94207935966878
 21
11.61101207525023
 31
0.0
  0
LINE
  5
48D
330
1F
100
AcDbEntity
  8
0
  6
CENTERX2
 62
     7
100
AcDbLine
 10
20.94207935966878
 20
11.61101207525023
 30
0.0
 11
20.8742914938711
 21
11.66590500390021
 31
0.0
  0
LINE
  5
48E
330
1F
100
AcDbEntity
  8
0
  6
CENTERX2
 62
     7
100
AcDbLine
 10
20.8742914938711
 20
11.66590500390021
 30
0.0
 11
20.8011368817372
 21
11.71341254453349
 31
0.0
  0
LINE
  5
48F
330
1F
100
AcDbEntity
  8
0
  6
CENTERX2
 62
     7
100
AcDbLine
 10
20.8011368817372
 20
11.71341254453349
 30
0.0
 11
20.72341801288553
 21
11.75301238040614
 31
0.0
  0
LINE
  5
490
330
1F
100
AcDbEntity
  8
0
  6
CENTERX2
 62
     7
100
AcDbLine
 10
20.72341801288553
 20
11.75301238040614
 30
0.0
 11
20.64198471916545
 21
11.78427144652096
 31
0.0
  0
LINE
  5
491
330
1F
100
AcDbEntity
  8
0
  6
CENTERX2
 62
     7
100
AcDbLine
 10
20.64198471916545
 20
11.78427144652096
 30
0.0
 11
20.55773029414642
 21
11.80684748183179
 31
0.0
  0
LINE
  5
492
330
1F
100
AcDbEntity
  8
0
  6
CENTERX2
 62
     7
100
AcDbLine
 10
20.55773029414642
 20
11.80684748183179
 30
0.0
 11
20.47157752327947
 21
11.8204929097542
 31
0.0
  0
LINE
  5
493
330
1F
100
AcDbEntity
  8
0
  6
CENTERX2
 62
     7
100
AcDbLine
 10
20.47157752327947
 20
11.8204929097542
 30
0.0
 11
20.38447092287569
 21
11.8250579425741
 31
0.0
  0
LINE
  5
494
330
1F
100
AcDbEntity
  8
0
  6
CENTERX2
 62
     7
100
AcDbLine
 10
20.38447092287569
 20
11.8250579425741
 30
0.0
 11
20.29736354636975
 21
11.8204929097542
 31
0.0
  0
LINE
  5
495
330
1F
100
AcDbEntity
  8
0
  6
CENTERX2
 62
     7
100
AcDbLine
 10
20.29736354636975
 20
11.8204929097542
 30
0.0
 11
20.2112107755028
 21
11.80684748183179
 31
0.0
  0
LINE
  5
496
330
1F
100
AcDbEntity
  8
0
  6
CENTERX2
 62
     7
100
AcDbLine
 10
20.2112107755028
 20
11.80684748183179
 30
0.0
 11
20.12695635048378
 21
11.78427144652096
 31
0.0
  0
LINE
  5
497
330
1F
100
AcDbEntity
  8
0
  6
CENTERX2
 62
     7
100
AcDbLine
 10
20.12695635048378
 20
11.78427144652096
 30
0.0
 11
20.04552305676369
 21
11.75301238040614
 31
0.0
  0
LINE
  5
498
330
1F
100
AcDbEntity
  8
0
  6
CENTERX2
 62
     7
100
AcDbLine
 10
20.04552305676369
 20
11.75301238040614
 30
0.0
 11
19.96780418791203
 21
11.71341254453349
 31
0.0
  0
LINE
  5
499
330
1F
100
AcDbEntity
  8
0
  6
CENTERX2
 62
     7
100
AcDbLine
 10
19.96780418791203
 20
11.71341254453349
 30
0.0
 11
19.89464957577813
 21
11.66590500390021
 31
0.0
  0
LINE
  5
49A
330
1F
100
AcDbEntity
  8
0
  6
CENTERX2
 62
     7
100
AcDbLine
 10
19.89464957577813
 20
11.66590500390021
 30
0.0
 11
19.82686170998045
 21
11.61101207525023
 31
0.0
  0
LINE
  5
49B
330
1F
100
AcDbEntity
  8
0
  6
CENTERX2
 62
     7
100
AcDbLine
 10
19.82686170998045
 20
11.61101207525023
 30
0.0
 11
19.76518332027225
 21
11.54933368554202
 31
0.0
  0
LINE
  5
49C
330
1F
100
AcDbEntity
  8
0
  6
CENTERX2
 62
     7
100
AcDbLine
 10
19.76518332027225
 20
11.54933368554202
 30
0.0
 11
19.71028961552012
 21
11.48154581974435
 31
0.0
  0
LINE
  5
49D
330
1F
100
AcDbEntity
  8
0
  6
CENTERX2
 62
     7
100
AcDbLine
 10
19.71028961552012
 20
11.48154581974435
 30
0.0
 11
19.66278285098899
 21
11.40839120761045
 31
0.0
  0
LINE
  5
49E
330
1F
100
AcDbEntity
  8
0
  6
CENTERX2
 62
     7
100
AcDbLine
 10
19.66278285098899
 20
11.40839120761045
 30
0.0
 11
19.62318301511634
 21
11.33067156265664
 31
0.0
  0
LINE
  5
49F
330
1F
100
AcDbEntity
  8
0
  6
CENTERX2
 62
     7
100
AcDbLine
 10
19.62318301511634
 20
11.33067156265664
 30
0.0
 11
19.59192317289937
 21
11.2492390450387
 31
0.0
  0
LINE
  5
4A0
330
1F
100
AcDbEntity
  8
0
  6
CENTERX2
 62
     7
100
AcDbLine
 10
19.59192317289937
 20
11.2492390450387
 30
0.0
 11
19.56934791369069
 21
11.16498462001967
 31
0.0
  0
LINE
  5
4A1
330
1F
100
AcDbEntity
  8
0
  6
CENTERX2
 62
     7
100
AcDbLine
 10
19.56934791369069
 20
11.16498462001967
 30
0.0
 11
19.55570248576828
 21
11.07883184915272
 31
0.0
  0
LINE
  5
4A2
330
1F
100
AcDbEntity
  8
0
  6
CENTERX2
 62
     7
100
AcDbLine
 10
19.55570248576828
 20
11.07883184915272
 30
0.0
 11
19.55113745294838
 21
10.99172447264679
 31
0.0
  0
CIRCLE
  5
4A3
330
1F
100
AcDbEntity
  8
0
  6
Continuous
 62
     7
370
     0
100
AcDbCircle
 10
19.04589104880618
 20
10.45484002299415
 30
0.0
 40
2.622741775493672
  0
LINE
  5
4A4
330
1F
100
AcDbEntity
  8
0
  6
Continuous
 62
     7
370
    15
100
AcDbLine
 10
18.93447090251073
 20
13.07523618529722
 30
0.0
 11
18.93447090251073
 21
12.84839146227127
 31
0.0
  0
LINE
  5
4A5
330
1F
100
AcDbEntity
  8
0
  6
Continuous
 62
     7
370
    15
100
AcDbLine
 10
18.33447067998672
 20
12.84839146227127
 30
0.0
 11
18.33447067998672
 21
12.97927394897228
 31
0.0
  0
LINE
  5
4A6
330
1F
100
AcDbEntity
  8
0
  6
Continuous
 62
     7
370
    15
100
AcDbLine
 10
17.97360739671016
 20
12.84839146227127
 30
0.0
 11
18.33447067998672
 21
12.84839146227127
 31
0.0
  0
LINE
  5
4A7
330
1F
100
AcDbEntity
  8
0
  6
Continuous
 62
     7
370
    15
100
AcDbLine
 10
18.93447090251073
 20
12.84839146227127
 30
0.0
 11
20.11817444426641
 21
12.84839146227127
 31
0.0
  0
LINE
  5
4A8
330
1F
100
AcDbEntity
  8
0
  6
Continuous
 62
     7
370
    15
100
AcDbLine
 10
18.3011374032778
 20
11.5750574359346
 30
0.0
 11
18.3011374032778
 21
10.24172450493261
 31
0.0
  0
LINE
  5
4A9
330
1F
100
AcDbEntity
  8
0
  6
Continuous
 62
     7
370
    15
100
AcDbLine
 10
17.13447054537956
 20
10.24172450493261
 30
0.0
 11
17.13447054537956
 21
11.5750574359346
 31
0.0
  0
LINE
  5
4AA
330
1F
100
AcDbEntity
  8
0
  6
Continuous
 62
     7
370
    15
100
AcDbLine
 10
17.13447054537956
 20
10.24172450493261
 30
0.0
 11
18.3011374032778
 21
10.24172450493261
 31
0.0
  0
LINE
  5
4AB
330
1F
100
AcDbEntity
  8
0
  6
Continuous
 62
     7
370
    15
100
AcDbLine
 10
17.13447054537956
 20
11.5750574359346
 30
0.0
 11
18.3011374032778
 21
11.5750574359346
 31
0.0
  0
LINE
  5
4AC
330
1F
100
AcDbEntity
  8
0
  6
Continuous
 62
     7
370
    15
100
AcDbLine
 10
19.8011373387061
 20
11.5750574359346
 30
0.0
 11
20.96780388616348
 21
11.5750574359346
 31
0.0
  0
LINE
  5
4AD
330
1F
100
AcDbEntity
  8
0
  6
Continuous
 62
     7
370
    15
100
AcDbLine
 10
20.96780388616348
 20
11.5750574359346
 30
0.0
 11
20.96780388616348
 21
10.24172450493261
 31
0.0
  0
LINE
  5
4AE
330
1F
100
AcDbEntity
  8
0
  6
Continuous
 62
     7
370
    15
100
AcDbLine
 10
19.8011373387061
 20
10.24172450493261
 30
0.0
 11
20.96780388616348
 21
10.24172450493261
 31
0.0
  0
LINE
  5
4AF
330
1F
100
AcDbEntity
  8
0
  6
Continuous
 62
     7
370
    15
100
AcDbLine
 10
19.8011373387061
 20
10.24172450493261
 30
0.0
 11
19.8011373387061
 21
11.5750574359346
 31
0.0
  0
LINE
  5
4B0
330
1F
100
AcDbEntity
  8
0
  6
Continuous
 62
     7
370
    15
100
AcDbLine
 10
19.8011373387061
 20
10.99172478308762
 30
0.0
 11
19.8011373387061
 21
9.575057728990767
 31
0.0
  0
ARC
  5
4B1
330
1F
100
AcDbEntity
  8
0
  6
Continuous
 62
     7
370
    15
100
AcDbCircle
 10
20.38447053482458
 20
10.99172442333664
 30
0.0
 40
0.5833335065593368
100
AcDbArc
 50
0.0000048433051819
 51
179.9999951566948
  0
LINE
  5
4B2
330
1F
100
AcDbEntity
  8
0
  6
Continuous
 62
     7
370
    15
100
AcDbLine
 10
20.96780388616348
 20
9.575057728990767
 30
0.0
 11
20.96780388616348
 21
10.99172478308762
 31
0.0
  0
LINE
  5
4B3
330
1F
100
AcDbEntity
  8
0
  6
Continuous
 62
     7
370
    15
100
AcDbLine
 10
19.8011373387061
 20
9.575057728990767
 30
0.0
 11
20.96780388616348
 21
9.575057728990767
 31
0.0
  0
LINE
  5
4B4
330
1F
100
AcDbEntity
  8
0
  6
Continuous
 62
     7
370
    15
100
AcDbLine
 10
17.13447054537956
 20
9.575057728990767
 30
0.0
 11
18.3011374032778
 21
9.575057728990767
 31
0.0
  0
LINE
  5
4B5
330
1F
100
AcDbEntity
  8
0
  6
Continuous
 62
     7
370
    15
100
AcDbLine
 10
17.13447054537956
 20
10.99172478308762
 30
0.0
 11
17.13447054537956
 21
9.575057728990767
 31
0.0
  0
LINE
  5
4B6
330
1F
100
AcDbEntity
  8
0
  6
Continuous
 62
     7
370
    15
100
AcDbLine
 10
18.3011374032778
 20
9.575057728990767
 30
0.0
 11
18.3011374032778
 21
10.99172478308762
 31
0.0
  0
ARC
  5
4B7
330
1F
100
AcDbEntity
  8
0
  6
Continuous
 62
     7
370
    15
100
AcDbCircle
 10
17.71780393552357
 20
10.9917246388238
 30
0.0
 40
0.5833333125338195
100
AcDbArc
 50
359.9999836778693
 51
180.0000163221323
  0
DIMENSION
  5
4B8
330
1F
100
AcDbEntity
  8
0
  6
Continuous
 62
     7
370
     0
100
AcDbDimension
280
     0
  2
*D21
 10
22.15501961045108
 20
11.57505788793652
 30
0.0
 11
22.15501961045109
 21
10.57505788793652
 31
0.0
 70
   160
 71
     2
 42
-1.0
 73
     0
 74
     0
 75
     0
  3
SLDDIMSTYLE7
100
AcDbAlignedDimension
 13
20.9678038762294
 23
9.575057887936518
 33
0.0
 14
20.38447054289606
 24
11.57505788793651
 34
0.0
 50
90.00000000000019
100
AcDbRotatedDimension
  0
DIMENSION
  5
4C4
330
1F
100
AcDbEntity
  8
0
  6
Continuous
 62
     7
370
     0
100
AcDbDimension
280
     0
  2
*D22
 10
21.31738103925821
 20
9.57505788793652
 30
0.0
 11
21.31738103925822
 21
9.028127774114091
 31
0.0
 70
   160
 71
     2
 42
-1.0
 73
     0
 74
     0
 75
     0
  3
SLDDIMSTYLE7
100
AcDbAlignedDimension
 13
21.65995832222525
 23
10.24172455460318
 33
0.0
 14
20.9678038762294
 24
9.575057887936518
 34
0.0
 50
90.00000000000019
100
AcDbRotatedDimension
  0
DIMENSION
  5
4CF
330
1F
100
AcDbEntity
  8
0
  6
Continuous
 62
     7
370
     0
100
AcDbDimension
280
     0
  2
*D23
 10
20.9678038762294
 20
8.395391281531573
 30
0.0
 11
21.4525542530229
 21
8.395391281531574
 31
0.0
 70
   160
 71
     2
 42
-1.0
 73
     0
 74
     0
 75
     0
  3
SLDDIMSTYLE8
100
AcDbAlignedDimension
 13
19.80113720956273
 23
9.575057887936511
 33
0.0
 14
20.9678038762294
 24
9.575057887936516
 34
0.0
 50
0.0000000000001745
100
AcDbRotatedDimension
  0
DIMENSION
  5
4DB
330
1F
100
AcDbEntity
  8
0
  6
Continuous
 62
     7
370
     0
100
AcDbDimension
280
     0
  2
*D24
 10
20.38447054289605
 20
13.43603030771518
 30
0.0
 11
19.05113720956272
 21
13.43603030771518
 31
0.0
 70
   160
 71
     2
 42
-1.0
 73
     0
 74
     0
 75
     0
  3
SLDDIMSTYLE7
100
AcDbAlignedDimension
 13
17.71780387622939
 23
11.24172455460318
 33
0.0
 14
20.38447054289606
 24
11.24172455460319
 34
0.0
 50
0.0000000000001527
100
AcDbRotatedDimension
  0
DIMENSION
  5
4E6
330
1F
100
AcDbEntity
  8
0
  6
Continuous
 62
     7
370
     0
100
AcDbDimension
280
     0
  2
*D25
 10
16.58807110869682
 20
9.5750578879365
 30
0.0
 11
16.58807110869683
 21
8.113491627304819
 31
0.0
 70
   160
  1
0.060~<>\PMASK OPENING
 71
     2
 42
-1.0
 73
     0
 74
     0
 75
     0
  3
SLDDIMSTYLE9
100
AcDbAlignedDimension
 13
16.88447054289606
 23
9.325057887936504
 33
0.0
 14
17.13447054289606
 24
9.575057887936502
 34
0.0
 50
90.00000000000019
100
AcDbRotatedDimension
  0
DIMENSION
  5
4F5
330
1F
100
AcDbEntity
  8
0
  6
Continuous
 62
     7
370
     0
100
AcDbDimension
280
     0
  2
*D26
 10
19.55113720956273
 20
7.398387954800572
 30
0.0
 11
15.19000783117361
 21
7.398387954800561
 31
0.0
 70
   160
  1
0.285~<> MIN.
 71
     2
 42
-1.0
 73
     0
 74
     0
 75
     0
  3
SLDDIMSTYLE10
100
AcDbAlignedDimension
 13
18.55113720956273
 23
9.325057887936509
 33
0.0
 14
19.55113720956273
 24
9.325057887936511
 34
0.0
 50
0.0000000000001527
100
AcDbRotatedDimension
  0
DIMENSION
  5
503
330
1F
100
AcDbEntity
  8
0
  6
Continuous
 62
     7
370
     0
100
AcDbDimension
280
     0
  2
*D27
 10
17.71780387622939
 20
10.99172455460317
 30
0.0
 11
16.52158644564834
 21
12.6367081587075
 31
0.0
 70
   164
  1
<>
 42
-1.0
 73
     0
 74
     0
 75
     0
  3
SLDDIMSTYLE11
100
AcDbRadialDimension
 15
17.56356810017884
 25
11.55429819703931
 35
0.0
 40
0.0
  0
INSERT
  5
512
330
1F
100
AcDbEntity
  8
0
  6
Continuous
 62
     7
370
     0
100
AcDbBlockReference
  2
SW_NOTE_26
 10
18.24518486011493
 20
6.654897308200593
 30
0.0
  0
LINE
  5
513
330
1F
100
AcDbEntity
  8
0
  6
CENTERX2
 62
     7
370
     0
100
AcDbLine
 10
17.71780374149804
 20
9.32505753279215
 30
0.0
 11
17.71780374149804
 21
11.24172482406582
 31
0.0
  0
LINE
  5
514
330
1F
100
AcDbEntity
  8
0
  6
CENTERX2
 62
     7
370
     0
100
AcDbLine
 10
20.38447092287565
 20
9.32505753279215
 30
0.0
 11
20.38447092287565
 21
11.24172482406582
 31
0.0
  0
ENDSEC
  0
SECTION
  2
OBJECTS
  0
DICTIONARY
  5
C
330
0
100
AcDbDictionary
281
     1
  3
ACAD_COLOR
350
525
  3
ACAD_GROUP
350
D
  3
ACAD_IMAGE_DICT
350
54
  3
ACAD_IMAGE_VARS
350
52E
  3
ACAD_LAYOUT
350
1A
  3
ACAD_MATERIAL
350
3B
  3
ACAD_MLEADERSTYLE
350
518
  3
ACAD_MLINESTYLE
350
17
  3
ACAD_PLOTSETTINGS
350
19
  3
ACAD_PLOTSTYLENAME
350
E
  3
ACAD_SCALELIST
350
69
  3
ACAD_TABLESTYLE
350
517
  3
ACAD_VISUALSTYLE
350
2A
  3
ACDB_RECOMPOSE_DATA
350
533
  3
AcDbVariableDictionary
350
515
  0
IMAGEDEF_REACTOR
  5
57
330
56
100
AcDbRasterImageDefReactor
 90
        2
330
56
  0
DICTIONARY
  5
525
102
{ACAD_REACTORS
330
C
102
}
330
C
100
AcDbDictionary
281
     1
  0
DICTIONARY
  5
D
102
{ACAD_REACTORS
330
C
102
}
330
C
100
AcDbDictionary
281
     1
  0
DICTIONARY
  5
54
102
{ACAD_REACTORS
330
C
102
}
330
C
100
AcDbDictionary
281
     1
  3
D:\Clients-Customers\Promex Industries\Single Package Rows\235-00154\dxf1844.bmp
350
55
  0
RASTERVARIABLES
  5
52E
102
{ACAD_REACTORS
330
C
102
}
330
C
100
AcDbRasterVariables
 90
        0
 70
     1
 71
     1
 72
     1
  0
DICTIONARY
  5
1A
102
{ACAD_REACTORS
330
C
102
}
330
C
100
AcDbDictionary
281
     1
  3
Layout1
350
1E
  3
Layout2
350
26
  3
Model
350
22
  0
DICTIONARY
  5
3B
102
{ACAD_REACTORS
330
C
102
}
330
C
100
AcDbDictionary
281
     1
  3
ByBlock
350
3D
  3
ByLayer
350
3C
  3
Global
350
3E
  0
DICTIONARY
  5
518
102
{ACAD_REACTORS
330
C
102
}
330
C
100
AcDbDictionary
281
     1
  3
Standard
350
527
  0
DICTIONARY
  5
17
102
{ACAD_REACTORS
330
C
102
}
330
C
100
AcDbDictionary
281
     1
  3
Standard
350
18
  0
DICTIONARY
  5
19
102
{ACAD_REACTORS
330
C
102
}
330
C
100
AcDbDictionary
281
     1
  0
ACDBDICTIONARYWDFLT
  5
E
102
{ACAD_REACTORS
330
C
102
}
330
C
100
AcDbDictionary
281
     1
  3
Normal
350
F
100
AcDbDictionaryWithDefault
340
F
  0
DICTIONARY
  5
69
102
{ACAD_REACTORS
330
C
102
}
330
C
100
AcDbDictionary
281
     1
  3
A0
350
6A
  3
A1
350
6B
  3
A2
350
6C
  3
A3
350
6D
  3
A4
350
6E
  3
A5
350
6F
  3
A6
350
70
  3
A7
350
71
  3
A8
350
72
  3
A9
350
73
  3
B0
350
74
  3
B1
350
75
  3
B2
350
76
  3
B3
350
77
  3
B4
350
78
  3
B5
350
79
  3
B6
350
7A
  3
B7
350
7B
  3
B8
350
7C
  3
B9
350
7D
  3
C0
350
7E
  3
C1
350
7F
  3
C2
350
80
  3
C3
350
81
  3
C4
350
82
  3
C5
350
83
  3
C6
350
84
  3
C7
350
85
  3
C8
350
86
  3
C9
350
87
  3
D0
350
88
  3
D1
350
89
  3
D2
350
8A
  0
DICTIONARY
  5
517
102
{ACAD_REACTORS
330
C
102
}
330
C
100
AcDbDictionary
281
     1
  3
Standard
350
526
  0
DICTIONARY
  5
2A
102
{ACAD_REACTORS
330
C
102
}
330
C
100
AcDbDictionary
281
     1
  3
2dWireframe
350
2F
  3
3D Hidden
350
31
  3
3dWireframe
350
30
  3
Basic
350
32
  3
Brighten
350
36
  3
ColorChange
350
3A
  3
Conceptual
350
34
  3
Dim
350
35
  3
EdgeColorOff
350
524
  3
Facepattern
350
39
  3
Flat
350
2B
  3
FlatWithEdges
350
2C
  3
Gouraud
350
2D
  3
GouraudWithEdges
350
2E
  3
Hidden
350
51C
  3
JitterOff
350
522
  3
Linepattern
350
38
  3
OverhangOff
350
523
  3
Realistic
350
33
  3
Shaded
350
521
  3
Shaded with edges
350
520
  3
Shades of Gray
350
51D
  3
Sketchy
350
51E
  3
Thicken
350
37
  3
Wireframe
350
51B
  3
X-Ray
350
51F
  0
XRECORD
  5
533
102
{ACAD_REACTORS
330
C
102
}
330
C
100
AcDbXrecord
280
     1
 90
        1
330
526
  0
DICTIONARY
  5
515
102
{ACAD_REACTORS
330
C
102
}
330
C
100
AcDbDictionary
281
     1
  3
CANNOSCALE
350
516
  3
CMLEADERSTYLE
350
530
  3
CTABLESTYLE
350
52F
  0
IMAGEDEF
  5
55
102
{ACAD_REACTORS
330
54
330
57
102
}
330
54
100
AcDbRasterImageDef
 90
        0
  1
D:\Clients-Customers\Promex Industries\Single Package Rows\235-00154\dxf1844.bmp
 10
150.0
 20
63.0
 11
0.2645502645502646
 21
0.2645502645502646
280
     1
281
     3
  0
LAYOUT
  5
1E
102
{ACAD_REACTORS
330
1A
102
}
330
1A
100
AcDbPlotSettings
  1

  2
none_device
  4

  6

 40
0.0
 41
0.0
 42
0.0
 43
0.0
 44
0.0
 45
0.0
 46
0.0
 47
0.0
 48
0.0
 49
0.0
140
0.0
141
0.0
142
1.0
143
1.0
 70
   688
 72
     0
 73
     0
 74
     5
  7

 75
    16
147
1.0
 76
     0
 77
     2
 78
   300
148
0.0
149
0.0
100
AcDbLayout
  1
Layout1
 70
     1
 71
     1
 10
0.0
 20
0.0
 11
420.0
 21
297.0
 12
0.0
 22
0.0
 32
0.0
 14
1.000000000000000E+20
 24
1.000000000000000E+20
 34
1.000000000000000E+20
 15
-1.000000000000000E+20
 25
-1.000000000000000E+20
 35
-1.000000000000000E+20
146
0.0
 13
0.0
 23
0.0
 33
0.0
 16
1.0
 26
0.0
 36
0.0
 17
0.0
 27
1.0
 37
0.0
 76
     0
330
1B
  0
LAYOUT
  5
26
102
{ACAD_REACTORS
330
1A
102
}
330
1A
100
AcDbPlotSettings
  1

  2
none_device
  4

  6

 40
0.0
 41
0.0
 42
0.0
 43
0.0
 44
0.0
 45
0.0
 46
0.0
 47
0.0
 48
0.0
 49
0.0
140
0.0
141
0.0
142
1.0
143
1.0
 70
   688
 72
     0
 73
     0
 74
     5
  7

 75
    16
147
1.0
 76
     0
 77
     2
 78
   300
148
0.0
149
0.0
100
AcDbLayout
  1
Layout2
 70
     1
 71
     2
 10
0.0
 20
0.0
 11
0.0
 21
0.0
 12
0.0
 22
0.0
 32
0.0
 14
0.0
 24
0.0
 34
0.0
 15
0.0
 25
0.0
 35
0.0
146
0.0
 13
0.0
 23
0.0
 33
0.0
 16
1.0
 26
0.0
 36
0.0
 17
0.0
 27
1.0
 37
0.0
 76
     0
330
23
  0
LAYOUT
  5
22
102
{ACAD_REACTORS
330
1A
102
}
330
1A
100
AcDbPlotSettings
  1

  2
none_device
  4

  6

 40
0.0
 41
0.0
 42
0.0
 43
0.0
 44
0.0
 45
0.0
 46
0.0
 47
0.0
 48
0.0
 49
0.0
140
0.0
141
0.0
142
1.0
143
1.0
 70
  1712
 72
     0
 73
     0
 74
     0
  7

 75
     0
147
1.0
 76
     0
 77
     2
 78
   300
148
0.0
149
0.0
100
AcDbLayout
  1
Model
 70
     1
 71
     0
 10
0.0
 20
0.0
 11
23.28333333333333
 21
17.99166666666666
 12
0.0
 22
0.0
 32
0.0
 14
0.0
 24
0.0
 34
0.0
 15
23.28333333333333
 25
17.99166666666666
 35
0.0
146
0.0
 13
0.0
 23
0.0
 33
0.0
 16
1.0
 26
0.0
 36
0.0
 17
0.0
 27
1.0
 37
0.0
 76
     0
330
1F
331
29
  0
MATERIAL
  5
3D
102
{ACAD_REACTORS
330
3B
102
}
330
3B
100
AcDbMaterial
  1
ByBlock
 73
     1
 78
     1
172
     1
176
     1
270
     1
274
     1
  0
MATERIAL
  5
3C
102
{ACAD_REACTORS
330
3B
102
}
330
3B
100
AcDbMaterial
  1
ByLayer
 73
     1
 78
     1
172
     1
176
     1
270
     1
274
     1
  0
MATERIAL
  5
3E
102
{ACAD_REACTORS
330
3B
102
}
330
3B
100
AcDbMaterial
  1
Global
 73
     1
 78
     1
172
     1
176
     1
270
     1
274
     1
  0
MLEADERSTYLE
  5
527
102
{ACAD_REACTORS
330
518
102
}
330
518
100
AcDbMLeaderStyle
179
     2
170
     2
171
     1
172
     0
 90
        2
 40
0.0
 41
0.0
173
     1
 91
-1056964608
340
14
 92
       -2
290
     1
 42
2.0
291
     1
 43
0.36
  3
Standard
 44
4.0
300

342
11
174
     1
178
     6
175
     1
176
     0
 93
-1056964608
 45
4.0
292
     0
297
     0
 46
4.0
 94
-1056964608
 47
1.0
 49
1.0
140
1.0
293
     1
141
0.0
294
     1
177
     0
142
1.0
295
     1
296
     0
143
0.125
271
     0
272
     9
273
     9
  0
MLINESTYLE
  5
18
102
{ACAD_REACTORS
330
17
102
}
330
17
100
AcDbMlineStyle
  2
STANDARD
 70
     0
  3

 62
   256
 51
90.0
 52
90.0
 71
     2
 49
0.5
 62
   256
  6
BYLAYER
 49
-0.5
 62
   256
  6
BYLAYER
  0
ACDBPLACEHOLDER
  5
F
102
{ACAD_REACTORS
330
E
102
}
330
E
  0
SCALE
  5
6A
102
{ACAD_REACTORS
330
69
102
}
330
69
100
AcDbScale
 70
     0
300
1:1
140
1.0
141
1.0
290
     1
  0
SCALE
  5
6B
102
{ACAD_REACTORS
330
69
102
}
330
69
100
AcDbScale
 70
     0
300
1:2
140
1.0
141
2.0
290
     0
  0
SCALE
  5
6C
102
{ACAD_REACTORS
330
69
102
}
330
69
100
AcDbScale
 70
     0
300
1:4
140
1.0
141
4.0
290
     0
  0
SCALE
  5
6D
102
{ACAD_REACTORS
330
69
102
}
330
69
100
AcDbScale
 70
     0
300
1:5
140
1.0
141
5.0
290
     0
  0
SCALE
  5
6E
102
{ACAD_REACTORS
330
69
102
}
330
69
100
AcDbScale
 70
     0
300
1:8
140
1.0
141
8.0
290
     0
  0
SCALE
  5
6F
102
{ACAD_REACTORS
330
69
102
}
330
69
100
AcDbScale
 70
     0
300
1:10
140
1.0
141
10.0
290
     0
  0
SCALE
  5
70
102
{ACAD_REACTORS
330
69
102
}
330
69
100
AcDbScale
 70
     0
300
1:16
140
1.0
141
16.0
290
     0
  0
SCALE
  5
71
102
{ACAD_REACTORS
330
69
102
}
330
69
100
AcDbScale
 70
     0
300
1:20
140
1.0
141
20.0
290
     0
  0
SCALE
  5
72
102
{ACAD_REACTORS
330
69
102
}
330
69
100
AcDbScale
 70
     0
300
1:30
140
1.0
141
30.0
290
     0
  0
SCALE
  5
73
102
{ACAD_REACTORS
330
69
102
}
330
69
100
AcDbScale
 70
     0
300
1:40
140
1.0
141
40.0
290
     0
  0
SCALE
  5
74
102
{ACAD_REACTORS
330
69
102
}
330
69
100
AcDbScale
 70
     0
300
1:50
140
1.0
141
50.0
290
     0
  0
SCALE
  5
75
102
{ACAD_REACTORS
330
69
102
}
330
69
100
AcDbScale
 70
     0
300
1:100
140
1.0
141
100.0
290
     0
  0
SCALE
  5
76
102
{ACAD_REACTORS
330
69
102
}
330
69
100
AcDbScale
 70
     0
300
2:1
140
2.0
141
1.0
290
     0
  0
SCALE
  5
77
102
{ACAD_REACTORS
330
69
102
}
330
69
100
AcDbScale
 70
     0
300
4:1
140
4.0
141
1.0
290
     0
  0
SCALE
  5
78
102
{ACAD_REACTORS
330
69
102
}
330
69
100
AcDbScale
 70
     0
300
8:1
140
8.0
141
1.0
290
     0
  0
SCALE
  5
79
102
{ACAD_REACTORS
330
69
102
}
330
69
100
AcDbScale
 70
     0
300
10:1
140
10.0
141
1.0
290
     0
  0
SCALE
  5
7A
102
{ACAD_REACTORS
330
69
102
}
330
69
100
AcDbScale
 70
     0
300
100:1
140
100.0
141
1.0
290
     0
  0
SCALE
  5
7B
102
{ACAD_REACTORS
330
69
102
}
330
69
100
AcDbScale
 70
     0
300
1/128" = 1'-0"
140
0.0078125
141
12.0
290
     0
  0
SCALE
  5
7C
102
{ACAD_REACTORS
330
69
102
}
330
69
100
AcDbScale
 70
     0
300
1/64" = 1'-0"
140
0.015625
141
12.0
290
     0
  0
SCALE
  5
7D
102
{ACAD_REACTORS
330
69
102
}
330
69
100
AcDbScale
 70
     0
300
1/32" = 1'-0"
140
0.03125
141
12.0
290
     0
  0
SCALE
  5
7E
102
{ACAD_REACTORS
330
69
102
}
330
69
100
AcDbScale
 70
     0
300
1/16" = 1'-0"
140
0.0625
141
12.0
290
     0
  0
SCALE
  5
7F
102
{ACAD_REACTORS
330
69
102
}
330
69
100
AcDbScale
 70
     0
300
3/32" = 1'-0"
140
0.09375
141
12.0
290
     0
  0
SCALE
  5
80
102
{ACAD_REACTORS
330
69
102
}
330
69
100
AcDbScale
 70
     0
300
1/8" = 1'-0"
140
0.125
141
12.0
290
     0
  0
SCALE
  5
81
102
{ACAD_REACTORS
330
69
102
}
330
69
100
AcDbScale
 70
     0
300
3/16" = 1'-0"
140
0.1875
141
12.0
290
     0
  0
SCALE
  5
82
102
{ACAD_REACTORS
330
69
102
}
330
69
100
AcDbScale
 70
     0
300
1/4" = 1'-0"
140
0.25
141
12.0
290
     0
  0
SCALE
  5
83
102
{ACAD_REACTORS
330
69
102
}
330
69
100
AcDbScale
 70
     0
300
3/8" = 1'-0"
140
0.375
141
12.0
290
     0
  0
SCALE
  5
84
102
{ACAD_REACTORS
330
69
102
}
330
69
100
AcDbScale
 70
     0
300
1/2" = 1'-0"
140
0.5
141
12.0
290
     0
  0
SCALE
  5
85
102
{ACAD_REACTORS
330
69
102
}
330
69
100
AcDbScale
 70
     0
300
3/4" = 1'-0"
140
0.75
141
12.0
290
     0
  0
SCALE
  5
86
102
{ACAD_REACTORS
330
69
102
}
330
69
100
AcDbScale
 70
     0
300
1" = 1'-0"
140
1.0
141
12.0
290
     0
  0
SCALE
  5
87
102
{ACAD_REACTORS
330
69
102
}
330
69
100
AcDbScale
 70
     0
300
1-1/2" = 1'-0"
140
1.5
141
12.0
290
     0
  0
SCALE
  5
88
102
{ACAD_REACTORS
330
69
102
}
330
69
100
AcDbScale
 70
     0
300
3" = 1'-0"
140
3.0
141
12.0
290
     0
  0
SCALE
  5
89
102
{ACAD_REACTORS
330
69
102
}
330
69
100
AcDbScale
 70
     0
300
6" = 1'-0"
140
6.0
141
12.0
290
     0
  0
SCALE
  5
8A
102
{ACAD_REACTORS
330
69
102
}
330
69
100
AcDbScale
 70
     0
300
1'-0" = 1'-0"
140
12.0
141
12.0
290
     0
  0
TABLESTYLE
  5
526
102
{ACAD_XDICTIONARY
360
531
102
}
102
{ACAD_REACTORS
330
517
102
}
330
517
100
AcDbTableStyle
280
     0
  3
Standard
 70
     0
 71
     0
 40
1.5
 41
1.5
280
     0
281
     0
  7
STANDARD
140
4.5
170
     2
 62
     0
 63
     7
283
     0
 90
      512
 91
        0
  1

274
    -2
284
     1
 64
     0
275
    -2
285
     1
 65
     0
276
    -2
286
     1
 66
     0
277
    -2
287
     1
 67
     0
278
    -2
288
     1
 68
     0
279
    -2
289
     1
 69
     0
  7
STANDARD
140
6.0
170
     5
 62
     0
 63
     7
283
     0
 90
      512
 91
        0
  1

274
    -2
284
     1
 64
     0
275
    -2
285
     1
 65
     0
276
    -2
286
     1
 66
     0
277
    -2
287
     1
 67
     0
278
    -2
288
     1
 68
     0
279
    -2
289
     1
 69
     0
  7
STANDARD
140
4.5
170
     5
 62
     0
 63
     7
283
     0
 90
      512
 91
        0
  1

274
    -2
284
     1
 64
     0
275
    -2
285
     1
 65
     0
276
    -2
286
     1
 66
     0
277
    -2
287
     1
 67
     0
278
    -2
288
     1
 68
     0
279
    -2
289
     1
 69
     0
  0
VISUALSTYLE
  5
2F
102
{ACAD_REACTORS
330
2A
102
}
330
2A
100
AcDbVisualStyle
  2
2dWireframe
 70
     4
177
     2
291
     0
 71
     0
176
     1
 72
     2
176
     1
 73
     0
176
     1
 90
        0
176
     1
 40
0.6
176
     1
 41
30.0
176
     1
 63
     7
421
 16777215
176
     1
 74
     1
176
     1
 91
        4
176
     1
 64
     7
176
     1
 65
   257
176
     1
 75
     1
176
     1
175
     1
176
     1
 42
1.0
176
     1
 92
        0
176
     1
 66
   257
176
     1
 43
1.0
176
     1
 76
     1
176
     1
 77
     6
176
     1
 78
     2
176
     1
 67
     7
176
     1
 79
     5
176
     1
170
     0
176
     1
171
     0
176
     1
290
     0
176
     1
 93
        1
176
     1
 44
0.0
176
     1
173
     0
176
     1
  0
VISUALSTYLE
  5
31
102
{ACAD_REACTORS
330
2A
102
}
330
2A
100
AcDbVisualStyle
  2
3D Hidden
 70
     6
177
     2
291
     0
 71
     1
176
     1
 72
     2
176
     1
 73
     2
176
     1
 90
        0
176
     1
 40
0.6
176
     1
 41
30.0
176
     1
 63
     7
421
 16777215
176
     1
 74
     2
176
     1
 91
        2
176
     1
 64
     7
176
     1
 65
   257
176
     1
 75
     2
176
     1
175
     1
176
     1
 42
40.0
176
     1
 92
        0
176
     1
 66
   257
176
     1
 43
1.0
176
     1
 76
     1
176
     1
 77
     6
176
     1
 78
     2
176
     1
 67
     7
176
     1
 79
     3
176
     1
170
     0
176
     1
171
     0
176
     1
290
     0
176
     1
 93
        1
176
     1
 44
0.0
176
     1
173
     0
176
     1
  0
VISUALSTYLE
  5
30
102
{ACAD_REACTORS
330
2A
102
}
330
2A
100
AcDbVisualStyle
  2
3dWireframe
 70
     5
177
     2
291
     0
 71
     0
176
     1
 72
     2
176
     1
 73
     0
176
     1
 90
        0
176
     1
 40
0.6
176
     1
 41
30.0
176
     1
 63
     7
421
 16777215
176
     1
 74
     1
176
     1
 91
        4
176
     1
 64
     7
176
     1
 65
   257
176
     1
 75
     1
176
     1
175
     1
176
     1
 42
1.0
176
     1
 92
        0
176
     1
 66
   257
176
     1
 43
1.0
176
     1
 76
     1
176
     1
 77
     6
176
     1
 78
     2
176
     1
 67
     7
176
     1
 79
     5
176
     1
170
     0
176
     1
171
     0
176
     1
290
     0
176
     1
 93
        1
176
     1
 44
0.0
176
     1
173
     0
176
     1
  0
VISUALSTYLE
  5
32
102
{ACAD_REACTORS
330
2A
102
}
330
2A
100
AcDbVisualStyle
  2
Basic
 70
     7
177
     2
291
     1
 71
     1
176
     1
 72
     0
176
     1
 73
     1
176
     1
 90
        0
176
     1
 40
0.6
176
     1
 41
30.0
176
     1
 63
     7
421
 16777215
176
     1
 74
     0
176
     1
 91
        4
176
     1
 64
     7
176
     1
 65
   257
176
     1
 75
     1
176
     1
175
     1
176
     1
 42
1.0
176
     1
 92
        8
176
     1
 66
     7
176
     1
 43
1.0
176
     1
 76
     1
176
     1
 77
     6
176
     1
 78
     2
176
     1
 67
     7
176
     1
 79
     5
176
     1
170
     0
176
     1
171
     0
176
     1
290
     0
176
     1
 93
        1
176
     1
 44
0.0
176
     1
173
     0
176
     1
  0
VISUALSTYLE
  5
36
102
{ACAD_REACTORS
330
2A
102
}
330
2A
100
AcDbVisualStyle
  2
Brighten
 70
    12
177
     2
291
     1
 71
     2
176
     1
 72
     2
176
     1
 73
     0
176
     1
 90
        0
176
     1
 40
0.6
176
     1
 41
30.0
176
     1
 63
     7
421
 16777215
176
     1
 74
     1
176
     1
 91
        4
176
     1
 64
     7
176
     1
 65
   257
176
     1
 75
     1
176
     1
175
     1
176
     1
 42
1.0
176
     1
 92
        8
176
     1
 66
     7
176
     1
 43
1.0
176
     1
 76
     1
176
     1
 77
     6
176
     1
 78
     2
176
     1
 67
     7
176
     1
 79
     5
176
     1
170
     0
176
     1
171
     0
176
     1
290
     0
176
     1
 93
        1
176
     1
 44
50.0
176
     1
173
     0
176
     1
  0
VISUALSTYLE
  5
3A
102
{ACAD_REACTORS
330
2A
102
}
330
2A
100
AcDbVisualStyle
  2
ColorChange
 70
    16
177
     2
291
     1
 71
     2
176
     1
 72
     2
176
     1
 73
     3
176
     1
 90
        0
176
     1
 40
0.6
176
     1
 41
30.0
176
     1
 63
     8
421
  8421504
176
     1
 74
     1
176
     1
 91
        4
176
     1
 64
     7
176
     1
 65
   257
176
     1
 75
     1
176
     1
175
     1
176
     1
 42
1.0
176
     1
 92
        8
176
     1
 66
     8
424
  8421504
176
     1
 43
1.0
176
     1
 76
     1
176
     1
 77
     6
176
     1
 78
     2
176
     1
 67
     7
176
     1
 79
     5
176
     1
170
     0
176
     1
171
     0
176
     1
290
     0
176
     1
 93
        1
176
     1
 44
0.0
176
     1
173
     0
176
     1
  0
VISUALSTYLE
  5
34
102
{ACAD_REACTORS
330
2A
102
}
330
2A
100
AcDbVisualStyle
  2
Conceptual
 70
     9
177
     2
291
     0
 71
     3
176
     1
 72
     2
176
     1
 73
     0
176
     1
 90
        0
176
     1
 40
0.6
176
     1
 41
30.0
176
     1
 63
     7
421
 16777215
176
     1
 74
     2
176
     1
 91
        2
176
     1
 64
     7
176
     1
 65
   257
176
     1
 75
     1
176
     1
175
     1
176
     1
 42
40.0
176
     1
 92
        8
176
     1
 66
     7
176
     1
 43
1.0
176
     1
 76
     1
176
     1
 77
     6
176
     1
 78
     2
176
     1
 67
     7
176
     1
 79
     3
176
     1
170
     0
176
     1
171
     0
176
     1
290
     0
176
     1
 93
        1
176
     1
 44
0.0
176
     1
173
     0
176
     1
  0
VISUALSTYLE
  5
35
102
{ACAD_REACTORS
330
2A
102
}
330
2A
100
AcDbVisualStyle
  2
Dim
 70
    11
177
     2
291
     1
 71
     2
176
     1
 72
     2
176
     1
 73
     0
176
     1
 90
        0
176
     1
 40
0.6
176
     1
 41
30.0
176
     1
 63
     7
421
 16777215
176
     1
 74
     1
176
     1
 91
        4
176
     1
 64
     7
176
     1
 65
   257
176
     1
 75
     1
176
     1
175
     1
176
     1
 42
1.0
176
     1
 92
        8
176
     1
 66
     7
176
     1
 43
1.0
176
     1
 76
     1
176
     1
 77
     6
176
     1
 78
     2
176
     1
 67
     7
176
     1
 79
     5
176
     1
170
     0
176
     1
171
     0
176
     1
290
     0
176
     1
 93
        1
176
     1
 44
-50.0
176
     1
173
     0
176
     1
  0
VISUALSTYLE
  5
524
102
{ACAD_REACTORS
330
2A
102
}
330
2A
100
AcDbVisualStyle
  2
EdgeColorOff
 70
    22
177
     2
291
     1
 71
     2
176
     0
 72
     2
176
     0
 73
     0
176
     0
 90
        0
176
     0
 40
0.6
176
     0
 41
30.0
176
     0
 63
     7
421
 16777215
176
     0
 74
     1
176
     0
 91
        4
176
     0
 64
     7
176
     0
 65
   257
176
     0
 75
     1
176
     0
175
     1
176
     0
 42
1.0
176
     0
 92
        8
176
     2
 66
     7
176
     0
 43
1.0
176
     0
 76
     1
176
     0
 77
     6
176
     0
 78
     2
176
     0
 67
     7
176
     0
 79
     5
176
     0
170
     0
176
     0
171
     0
176
     0
290
     0
176
     0
 93
        1
176
     0
 44
0.0
176
     0
173
     0
176
     0
  0
VISUALSTYLE
  5
39
102
{ACAD_REACTORS
330
2A
102
}
330
2A
100
AcDbVisualStyle
  2
Facepattern
 70
    15
177
     2
291
     1
 71
     2
176
     1
 72
     2
176
     1
 73
     0
176
     1
 90
        0
176
     1
 40
0.6
176
     1
 41
30.0
176
     1
 63
     7
421
 16777215
176
     1
 74
     1
176
     1
 91
        4
176
     1
 64
     7
176
     1
 65
   257
176
     1
 75
     1
176
     1
175
     1
176
     1
 42
1.0
176
     1
 92
        8
176
     1
 66
     7
176
     1
 43
1.0
176
     1
 76
     1
176
     1
 77
     6
176
     1
 78
     2
176
     1
 67
     7
176
     1
 79
     5
176
     1
170
     0
176
     1
171
     0
176
     1
290
     0
176
     1
 93
        1
176
     1
 44
0.0
176
     1
173
     0
176
     1
  0
VISUALSTYLE
  5
2B
102
{ACAD_REACTORS
330
2A
102
}
330
2A
100
AcDbVisualStyle
  2
Flat
 70
     0
177
     2
291
     1
 71
     2
176
     1
 72
     1
176
     1
 73
     1
176
     1
 90
        2
176
     1
 40
0.6
176
     1
 41
30.0
176
     1
 63
     7
421
 16777215
176
     1
 74
     0
176
     1
 91
        4
176
     1
 64
     7
176
     1
 65
   257
176
     1
 75
     1
176
     1
175
     1
176
     1
 42
1.0
176
     1
 92
        8
176
     1
 66
     7
176
     1
 43
1.0
176
     1
 76
     1
176
     1
 77
     6
176
     1
 78
     2
176
     1
 67
     7
176
     1
 79
     5
176
     1
170
     0
176
     1
171
     0
176
     1
290
     0
176
     1
 93
       13
176
     1
 44
0.0
176
     1
173
     0
176
     1
  0
VISUALSTYLE
  5
2C
102
{ACAD_REACTORS
330
2A
102
}
330
2A
100
AcDbVisualStyle
  2
FlatWithEdges
 70
     1
177
     2
291
     1
 71
     2
176
     1
 72
     1
176
     1
 73
     1
176
     1
 90
        2
176
     1
 40
0.6
176
     1
 41
30.0
176
     1
 63
     7
421
 16777215
176
     1
 74
     1
176
     1
 91
        4
176
     1
 64
     7
176
     1
 65
   257
176
     1
 75
     1
176
     1
175
     1
176
     1
 42
1.0
176
     1
 92
        0
176
     1
 66
   257
176
     1
 43
1.0
176
     1
 76
     1
176
     1
 77
     6
176
     1
 78
     2
176
     1
 67
     7
176
     1
 79
     5
176
     1
170
     0
176
     1
171
     0
176
     1
290
     0
176
     1
 93
       13
176
     1
 44
0.0
176
     1
173
     0
176
     1
  0
VISUALSTYLE
  5
2D
102
{ACAD_REACTORS
330
2A
102
}
330
2A
100
AcDbVisualStyle
  2
Gouraud
 70
     2
177
     2
291
     1
 71
     2
176
     1
 72
     2
176
     1
 73
     1
176
     1
 90
        2
176
     1
 40
0.6
176
     1
 41
30.0
176
     1
 63
     7
421
 16777215
176
     1
 74
     0
176
     1
 91
        4
176
     1
 64
     7
176
     1
 65
   257
176
     1
 75
     1
176
     1
175
     1
176
     1
 42
1.0
176
     1
 92
        0
176
     1
 66
     7
176
     1
 43
1.0
176
     1
 76
     1
176
     1
 77
     6
176
     1
 78
     2
176
     1
 67
     7
176
     1
 79
     5
176
     1
170
     0
176
     1
171
     0
176
     1
290
     0
176
     1
 93
       13
176
     1
 44
0.0
176
     1
173
     0
176
     1
  0
VISUALSTYLE
  5
2E
102
{ACAD_REACTORS
330
2A
102
}
330
2A
100
AcDbVisualStyle
  2
GouraudWithEdges
 70
     3
177
     2
291
     1
 71
     2
176
     1
 72
     2
176
     1
 73
     1
176
     1
 90
        2
176
     1
 40
0.6
176
     1
 41
30.0
176
     1
 63
     7
421
 16777215
176
     1
 74
     1
176
     1
 91
        4
176
     1
 64
     7
176
     1
 65
   257
176
     1
 75
     1
176
     1
175
     1
176
     1
 42
1.0
176
     1
 92
        0
176
     1
 66
   257
176
     1
 43
1.0
176
     1
 76
     1
176
     1
 77
     6
176
     1
 78
     2
176
     1
 67
     7
176
     1
 79
     5
176
     1
170
     0
176
     1
171
     0
176
     1
290
     0
176
     1
 93
       13
176
     1
 44
0.0
176
     1
173
     0
176
     1
  0
VISUALSTYLE
  5
51C
102
{ACAD_REACTORS
330
2A
102
}
330
2A
100
AcDbVisualStyle
  2
Hidden
 70
     6
177
     2
291
     0
 71
     1
176
     1
 72
     2
176
     1
 73
     2
176
     1
 90
        0
176
     1
 40
0.6
176
     1
 41
30.0
176
     1
 63
     7
421
 16777215
176
     1
 74
     2
176
     1
 91
        2
176
     1
 64
     7
176
     1
 65
   257
176
     1
 75
     2
176
     1
175
     1
176
     1
 42
40.0
176
     1
 92
        0
176
     1
 66
   257
176
     1
 43
1.0
176
     1
 76
     1
176
     1
 77
     6
176
     1
 78
     2
176
     1
 67
     7
176
     1
 79
     3
176
     1
170
     0
176
     1
171
     0
176
     1
290
     0
176
     1
 93
        1
176
     1
 44
0.0
176
     1
173
     0
176
     1
  0
VISUALSTYLE
  5
522
102
{ACAD_REACTORS
330
2A
102
}
330
2A
100
AcDbVisualStyle
  2
JitterOff
 70
    20
177
     2
291
     1
 71
     2
176
     0
 72
     2
176
     0
 73
     0
176
     0
 90
        0
176
     0
 40
0.6
176
     0
 41
30.0
176
     0
 63
     7
421
 16777215
176
     0
 74
     1
176
     0
 91
        4
176
     0
 64
     7
176
     0
 65
   257
176
     0
 75
     1
176
     0
175
     1
176
     0
 42
1.0
176
     0
 92
       10
176
     2
 66
     7
176
     0
 43
1.0
176
     0
 76
     1
176
     0
 77
     6
176
     0
 78
     2
176
     0
 67
     7
176
     0
 79
     5
176
     0
170
     0
176
     0
171
     0
176
     0
290
     0
176
     0
 93
        1
176
     0
 44
0.0
176
     0
173
     0
176
     0
  0
VISUALSTYLE
  5
38
102
{ACAD_REACTORS
330
2A
102
}
330
2A
100
AcDbVisualStyle
  2
Linepattern
 70
    14
177
     2
291
     1
 71
     2
176
     1
 72
     2
176
     1
 73
     0
176
     1
 90
        0
176
     1
 40
0.6
176
     1
 41
30.0
176
     1
 63
     7
421
 16777215
176
     1
 74
     1
176
     1
 91
        4
176
     1
 64
     7
176
     1
 65
   257
176
     1
 75
     7
176
     1
175
     7
176
     1
 42
1.0
176
     1
 92
        8
176
     1
 66
     7
176
     1
 43
1.0
176
     1
 76
     1
176
     1
 77
     6
176
     1
 78
     2
176
     1
 67
     7
176
     1
 79
     5
176
     1
170
     0
176
     1
171
     0
176
     1
290
     0
176
     1
 93
        1
176
     1
 44
0.0
176
     1
173
     0
176
     1
  0
VISUALSTYLE
  5
523
102
{ACAD_REACTORS
330
2A
102
}
330
2A
100
AcDbVisualStyle
  2
OverhangOff
 70
    21
177
     2
291
     1
 71
     2
176
     0
 72
     2
176
     0
 73
     0
176
     0
 90
        0
176
     0
 40
0.6
176
     0
 41
30.0
176
     0
 63
     7
421
 16777215
176
     0
 74
     1
176
     0
 91
        4
176
     0
 64
     7
176
     0
 65
   257
176
     0
 75
     1
176
     0
175
     1
176
     0
 42
1.0
176
     0
 92
        9
176
     2
 66
     7
176
     0
 43
1.0
176
     0
 76
     1
176
     0
 77
     6
176
     0
 78
     2
176
     0
 67
     7
176
     0
 79
     5
176
     0
170
     0
176
     0
171
     0
176
     0
290
     0
176
     0
 93
        1
176
     0
 44
0.0
176
     0
173
     0
176
     0
  0
VISUALSTYLE
  5
33
102
{ACAD_REACTORS
330
2A
102
}
330
2A
100
AcDbVisualStyle
  2
Realistic
 70
     8
177
     2
291
     0
 71
     2
176
     1
 72
     2
176
     1
 73
     0
176
     1
 90
        0
176
     1
 40
0.6
176
     1
 41
30.0
176
     1
 63
     7
421
 16777215
176
     1
 74
     1
176
     1
 91
        0
176
     1
 64
     7
176
     1
 65
   257
176
     1
 75
     1
176
     1
175
     1
176
     1
 42
1.0
176
     1
 92
        8
176
     1
 66
     8
424
  7895160
176
     1
 43
1.0
176
     1
 76
     1
176
     1
 77
     6
176
     1
 78
     2
176
     1
 67
     7
176
     1
 79
     5
176
     1
170
     0
176
     1
171
     0
176
     1
290
     0
176
     1
 93
       13
176
     1
 44
0.0
176
     1
173
     0
176
     1
  0
VISUALSTYLE
  5
521
102
{ACAD_REACTORS
330
2A
102
}
330
2A
100
AcDbVisualStyle
  2
Shaded
 70
    27
177
     2
291
     0
 71
     2
176
     1
 72
     2
176
     1
 73
     1
176
     1
 90
        2
176
     1
 40
0.6
176
     1
 41
30.0
176
     1
 63
     7
421
 16777215
176
     1
 74
     0
176
     1
 91
        4
176
     1
 64
     7
176
     1
 65
   257
176
     1
 75
     1
176
     1
175
     1
176
     1
 42
1.0
176
     1
 92
        8
176
     1
 66
   257
176
     1
 43
1.0
176
     1
 76
     1
176
     1
 77
     6
176
     1
 78
     2
176
     1
 67
     8
425
  7895160
176
     1
 79
     3
176
     1
170
     0
176
     1
171
     0
176
     1
290
     0
176
     1
 93
        5
176
     1
 44
0.0
176
     1
173
     0
176
     1
  0
VISUALSTYLE
  5
520
102
{ACAD_REACTORS
330
2A
102
}
330
2A
100
AcDbVisualStyle
  2
Shaded with edges
 70
    26
177
     2
291
     0
 71
     2
176
     1
 72
     2
176
     1
 73
     1
176
     1
 90
        2
176
     1
 40
0.6
176
     1
 41
30.0
176
     1
 63
     7
421
 16777215
176
     1
 74
     1
176
     1
 91
       10
176
     1
 64
     7
176
     1
 65
   257
176
     1
 75
     2
176
     1
175
     1
176
     1
 42
1.0
176
     1
 92
        8
176
     1
 66
   257
176
     1
 43
1.0
176
     1
 76
     1
176
     1
 77
     6
176
     1
 78
     2
176
     1
 67
     7
176
     1
 79
     3
176
     1
170
     0
176
     1
171
     0
176
     1
290
     0
176
     1
 93
        5
176
     1
 44
0.0
176
     1
173
     0
176
     1
  0
VISUALSTYLE
  5
51D
102
{ACAD_REACTORS
330
2A
102
}
330
2A
100
AcDbVisualStyle
  2
Shades of Gray
 70
    23
177
     2
291
     0
 71
     2
176
     1
 72
     2
176
     1
 73
     3
176
     1
 90
        0
176
     1
 40
0.6
176
     1
 41
30.0
176
     1
 63
     7
421
 16777215
176
     1
 74
     2
176
     1
 91
        2
176
     1
 64
     7
176
     1
 65
     7
176
     1
 75
     1
176
     1
175
     1
176
     1
 42
40.0
176
     1
 92
        8
176
     1
 66
     7
176
     1
 43
1.0
176
     1
 76
     1
176
     1
 77
     6
176
     1
 78
     2
176
     1
 67
     7
176
     1
 79
     3
176
     1
170
     0
176
     1
171
     0
176
     1
290
     0
176
     1
 93
        1
176
     1
 44
0.0
176
     1
173
     0
176
     1
  0
VISUALSTYLE
  5
51E
102
{ACAD_REACTORS
330
2A
102
}
330
2A
100
AcDbVisualStyle
  2
Sketchy
 70
    24
177
     2
291
     0
 71
     1
176
     1
 72
     2
176
     1
 73
     2
176
     1
 90
        0
176
     1
 40
0.6
176
     1
 41
30.0
176
     1
 63
     7
421
 16777215
176
     1
 74
     2
176
     1
 91
        2
176
     1
 64
     7
176
     1
 65
     7
176
     1
 75
     1
176
     1
175
     1
176
     1
 42
40.0
176
     1
 92
       11
176
     1
 66
     7
176
     1
 43
1.0
176
     1
 76
     1
176
     1
 77
     6
176
     1
 78
     2
176
     1
 67
     7
176
     1
 79
     6
176
     1
170
     0
176
     1
171
     0
176
     1
290
     0
176
     1
 93
        1
176
     1
 44
0.0
176
     1
173
     0
176
     1
  0
VISUALSTYLE
  5
37
102
{ACAD_REACTORS
330
2A
102
}
330
2A
100
AcDbVisualStyle
  2
Thicken
 70
    13
177
     2
291
     1
 71
     2
176
     1
 72
     2
176
     1
 73
     0
176
     1
 90
        0
176
     1
 40
0.6
176
     1
 41
30.0
176
     1
 63
     7
421
 16777215
176
     1
 74
     1
176
     1
 91
        4
176
     1
 64
     7
176
     1
 65
   257
176
     1
 75
     1
176
     1
175
     1
176
     1
 42
1.0
176
     1
 92
       12
176
     1
 66
     7
176
     1
 43
1.0
176
     1
 76
     1
176
     1
 77
     6
176
     1
 78
     2
176
     1
 67
     7
176
     1
 79
     5
176
     1
170
     0
176
     1
171
     0
176
     1
290
     0
176
     1
 93
        1
176
     1
 44
0.0
176
     1
173
     0
176
     1
  0
VISUALSTYLE
  5
51B
102
{ACAD_REACTORS
330
2A
102
}
330
2A
100
AcDbVisualStyle
  2
Wireframe
 70
     5
177
     2
291
     0
 71
     0
176
     1
 72
     2
176
     1
 73
     0
176
     1
 90
        0
176
     1
 40
0.6
176
     1
 41
30.0
176
     1
 63
     7
421
 16777215
176
     1
 74
     1
176
     1
 91
        4
176
     1
 64
     7
176
     1
 65
   257
176
     1
 75
     1
176
     1
175
     1
176
     1
 42
1.0
176
     1
 92
        0
176
     1
 66
   257
176
     1
 43
1.0
176
     1
 76
     1
176
     1
 77
     6
176
     1
 78
     2
176
     1
 67
     7
176
     1
 79
     3
176
     1
170
     0
176
     1
171
     0
176
     1
290
     0
176
     1
 93
        1
176
     1
 44
0.0
176
     1
173
     0
176
     1
  0
VISUALSTYLE
  5
51F
102
{ACAD_REACTORS
330
2A
102
}
330
2A
100
AcDbVisualStyle
  2
X-Ray
 70
    25
177
     2
291
     0
 71
     2
176
     1
 72
     2
176
     1
 73
     1
176
     1
 90
        1
176
     1
 40
0.5
176
     1
 41
30.0
176
     1
 63
     7
421
 16777215
176
     1
 74
     1
176
     1
 91
        0
176
     1
 64
     7
176
     1
 65
   257
176
     1
 75
     1
176
     1
175
     1
176
     1
 42
1.0
176
     1
 92
        8
176
     1
 66
     7
176
     1
 43
1.0
176
     1
 76
     1
176
     1
 77
     6
176
     1
 78
     2
176
     1
 67
     7
176
     1
 79
     3
176
     1
170
     0
176
     1
171
     0
176
     1
290
     0
176
     1
 93
       13
176
     1
 44
0.0
176
     1
173
     0
176
     1
  0
DICTIONARYVAR
  5
516
102
{ACAD_REACTORS
330
515
102
}
330
515
100
DictionaryVariables
280
     0
  1
1:1
  0
DICTIONARYVAR
  5
530
102
{ACAD_REACTORS
330
515
102
}
330
515
100
DictionaryVariables
280
     0
  1
STANDARD
  0
DICTIONARYVAR
  5
52F
102
{ACAD_REACTORS
330
515
102
}
330
515
100
DictionaryVariables
280
     0
  1
STANDARD
  0
DICTIONARY
  5
531
330
526
100
AcDbDictionary
280
     1
281
     1
  3
ACAD_ROUNDTRIP_2008_TABLESTYLE_CELLSTYLEMAP
360
532
  0
CELLSTYLEMAP
  5
532
102
{ACAD_REACTORS
330
531
102
}
330
531
100
AcDbCellStyleMap
 90
        3
300
CELLSTYLE
  1
TABLEFORMAT_BEGIN
 90
        5
170
     1
 91
        0
 92
    32768
 62
   257
 93
        1
300
CONTENTFORMAT
  1
CONTENTFORMAT_BEGIN
 90
        0
 91
        0
 92
      512
 93
        0
300

 40
0.0
140
1.0
 94
        5
 62
     0
340
11
144
6.0
309
CONTENTFORMAT_END
171
     1
301
MARGIN
  1
CELLMARGIN_BEGIN
 40
1.5
 40
1.5
 40
1.5
 40
1.5
 40
4.5
 40
4.5
309
CELLMARGIN_END
 94
        6
 95
        1
302
GRIDFORMAT
  1
GRIDFORMAT_BEGIN
 90
        0
 91
        1
 62
     0
 92
       -2
340
0
 93
        0
 40
1.125
309
GRIDFORMAT_END
 95
        2
302
GRIDFORMAT
  1
GRIDFORMAT_BEGIN
 90
        0
 91
        1
 62
     0
 92
       -2
340
0
 93
        0
 40
1.125
309
GRIDFORMAT_END
 95
        4
302
GRIDFORMAT
  1
GRIDFORMAT_BEGIN
 90
        0
 91
        1
 62
     0
 92
       -2
340
0
 93
        0
 40
1.125
309
GRIDFORMAT_END
 95
        8
302
GRIDFORMAT
  1
GRIDFORMAT_BEGIN
 90
        0
 91
        1
 62
     0
 92
       -2
340
0
 93
        0
 40
1.125
309
GRIDFORMAT_END
 95
       16
302
GRIDFORMAT
  1
GRIDFORMAT_BEGIN
 90
        0
 91
        1
 62
     0
 92
       -2
340
0
 93
        0
 40
1.125
309
GRIDFORMAT_END
 95
       32
302
GRIDFORMAT
  1
GRIDFORMAT_BEGIN
 90
        0
 91
        1
 62
     0
 92
       -2
340
0
 93
        0
 40
1.125
309
GRIDFORMAT_END
309
TABLEFORMAT_END
  1
CELLSTYLE_BEGIN
 90
        1
 91
        1
300
_TITLE
309
CELLSTYLE_END
300
CELLSTYLE
  1
TABLEFORMAT_BEGIN
 90
        5
170
     1
 91
        0
 92
        0
 62
   257
 93
        1
300
CONTENTFORMAT
  1
CONTENTFORMAT_BEGIN
 90
        0
 91
        0
 92
      512
 93
        0
300

 40
0.0
140
1.0
 94
        5
 62
     0
340
11
144
4.5
309
CONTENTFORMAT_END
171
     1
301
MARGIN
  1
CELLMARGIN_BEGIN
 40
1.5
 40
1.5
 40
1.5
 40
1.5
 40
4.5
 40
4.5
309
CELLMARGIN_END
 94
        6
 95
        1
302
GRIDFORMAT
  1
GRIDFORMAT_BEGIN
 90
        0
 91
        1
 62
     0
 92
       -2
340
0
 93
        0
 40
1.125
309
GRIDFORMAT_END
 95
        2
302
GRIDFORMAT
  1
GRIDFORMAT_BEGIN
 90
        0
 91
        1
 62
     0
 92
       -2
340
0
 93
        0
 40
1.125
309
GRIDFORMAT_END
 95
        4
302
GRIDFORMAT
  1
GRIDFORMAT_BEGIN
 90
        0
 91
        1
 62
     0
 92
       -2
340
0
 93
        0
 40
1.125
309
GRIDFORMAT_END
 95
        8
302
GRIDFORMAT
  1
GRIDFORMAT_BEGIN
 90
        0
 91
        1
 62
     0
 92
       -2
340
0
 93
        0
 40
1.125
309
GRIDFORMAT_END
 95
       16
302
GRIDFORMAT
  1
GRIDFORMAT_BEGIN
 90
        0
 91
        1
 62
     0
 92
       -2
340
0
 93
        0
 40
1.125
309
GRIDFORMAT_END
 95
       32
302
GRIDFORMAT
  1
GRIDFORMAT_BEGIN
 90
        0
 91
        1
 62
     0
 92
       -2
340
0
 93
        0
 40
1.125
309
GRIDFORMAT_END
309
TABLEFORMAT_END
  1
CELLSTYLE_BEGIN
 90
        2
 91
        1
300
_HEADER
309
CELLSTYLE_END
300
CELLSTYLE
  1
TABLEFORMAT_BEGIN
 90
        5
170
     1
 91
        0
 92
        0
 62
   257
 93
        1
300
CONTENTFORMAT
  1
CONTENTFORMAT_BEGIN
 90
        0
 91
        0
 92
      512
 93
        0
300

 40
0.0
140
1.0
 94
        2
 62
     0
340
11
144
4.5
309
CONTENTFORMAT_END
171
     1
301
MARGIN
  1
CELLMARGIN_BEGIN
 40
1.5
 40
1.5
 40
1.5
 40
1.5
 40
4.5
 40
4.5
309
CELLMARGIN_END
 94
        6
 95
        1
302
GRIDFORMAT
  1
GRIDFORMAT_BEGIN
 90
        0
 91
        1
 62
     0
 92
       -2
340
0
 93
        0
 40
1.125
309
GRIDFORMAT_END
 95
        2
302
GRIDFORMAT
  1
GRIDFORMAT_BEGIN
 90
        0
 91
        1
 62
     0
 92
       -2
340
0
 93
        0
 40
1.125
309
GRIDFORMAT_END
 95
        4
302
GRIDFORMAT
  1
GRIDFORMAT_BEGIN
 90
        0
 91
        1
 62
     0
 92
       -2
340
0
 93
        0
 40
1.125
309
GRIDFORMAT_END
 95
        8
302
GRIDFORMAT
  1
GRIDFORMAT_BEGIN
 90
        0
 91
        1
 62
     0
 92
       -2
340
0
 93
        0
 40
1.125
309
GRIDFORMAT_END
 95
       16
302
GRIDFORMAT
  1
GRIDFORMAT_BEGIN
 90
        0
 91
        1
 62
     0
 92
       -2
340
0
 93
        0
 40
1.125
309
GRIDFORMAT_END
 95
       32
302
GRIDFORMAT
  1
GRIDFORMAT_BEGIN
 90
        0
 91
        1
 62
     0
 92
       -2
340
0
 93
        0
 40
1.125
309
GRIDFORMAT_END
309
TABLEFORMAT_END
  1
CELLSTYLE_BEGIN
 90
        3
 91
        2
300
_DATA
309
CELLSTYLE_END
  0
ENDSEC
  0
EOF
