  0
SECTION
  2
HEADER
  9
$ACADVER
  1
AC1024
  9
$ACADMAINTVER
 70
    38
  9
$DWGCODEPAGE
  3
ANSI_1252
  9
$LASTSAVEDBY
  1
SkudHome1
  9
$INSBASE
 10
0.0
 20
0.0
 30
0.0
  9
$EXTMIN
 10
0.698345483333328
 20
0.8298882113821042
 30
-0.000000000000119
  9
$EXTMAX
 10
22.50001215000001
 20
17.33988821138211
 30
0.0
  9
$LIMMIN
 10
0.0
 20
0.0
  9
$LIMMAX
 10
23.28333333333333
 20
17.99166666666666
  9
$ORTHOMODE
 70
     0
  9
$REGENMODE
 70
     1
  9
$FILLMODE
 70
     1
  9
$QTEXTMODE
 70
     0
  9
$MIRRTEXT
 70
     1
  9
$LTSCALE
 40
0.0833333333333333
  9
$ATTMODE
 70
     1
  9
$TEXTSIZE
 40
2.5
  9
$TRACEWID
 40
1.0
  9
$TEXTSTYLE
  7
STANDARD
  9
$CLAYER
  8
0
  9
$CELTYPE
  6
ByLayer
  9
$CECOLOR
 62
   256
  9
$CELTSCALE
 40
1.0
  9
$DISPSILH
 70
     0
  9
$DIMSCALE
 40
1.0
  9
$DIMASZ
 40
0.1666666666666666
  9
$DIMEXO
 40
0.125
  9
$DIMDLI
 40
3.75
  9
$DIMRND
 40
0.0
  9
$DIMDLE
 40
0.0
  9
$DIMEXE
 40
0.1666666666666666
  9
$DIMTP
 40
0.0
  9
$DIMTM
 40
0.0
  9
$DIMTXT
 40
0.2939814814814814
  9
$DIMCEN
 40
2.5
  9
$DIMTSZ
 40
0.0
  9
$DIMTOL
 70
     0
  9
$DIMLIM
 70
     0
  9
$DIMTIH
 70
     1
  9
$DIMTOH
 70
     1
  9
$DIMSE1
 70
     0
  9
$DIMSE2
 70
     0
  9
$DIMTAD
 70
     1
  9
$DIMZIN
 70
     0
  9
$DIMBLK
  1

  9
$DIMASO
 70
     1
  9
$DIMSHO
 70
     1
  9
$DIMPOST
  1

  9
$DIMAPOST
  1

  9
$DIMALT
 70
     0
  9
$DIMALTD
 70
     3
  9
$DIMALTF
 40
0.0393700787401575
  9
$DIMLFAC
 40
1.0
  9
$DIMTOFL
 70
     1
  9
$DIMTVP
 40
0.0
  9
$DIMTIX
 70
     0
  9
$DIMSOXD
 70
     0
  9
$DIMSAH
 70
     0
  9
$DIMBLK1
  1

  9
$DIMBLK2
  1

  9
$DIMSTYLE
  2
ISO-25
  9
$DIMCLRD
 70
     0
  9
$DIMCLRE
 70
     0
  9
$DIMCLRT
 70
     0
  9
$DIMTFAC
 40
1.0
  9
$DIMGAP
 40
0.0833333333333333
  9
$DIMJUST
 70
     0
  9
$DIMSD1
 70
     0
  9
$DIMSD2
 70
     0
  9
$DIMTOLJ
 70
     0
  9
$DIMTZIN
 70
     0
  9
$DIMALTZ
 70
     0
  9
$DIMALTTZ
 70
     0
  9
$DIMUPT
 70
     0
  9
$DIMDEC
 70
     3
  9
$DIMTDEC
 70
     3
  9
$DIMALTU
 70
     2
  9
$DIMALTTD
 70
     3
  9
$DIMTXSTY
  7
STANDARD
  9
$DIMAUNIT
 70
     0
  9
$DIMADEC
 70
     0
  9
$DIMALTRND
 40
0.0
  9
$DIMAZIN
 70
     0
  9
$DIMDSEP
 70
    44
  9
$DIMATFIT
 70
     3
  9
$DIMFRAC
 70
     0
  9
$DIMLDRBLK
  1

  9
$DIMLUNIT
 70
     2
  9
$DIMLWD
 70
    -2
  9
$DIMLWE
 70
    -2
  9
$DIMTMOVE
 70
     0
  9
$DIMFXL
 40
1.0
  9
$DIMFXLON
 70
     0
  9
$DIMJOGANG
 40
0.7853981633974483
  9
$DIMTFILL
 70
     0
  9
$DIMTFILLCLR
 70
     0
  9
$DIMARCSYM
 70
     0
  9
$DIMLTYPE
  6

  9
$DIMLTEX1
  6

  9
$DIMLTEX2
  6

  9
$DIMTXTDIRECTION
 70
     0
  9
$LUNITS
 70
     2
  9
$LUPREC
 70
     3
  9
$SKETCHINC
 40
1.0
  9
$FILLETRAD
 40
10.0
  9
$AUNITS
 70
     0
  9
$AUPREC
 70
     0
  9
$MENU
  1
.
  9
$ELEVATION
 40
0.0
  9
$PELEVATION
 40
0.0
  9
$THICKNESS
 40
0.0
  9
$LIMCHECK
 70
     0
  9
$CHAMFERA
 40
10.0
  9
$CHAMFERB
 40
10.0
  9
$CHAMFERC
 40
20.0
  9
$CHAMFERD
 40
0.0
  9
$SKPOLY
 70
     0
  9
$TDCREATE
 40
2456114.708436540
  9
$TDUCREATE
 40
2456115.000103206
  9
$TDUPDATE
 40
2456114.710975440
  9
$TDUUPDATE
 40
2456115.002642107
  9
$TDINDWG
 40
0.0001020023
  9
$TDUSRTIMER
 40
0.0001020023
  9
$USRTIMER
 70
     1
  9
$ANGBASE
 50
0.0
  9
$ANGDIR
 70
     0
  9
$PDMODE
 70
     0
  9
$PDSIZE
 40
-1.0
  9
$PLINEWID
 40
0.0
  9
$SPLFRAME
 70
     0
  9
$SPLINETYPE
 70
     6
  9
$SPLINESEGS
 70
     8
  9
$HANDSEED
  5
3B1
  9
$SURFTAB1
 70
     6
  9
$SURFTAB2
 70
     6
  9
$SURFTYPE
 70
     6
  9
$SURFU
 70
     6
  9
$SURFV
 70
     6
  9
$UCSBASE
  2

  9
$UCSNAME
  2

  9
$UCSORG
 10
0.0
 20
0.0
 30
0.0
  9
$UCSXDIR
 10
1.0
 20
0.0
 30
0.0
  9
$UCSYDIR
 10
0.0
 20
1.0
 30
0.0
  9
$UCSORTHOREF
  2

  9
$UCSORTHOVIEW
 70
     0
  9
$UCSORGTOP
 10
0.0
 20
0.0
 30
0.0
  9
$UCSORGBOTTOM
 10
0.0
 20
0.0
 30
0.0
  9
$UCSORGLEFT
 10
0.0
 20
0.0
 30
0.0
  9
$UCSORGRIGHT
 10
0.0
 20
0.0
 30
0.0
  9
$UCSORGFRONT
 10
0.0
 20
0.0
 30
0.0
  9
$UCSORGBACK
 10
0.0
 20
0.0
 30
0.0
  9
$PUCSBASE
  2

  9
$PUCSNAME
  2

  9
$PUCSORG
 10
0.0
 20
0.0
 30
0.0
  9
$PUCSXDIR
 10
1.0
 20
0.0
 30
0.0
  9
$PUCSYDIR
 10
0.0
 20
1.0
 30
0.0
  9
$PUCSORTHOREF
  2

  9
$PUCSORTHOVIEW
 70
     0
  9
$PUCSORGTOP
 10
0.0
 20
0.0
 30
0.0
  9
$PUCSORGBOTTOM
 10
0.0
 20
0.0
 30
0.0
  9
$PUCSORGLEFT
 10
0.0
 20
0.0
 30
0.0
  9
$PUCSORGRIGHT
 10
0.0
 20
0.0
 30
0.0
  9
$PUCSORGFRONT
 10
0.0
 20
0.0
 30
0.0
  9
$PUCSORGBACK
 10
0.0
 20
0.0
 30
0.0
  9
$USERI1
 70
     0
  9
$USERI2
 70
     0
  9
$USERI3
 70
     0
  9
$USERI4
 70
     0
  9
$USERI5
 70
     0
  9
$USERR1
 40
0.0
  9
$USERR2
 40
0.0
  9
$USERR3
 40
0.0
  9
$USERR4
 40
0.0
  9
$USERR5
 40
0.0
  9
$WORLDVIEW
 70
     1
  9
$SHADEDGE
 70
     3
  9
$SHADEDIF
 70
    70
  9
$TILEMODE
 70
     1
  9
$MAXACTVP
 70
    64
  9
$PINSBASE
 10
0.0
 20
0.0
 30
0.0
  9
$PLIMCHECK
 70
     0
  9
$PEXTMIN
 10
1.000000000000000E+20
 20
1.000000000000000E+20
 30
1.000000000000000E+20
  9
$PEXTMAX
 10
-1.000000000000000E+20
 20
-1.000000000000000E+20
 30
-1.000000000000000E+20
  9
$PLIMMIN
 10
0.0
 20
0.0
  9
$PLIMMAX
 10
420.0
 20
297.0
  9
$UNITMODE
 70
     0
  9
$VISRETAIN
 70
     1
  9
$PLINEGEN
 70
     0
  9
$PSLTSCALE
 70
     1
  9
$TREEDEPTH
 70
  3020
  9
$CMLSTYLE
  2
Standard
  9
$CMLJUST
 70
     0
  9
$CMLSCALE
 40
20.0
  9
$PROXYGRAPHICS
 70
     1
  9
$MEASUREMENT
 70
     1
  9
$CELWEIGHT
370
    -1
  9
$ENDCAPS
280
     0
  9
$JOINSTYLE
280
     0
  9
$LWDISPLAY
290
     1
  9
$INSUNITS
 70
     4
  9
$HYPERLINKBASE
  1

  9
$STYLESHEET
  1

  9
$XEDIT
290
     1
  9
$CEPSNTYPE
380
     0
  9
$PSTYLEMODE
290
     1
  9
$FINGERPRINTGUID
  2
{2ADAD0DE-FA90-4D1E-8C7E-D065C4DB986F}
  9
$VERSIONGUID
  2
{FAEB1C32-E019-11D5-929B-00C0DF256EC4}
  9
$EXTNAMES
290
     1
  9
$PSVPSCALE
 40
0.0
  9
$OLESTARTUP
290
     0
  9
$SORTENTS
280
   127
  9
$INDEXCTL
280
     0
  9
$HIDETEXT
280
     1
  9
$XCLIPFRAME
280
     2
  9
$HALOGAP
280
     0
  9
$OBSCOLOR
 70
   257
  9
$OBSLTYPE
280
     0
  9
$INTERSECTIONDISPLAY
280
     0
  9
$INTERSECTIONCOLOR
 70
   257
  9
$DIMASSOC
280
     2
  9
$PROJECTNAME
  1

  9
$CAMERADISPLAY
290
     0
  9
$LENSLENGTH
 40
50.0
  9
$CAMERAHEIGHT
 40
0.0
  9
$STEPSPERSEC
 40
2.0
  9
$STEPSIZE
 40
6.0
  9
$3DDWFPREC
 40
2.0
  9
$PSOLWIDTH
 40
5.0
  9
$PSOLHEIGHT
 40
80.0
  9
$LOFTANG1
 40
1.570796326794896
  9
$LOFTANG2
 40
1.570796326794896
  9
$LOFTMAG1
 40
0.0
  9
$LOFTMAG2
 40
0.0
  9
$LOFTPARAM
 70
     7
  9
$LOFTNORMALS
280
     1
  9
$LATITUDE
 40
37.795
  9
$LONGITUDE
 40
-122.394
  9
$NORTHDIRECTION
 40
0.0
  9
$TIMEZONE
 70
 -8000
  9
$LIGHTGLYPHDISPLAY
280
     1
  9
$TILEMODELIGHTSYNCH
280
     1
  9
$CMATERIAL
347
3C
  9
$SOLIDHIST
280
     1
  9
$SHOWHIST
280
     1
  9
$DWFFRAME
280
     2
  9
$DGNFRAME
280
     2
  9
$REALWORLDSCALE
290
     1
  9
$INTERFERECOLOR
 62
   256
  9
$INTERFEREOBJVS
345
33
  9
$INTERFEREVPVS
346
398
  9
$CSHADOW
280
     0
  9
$SHADOWPLANELOCATION
 40
0.0
  0
ENDSEC
  0
SECTION
  2
CLASSES
  0
CLASS
  1
ACDBDICTIONARYWDFLT
  2
AcDbDictionaryWithDefault
  3
ObjectDBX Classes
 90
        0
 91
        1
280
     0
281
     0
  0
CLASS
  1
VISUALSTYLE
  2
AcDbVisualStyle
  3
ObjectDBX Classes
 90
     4095
 91
       26
280
     0
281
     0
  0
CLASS
  1
MATERIAL
  2
AcDbMaterial
  3
ObjectDBX Classes
 90
     1153
 91
        3
280
     0
281
     0
  0
CLASS
  1
IMAGEDEF
  2
AcDbRasterImageDef
  3
ISM
 90
        0
 91
        1
280
     0
281
     0
  0
CLASS
  1
IMAGE
  2
AcDbRasterImage
  3
ISM
 90
     2175
 91
        1
280
     0
281
     1
  0
CLASS
  1
IMAGEDEF_REACTOR
  2
AcDbRasterImageDefReactor
  3
ISM
 90
        1
 91
        1
280
     0
281
     0
  0
CLASS
  1
SCALE
  2
AcDbScale
  3
ObjectDBX Classes
 90
     1153
 91
       33
280
     0
281
     0
  0
CLASS
  1
DICTIONARYVAR
  2
AcDbDictionaryVar
  3
ObjectDBX Classes
 90
        0
 91
        3
280
     0
281
     0
  0
CLASS
  1
RASTERVARIABLES
  2
AcDbRasterVariables
  3
ISM
 90
        0
 91
        1
280
     0
281
     0
  0
CLASS
  1
TABLESTYLE
  2
AcDbTableStyle
  3
ObjectDBX Classes
 90
     4095
 91
        1
280
     0
281
     0
  0
CLASS
  1
MLEADERSTYLE
  2
AcDbMLeaderStyle
  3
ACDB_MLEADERSTYLE_CLASS
 90
     4095
 91
        1
280
     0
281
     0
  0
CLASS
  1
CELLSTYLEMAP
  2
AcDbCellStyleMap
  3
ObjectDBX Classes
 90
     1152
 91
        1
280
     0
281
     0
  0
ENDSEC
  0
SECTION
  2
TABLES
  0
TABLE
  2
VPORT
  5
8
330
0
100
AcDbSymbolTable
 70
     1
  0
VPORT
  5
29
330
8
100
AcDbSymbolTableRecord
100
AcDbViewportTableRecord
  2
*Active
 70
     0
 10
0.0
 20
0.0
 11
1.0
 21
1.0
 12
20.54644003208985
 22
8.995833333333331
 13
0.0
 23
0.0
 14
10.0
 24
10.0
 15
10.0
 25
10.0
 16
0.0
 26
0.0
 36
1.0
 17
0.0
 27
0.0
 37
0.0
 40
17.99166666666666
 41
2.283995186522262
 42
50.0
 43
0.0
 44
0.0
 50
0.0
 51
0.0
 71
     0
 72
  2000
 73
     1
 74
     3
 75
     0
 76
     0
 77
     0
 78
     0
281
     0
 65
     1
110
0.0
120
0.0
130
0.0
111
1.0
121
0.0
131
0.0
112
0.0
122
1.0
132
0.0
 79
     0
146
0.0
348
2F
 60
     3
 61
     5
292
     1
282
     1
141
0.0
142
0.0
 63
   250
  0
ENDTAB
  0
TABLE
  2
LTYPE
  5
5
330
0
100
AcDbSymbolTable
 70
     6
  0
LTYPE
  5
14
330
5
100
AcDbSymbolTableRecord
100
AcDbLinetypeTableRecord
  2
ByBlock
 70
     0
  3

 72
    65
 73
     0
 40
0.0
  0
LTYPE
  5
15
330
5
100
AcDbSymbolTableRecord
100
AcDbLinetypeTableRecord
  2
ByLayer
 70
     0
  3

 72
    65
 73
     0
 40
0.0
  0
LTYPE
  5
16
330
5
100
AcDbSymbolTableRecord
100
AcDbLinetypeTableRecord
  2
Continuous
 70
     0
  3
Solid line
 72
    65
 73
     0
 40
0.0
  0
LTYPE
  5
3F
330
5
100
AcDbSymbolTableRecord
100
AcDbLinetypeTableRecord
  2
HIDDEN
 70
     0
  3
Hidden __ __ __ __ __ __ __ __ __ __ __ __ __ __
 72
    65
 73
     2
 40
1.905
 49
1.27
 74
     0
 49
-0.635
 74
     0
  0
LTYPE
  5
40
330
5
100
AcDbSymbolTableRecord
100
AcDbLinetypeTableRecord
  2
PHANTOM
 70
     0
  3
Phantom ______  __  __  ______  __  __  ______
 72
    65
 73
     6
 40
12.7
 49
6.349999999999999
 74
     0
 49
-1.27
 74
     0
 49
1.27
 74
     0
 49
-1.27
 74
     0
 49
1.27
 74
     0
 49
-1.27
 74
     0
  0
LTYPE
  5
41
330
5
100
AcDbSymbolTableRecord
100
AcDbLinetypeTableRecord
  2
CENTER
 70
     0
  3
Center ____ _ ____ _ ____ _ ____ _ ____ _ ____
 72
    65
 73
     4
 40
10.16
 49
6.349999999999999
 74
     0
 49
-1.27
 74
     0
 49
1.27
 74
     0
 49
-1.27
 74
     0
  0
LTYPE
  5
42
330
5
100
AcDbSymbolTableRecord
100
AcDbLinetypeTableRecord
  2
CENTERX2
 70
     0
  3
Center (2x) ________  __  ________  __  _____
 72
    65
 73
     4
 40
20.32
 49
12.7
 74
     0
 49
-2.54
 74
     0
 49
2.54
 74
     0
 49
-2.54
 74
     0
  0
LTYPE
  5
43
330
5
100
AcDbSymbolTableRecord
100
AcDbLinetypeTableRecord
  2
DOT2
 70
     0
  3
Dot (.5x) ........................................
 72
    65
 73
     2
 40
0.635
 49
0.0
 74
     0
 49
-0.635
 74
     0
  0
ENDTAB
  0
TABLE
  2
LAYER
  5
2
330
0
100
AcDbSymbolTable
 70
     2
  0
LAYER
  5
10
330
2
100
AcDbSymbolTableRecord
100
AcDbLayerTableRecord
  2
0
 70
     0
 62
     7
  6
Continuous
370
    -3
390
F
347
3E
  0
LAYER
  5
44
330
2
100
AcDbSymbolTableRecord
100
AcDbLayerTableRecord
  2
FORMAT
 70
     0
 62
     7
  6
Continuous
370
    -3
390
F
347
3E
  0
ENDTAB
  0
TABLE
  2
STYLE
  5
3
330
0
100
AcDbSymbolTable
 70
     4
  0
STYLE
  5
11
330
3
100
AcDbSymbolTableRecord
100
AcDbTextStyleTableRecord
  2
STANDARD
 70
     0
 40
0.0
 41
1.0
 50
0.0
 71
     0
 42
2.5
  3
GOTHIC.TTF
  4

1001
ACAD
1000
CENTURY GOTHIC
1071
       34
  0
STYLE
  5
68
330
3
100
AcDbSymbolTableRecord
100
AcDbTextStyleTableRecord
  2
SLDTEXTSTYLE0
 70
     0
 40
0.0
 41
0.913
 50
0.0
 71
     0
 42
0.2
  3
GOTHIC.TTF
  4

1001
ACAD
1000
Century Gothic
1071
      290
  0
STYLE
  5
BB
330
3
100
AcDbSymbolTableRecord
100
AcDbTextStyleTableRecord
  2
SLDTEXTSTYLE1
 70
     0
 40
0.0
 41
0.913
 50
0.0
 71
     0
 42
0.2
  3
GOTHIC.TTF
  4

1001
ACAD
1000
Century Gothic
1071
 33554722
  0
STYLE
  5
CB
330
3
100
AcDbSymbolTableRecord
100
AcDbTextStyleTableRecord
  2
SLDTEXTSTYLE2
 70
     0
 40
0.0
 41
0.948
 50
0.0
 71
     0
 42
0.2
  3
ARIAL.TTF
  4

1001
ACAD
1000
Arial
1071
      290
  0
ENDTAB
  0
TABLE
  2
VIEW
  5
6
330
0
100
AcDbSymbolTable
 70
     0
  0
ENDTAB
  0
TABLE
  2
UCS
  5
7
330
0
100
AcDbSymbolTable
 70
     0
  0
ENDTAB
  0
TABLE
  2
APPID
  5
9
330
0
100
AcDbSymbolTable
 70
     1
  0
APPID
  5
12
330
9
100
AcDbSymbolTableRecord
100
AcDbRegAppTableRecord
  2
ACAD
 70
     0
  0
ENDTAB
  0
TABLE
  2
DIMSTYLE
  5
A
330
0
100
AcDbSymbolTable
 70
    14
100
AcDbDimStyleTable
 71
     0
  0
DIMSTYLE
105
27
330
A
100
AcDbSymbolTableRecord
100
AcDbDimStyleTableRecord
  2
ISO-25
 70
     0
 41
2.5
 42
0.625
 43
3.75
 44
1.25
 73
     0
 74
     0
 77
     1
 78
     8
140
2.5
141
2.5
143
0.03937007874016
147
0.625
171
     3
172
     1
271
     2
272
     2
274
     3
278
    44
283
     0
284
     8
340
11
  0
DIMSTYLE
105
243
102
{ACAD_REACTORS
330
242
330
24E
102
}
330
A
100
AcDbSymbolTableRecord
100
AcDbDimStyleTableRecord
  2
SLDDIMSTYLE0
 70
     0
 41
0.1666666666666666
 44
0.0
 45
0.000000001
 78
    12
140
0.2204861111111111
144
0.8333333333333332
147
0.0551215277777778
173
     1
271
     2
272
     2
276
     2
284
    12
340
68
  0
DIMSTYLE
105
25A
102
{ACAD_REACTORS
330
259
330
272
102
}
330
A
100
AcDbSymbolTableRecord
100
AcDbDimStyleTableRecord
  2
SLDDIMSTYLE1
 70
     0
 41
0.1666666666666666
 44
0.0
 45
0.000000001
 78
    12
140
0.2204861111111111
144
0.8333333333333332
147
0.0551215277777778
173
     1
271
     3
272
     3
276
     2
284
    12
340
68
  0
DIMSTYLE
105
266
102
{ACAD_REACTORS
330
265
330
2AA
102
}
330
A
100
AcDbSymbolTableRecord
100
AcDbDimStyleTableRecord
  2
SLDDIMSTYLE2
 70
     0
 41
0.1666666666666666
 44
0.0
 45
0.000000001
 78
     4
140
0.2204861111111111
144
0.8333333333333332
147
0.0551215277777778
173
     1
271
     3
272
     3
276
     2
284
    12
340
68
  0
DIMSTYLE
105
27E
102
{ACAD_REACTORS
330
27D
330
289
330
294
330
29F
102
}
330
A
100
AcDbSymbolTableRecord
100
AcDbDimStyleTableRecord
  2
SLDDIMSTYLE3
 70
     0
 41
0.1666666666666666
 44
0.0
 45
0.000000001
 78
     4
140
0.2204861111111111
144
0.8333333333333332
147
0.0551215277777778
173
     1
271
     3
272
     3
276
     2
284
    12
340
68
  0
DIMSTYLE
105
2BB
330
A
100
AcDbSymbolTableRecord
100
AcDbDimStyleTableRecord
  2
SLDDIMSTYLE4
 70
     0
 41
0.1666666666666666
 44
0.0
 45
0.000000001
140
0.0
146
0.1666666666666666
147
0.0
173
     1
271
     0
272
     0
276
     2
340
11
  0
DIMSTYLE
105
2CD
330
A
100
AcDbSymbolTableRecord
100
AcDbDimStyleTableRecord
  2
SLDDIMSTYLE5
 70
     0
 41
0.0416666666666667
 44
0.0
 45
0.000000001
140
0.0
146
0.0416666666666667
147
0.0
173
     1
271
     0
272
     0
276
     2
340
11
341
2CE
343
2CE
344
2CE
  0
DIMSTYLE
105
334
102
{ACAD_REACTORS
330
333
102
}
330
A
100
AcDbSymbolTableRecord
100
AcDbDimStyleTableRecord
  2
SLDDIMSTYLE6
 70
     0
 41
0.1666666666666666
 44
0.0
 45
0.000000001
 78
     4
140
0.2204861111111111
144
0.25
147
0.0551215277777778
173
     1
271
     2
272
     2
276
     2
284
    12
340
68
  0
DIMSTYLE
105
340
102
{ACAD_REACTORS
330
33F
102
}
330
A
100
AcDbSymbolTableRecord
100
AcDbDimStyleTableRecord
  2
SLDDIMSTYLE7
 70
     0
 41
0.1666666666666666
 44
0.0
 45
0.000000001
 78
     4
140
0.2204861111111111
144
0.25
147
0.0551215277777778
173
     1
271
     2
272
     2
276
     2
284
    12
340
68
  0
DIMSTYLE
105
34C
102
{ACAD_REACTORS
330
34B
102
}
330
A
100
AcDbSymbolTableRecord
100
AcDbDimStyleTableRecord
  2
SLDDIMSTYLE8
 70
     0
 41
0.1666666666666666
 44
0.0
 45
0.000000001
 78
     4
140
0.2204861111111111
144
0.25
147
0.0551215277777778
173
     1
271
     3
272
     3
276
     2
284
    12
340
68
  0
DIMSTYLE
105
35A
102
{ACAD_REACTORS
330
359
102
}
330
A
100
AcDbSymbolTableRecord
100
AcDbDimStyleTableRecord
  2
SLDDIMSTYLE9
 70
     0
 41
0.1666666666666666
 44
0.0
 45
0.000000001
 78
    12
140
0.2204861111111111
144
0.25
147
0.0551215277777778
173
     1
271
     3
272
     3
276
     2
284
    12
340
68
  0
DIMSTYLE
105
369
102
{ACAD_REACTORS
330
368
102
}
330
A
100
AcDbSymbolTableRecord
100
AcDbDimStyleTableRecord
  2
SLDDIMSTYLE10
 70
     0
 41
0.1666666666666666
 44
0.0
 45
0.000000001
 78
    12
140
0.2204861111111111
144
0.25
147
0.0551215277777778
173
     1
271
     2
272
     3
276
     2
284
    12
340
68
  0
DIMSTYLE
105
375
102
{ACAD_REACTORS
330
374
102
}
330
A
100
AcDbSymbolTableRecord
100
AcDbDimStyleTableRecord
  2
SLDDIMSTYLE11
 70
     0
 41
0.1666666666666666
 44
0.0
 45
0.000000001
 78
    12
140
0.2204861111111111
141
0.0
144
0.25
147
0.0551215277777778
173
     1
271
     2
272
     3
276
     2
284
    12
340
68
  0
DIMSTYLE
105
37F
102
{ACAD_REACTORS
330
37E
102
}
330
A
100
AcDbSymbolTableRecord
100
AcDbDimStyleTableRecord
  2
SLDDIMSTYLE12
 70
     0
 41
0.1666666666666666
 44
0.0
 45
0.000000001
 78
     4
140
0.2204861111111111
144
0.25
147
0.0551215277777778
173
     1
271
     2
272
     3
276
     2
284
    12
340
68
  0
ENDTAB
  0
TABLE
  2
BLOCK_RECORD
  5
1
330
0
100
AcDbSymbolTable
 70
    28
  0
BLOCK_RECORD
  5
1F
330
1
100
AcDbSymbolTableRecord
100
AcDbBlockTableRecord
  2
*Model_Space
340
22
 70
     0
280
     1
281
     0
  0
BLOCK_RECORD
  5
1B
330
1
100
AcDbSymbolTableRecord
100
AcDbBlockTableRecord
  2
*Paper_Space
340
1E
 70
     0
280
     1
281
     0
  0
BLOCK_RECORD
  5
23
330
1
100
AcDbSymbolTableRecord
100
AcDbBlockTableRecord
  2
*Paper_Space0
340
26
 70
     0
280
     1
281
     0
  0
BLOCK_RECORD
  5
45
330
1
100
AcDbSymbolTableRecord
100
AcDbBlockTableRecord
  2
Block1
340
0
 70
     0
280
     1
281
     0
  0
BLOCK_RECORD
  5
65
330
1
100
AcDbSymbolTableRecord
100
AcDbBlockTableRecord
  2
SW_NOTE_18
340
0
102
{BLKREFS
331
8D
102
}
 70
     0
280
     1
281
     0
  0
BLOCK_RECORD
  5
8E
330
1
100
AcDbSymbolTableRecord
100
AcDbBlockTableRecord
  2
SW_NOTE_19
340
0
102
{BLKREFS
331
B3
102
}
 70
     0
280
     1
281
     0
  0
BLOCK_RECORD
  5
B4
330
1
100
AcDbSymbolTableRecord
100
AcDbBlockTableRecord
  2
SW_NOTE_20
340
0
102
{BLKREFS
331
B9
102
}
 70
     0
280
     1
281
     0
  0
BLOCK_RECORD
  5
C3
330
1
100
AcDbSymbolTableRecord
100
AcDbBlockTableRecord
  2
SW_NOTE_21
340
0
102
{BLKREFS
331
C8
102
}
 70
     0
280
     1
281
     0
  0
BLOCK_RECORD
  5
244
330
1
100
AcDbSymbolTableRecord
100
AcDbBlockTableRecord
  2
*D6
340
0
 70
     0
280
     1
281
     0
  0
BLOCK_RECORD
  5
24F
330
1
100
AcDbSymbolTableRecord
100
AcDbBlockTableRecord
  2
*D7
340
0
 70
     0
280
     1
281
     0
  0
BLOCK_RECORD
  5
25B
330
1
100
AcDbSymbolTableRecord
100
AcDbBlockTableRecord
  2
*D8
340
0
 70
     0
280
     1
281
     0
  0
BLOCK_RECORD
  5
267
330
1
100
AcDbSymbolTableRecord
100
AcDbBlockTableRecord
  2
*D9
340
0
 70
     0
280
     1
281
     0
  0
BLOCK_RECORD
  5
273
330
1
100
AcDbSymbolTableRecord
100
AcDbBlockTableRecord
  2
*D10
340
0
 70
     0
280
     1
281
     0
  0
BLOCK_RECORD
  5
27F
330
1
100
AcDbSymbolTableRecord
100
AcDbBlockTableRecord
  2
*D11
340
0
 70
     0
280
     1
281
     0
  0
BLOCK_RECORD
  5
28A
330
1
100
AcDbSymbolTableRecord
100
AcDbBlockTableRecord
  2
*D12
340
0
 70
     0
280
     1
281
     0
  0
BLOCK_RECORD
  5
295
330
1
100
AcDbSymbolTableRecord
100
AcDbBlockTableRecord
  2
*D13
340
0
 70
     0
280
     1
281
     0
  0
BLOCK_RECORD
  5
2A0
330
1
100
AcDbSymbolTableRecord
100
AcDbBlockTableRecord
  2
*D14
340
0
 70
     0
280
     1
281
     0
  0
BLOCK_RECORD
  5
2AB
330
1
100
AcDbSymbolTableRecord
100
AcDbBlockTableRecord
  2
*D15
340
0
 70
     0
280
     1
281
     0
  0
BLOCK_RECORD
  5
2B5
330
1
100
AcDbSymbolTableRecord
100
AcDbBlockTableRecord
  2
SW_NOTE_22
340
0
102
{BLKREFS
331
2BA
102
}
 70
     0
280
     1
281
     0
  0
BLOCK_RECORD
  5
2BD
330
1
100
AcDbSymbolTableRecord
100
AcDbBlockTableRecord
  2
SW_NOTE_23
340
0
102
{BLKREFS
331
2C3
102
}
 70
     0
280
     1
281
     0
  0
BLOCK_RECORD
  5
2C5
330
1
100
AcDbSymbolTableRecord
100
AcDbBlockTableRecord
  2
SW_NOTE_24
340
0
102
{BLKREFS
331
2CA
102
}
 70
     0
280
     1
281
     0
  0
BLOCK_RECORD
  5
2CE
330
1
100
AcDbSymbolTableRecord
100
AcDbBlockTableRecord
  2
_DOT
340
0
 70
     0
280
     1
281
     0
  0
BLOCK_RECORD
  5
335
330
1
100
AcDbSymbolTableRecord
100
AcDbBlockTableRecord
  2
*D20
340
0
 70
     0
280
     1
281
     0
  0
BLOCK_RECORD
  5
341
330
1
100
AcDbSymbolTableRecord
100
AcDbBlockTableRecord
  2
*D21
340
0
 70
     0
280
     1
281
     0
  0
BLOCK_RECORD
  5
34D
330
1
100
AcDbSymbolTableRecord
100
AcDbBlockTableRecord
  2
*D22
340
0
 70
     0
280
     1
281
     0
  0
BLOCK_RECORD
  5
35B
330
1
100
AcDbSymbolTableRecord
100
AcDbBlockTableRecord
  2
*D23
340
0
 70
     0
280
     1
281
     0
  0
BLOCK_RECORD
  5
36A
330
1
100
AcDbSymbolTableRecord
100
AcDbBlockTableRecord
  2
*D24
340
0
 70
     0
280
     1
281
     0
  0
BLOCK_RECORD
  5
376
330
1
100
AcDbSymbolTableRecord
100
AcDbBlockTableRecord
  2
*D25
340
0
 70
     0
280
     1
281
     0
  0
BLOCK_RECORD
  5
380
330
1
100
AcDbSymbolTableRecord
100
AcDbBlockTableRecord
  2
*D26
340
0
 70
     0
280
     1
281
     0
  0
BLOCK_RECORD
  5
38A
330
1
100
AcDbSymbolTableRecord
100
AcDbBlockTableRecord
  2
SW_NOTE_25
340
0
102
{BLKREFS
331
38F
102
}
 70
     0
280
     1
281
     0
  0
ENDTAB
  0
ENDSEC
  0
SECTION
  2
BLOCKS
  0
BLOCK
  5
20
330
1F
100
AcDbEntity
  8
0
100
AcDbBlockBegin
  2
*Model_Space
 70
     0
 10
0.0
 20
0.0
 30
0.0
  3
*Model_Space
  1

  0
ENDBLK
  5
21
330
1F
100
AcDbEntity
  8
0
100
AcDbBlockEnd
  0
BLOCK
  5
1C
330
1B
100
AcDbEntity
 67
     1
  8
0
100
AcDbBlockBegin
  2
*Paper_Space
 70
     0
 10
0.0
 20
0.0
 30
0.0
  3
*Paper_Space
  1

  0
ENDBLK
  5
1D
330
1B
100
AcDbEntity
 67
     1
  8
0
100
AcDbBlockEnd
  0
BLOCK
  5
24
330
23
100
AcDbEntity
 67
     1
  8
0
100
AcDbBlockBegin
  2
*Paper_Space0
 70
     0
 10
0.0
 20
0.0
 30
0.0
  3
*Paper_Space0
  1

  0
ENDBLK
  5
25
330
23
100
AcDbEntity
 67
     1
  8
0
100
AcDbBlockEnd
  0
BLOCK
  5
46
330
45
100
AcDbEntity
  8
0
100
AcDbBlockBegin
  2
Block1
 70
     0
 10
0.0
 20
0.0
 30
0.0
  3
Block1
  1

  0
CIRCLE
  5
48
330
45
100
AcDbEntity
  8
0
  6
Continuous
 62
     7
370
     0
100
AcDbCircle
 10
11.58547793968276
 20
1.253090352234207
 30
0.0
 40
0.225120423317653
  0
CIRCLE
  5
49
330
45
100
AcDbEntity
  8
0
  6
Continuous
 62
     7
370
     0
100
AcDbCircle
 10
11.58547793968276
 20
1.253090352234207
 30
0.0
 40
0.109544330625019
  0
LINE
  5
4A
330
45
100
AcDbEntity
  8
0
  6
Continuous
 62
     7
370
     0
100
AcDbLine
 10
11.88205886380611
 20
1.253090352234207
 30
0.0
 11
11.00831395832574
 21
1.253090352234207
 31
0.0
  0
LINE
  5
4B
330
45
100
AcDbEntity
  8
0
  6
Continuous
 62
     7
370
     0
100
AcDbLine
 10
11.95252216263517
 20
1.253090352234207
 30
0.0
 11
12.07230977064457
 21
1.253090352234207
 31
0.0
  0
LINE
  5
4C
330
45
100
AcDbEntity
  8
0
  6
Continuous
 62
     7
370
     0
100
AcDbLine
 10
12.21675953324415
 20
1.254674841070472
 30
0.0
 11
13.0764117789587
 21
1.254674841070472
 31
0.0
  0
LINE
  5
4D
330
45
100
AcDbEntity
  8
0
  6
Continuous
 62
     7
370
     0
100
AcDbLine
 10
12.33397259614135
 20
1.362634682859225
 30
0.0
 11
12.33397259614135
 21
1.143546021609189
 31
0.0
  0
LINE
  5
4E
330
45
100
AcDbEntity
  8
0
  6
Continuous
 62
     7
370
     0
100
AcDbLine
 10
12.33397259614135
 20
1.143546021609189
 30
0.0
 11
12.9376261927485
 21
1.027969928916553
 31
0.0
  0
LINE
  5
4F
330
45
100
AcDbEntity
  8
0
  6
Continuous
 62
     7
370
     0
100
AcDbLine
 10
12.9376261927485
 20
1.027969928916553
 30
0.0
 11
12.9376261927485
 21
1.478210775551861
 31
0.0
  0
LINE
  5
50
330
45
100
AcDbEntity
  8
0
  6
Continuous
 62
     7
370
     0
100
AcDbLine
 10
12.9376261927485
 20
1.478210775551861
 30
0.0
 11
12.33397259614135
 21
1.362634682859225
 31
0.0
  0
LINE
  5
51
330
45
100
AcDbEntity
  8
0
  6
Continuous
 62
     7
370
     0
100
AcDbLine
 10
11.58547793968276
 20
1.478210775551861
 30
0.0
 11
11.58547793968276
 21
1.577036566463192
 31
0.0
  0
LINE
  5
52
330
45
100
AcDbEntity
  8
0
  6
Continuous
 62
     7
370
     0
100
AcDbLine
 10
11.58547793968276
 20
1.027969928916553
 30
0.0
 11
11.58547793968276
 21
0.9291441380052225
 31
0.0
  0
LINE
  5
53
330
45
100
AcDbEntity
  8
0
  6
Continuous
 62
     7
370
     0
100
AcDbLine
 10
11.58547793968276
 20
1.308404013372672
 30
0.0
 11
11.58547793968276
 21
1.197776691095741
 31
0.0
  0
ENDBLK
  5
47
330
45
100
AcDbEntity
  8
0
100
AcDbBlockEnd
  0
BLOCK
  5
66
330
65
100
AcDbEntity
  8
0
100
AcDbBlockBegin
  2
SW_NOTE_18
 70
     0
 10
0.0
 20
0.0
 30
0.0
  3
SW_NOTE_18
  1

  0
MTEXT
  5
8B
330
65
100
AcDbEntity
  8
0
  6
Continuous
 62
     0
370
     0
100
AcDbMText
 10
0.0
 20
0.3942911783854166
 30
0.0
 40
0.3086805555555555
 41
0.0
 46
0.0
 71
     1
 72
     1
  1
RECOMMENDED PCB 
  7
SLDTEXTSTYLE0
 73
     1
 44
1.0
  0
MTEXT
  5
8C
330
65
100
AcDbEntity
  8
0
  6
Continuous
 62
     0
370
     0
100
AcDbMText
 10
1.299745325619975
 20
-0.017282890714705
 30
0.0
 40
0.3086805555555555
 41
0.0
 46
0.0
 71
     1
 72
     1
  1
LAYOUT
  7
SLDTEXTSTYLE0
 73
     1
 44
1.0
  0
ENDBLK
  5
67
330
65
100
AcDbEntity
  8
0
100
AcDbBlockEnd
  0
BLOCK
  5
8F
330
8E
100
AcDbEntity
  8
0
100
AcDbBlockBegin
  2
SW_NOTE_19
 70
     0
 10
0.0
 20
0.0
 30
0.0
  3
SW_NOTE_19
  1

  0
MTEXT
  5
91
330
8E
100
AcDbEntity
  8
0
  6
Continuous
 62
     0
370
     0
100
AcDbMText
 10
0.0
 20
0.2816365559895837
 30
0.0
 40
0.2204861111111111
 41
0.0
 46
0.0
 71
     1
 72
     1
  1
Notes: (Unless Otherwise Specified).
  7
SLDTEXTSTYLE0
 73
     1
 44
1.0
  0
MTEXT
  5
92
330
8E
100
AcDbEntity
  8
0
  6
Continuous
 62
     0
370
     0
100
AcDbMText
 10
0.8333333147068817
 20
-0.0123449219390746
 30
0.0
 40
0.2204861111111111
 41
0.0
 46
0.0
 71
     1
 72
     1
  1
DIMENSIONS ARE PRESENTED ONLY AS A GUIDELINE. DESIGNERS  SHOULD USE THEIR OWN KNOWLEDGE 
  7
SLDTEXTSTYLE0
 73
     1
 44
1.0
  0
MTEXT
  5
93
330
8E
100
AcDbEntity
  8
0
  6
Continuous
 62
     0
370
     0
100
AcDbMText
 10
0.0
 20
-0.0123449219390746
 30
0.0
 40
0.2204861111111111
 41
0.0
 46
0.0
 71
     1
 72
     1
  1
1.
  7
SLDTEXTSTYLE0
 73
     1
 44
1.0
  0
MTEXT
  5
94
330
8E
100
AcDbEntity
  8
0
  6
Continuous
 62
     0
370
     0
100
AcDbMText
 10
0.8333333147068817
 20
-0.306326399867733
 30
0.0
 40
0.2204861111111111
 41
0.0
 46
0.0
 71
     1
 72
     1
  1
BASE WHEN DESIGNING THE PCB.
  7
SLDTEXTSTYLE0
 73
     1
 44
1.0
  0
MTEXT
  5
95
330
8E
100
AcDbEntity
  8
0
  6
Continuous
 62
     0
370
     0
100
AcDbMText
 10
0.8333333147068817
 20
-0.6003078777963913
 30
0.0
 40
0.2204861111111111
 41
0.0
 46
0.0
 71
     1
 72
     1
  1
SURROUND EACH SIDE OF I/O PERIMETER PADS WITH 0.060~0.075 mm (2.4~3.0mils) NSMD SOLDER MASK 
  7
SLDTEXTSTYLE0
 73
     1
 44
1.0
  0
MTEXT
  5
96
330
8E
100
AcDbEntity
  8
0
  6
Continuous
 62
     0
370
     0
100
AcDbMText
 10
0.0
 20
-0.6003078777963913
 30
0.0
 40
0.2204861111111111
 41
0.0
 46
0.0
 71
     1
 72
     1
  1
2.
  7
SLDTEXTSTYLE0
 73
     1
 44
1.0
  0
MTEXT
  5
97
330
8E
100
AcDbEntity
  8
0
  6
Continuous
 62
     0
370
     0
100
AcDbMText
 10
0.8333333147068817
 20
-0.8942893557250496
 30
0.0
 40
0.2204861111111111
 41
0.0
 46
0.0
 71
     1
 72
     1
  1
OPENING.  OPTIONALLY OK TO USE RECTANGLE (NSMD) MASK OPENING AROUND I/O PADS.
  7
SLDTEXTSTYLE0
 73
     1
 44
1.0
  0
MTEXT
  5
98
330
8E
100
AcDbEntity
  8
0
  6
Continuous
 62
     0
370
     0
100
AcDbMText
 10
0.8333333147068817
 20
-1.188270833653707
 30
0.0
 40
0.2204861111111111
 41
0.0
 46
0.0
 71
     1
 72
     1
  1
ROUNDED PCB LAND PADS REDUCE SOLDER BRIDGING.  PAD CHAMFER ANGLE MAY VARY.
  7
SLDTEXTSTYLE0
 73
     1
 44
1.0
  0
MTEXT
  5
99
330
8E
100
AcDbEntity
  8
0
  6
Continuous
 62
     0
370
     0
100
AcDbMText
 10
0.0
 20
-1.188270833653707
 30
0.0
 40
0.2204861111111111
 41
0.0
 46
0.0
 71
     1
 72
     1
  1
3.
  7
SLDTEXTSTYLE0
 73
     1
 44
1.0
  0
MTEXT
  5
9A
330
8E
100
AcDbEntity
  8
0
  6
Continuous
 62
     0
370
     0
100
AcDbMText
 10
0.8333333147068817
 20
-1.482252311582366
 30
0.0
 40
0.2204861111111111
 41
0.0
 46
0.0
 71
     1
 72
     1
  1
PCB LANDS SHOULD BE 0.2mm LONGER THAN THE PACKAGE I/O PADS.
  7
SLDTEXTSTYLE0
 73
     1
 44
1.0
  0
MTEXT
  5
9B
330
8E
100
AcDbEntity
  8
0
  6
Continuous
 62
     0
370
     0
100
AcDbMText
 10
0.0
 20
-1.482252311582366
 30
0.0
 40
0.2204861111111111
 41
0.0
 46
0.0
 71
     1
 72
     1
  1
4.
  7
SLDTEXTSTYLE0
 73
     1
 44
1.0
  0
MTEXT
  5
9C
330
8E
100
AcDbEntity
  8
0
  6
Continuous
 62
     0
370
     0
100
AcDbMText
 10
0.8333333147068817
 20
-1.776233789511025
 30
0.0
 40
0.2204861111111111
 41
0.0
 46
0.0
 71
     1
 72
     1
  1
THE WIDTH OF PERIMETER PCB PADS SHOULD MATCH (1:1) THE WIDTH OF THE PACKAGE PADS.
  7
SLDTEXTSTYLE0
 73
     1
 44
1.0
  0
MTEXT
  5
9D
330
8E
100
AcDbEntity
  8
0
  6
Continuous
 62
     0
370
     0
100
AcDbMText
 10
0.0
 20
-1.776233789511025
 30
0.0
 40
0.2204861111111111
 41
0.0
 46
0.0
 71
     1
 72
     1
  1
5.
  7
SLDTEXTSTYLE0
 73
     1
 44
1.0
  0
MTEXT
  5
9E
330
8E
100
AcDbEntity
  8
0
  6
Continuous
 62
     0
370
     0
100
AcDbMText
 10
0.8333333147068817
 20
-2.070215267439683
 30
0.0
 40
0.2204861111111111
 41
0.0
 46
0.0
 71
     1
 72
     1
  1
REFER TO INDUSTRY REFERENCES SUCH AS IPC-SM-782 FOR PCB LAND PATTERN DESIGN.
  7
SLDTEXTSTYLE0
 73
     1
 44
1.0
  0
MTEXT
  5
9F
330
8E
100
AcDbEntity
  8
0
  6
Continuous
 62
     0
370
     0
100
AcDbMText
 10
0.0
 20
-2.070215267439683
 30
0.0
 40
0.2204861111111111
 41
0.0
 46
0.0
 71
     1
 72
     1
  1
6.
  7
SLDTEXTSTYLE0
 73
     1
 44
1.0
  0
MTEXT
  5
A0
330
8E
100
AcDbEntity
  8
0
  6
Continuous
 62
     0
370
     0
100
AcDbMText
 10
0.8333333147068817
 20
-2.364196745368341
 30
0.0
 40
0.2204861111111111
 41
0.0
 46
0.0
 71
     1
 72
     1
  1
THERMAL GROUND PADS MAY BE CHANGED TO SUITE REQUIREMENTS OF THE DESIGNER.
  7
SLDTEXTSTYLE0
 73
     1
 44
1.0
  0
MTEXT
  5
A1
330
8E
100
AcDbEntity
  8
0
  6
Continuous
 62
     0
370
     0
100
AcDbMText
 10
0.0
 20
-2.364196745368341
 30
0.0
 40
0.2204861111111111
 41
0.0
 46
0.0
 71
     1
 72
     1
  1
7.
  7
SLDTEXTSTYLE0
 73
     1
 44
1.0
  0
MTEXT
  5
A2
330
8E
100
AcDbEntity
  8
0
  6
Continuous
 62
     0
370
     0
100
AcDbMText
 10
1.666666629413763
 20
-2.658178223296999
 30
0.0
 40
0.2204861111111111
 41
0.0
 46
0.0
 71
     1
 72
     1
  1
MAKE COPPER THERMAL PAD AS LARGE AS POSSIBLE.
  7
SLDTEXTSTYLE0
 73
     1
 44
1.0
  0
MTEXT
  5
A3
330
8E
100
AcDbEntity
  8
0
  6
Continuous
 62
     0
370
     0
100
AcDbMText
 10
0.8333333333333335
 20
-2.658178223296999
 30
0.0
 40
0.2204861111111111
 41
0.0
 46
0.0
 71
     1
 72
     1
  1
A.
  7
SLDTEXTSTYLE0
 73
     1
 44
1.0
  0
MTEXT
  5
A4
330
8E
100
AcDbEntity
  8
0
  6
Continuous
 62
     0
370
     0
100
AcDbMText
 10
1.666666629413763
 20
-2.952159701225658
 30
0.0
 40
0.2204861111111111
 41
0.0
 46
0.0
 71
     1
 72
     1
  1
DRILL MULTIPLE THERMAL VIAS 0.25~0.33mm DIAMETER USING 0.8~1.2mm PITCH GRID.
  7
SLDTEXTSTYLE0
 73
     1
 44
1.0
  0
MTEXT
  5
A5
330
8E
100
AcDbEntity
  8
0
  6
Continuous
 62
     0
370
     0
100
AcDbMText
 10
0.8333333333333335
 20
-2.952159701225658
 30
0.0
 40
0.2204861111111111
 41
0.0
 46
0.0
 71
     1
 72
     1
  1
B.
  7
SLDTEXTSTYLE0
 73
     1
 44
1.0
  0
MTEXT
  5
A6
330
8E
100
AcDbEntity
  8
0
  6
Continuous
 62
     0
370
     0
100
AcDbMText
 10
1.666666629413763
 20
-3.246141179154316
 30
0.0
 40
0.2204861111111111
 41
0.0
 46
0.0
 71
     1
 72
     1
  1
PLATE THERMAL VIA BARRELS WITH 1-OUNCE COPPER (18µm).
  7
SLDTEXTSTYLE0
 73
     1
 44
1.0
  0
MTEXT
  5
A7
330
8E
100
AcDbEntity
  8
0
  6
Continuous
 62
     0
370
     0
100
AcDbMText
 10
0.8333333333333335
 20
-3.246141179154316
 30
0.0
 40
0.2204861111111111
 41
0.0
 46
0.0
 71
     1
 72
     1
  1
C.
  7
SLDTEXTSTYLE0
 73
     1
 44
1.0
  0
MTEXT
  5
A8
330
8E
100
AcDbEntity
  8
0
  6
Continuous
 62
     0
370
     0
100
AcDbMText
 10
1.666666629413763
 20
-3.540122657082974
 30
0.0
 40
0.2204861111111111
 41
0.0
 46
0.0
 71
     1
 72
     1
  1
TENT (COVER) THERMAL VIAS WITH SOLDER MASK 0.1mm LARGER THAN THE VIA DIAMETER.
  7
SLDTEXTSTYLE0
 73
     1
 44
1.0
  0
MTEXT
  5
A9
330
8E
100
AcDbEntity
  8
0
  6
Continuous
 62
     0
370
     0
100
AcDbMText
 10
0.8333333333333335
 20
-3.540122657082974
 30
0.0
 40
0.2204861111111111
 41
0.0
 46
0.0
 71
     1
 72
     1
  1
D.
  7
SLDTEXTSTYLE0
 73
     1
 44
1.0
  0
MTEXT
  5
AA
330
8E
100
AcDbEntity
  8
0
  6
Continuous
 62
     0
370
     0
100
AcDbMText
 10
0.8333333147068817
 20
-3.834104135011632
 30
0.0
 40
0.2204861111111111
 41
0.0
 46
0.0
 71
     1
 72
     1
  1
STENCIL DESIGN MAY BE CHANGED TO SUITE REQUIREMENTS OF THE DESIGNER.
  7
SLDTEXTSTYLE0
 73
     1
 44
1.0
  0
MTEXT
  5
AB
330
8E
100
AcDbEntity
  8
0
  6
Continuous
 62
     0
370
     0
100
AcDbMText
 10
0.0
 20
-3.834104135011632
 30
0.0
 40
0.2204861111111111
 41
0.0
 46
0.0
 71
     1
 72
     1
  1
8.
  7
SLDTEXTSTYLE0
 73
     1
 44
1.0
  0
MTEXT
  5
AC
330
8E
100
AcDbEntity
  8
0
  6
Continuous
 62
     0
370
     0
100
AcDbMText
 10
1.666666629413763
 20
-4.12808561294029
 30
0.0
 40
0.2204861111111111
 41
0.0
 46
0.0
 71
     1
 72
     1
  1
LASER CUT STENCIL 0.125mm (5mil) THICK.  APERTURE SIZE-TO-LAND RATIO OF 1:1.
  7
SLDTEXTSTYLE0
 73
     1
 44
1.0
  0
MTEXT
  5
AD
330
8E
100
AcDbEntity
  8
0
  6
Continuous
 62
     0
370
     0
100
AcDbMText
 10
0.8333333333333335
 20
-4.12808561294029
 30
0.0
 40
0.2204861111111111
 41
0.0
 46
0.0
 71
     1
 72
     1
  1
A.
  7
SLDTEXTSTYLE0
 73
     1
 44
1.0
  0
MTEXT
  5
AE
330
8E
100
AcDbEntity
  8
0
  6
Continuous
 62
     0
370
     0
100
AcDbMText
 10
1.666666629413763
 20
-4.422067090868949
 30
0.0
 40
0.2204861111111111
 41
0.0
 46
0.0
 71
     1
 72
     1
  1
THE SOLDER PASTE OPENING IN THE THERMAL PAD AREA SHOULD BE A MATRIX ARRAY OF 
  7
SLDTEXTSTYLE0
 73
     1
 44
1.0
  0
MTEXT
  5
AF
330
8E
100
AcDbEntity
  8
0
  6
Continuous
 62
     0
370
     0
100
AcDbMText
 10
0.8333333333333335
 20
-4.422067090868949
 30
0.0
 40
0.2204861111111111
 41
0.0
 46
0.0
 71
     1
 72
     1
  1
B.
  7
SLDTEXTSTYLE0
 73
     1
 44
1.0
  0
MTEXT
  5
B0
330
8E
100
AcDbEntity
  8
0
  6
Continuous
 62
     0
370
     0
100
AcDbMText
 10
1.666666629413763
 20
-4.716048568797607
 30
0.0
 40
0.2204861111111111
 41
0.0
 46
0.0
 71
     1
 72
     1
  1
SMALLER APERATURES INSTEAD OF ONE LARGE APERATURE TO CONTROL PASTE AMOUNTS.
  7
SLDTEXTSTYLE0
 73
     1
 44
1.0
  0
MTEXT
  5
B1
330
8E
100
AcDbEntity
  8
0
  6
Continuous
 62
     0
370
     0
100
AcDbMText
 10
1.666666629413763
 20
-5.010030046726265
 30
0.0
 40
0.2204861111111111
 41
0.0
 46
0.0
 71
     1
 72
     1
  1
APPLY 50% TO 80% SOLDER PASTE COVERAGE IN THE PAD AREA.
  7
SLDTEXTSTYLE0
 73
     1
 44
1.0
  0
MTEXT
  5
B2
330
8E
100
AcDbEntity
  8
0
  6
Continuous
 62
     0
370
     0
100
AcDbMText
 10
0.8333333333333335
 20
-5.010030046726265
 30
0.0
 40
0.2204861111111111
 41
0.0
 46
0.0
 71
     1
 72
     1
  1
C.
  7
SLDTEXTSTYLE0
 73
     1
 44
1.0
  0
ENDBLK
  5
90
330
8E
100
AcDbEntity
  8
0
100
AcDbBlockEnd
  0
BLOCK
  5
B5
330
B4
100
AcDbEntity
  8
0
100
AcDbBlockBegin
  2
SW_NOTE_20
 70
     0
 10
0.0
 20
0.0
 30
0.0
  3
SW_NOTE_20
  1

  0
MTEXT
  5
B7
330
B4
100
AcDbEntity
  8
0
  6
Continuous
 62
     0
370
     0
100
AcDbMText
 10
0.0
 20
0.3942911783854166
 30
0.0
 40
0.3086805555555555
 41
0.0
 46
0.0
 71
     1
 72
     1
  1
32-LEAD 7mm P=0.65mm 
  7
SLDTEXTSTYLE0
 73
     1
 44
1.0
  0
MTEXT
  5
B8
330
B4
100
AcDbEntity
  8
0
  6
Continuous
 62
     0
370
     0
100
AcDbMText
 10
0.1719893577198187
 20
-0.017282890714705
 30
0.0
 40
0.3086805555555555
 41
0.0
 46
0.0
 71
     1
 72
     1
  1
QFN CAVITY PACKAGE
  7
SLDTEXTSTYLE0
 73
     1
 44
1.0
  0
ENDBLK
  5
B6
330
B4
100
AcDbEntity
  8
0
100
AcDbBlockEnd
  0
BLOCK
  5
C4
330
C3
100
AcDbEntity
  8
0
100
AcDbBlockBegin
  2
SW_NOTE_21
 70
     0
 10
0.0
 20
0.0
 30
0.0
  3
SW_NOTE_21
  1

  0
MTEXT
  5
C6
330
C3
100
AcDbEntity
  8
0
  6
Continuous
 62
     0
370
     0
100
AcDbMText
 10
0.0
 20
0.3379638671874999
 30
0.0
 40
0.2645833333333333
 41
0.0
 46
0.0
 71
     1
 72
     1
  1
463270
  7
SLDTEXTSTYLE1
 73
     1
 44
1.0
  0
MTEXT
  5
C7
330
C3
100
AcDbEntity
  8
0
  6
Continuous
 62
     0
370
     0
100
AcDbMText
 10
-0.5929851516460378
 20
-0.0148139063268901
 30
0.0
 40
0.2645833333333333
 41
0.0
 46
0.0
 71
     1
 72
     1
  1
M-QFN32W.65
  7
SLDTEXTSTYLE1
 73
     1
 44
1.0
  0
ENDBLK
  5
C5
330
C3
100
AcDbEntity
  8
0
100
AcDbBlockEnd
  0
BLOCK
  5
245
330
244
100
AcDbEntity
  8
0
100
AcDbBlockBegin
  2
*D6
 70
     1
 10
0.0
 20
0.0
 30
0.0
  3
*D6
  1

  0
SOLID
  5
247
330
244
100
AcDbEntity
  8
0
  6
Continuous
 62
     7
440
 16777216
370
     0
100
AcDbTrace
 10
14.72787826987122
 20
14.80128454350008
 30
0.0
 11
14.70704493653789
 21
14.63461787683342
 31
0.0
 12
14.74871160320456
 22
14.63461787683342
 32
0.0
 13
14.74871160320456
 23
14.63461787683342
 33
0.0
  0
SOLID
  5
248
330
244
100
AcDbEntity
  8
0
  6
Continuous
 62
     7
440
 16777216
370
     0
100
AcDbTrace
 10
14.72787826987122
 20
9.515284543500081
 30
0.0
 11
14.74871160320456
 21
9.681951210166747
 31
0.0
 12
14.70704493653789
 22
9.681951210166747
 32
0.0
 13
14.70704493653789
 23
9.681951210166747
 33
0.0
  0
LINE
  5
249
330
244
100
AcDbEntity
  8
0
  6
Continuous
 62
     7
440
 16777216
370
     0
100
AcDbLine
 10
10.11990663134582
 20
14.80128454350008
 30
0.0
 11
14.89454493653789
 21
14.80128454350008
 31
0.0
  0
LINE
  5
24A
330
244
100
AcDbEntity
  8
0
  6
Continuous
 62
     7
440
 16777216
370
     0
100
AcDbLine
 10
10.11990663134582
 20
9.515284543500081
 30
0.0
 11
14.89454493653789
 21
9.515284543500081
 31
0.0
  0
LINE
  5
24B
330
244
100
AcDbEntity
  8
0
  6
Continuous
 62
     7
440
 16777216
370
     0
100
AcDbLine
 10
14.72787826987122
 20
14.80128454350008
 30
0.0
 11
14.72787826987122
 21
12.32579316418974
 31
0.0
  0
LINE
  5
24C
330
244
100
AcDbEntity
  8
0
  6
Continuous
 62
     7
440
 16777216
370
     0
100
AcDbLine
 10
14.72787826987122
 20
9.515284543500081
 30
0.0
 11
14.72787826987122
 21
11.99077592281043
 31
0.0
  0
MTEXT
  5
24D
330
244
100
AcDbEntity
  8
0
  6
Continuous
 62
     7
440
 16777216
370
     0
100
AcDbMText
 10
14.44869723538847
 20
12.27241247394937
 30
-0.000000000000085
 40
0.2204861111111111
 41
0.0
 46
0.0
 71
     1
 72
     1
  1
5.29
  7
SLDTEXTSTYLE0
 73
     1
 44
1.0
  0
ENDBLK
  5
246
330
244
100
AcDbEntity
  8
0
100
AcDbBlockEnd
  0
BLOCK
  5
250
330
24F
100
AcDbEntity
  8
0
100
AcDbBlockBegin
  2
*D7
 70
     1
 10
0.0
 20
0.0
 30
0.0
  3
*D7
  1

  0
SOLID
  5
252
330
24F
100
AcDbEntity
  8
0
  6
Continuous
 62
     7
440
 16777216
370
     0
100
AcDbTrace
 10
15.53884415217033
 20
9.440284543500082
 30
0.0
 11
15.55967748550367
 21
9.606951210166748
 31
0.0
 12
15.518010818837
 22
9.606951210166748
 32
0.0
 13
15.518010818837
 23
9.606951210166748
 33
0.0
  0
SOLID
  5
253
330
24F
100
AcDbEntity
  8
0
  6
Continuous
 62
     7
440
 16777216
370
     0
100
AcDbTrace
 10
15.53884415217033
 20
14.87628454350008
 30
0.0
 11
15.518010818837
 21
14.70961787683342
 31
0.0
 12
15.55967748550367
 22
14.70961787683342
 32
0.0
 13
15.55967748550367
 23
14.70961787683342
 33
0.0
  0
LINE
  5
254
330
24F
100
AcDbEntity
  8
0
  6
Continuous
 62
     7
440
 16777216
370
     0
100
AcDbLine
 10
10.19490663134582
 20
9.440284543500082
 30
0.0
 11
15.705510818837
 21
9.440284543500082
 31
0.0
  0
LINE
  5
255
330
24F
100
AcDbEntity
  8
0
  6
Continuous
 62
     7
440
 16777216
370
     0
100
AcDbLine
 10
10.19490663134582
 20
14.87628454350008
 30
0.0
 11
15.705510818837
 21
14.87628454350008
 31
0.0
  0
LINE
  5
256
330
24F
100
AcDbEntity
  8
0
  6
Continuous
 62
     7
440
 16777216
370
     0
100
AcDbLine
 10
15.53884415217033
 20
9.440284543500082
 30
0.0
 11
15.53884415217033
 21
11.99077592281043
 31
0.0
  0
LINE
  5
257
330
24F
100
AcDbEntity
  8
0
  6
Continuous
 62
     7
440
 16777216
370
     0
100
AcDbLine
 10
15.53884415217033
 20
14.87628454350008
 30
0.0
 11
15.53884415217033
 21
12.32579316418974
 31
0.0
  0
MTEXT
  5
258
330
24F
100
AcDbEntity
  8
0
  6
Continuous
 62
     7
440
 16777216
370
     0
100
AcDbMText
 10
15.25966311768757
 20
12.27241247394937
 30
-0.000000000000085
 40
0.2204861111111111
 41
0.0
 46
0.0
 71
     1
 72
     1
  1
5.44
  7
SLDTEXTSTYLE0
 73
     1
 44
1.0
  0
ENDBLK
  5
251
330
24F
100
AcDbEntity
  8
0
100
AcDbBlockEnd
  0
BLOCK
  5
25C
330
25B
100
AcDbEntity
  8
0
100
AcDbBlockBegin
  2
*D8
 70
     1
 10
0.0
 20
0.0
 30
0.0
  3
*D8
  1

  0
SOLID
  5
25E
330
25B
100
AcDbEntity
  8
0
  6
Continuous
 62
     7
440
 16777216
370
     0
100
AcDbTrace
 10
1.817748002353573
 20
15.65828454350008
 30
0.0
 11
1.79691466902024
 21
15.49161787683342
 31
0.0
 12
1.838581335686907
 22
15.49161787683342
 32
0.0
 13
1.838581335686907
 23
15.49161787683342
 33
0.0
  0
SOLID
  5
25F
330
25B
100
AcDbEntity
  8
0
  6
Continuous
 62
     7
440
 16777216
370
     0
100
AcDbTrace
 10
1.817748002353574
 20
8.658284543500082
 30
0.0
 11
1.838581335686907
 21
8.824951210166748
 31
0.0
 12
1.796914669020241
 22
8.824951210166748
 32
0.0
 13
1.796914669020241
 23
8.824951210166748
 33
0.0
  0
LINE
  5
260
330
25B
100
AcDbEntity
  8
0
  6
Continuous
 62
     7
440
 16777216
370
     0
100
AcDbLine
 10
3.72690663134582
 20
15.65828454350008
 30
0.0
 11
1.651081335686907
 21
15.65828454350008
 31
0.0
  0
LINE
  5
261
330
25B
100
AcDbEntity
  8
0
  6
Continuous
 62
     7
440
 16777216
370
     0
100
AcDbLine
 10
3.72690663134582
 20
8.658284543500082
 30
0.0
 11
1.651081335686908
 21
8.658284543500082
 31
0.0
  0
LINE
  5
262
330
25B
100
AcDbEntity
  8
0
  6
Continuous
 62
     7
440
 16777216
370
     0
100
AcDbLine
 10
1.817748002353573
 20
15.65828454350008
 30
0.0
 11
1.817748002353574
 21
12.32579316418974
 31
0.0
  0
LINE
  5
263
330
25B
100
AcDbEntity
  8
0
  6
Continuous
 62
     7
440
 16777216
370
     0
100
AcDbLine
 10
1.817748002353574
 20
8.658284543500082
 30
0.0
 11
1.817748002353574
 21
11.99077592281043
 31
0.0
  0
MTEXT
  5
264
330
25B
100
AcDbEntity
  8
0
  6
Continuous
 62
     7
440
 16777216
370
     0
100
AcDbMText
 10
1.743299726491504
 20
12.27241247394937
 30
-0.000000000000085
 40
0.2204861111111111
 41
0.0
 46
0.0
 71
     1
 72
     1
  1
7
  7
SLDTEXTSTYLE0
 73
     1
 44
1.0
  0
ENDBLK
  5
25D
330
25B
100
AcDbEntity
  8
0
100
AcDbBlockEnd
  0
BLOCK
  5
268
330
267
100
AcDbEntity
  8
0
100
AcDbBlockBegin
  2
*D9
 70
     1
 10
0.0
 20
0.0
 30
0.0
  3
*D9
  1

  0
SOLID
  5
26A
330
267
100
AcDbEntity
  8
0
  6
Continuous
 62
     7
440
 16777216
370
     0
100
AcDbTrace
 10
3.067086775033259
 20
10.03328454350006
 30
0.0
 11
3.087920108366591
 21
10.19995121016673
 31
0.0
 12
3.046253441699924
 22
10.19995121016673
 32
0.0
 13
3.046253441699924
 23
10.19995121016673
 33
0.0
  0
SOLID
  5
26B
330
267
100
AcDbEntity
  8
0
  6
Continuous
 62
     7
440
 16777216
370
     0
100
AcDbTrace
 10
3.06708677503326
 20
9.733284543500065
 30
0.0
 11
3.046253441699927
 21
9.566617876833399
 31
0.0
 12
3.087920108366594
 22
9.566617876833399
 32
0.0
 13
3.087920108366594
 23
9.566617876833399
 33
0.0
  0
LINE
  5
26C
330
267
100
AcDbEntity
  8
0
  6
Continuous
 62
     7
440
 16777216
370
     0
100
AcDbLine
 10
3.526906631345831
 20
10.03328454350007
 30
0.0
 11
2.900420108366592
 21
10.03328454350006
 31
0.0
  0
LINE
  5
26D
330
267
100
AcDbEntity
  8
0
  6
Continuous
 62
     7
440
 16777216
370
     0
100
AcDbLine
 10
3.526906631345832
 20
9.733284543500067
 30
0.0
 11
2.900420108366593
 21
9.733284543500063
 31
0.0
  0
LINE
  5
26E
330
267
100
AcDbEntity
  8
0
  6
Continuous
 62
     7
440
 16777216
370
     0
100
AcDbLine
 10
2.817086775033259
 20
9.384162957691556
 30
0.0
 11
3.067086775033259
 21
9.384162957691556
 31
0.0
  0
LINE
  5
26F
330
267
100
AcDbEntity
  8
0
  6
Continuous
 62
     7
440
 16777216
370
     0
100
AcDbLine
 10
3.067086775033259
 20
9.384162957691556
 30
0.0
 11
3.06708677503326
 21
9.733284543500065
 31
0.0
  0
LINE
  5
270
330
267
100
AcDbEntity
  8
0
  6
Continuous
 62
     7
440
 16777216
370
     0
100
AcDbLine
 10
3.067086775033259
 20
10.03328454350006
 30
0.0
 11
3.067086775033259
 21
10.3666178768334
 31
0.0
  0
MTEXT
  5
271
330
267
100
AcDbEntity
  8
0
  6
Continuous
 62
     7
440
 16777216
370
     0
100
AcDbMText
 10
1.95892441871142
 20
9.498290888140846
 30
-0.0000000000000656
 40
0.2204861111111111
 41
0.0
 46
0.0
 71
     1
 72
     1
  1
0.300
  7
SLDTEXTSTYLE0
 73
     1
 44
1.0
  0
ENDBLK
  5
269
330
267
100
AcDbEntity
  8
0
100
AcDbBlockEnd
  0
BLOCK
  5
274
330
273
100
AcDbEntity
  8
0
100
AcDbBlockBegin
  2
*D10
 70
     1
 10
0.0
 20
0.0
 30
0.0
  3
*D10
  1

  0
SOLID
  5
276
330
273
100
AcDbEntity
  8
0
  6
Continuous
 62
     7
440
 16777216
370
     0
100
AcDbTrace
 10
3.85190663134582
 20
16.58031155078601
 30
0.0
 11
4.018573298012487
 21
16.55947821745268
 31
0.0
 12
4.018573298012487
 22
16.60114488411935
 32
0.0
 13
4.018573298012487
 23
16.60114488411935
 33
0.0
  0
SOLID
  5
277
330
273
100
AcDbEntity
  8
0
  6
Continuous
 62
     7
440
 16777216
370
     0
100
AcDbTrace
 10
10.85190663134582
 20
16.58031155078601
 30
0.0
 11
10.68523996467915
 21
16.60114488411935
 31
0.0
 12
10.68523996467915
 22
16.55947821745268
 32
0.0
 13
10.68523996467915
 23
16.55947821745268
 33
0.0
  0
LINE
  5
278
330
273
100
AcDbEntity
  8
0
  6
Continuous
 62
     7
440
 16777216
370
     0
100
AcDbLine
 10
3.85190663134582
 20
15.78328454350008
 30
0.0
 11
3.85190663134582
 21
16.74697821745268
 31
0.0
  0
LINE
  5
279
330
273
100
AcDbEntity
  8
0
  6
Continuous
 62
     7
440
 16777216
370
     0
100
AcDbLine
 10
10.85190663134582
 20
15.78328454350008
 30
0.0
 11
10.85190663134582
 21
16.74697821745268
 31
0.0
  0
LINE
  5
27A
330
273
100
AcDbEntity
  8
0
  6
Continuous
 62
     7
440
 16777216
370
     0
100
AcDbLine
 10
3.85190663134582
 20
16.58031155078601
 30
0.0
 11
7.145166688817085
 21
16.58031155078601
 31
0.0
  0
LINE
  5
27B
330
273
100
AcDbEntity
  8
0
  6
Continuous
 62
     7
440
 16777216
370
     0
100
AcDbLine
 10
10.85190663134582
 20
16.58031155078601
 30
0.0
 11
7.558646573874557
 21
16.58031155078601
 31
0.0
  0
MTEXT
  5
27C
330
273
100
AcDbEntity
  8
0
  6
Continuous
 62
     7
440
 16777216
370
     0
100
AcDbMText
 10
7.277458355483752
 20
16.69443948123531
 30
-0.0000000000001159
 40
0.2204861111111111
 41
0.0
 46
0.0
 71
     1
 72
     1
  1
7
  7
SLDTEXTSTYLE0
 73
     1
 44
1.0
  0
ENDBLK
  5
275
330
273
100
AcDbEntity
  8
0
100
AcDbBlockEnd
  0
BLOCK
  5
280
330
27F
100
AcDbEntity
  8
0
100
AcDbBlockBegin
  2
*D11
 70
     1
 10
0.0
 20
0.0
 30
0.0
  3
*D11
  1

  0
SOLID
  5
282
330
27F
100
AcDbEntity
  8
0
  6
Continuous
 62
     7
440
 16777216
370
     0
100
AcDbTrace
 10
2.362670524413312
 20
14.43328454350006
 30
0.0
 11
2.341837191079979
 21
14.26661787683339
 31
0.0
 12
2.383503857746646
 22
14.26661787683339
 32
0.0
 13
2.383503857746646
 23
14.26661787683339
 33
0.0
  0
SOLID
  5
283
330
27F
100
AcDbEntity
  8
0
  6
Continuous
 62
     7
440
 16777216
370
     0
100
AcDbTrace
 10
2.362670524413334
 20
9.883284543500058
 30
0.0
 11
2.383503857746667
 21
10.04995121016672
 31
0.0
 12
2.34183719108
 22
10.04995121016672
 32
0.0
 13
2.34183719108
 23
10.04995121016672
 33
0.0
  0
LINE
  5
284
330
27F
100
AcDbEntity
  8
0
  6
Continuous
 62
     7
440
 16777216
370
     0
100
AcDbLine
 10
3.360239964679141
 20
14.43328454350006
 30
0.0
 11
2.196003857746645
 21
14.43328454350006
 31
0.0
  0
LINE
  5
285
330
27F
100
AcDbEntity
  8
0
  6
Continuous
 62
     7
440
 16777216
370
     0
100
AcDbLine
 10
3.360239964679159
 20
9.883284543500064
 30
0.0
 11
2.196003857746667
 21
9.883284543500058
 31
0.0
  0
LINE
  5
286
330
27F
100
AcDbEntity
  8
0
  6
Continuous
 62
     7
440
 16777216
370
     0
100
AcDbLine
 10
2.362670524413312
 20
14.43328454350006
 30
0.0
 11
2.362670524413322
 21
12.32579316418971
 31
0.0
  0
LINE
  5
287
330
27F
100
AcDbEntity
  8
0
  6
Continuous
 62
     7
440
 16777216
370
     0
100
AcDbLine
 10
2.362670524413334
 20
9.883284543500058
 30
0.0
 11
2.362670524413324
 21
11.9907759228104
 31
0.0
  0
MTEXT
  5
288
330
27F
100
AcDbEntity
  8
0
  6
Continuous
 62
     7
440
 16777216
370
     0
100
AcDbMText
 10
1.999735179585737
 20
12.27241247394935
 30
-0.000000000000085
 40
0.2204861111111111
 41
0.0
 46
0.0
 71
     1
 72
     1
  1
4.550
  7
SLDTEXTSTYLE0
 73
     1
 44
1.0
  0
ENDBLK
  5
281
330
27F
100
AcDbEntity
  8
0
100
AcDbBlockEnd
  0
BLOCK
  5
28B
330
28A
100
AcDbEntity
  8
0
100
AcDbBlockBegin
  2
*D12
 70
     1
 10
0.0
 20
0.0
 30
0.0
  3
*D12
  1

  0
SOLID
  5
28D
330
28A
100
AcDbEntity
  8
0
  6
Continuous
 62
     7
440
 16777216
370
     0
100
AcDbTrace
 10
1.243573298012479
 20
15.85828454350008
 30
0.0
 11
1.222739964679146
 21
15.69161787683341
 31
0.0
 12
1.264406631345812
 22
15.69161787683341
 32
0.0
 13
1.264406631345812
 23
15.69161787683341
 33
0.0
  0
SOLID
  5
28E
330
28A
100
AcDbEntity
  8
0
  6
Continuous
 62
     7
440
 16777216
370
     0
100
AcDbTrace
 10
1.243573298012479
 20
8.458284543500083
 30
0.0
 11
1.264406631345812
 21
8.624951210166749
 31
0.0
 12
1.222739964679146
 22
8.624951210166749
 32
0.0
 13
1.222739964679146
 23
8.624951210166749
 33
0.0
  0
LINE
  5
28F
330
28A
100
AcDbEntity
  8
0
  6
Continuous
 62
     7
440
 16777216
370
     0
100
AcDbLine
 10
4.80190663134582
 20
15.85828454350008
 30
0.0
 11
1.076906631345812
 21
15.85828454350008
 31
0.0
  0
LINE
  5
290
330
28A
100
AcDbEntity
  8
0
  6
Continuous
 62
     7
440
 16777216
370
     0
100
AcDbLine
 10
4.801906631345823
 20
8.458284543500083
 30
0.0
 11
1.076906631345812
 21
8.458284543500083
 31
0.0
  0
LINE
  5
291
330
28A
100
AcDbEntity
  8
0
  6
Continuous
 62
     7
440
 16777216
370
     0
100
AcDbLine
 10
1.243573298012479
 20
15.85828454350008
 30
0.0
 11
1.243573298012479
 21
12.32579316418974
 31
0.0
  0
LINE
  5
292
330
28A
100
AcDbEntity
  8
0
  6
Continuous
 62
     7
440
 16777216
370
     0
100
AcDbLine
 10
1.243573298012479
 20
8.458284543500083
 30
0.0
 11
1.243573298012479
 21
11.99077592281043
 31
0.0
  0
MTEXT
  5
293
330
28A
100
AcDbEntity
  8
0
  6
Continuous
 62
     7
440
 16777216
370
     0
100
AcDbMText
 10
0.8806379531848932
 20
12.27241247394937
 30
-0.000000000000085
 40
0.2204861111111111
 41
0.0
 46
0.0
 71
     1
 72
     1
  1
7.400
  7
SLDTEXTSTYLE0
 73
     1
 44
1.0
  0
ENDBLK
  5
28C
330
28A
100
AcDbEntity
  8
0
100
AcDbBlockEnd
  0
BLOCK
  5
296
330
295
100
AcDbEntity
  8
0
100
AcDbBlockBegin
  2
*D13
 70
     1
 10
0.0
 20
0.0
 30
0.0
  3
*D13
  1

  0
SOLID
  5
298
330
295
100
AcDbEntity
  8
0
  6
Continuous
 62
     7
440
 16777216
370
     0
100
AcDbTrace
 10
5.076906631345814
 20
16.21163484351342
 30
0.0
 11
5.243573298012481
 21
16.19080151018009
 31
0.0
 12
5.243573298012481
 22
16.23246817684676
 32
0.0
 13
5.243573298012481
 23
16.23246817684676
 33
0.0
  0
SOLID
  5
299
330
295
100
AcDbEntity
  8
0
  6
Continuous
 62
     7
440
 16777216
370
     0
100
AcDbTrace
 10
9.626906631345814
 20
16.21163484351342
 30
0.0
 11
9.460239964679148
 21
16.23246817684676
 31
0.0
 12
9.460239964679148
 22
16.19080151018009
 32
0.0
 13
9.460239964679148
 23
16.19080151018009
 33
0.0
  0
LINE
  5
29A
330
295
100
AcDbEntity
  8
0
  6
Continuous
 62
     7
440
 16777216
370
     0
100
AcDbLine
 10
5.076906631345814
 20
16.14995121016674
 30
0.0
 11
5.076906631345814
 21
16.37830151018009
 31
0.0
  0
LINE
  5
29B
330
295
100
AcDbEntity
  8
0
  6
Continuous
 62
     7
440
 16777216
370
     0
100
AcDbLine
 10
9.626906631345814
 20
16.14995121016675
 30
0.0
 11
9.626906631345814
 21
16.37830151018009
 31
0.0
  0
LINE
  5
29C
330
295
100
AcDbEntity
  8
0
  6
Continuous
 62
     7
440
 16777216
370
     0
100
AcDbLine
 10
5.076906631345814
 20
16.21163484351342
 30
0.0
 11
6.856679619851561
 21
16.21163484351342
 31
0.0
  0
LINE
  5
29D
330
295
100
AcDbEntity
  8
0
  6
Continuous
 62
     7
440
 16777216
370
     0
100
AcDbLine
 10
9.626906631345814
 20
16.21163484351342
 30
0.0
 11
7.847133642840065
 21
16.21163484351342
 31
0.0
  0
MTEXT
  5
29E
330
295
100
AcDbEntity
  8
0
  6
Continuous
 62
     7
440
 16777216
370
     0
100
AcDbMText
 10
6.988971286518229
 20
16.32576277396272
 30
-0.0000000000001133
 40
0.2204861111111111
 41
0.0
 46
0.0
 71
     1
 72
     1
  1
4.550
  7
SLDTEXTSTYLE0
 73
     1
 44
1.0
  0
ENDBLK
  5
297
330
295
100
AcDbEntity
  8
0
100
AcDbBlockEnd
  0
BLOCK
  5
2A1
330
2A0
100
AcDbEntity
  8
0
100
AcDbBlockBegin
  2
*D14
 70
     1
 10
0.0
 20
0.0
 30
0.0
  3
*D14
  1

  0
SOLID
  5
2A3
330
2A0
100
AcDbEntity
  8
0
  6
Continuous
 62
     7
440
 16777216
370
     0
100
AcDbTrace
 10
3.651906631345784
 20
17.02439940272796
 30
0.0
 11
3.818573298012451
 21
17.00356606939464
 31
0.0
 12
3.81857329801245
 22
17.0452327360613
 32
0.0
 13
3.81857329801245
 23
17.0452327360613
 33
0.0
  0
SOLID
  5
2A4
330
2A0
100
AcDbEntity
  8
0
  6
Continuous
 62
     7
440
 16777216
370
     0
100
AcDbTrace
 10
11.05190663134576
 20
17.02439940272805
 30
0.0
 11
10.8852399646791
 21
17.04523273606138
 31
0.0
 12
10.8852399646791
 22
17.00356606939471
 32
0.0
 13
10.8852399646791
 23
17.00356606939471
 33
0.0
  0
LINE
  5
2A5
330
2A0
100
AcDbEntity
  8
0
  6
Continuous
 62
     7
440
 16777216
370
     0
100
AcDbLine
 10
3.651906631345811
 20
14.70828454350007
 30
0.0
 11
3.651906631345783
 21
17.19106606939463
 31
0.0
  0
LINE
  5
2A6
330
2A0
100
AcDbEntity
  8
0
  6
Continuous
 62
     7
440
 16777216
370
     0
100
AcDbLine
 10
11.05190663134579
 20
14.70828454350012
 30
0.0
 11
11.05190663134576
 21
17.19106606939471
 31
0.0
  0
LINE
  5
2A7
330
2A0
100
AcDbEntity
  8
0
  6
Continuous
 62
     7
440
 16777216
370
     0
100
AcDbLine
 10
3.651906631345784
 20
17.02439940272796
 30
0.0
 11
6.856679619851522
 21
17.024399402728
 31
0.0
  0
LINE
  5
2A8
330
2A0
100
AcDbEntity
  8
0
  6
Continuous
 62
     7
440
 16777216
370
     0
100
AcDbLine
 10
11.05190663134576
 20
17.02439940272805
 30
0.0
 11
7.847133642840028
 21
17.02439940272801
 31
0.0
  0
MTEXT
  5
2A9
330
2A0
100
AcDbEntity
  8
0
  6
Continuous
 62
     7
440
 16777216
370
     0
100
AcDbMText
 10
6.988971286518188
 20
17.1385273331773
 30
-0.000000000000119
 40
0.2204861111111111
 41
0.0
 46
0.0
 71
     1
 72
     1
  1
7.400
  7
SLDTEXTSTYLE0
 73
     1
 44
1.0
  0
ENDBLK
  5
2A2
330
2A0
100
AcDbEntity
  8
0
100
AcDbBlockEnd
  0
BLOCK
  5
2AC
330
2AB
100
AcDbEntity
  8
0
100
AcDbBlockBegin
  2
*D15
 70
     1
 10
0.0
 20
0.0
 30
0.0
  3
*D15
  1

  0
SOLID
  5
2AE
330
2AB
100
AcDbEntity
  8
0
  6
Continuous
 62
     7
440
 16777216
370
     0
100
AcDbTrace
 10
3.00511635889888
 20
14.43328454350006
 30
0.0
 11
3.025949692232213
 21
14.59995121016673
 31
0.0
 12
2.984283025565546
 22
14.59995121016673
 32
0.0
 13
2.984283025565546
 23
14.59995121016673
 33
0.0
  0
SOLID
  5
2AF
330
2AB
100
AcDbEntity
  8
0
  6
Continuous
 62
     7
440
 16777216
370
     0
100
AcDbTrace
 10
3.005116358898882
 20
13.78328454350006
 30
0.0
 11
2.984283025565549
 21
13.61661787683339
 31
0.0
 12
3.025949692232216
 22
13.61661787683339
 32
0.0
 13
3.025949692232216
 23
13.61661787683339
 33
0.0
  0
LINE
  5
2B0
330
2AB
100
AcDbEntity
  8
0
  6
Continuous
 62
     7
440
 16777216
370
     0
100
AcDbLine
 10
3.360239964679141
 20
14.43328454350006
 30
0.0
 11
2.838449692232213
 21
14.43328454350006
 31
0.0
  0
LINE
  5
2B1
330
2AB
100
AcDbEntity
  8
0
  6
Continuous
 62
     7
440
 16777216
370
     0
100
AcDbLine
 10
3.360239964679143
 20
13.78328454350006
 30
0.0
 11
2.838449692232215
 21
13.78328454350006
 31
0.0
  0
LINE
  5
2B2
330
2AB
100
AcDbEntity
  8
0
  6
Continuous
 62
     7
440
 16777216
370
     0
100
AcDbLine
 10
3.00511635889888
 20
14.43328454350006
 30
0.0
 11
3.005116358898879
 21
14.7666178768334
 31
0.0
  0
LINE
  5
2B3
330
2AB
100
AcDbEntity
  8
0
  6
Continuous
 62
     7
440
 16777216
370
     0
100
AcDbLine
 10
3.005116358898882
 20
13.78328454350006
 30
0.0
 11
3.005116358898883
 21
13.44995121016673
 31
0.0
  0
MTEXT
  5
2B4
330
2AB
100
AcDbEntity
  8
0
  6
Continuous
 62
     7
440
 16777216
370
     0
100
AcDbMText
 10
2.642181014071296
 20
14.22241247394935
 30
-0.0000000000000986
 40
0.2204861111111111
 41
0.0
 46
0.0
 71
     1
 72
     1
  1
0.650
  7
SLDTEXTSTYLE0
 73
     1
 44
1.0
  0
ENDBLK
  5
2AD
330
2AB
100
AcDbEntity
  8
0
100
AcDbBlockEnd
  0
BLOCK
  5
2B6
330
2B5
100
AcDbEntity
  8
0
100
AcDbBlockBegin
  2
SW_NOTE_22
 70
     0
 10
0.0
 20
0.0
 30
0.0
  3
SW_NOTE_22
  1

  0
MTEXT
  5
2B8
330
2B5
100
AcDbEntity
  8
0
  6
Continuous
 62
     0
370
     0
100
AcDbMText
 10
0.0587551887141769
 20
0.1054782336533921
 30
0.0
 40
0.2645833333333333
 41
0.0
 46
0.0
 71
     1
 72
     1
  1
SOLDER MASK 
  7
SLDTEXTSTYLE0
 73
     1
 44
1.0
  0
MTEXT
  5
2B9
330
2B5
100
AcDbEntity
  8
0
  6
Continuous
 62
     0
370
     0
100
AcDbMText
 10
0.0587551887141769
 20
-0.2424384240725779
 30
0.0
 40
0.2645833333333333
 41
0.0
 46
0.0
 71
     1
 72
     1
  1
OPENING
  7
SLDTEXTSTYLE0
 73
     1
 44
1.0
  0
ENDBLK
  5
2B7
330
2B5
100
AcDbEntity
  8
0
100
AcDbBlockEnd
  0
BLOCK
  5
2BE
330
2BD
100
AcDbEntity
  8
0
100
AcDbBlockBegin
  2
SW_NOTE_23
 70
     0
 10
0.0
 20
0.0
 30
0.0
  3
SW_NOTE_23
  1

  0
MTEXT
  5
2C0
330
2BD
100
AcDbEntity
  8
0
  6
Continuous
 62
     0
370
     0
100
AcDbMText
 10
0.0450486894020459
 20
0.0985790631973562
 30
0.0
 40
0.2425347222222221
 41
0.0
 46
0.0
 71
     1
 72
     1
  1
PCB THERMAL PAD 
  7
SLDTEXTSTYLE0
 73
     1
 44
1.0
  0
MTEXT
  5
2C1
330
2BD
100
AcDbEntity
  8
0
  6
Continuous
 62
     0
370
     0
100
AcDbMText
 10
0.0450486894020459
 20
-0.224800562524168
 30
0.0
 40
0.2425347222222221
 41
0.0
 46
0.0
 71
     1
 72
     1
  1
DESIGN OPTIONAL 
  7
SLDTEXTSTYLE0
 73
     1
 44
1.0
  0
MTEXT
  5
2C2
330
2BD
100
AcDbEntity
  8
0
  6
Continuous
 62
     0
370
     0
100
AcDbMText
 10
0.0450486894020459
 20
-0.5481801882456922
 30
0.0
 40
0.2425347222222221
 41
0.0
 46
0.0
 71
     1
 72
     1
  1
SEE NOTE 7, 8
  7
SLDTEXTSTYLE0
 73
     1
 44
1.0
  0
ENDBLK
  5
2BF
330
2BD
100
AcDbEntity
  8
0
100
AcDbBlockEnd
  0
BLOCK
  5
2C6
330
2C5
100
AcDbEntity
  8
0
100
AcDbBlockBegin
  2
SW_NOTE_24
 70
     0
 10
0.0
 20
0.0
 30
0.0
  3
SW_NOTE_24
  1

  0
MTEXT
  5
2C8
330
2C5
100
AcDbEntity
  8
0
  6
Continuous
 62
     0
370
     0
100
AcDbMText
 10
0.0450486894020344
 20
0.1128021468389436
 30
0.0
 40
0.2425347222222221
 41
0.0
 46
0.0
 71
     1
 72
     1
  1
COMPONENT 
  7
SLDTEXTSTYLE0
 73
     1
 44
1.0
  0
MTEXT
  5
2C9
330
2C5
100
AcDbEntity
  8
0
  6
Continuous
 62
     0
370
     0
100
AcDbMText
 10
0.0450486894020344
 20
-0.2105774788825805
 30
0.0
 40
0.2425347222222221
 41
0.0
 46
0.0
 71
     1
 72
     1
  1
PAD
  7
SLDTEXTSTYLE0
 73
     1
 44
1.0
  0
ENDBLK
  5
2C7
330
2C5
100
AcDbEntity
  8
0
100
AcDbBlockEnd
  0
BLOCK
  5
2CF
330
2CE
100
AcDbEntity
  8
0
100
AcDbBlockBegin
  2
_DOT
 70
     0
 10
0.0
 20
0.0
 30
0.0
  3
_DOT
  1

  0
POLYLINE
  5
2D1
330
2CE
100
AcDbEntity
  8
0
  6
ByBlock
 62
     0
100
AcDb2dPolyline
 66
     1
 10
0.0
 20
0.0
 30
0.0
 70
     1
 40
0.5
 41
0.5
  0
VERTEX
  5
2D3
330
2D1
100
AcDbEntity
  8
0
  6
ByBlock
 62
     0
100
AcDbVertex
100
AcDb2dVertex
 10
-0.25
 20
0.0
 30
0.0
 42
1.0
  0
VERTEX
  5
2D4
330
2D1
100
AcDbEntity
  8
0
  6
ByBlock
 62
     0
100
AcDbVertex
100
AcDb2dVertex
 10
0.25
 20
0.0
 30
0.0
 42
1.0
  0
SEQEND
  5
2D5
330
2D1
100
AcDbEntity
  8
0
  6
ByBlock
 62
     0
  0
LINE
  5
2D2
330
2CE
100
AcDbEntity
  8
0
  6
ByBlock
 62
     0
370
    -2
100
AcDbLine
 10
-0.5
 20
0.0
 30
0.0
 11
-1.0
 21
0.0
 31
0.0
  0
ENDBLK
  5
2D0
330
2CE
100
AcDbEntity
  8
0
100
AcDbBlockEnd
  0
BLOCK
  5
336
330
335
100
AcDbEntity
  8
0
100
AcDbBlockBegin
  2
*D20
 70
     1
 10
0.0
 20
0.0
 30
0.0
  3
*D20
  1

  0
SOLID
  5
338
330
335
100
AcDbEntity
  8
0
  6
Continuous
 62
     7
440
 16777216
370
     0
100
AcDbTrace
 10
21.91436614524995
 20
8.597140155533795
 30
0.0
 11
21.93519947858328
 21
8.763806822200461
 31
0.0
 12
21.89353281191662
 22
8.763806822200461
 32
0.0
 13
21.89353281191662
 23
8.763806822200461
 33
0.0
  0
SOLID
  5
339
330
335
100
AcDbEntity
  8
0
  6
Continuous
 62
     7
440
 16777216
370
     0
100
AcDbTrace
 10
21.91436614524995
 20
10.59714015553378
 30
0.0
 11
21.89353281191662
 21
10.43047348886712
 31
0.0
 12
21.93519947858328
 22
10.43047348886712
 32
0.0
 13
21.93519947858328
 23
10.43047348886712
 33
0.0
  0
LINE
  5
33A
330
335
100
AcDbEntity
  8
0
  6
Continuous
 62
     7
440
 16777216
370
     0
100
AcDbLine
 10
20.40211968986324
 20
8.597140155533795
 30
0.0
 11
22.08103281191662
 21
8.597140155533795
 31
0.0
  0
LINE
  5
33B
330
335
100
AcDbEntity
  8
0
  6
Continuous
 62
     7
440
 16777216
370
     0
100
AcDbLine
 10
19.90211968986323
 20
10.59714015553378
 30
0.0
 11
22.08103281191662
 21
10.59714015553378
 31
0.0
  0
LINE
  5
33C
330
335
100
AcDbEntity
  8
0
  6
Continuous
 62
     7
440
 16777216
370
     0
100
AcDbLine
 10
21.91436614524995
 20
8.597140155533795
 30
0.0
 11
21.91436614524995
 21
9.429631534844133
 31
0.0
  0
LINE
  5
33D
330
335
100
AcDbEntity
  8
0
  6
Continuous
 62
     7
440
 16777216
370
     0
100
AcDbLine
 10
21.91436614524995
 20
10.59714015553378
 30
0.0
 11
21.91436614524995
 21
9.764648776223443
 31
0.0
  0
MTEXT
  5
33E
330
335
100
AcDbEntity
  8
0
  6
Continuous
 62
     7
440
 16777216
370
     0
100
AcDbMText
 10
21.63518511076719
 20
9.71126808598308
 30
-0.0000000000000671
 40
0.2204861111111111
 41
0.0
 46
0.0
 71
     1
 72
     1
  1
0.60
  7
SLDTEXTSTYLE0
 73
     1
 44
1.0
  0
ENDBLK
  5
337
330
335
100
AcDbEntity
  8
0
100
AcDbBlockEnd
  0
BLOCK
  5
342
330
341
100
AcDbEntity
  8
0
100
AcDbBlockBegin
  2
*D21
 70
     1
 10
0.0
 20
0.0
 30
0.0
  3
*D21
  1

  0
SOLID
  5
344
330
341
100
AcDbEntity
  8
0
  6
Continuous
 62
     7
440
 16777216
370
     0
100
AcDbTrace
 10
21.46129261954974
 20
8.597140155533795
 30
0.0
 11
21.44045928621641
 21
8.430473488867129
 31
0.0
 12
21.48212595288307
 22
8.430473488867129
 32
0.0
 13
21.48212595288307
 23
8.430473488867129
 33
0.0
  0
SOLID
  5
345
330
341
100
AcDbEntity
  8
0
  6
Continuous
 62
     7
440
 16777216
370
     0
100
AcDbTrace
 10
21.46129261954974
 20
9.263806822200454
 30
0.0
 11
21.48212595288307
 21
9.43047348886712
 31
0.0
 12
21.44045928621641
 22
9.43047348886712
 32
0.0
 13
21.44045928621641
 23
9.43047348886712
 33
0.0
  0
LINE
  5
346
330
341
100
AcDbEntity
  8
0
  6
Continuous
 62
     7
440
 16777216
370
     0
100
AcDbLine
 10
20.40211968986324
 20
8.597140155533795
 30
0.0
 11
21.62795928621641
 21
8.597140155533795
 31
0.0
  0
LINE
  5
347
330
341
100
AcDbEntity
  8
0
  6
Continuous
 62
     7
440
 16777216
370
     0
100
AcDbLine
 10
21.26171514260899
 20
9.263806822200454
 30
0.0
 11
21.62795928621641
 21
9.263806822200454
 31
0.0
  0
LINE
  5
348
330
341
100
AcDbEntity
  8
0
  6
Continuous
 62
     7
440
 16777216
370
     0
100
AcDbLine
 10
21.46129261954974
 20
8.597140155533795
 30
0.0
 11
21.46129261954974
 21
8.263806822200461
 31
0.0
  0
LINE
  5
349
330
341
100
AcDbEntity
  8
0
  6
Continuous
 62
     7
440
 16777216
370
     0
100
AcDbLine
 10
21.46129261954974
 20
9.263806822200454
 30
0.0
 11
21.46129261954974
 21
9.597140155533788
 31
0.0
  0
MTEXT
  5
34A
330
341
100
AcDbEntity
  8
0
  6
Continuous
 62
     7
440
 16777216
370
     0
100
AcDbMText
 10
21.18211158506698
 20
9.044601419316414
 30
-0.0000000000000624
 40
0.2204861111111111
 41
0.0
 46
0.0
 71
     1
 72
     1
  1
0.20
  7
SLDTEXTSTYLE0
 73
     1
 44
1.0
  0
ENDBLK
  5
343
330
341
100
AcDbEntity
  8
0
100
AcDbBlockEnd
  0
BLOCK
  5
34E
330
34D
100
AcDbEntity
  8
0
100
AcDbBlockBegin
  2
*D22
 70
     1
 10
0.0
 20
0.0
 30
0.0
  3
*D22
  1

  0
SOLID
  5
350
330
34D
100
AcDbEntity
  8
0
  6
Continuous
 62
     7
440
 16777216
370
     0
100
AcDbTrace
 10
18.36045302319656
 20
7.164625432583966
 30
0.0
 11
18.52711968986323
 21
7.143792099250633
 31
0.0
 12
18.52711968986323
 22
7.185458765917299
 32
0.0
 13
18.52711968986323
 23
7.185458765917299
 33
0.0
  0
SOLID
  5
351
330
34D
100
AcDbEntity
  8
0
  6
Continuous
 62
     7
440
 16777216
370
     0
100
AcDbTrace
 10
19.02711968986323
 20
7.164625432583966
 30
0.0
 11
18.86045302319656
 21
7.185458765917299
 31
0.0
 12
18.86045302319656
 22
7.143792099250633
 32
0.0
 13
18.86045302319656
 23
7.143792099250633
 33
0.0
  0
LINE
  5
352
330
34D
100
AcDbEntity
  8
0
  6
Continuous
 62
     7
440
 16777216
370
     0
100
AcDbLine
 10
18.36045302319656
 20
8.222140155533791
 30
0.0
 11
18.36045302319656
 21
6.997958765917299
 31
0.0
  0
LINE
  5
353
330
34D
100
AcDbEntity
  8
0
  6
Continuous
 62
     7
440
 16777216
370
     0
100
AcDbLine
 10
19.02711968986323
 20
8.222140155533793
 30
0.0
 11
19.02711968986323
 21
6.997958765917299
 31
0.0
  0
LINE
  5
354
330
34D
100
AcDbEntity
  8
0
  6
Continuous
 62
     7
440
 16777216
370
     0
100
AcDbLine
 10
18.36045302319656
 20
7.164625432583966
 30
0.0
 11
17.14045910420974
 21
7.164625432583967
 31
0.0
  0
LINE
  5
355
330
34D
100
AcDbEntity
  8
0
  6
Continuous
 62
     7
440
 16777216
370
     0
100
AcDbLine
 10
19.02711968986323
 20
7.164625432583966
 30
0.0
 11
18.36045302319656
 21
7.164625432583966
 31
0.0
  0
MTEXT
  5
356
330
34D
100
AcDbEntity
  8
0
  6
Continuous
 62
     7
440
 16777216
370
     0
100
AcDbMText
 10
14.68165881685343
 20
7.278753363033258
 30
-0.0000000000000501
 40
0.2204861111111111
 41
0.0
 46
0.0
 71
     1
 72
     1
  1
0.085~
  7
SLDTEXTSTYLE0
 73
     1
 44
1.0
  0
MTEXT
  5
357
330
34D
100
AcDbEntity
  8
0
  6
Continuous
 62
     7
440
 16777216
370
     0
100
AcDbMText
 10
15.57503812719825
 20
7.278753363033258
 30
-0.0000000000000501
 40
0.2204861111111111
 41
0.0
 46
0.0
 71
     1
 72
     1
  1
0.200
  7
SLDTEXTSTYLE0
 73
     1
 44
1.0
  0
MTEXT
  5
358
330
34D
100
AcDbEntity
  8
0
  6
Continuous
 62
     7
440
 16777216
370
     0
100
AcDbMText
 10
16.30090881685343
 20
7.278753363033258
 30
-0.0000000000000501
 40
0.2204861111111111
 41
0.0
 46
0.0
 71
     1
 72
     1
  1
 MIN.
  7
SLDTEXTSTYLE0
 73
     1
 44
1.0
  0
ENDBLK
  5
34F
330
34D
100
AcDbEntity
  8
0
100
AcDbBlockEnd
  0
BLOCK
  5
35C
330
35B
100
AcDbEntity
  8
0
100
AcDbBlockBegin
  2
*D23
 70
     1
 10
0.0
 20
0.0
 30
0.0
  3
*D23
  1

  0
SOLID
  5
35E
330
35B
100
AcDbEntity
  8
0
  6
Continuous
 62
     7
440
 16777216
370
     0
100
AcDbTrace
 10
16.34542311536009
 20
8.597140155533791
 30
0.0
 11
16.36625644869343
 21
8.763806822200457
 31
0.0
 12
16.32458978202676
 22
8.763806822200457
 32
0.0
 13
16.32458978202676
 23
8.763806822200457
 33
0.0
  0
SOLID
  5
35F
330
35B
100
AcDbEntity
  8
0
  6
Continuous
 62
     7
440
 16777216
370
     0
100
AcDbTrace
 10
16.34542311536009
 20
8.347140155533791
 30
0.0
 11
16.32458978202676
 21
8.180473488867125
 31
0.0
 12
16.36625644869343
 22
8.180473488867125
 32
0.0
 13
16.36625644869343
 23
8.180473488867125
 33
0.0
  0
LINE
  5
360
330
35B
100
AcDbEntity
  8
0
  6
Continuous
 62
     7
440
 16777216
370
     0
100
AcDbLine
 10
16.98545302319656
 20
8.597140155533791
 30
0.0
 11
16.17875644869342
 21
8.597140155533791
 31
0.0
  0
LINE
  5
361
330
35B
100
AcDbEntity
  8
0
  6
Continuous
 62
     7
440
 16777216
370
     0
100
AcDbLine
 10
16.73545302319657
 20
8.347140155533791
 30
0.0
 11
16.17875644869342
 21
8.347140155533791
 31
0.0
  0
LINE
  5
362
330
35B
100
AcDbEntity
  8
0
  6
Continuous
 62
     7
440
 16777216
370
     0
100
AcDbLine
 10
16.09542311536009
 20
7.68047348886712
 30
0.0
 11
16.34542311536009
 21
7.68047348886712
 31
0.0
  0
LINE
  5
363
330
35B
100
AcDbEntity
  8
0
  6
Continuous
 62
     7
440
 16777216
370
     0
100
AcDbLine
 10
16.34542311536009
 20
7.68047348886712
 30
0.0
 11
16.34542311536009
 21
8.347140155533791
 31
0.0
  0
LINE
  5
364
330
35B
100
AcDbEntity
  8
0
  6
Continuous
 62
     7
440
 16777216
370
     0
100
AcDbLine
 10
16.34542311536009
 20
8.597140155533791
 30
0.0
 11
16.34542311536009
 21
8.930473488867125
 31
0.0
  0
MTEXT
  5
365
330
35B
100
AcDbEntity
  8
0
  6
Continuous
 62
     7
440
 16777216
370
     0
100
AcDbMText
 10
14.0367823107624
 20
7.962110040006067
 30
-0.0000000000000549
 40
0.2204861111111111
 41
0.0
 46
0.0
 71
     1
 72
     1
  1
0.060~
  7
SLDTEXTSTYLE0
 73
     1
 44
1.0
  0
MTEXT
  5
366
330
35B
100
AcDbEntity
  8
0
  6
Continuous
 62
     7
440
 16777216
370
     0
100
AcDbMText
 10
14.93016162110722
 20
7.962110040006067
 30
-0.0000000000000549
 40
0.2204861111111111
 41
0.0
 46
0.0
 71
     1
 72
     1
  1
0.075
  7
SLDTEXTSTYLE0
 73
     1
 44
1.0
  0
MTEXT
  5
367
330
35B
100
AcDbEntity
  8
0
  6
Continuous
 62
     7
440
 16777216
370
     0
100
AcDbMText
 10
13.76275608949803
 20
7.627092798626755
 30
-0.0000000000000525
 40
0.2204861111111111
 41
0.0
 46
0.0
 71
     1
 72
     1
  1
MASK OPENING
  7
SLDTEXTSTYLE0
 73
     1
 44
1.0
  0
ENDBLK
  5
35D
330
35B
100
AcDbEntity
  8
0
100
AcDbBlockEnd
  0
BLOCK
  5
36B
330
36A
100
AcDbEntity
  8
0
100
AcDbBlockBegin
  2
*D24
 70
     1
 10
0.0
 20
0.0
 30
0.0
  3
*D24
  1

  0
SOLID
  5
36D
330
36A
100
AcDbEntity
  8
0
  6
Continuous
 62
     7
440
 16777216
370
     0
100
AcDbTrace
 10
17.61045302319656
 20
11.42831083883946
 30
0.0
 11
17.77711968986323
 21
11.40747750550612
 31
0.0
 12
17.77711968986323
 22
11.44914417217279
 32
0.0
 13
17.77711968986323
 23
11.44914417217279
 33
0.0
  0
SOLID
  5
36E
330
36A
100
AcDbEntity
  8
0
  6
Continuous
 62
     7
440
 16777216
370
     0
100
AcDbTrace
 10
19.77711968986323
 20
11.42831083883946
 30
0.0
 11
19.61045302319656
 21
11.44914417217279
 31
0.0
 12
19.61045302319656
 22
11.40747750550612
 32
0.0
 13
19.61045302319656
 23
11.40747750550612
 33
0.0
  0
LINE
  5
36F
330
36A
100
AcDbEntity
  8
0
  6
Continuous
 62
     7
440
 16777216
370
     0
100
AcDbLine
 10
17.61045302319656
 20
10.38880682220047
 30
0.0
 11
17.61045302319656
 21
11.59497750550613
 31
0.0
  0
LINE
  5
370
330
36A
100
AcDbEntity
  8
0
  6
Continuous
 62
     7
440
 16777216
370
     0
100
AcDbLine
 10
19.77711968986323
 20
10.38880682220048
 30
0.0
 11
19.77711968986323
 21
11.59497750550613
 31
0.0
  0
LINE
  5
371
330
36A
100
AcDbEntity
  8
0
  6
Continuous
 62
     7
440
 16777216
370
     0
100
AcDbLine
 10
17.61045302319656
 20
11.42831083883946
 30
0.0
 11
18.28231365538048
 21
11.42831083883946
 31
0.0
  0
LINE
  5
372
330
36A
100
AcDbEntity
  8
0
  6
Continuous
 62
     7
440
 16777216
370
     0
100
AcDbLine
 10
19.77711968986323
 20
11.42831083883946
 30
0.0
 11
19.10525905767932
 21
11.42831083883946
 31
0.0
  0
MTEXT
  5
373
330
36A
100
AcDbEntity
  8
0
  6
Continuous
 62
     7
440
 16777216
370
     0
100
AcDbMText
 10
18.41460532204714
 20
11.54243876928875
 30
-0.0000000000000799
 40
0.2204861111111111
 41
0.0
 46
0.0
 71
     1
 72
     1
  1
0.65
  7
SLDTEXTSTYLE0
 73
     1
 44
1.0
  0
ENDBLK
  5
36C
330
36A
100
AcDbEntity
  8
0
100
AcDbBlockEnd
  0
BLOCK
  5
377
330
376
100
AcDbEntity
  8
0
100
AcDbBlockBegin
  2
*D25
 70
     1
 10
0.0
 20
0.0
 30
0.0
  3
*D25
  1

  0
SOLID
  5
379
330
376
100
AcDbEntity
  8
0
  6
Continuous
 62
     7
440
 16777216
370
     0
100
AcDbTrace
 10
17.47059142819948
 20
10.57718050200986
 30
0.0
 11
17.44397257763695
 21
10.74302151729343
 31
0.0
 12
17.40396921543061
 22
10.731366384377
 32
0.0
 13
17.40396921543061
 23
10.731366384377
 33
0.0
  0
LINE
  5
37A
330
376
100
AcDbEntity
  8
0
  6
Continuous
 62
     7
440
 16777216
370
     0
100
AcDbLine
 10
17.47059142819948
 20
10.57718050200986
 30
0.0
 11
17.22261134208117
 21
11.42831083883945
 31
0.0
  0
LINE
  5
37B
330
376
100
AcDbEntity
  8
0
  6
Continuous
 62
     7
440
 16777216
370
     0
100
AcDbLine
 10
17.22261134208117
 20
11.42831083883945
 30
0.0
 11
16.97261134208117
 21
11.42831083883945
 31
0.0
  0
MTEXT
  5
37C
330
376
100
AcDbEntity
  8
0
  6
Continuous
 62
     7
440
 16777216
370
     0
100
AcDbMText
 10
16.11444898575934
 20
11.54243876928874
 30
-0.0000000000000799
 40
0.2204861111111111
 41
0.0
 46
0.0
 71
     1
 72
     1
  1
R
  7
SLDTEXTSTYLE0
 73
     1
 44
1.0
  0
MTEXT
  5
37D
330
376
100
AcDbEntity
  8
0
  6
Continuous
 62
     7
440
 16777216
370
     0
100
AcDbMText
 10
16.28195760644899
 20
11.54243876928874
 30
-0.0000000000000799
 40
0.2204861111111111
 41
0.0
 46
0.0
 71
     1
 72
     1
  1
0.15
  7
SLDTEXTSTYLE0
 73
     1
 44
1.0
  0
ENDBLK
  5
378
330
376
100
AcDbEntity
  8
0
100
AcDbBlockEnd
  0
BLOCK
  5
381
330
380
100
AcDbEntity
  8
0
100
AcDbBlockBegin
  2
*D26
 70
     1
 10
0.0
 20
0.0
 30
0.0
  3
*D26
  1

  0
SOLID
  5
383
330
380
100
AcDbEntity
  8
0
  6
Continuous
 62
     7
440
 16777216
370
     0
100
AcDbTrace
 10
19.27711968986323
 20
8.105138868602068
 30
0.0
 11
19.11045302319656
 21
8.125972201935402
 31
0.0
 12
19.11045302319656
 22
8.084305535268734
 32
0.0
 13
19.11045302319656
 23
8.084305535268734
 33
0.0
  0
SOLID
  5
384
330
380
100
AcDbEntity
  8
0
  6
Continuous
 62
     7
440
 16777216
370
     0
100
AcDbTrace
 10
20.27711968986324
 20
8.105138868602068
 30
0.0
 11
20.4437863565299
 21
8.084305535268734
 31
0.0
 12
20.4437863565299
 22
8.125972201935402
 32
0.0
 13
20.4437863565299
 23
8.125972201935402
 33
0.0
  0
LINE
  5
385
330
380
100
AcDbEntity
  8
0
  6
Continuous
 62
     7
440
 16777216
370
     0
100
AcDbLine
 10
19.27711968986323
 20
8.472140155533795
 30
0.0
 11
19.27711968986323
 21
7.938472201935401
 31
0.0
  0
LINE
  5
386
330
380
100
AcDbEntity
  8
0
  6
Continuous
 62
     7
440
 16777216
370
     0
100
AcDbLine
 10
20.27711968986324
 20
8.472140155533795
 30
0.0
 11
20.27711968986324
 21
7.938472201935401
 31
0.0
  0
LINE
  5
387
330
380
100
AcDbEntity
  8
0
  6
Continuous
 62
     7
440
 16777216
370
     0
100
AcDbLine
 10
19.27711968986323
 20
8.105138868602068
 30
0.0
 11
18.9437863565299
 21
8.105138868602068
 31
0.0
  0
LINE
  5
388
330
380
100
AcDbEntity
  8
0
  6
Continuous
 62
     7
440
 16777216
370
     0
100
AcDbLine
 10
20.27711968986324
 20
8.105138868602068
 30
0.0
 11
20.61045302319657
 21
8.105138868602068
 31
0.0
  0
MTEXT
  5
389
330
380
100
AcDbEntity
  8
0
  6
Continuous
 62
     7
440
 16777216
370
     0
100
AcDbMText
 10
19.49793865538048
 20
8.219266799051359
 30
-0.0000000000000567
 40
0.2204861111111111
 41
0.0
 46
0.0
 71
     1
 72
     1
  1
0.30
  7
SLDTEXTSTYLE0
 73
     1
 44
1.0
  0
ENDBLK
  5
382
330
380
100
AcDbEntity
  8
0
100
AcDbBlockEnd
  0
BLOCK
  5
38B
330
38A
100
AcDbEntity
  8
0
100
AcDbBlockBegin
  2
SW_NOTE_25
 70
     0
 10
0.0
 20
0.0
 30
0.0
  3
SW_NOTE_25
  1

  0
MTEXT
  5
38D
330
38A
100
AcDbEntity
  8
0
  6
Continuous
 62
     0
370
     0
100
AcDbMText
 10
0.0
 20
0.3379638671875002
 30
0.0
 40
0.2645833333333333
 41
0.0
 46
0.0
 71
     1
 72
     1
  1
DETAIL A 
  7
SLDTEXTSTYLE0
 73
     1
 44
1.0
  0
MTEXT
  5
38E
330
38A
100
AcDbEntity
  8
0
  6
Continuous
 62
     0
370
     0
100
AcDbMText
 10
-0.2454744341472784
 20
-0.0099527905384697
 30
0.0
 40
0.2645833333333333
 41
0.0
 46
0.0
 71
     1
 72
     1
  1
SCALE 40 : 1
  7
SLDTEXTSTYLE0
 73
     1
 44
1.0
  0
ENDBLK
  5
38C
330
38A
100
AcDbEntity
  8
0
100
AcDbBlockEnd
  0
ENDSEC
  0
SECTION
  2
ENTITIES
  0
IMAGE
  5
56
330
1F
100
AcDbEntity
  8
0
160
               140
310
8C0000000100000084000000060000000500000000A91150D6B63040E1D88251DF091140000000000000000000A91150D6B63040120437C3EFAC13400000000000000000239E6A3EA9483240120437C3EFAC13400000000000000000239E6A3EA9483240E1D88251DF091140000000000000000000A91150D6B63040E1D882
310
51DF0911400000000000000000
100
AcDbRasterImage
 90
        0
 10
16.71420765334278
 20
4.259640954600599
 30
0.0
 11
0.0104641653488042
 21
0.0
 31
0.0
 12
0.0
 22
0.0104641653488042
 32
0.0
 13
150.0
 23
63.0
340
55
 70
     7
280
     0
281
    50
282
    50
283
     0
290
     0
360
57
 71
     1
 91
        2
 14
-0.5
 24
-0.5
 14
149.5
 24
62.5
  0
LINE
  5
58
330
1F
100
AcDbEntity
  8
0
  6
Continuous
 62
     7
370
     0
100
AcDbLine
 10
0.698345483333328
 20
17.33988821138201
 30
0.0
 11
22.50001215000001
 21
17.33988821138211
 31
0.0
  0
LINE
  5
59
330
1F
100
AcDbEntity
  8
0
  6
Continuous
 62
     7
370
     0
100
AcDbLine
 10
0.698345483333328
 20
17.33988821138201
 30
0.0
 11
0.6983454833333301
 21
0.8298882113821042
 31
0.0
  0
LINE
  5
5A
330
1F
100
AcDbEntity
  8
0
  6
Continuous
 62
     7
370
     0
100
AcDbLine
 10
22.50001215
 20
0.8298882113821067
 30
0.0
 11
0.6983454833333301
 21
0.8298882113821042
 31
0.0
  0
LINE
  5
5B
330
1F
100
AcDbEntity
  8
0
  6
Continuous
 62
     7
370
     0
100
AcDbLine
 10
22.50001215
 20
0.8298882113821067
 30
0.0
 11
22.50001215000001
 21
17.33988821138211
 31
0.0
  0
LINE
  5
5C
330
1F
100
AcDbEntity
  8
0
  6
Continuous
 62
     7
370
     0
100
AcDbLine
 10
16.66072149266312
 20
4.987758072473796
 30
0.0
 11
16.66072149266312
 21
0.8298882113821177
 31
0.0
  0
LINE
  5
5D
330
1F
100
AcDbEntity
  8
0
  6
Continuous
 62
     7
370
     0
100
AcDbLine
 10
16.66072149266312
 20
1.280496571374754
 30
0.0
 11
22.50001215
 21
1.280496571374744
 31
0.0
  0
LINE
  5
5E
330
1F
100
AcDbEntity
  8
0
  6
Continuous
 62
     7
370
     0
100
AcDbLine
 10
16.66072149266312
 20
2.353598386655772
 30
0.0
 11
22.50001215
 21
2.353598386655761
 31
0.0
  0
LINE
  5
5F
330
1F
100
AcDbEntity
  8
0
  6
Continuous
 62
     7
370
     0
100
AcDbLine
 10
16.66072149266312
 20
4.210622284965196
 30
0.0
 11
22.50001215
 21
4.210622284965186
 31
0.0
  0
LINE
  5
60
330
1F
100
AcDbEntity
  8
0
  6
Continuous
 62
     7
370
     0
100
AcDbLine
 10
17.92419867694996
 20
2.353598386655772
 30
0.0
 11
17.92419867694996
 21
1.280496571374744
 31
0.0
  0
LINE
  5
61
330
1F
100
AcDbEntity
  8
0
  6
Continuous
 62
     7
370
     0
100
AcDbLine
 10
18.68313490654261
 20
2.353598386655772
 30
0.0
 11
18.68313490654261
 21
1.280496571374744
 31
0.0
  0
LINE
  5
62
330
1F
100
AcDbEntity
  8
0
  6
Continuous
 62
     7
370
     0
100
AcDbLine
 10
21.07061457021071
 20
2.353598386655772
 30
0.0
 11
21.07061457021071
 21
1.280496571374744
 31
0.0
  0
LINE
  5
63
330
1F
100
AcDbEntity
  8
0
  6
Continuous
 62
     7
370
     0
100
AcDbLine
 10
20.4602411535587
 20
1.280496571374744
 30
0.0
 11
20.4602411535587
 21
0.8298882113821072
 31
0.0
  0
LINE
  5
64
330
1F
100
AcDbEntity
  8
0
  6
Continuous
 62
     7
370
     0
100
AcDbLine
 10
16.66072149266312
 20
4.987758072473796
 30
0.0
 11
22.50001215
 21
4.987758072473796
 31
0.0
  0
INSERT
  5
8D
330
1F
100
AcDbEntity
  8
0
  6
Continuous
 62
     7
370
     0
100
AcDbBlockReference
  2
SW_NOTE_18
 10
17.82301326528155
 20
2.861493881427089
 30
0.0
  0
INSERT
  5
B3
330
1F
100
AcDbEntity
  8
0
  6
Continuous
 62
     7
370
     0
100
AcDbBlockReference
  2
SW_NOTE_19
 10
0.9211149425287384
 20
6.412567367795414
 30
0.0
  0
INSERT
  5
B9
330
1F
100
AcDbEntity
  8
0
  6
Continuous
 62
     7
370
     0
100
AcDbBlockReference
  2
SW_NOTE_20
 10
17.4869717259221
 20
3.708788272861247
 30
0.0
  0
MTEXT
  5
BA
330
1F
100
AcDbEntity
  8
0
  6
Continuous
 62
     7
370
     0
100
AcDbMText
 10
20.65258727895672
 20
1.166815789791587
 30
0.0
 40
0.2116666666666667
 41
0.0
 46
0.0
 71
     1
 72
     1
  1
SHEET 4 OF 4
  7
SLDTEXTSTYLE0
 73
     1
 44
1.0
  0
MTEXT
  5
BC
330
1F
100
AcDbEntity
  8
0
  6
Continuous
 62
     7
370
     0
100
AcDbMText
 10
16.88519544553508
 20
1.819933905280857
 30
0.0
 40
0.3086805555555555
 41
0.0
 46
0.0
 71
     1
 72
     1
  1
12:1
  7
SLDTEXTSTYLE1
 73
     1
 44
1.0
  0
MTEXT
  5
BD
330
1F
100
AcDbEntity
  8
0
  6
Continuous
 62
     7
370
     0
100
AcDbMText
 10
19.158249411013
 20
2.262170893288621
 30
0.0
 40
0.2116666666666667
 41
0.0
 46
0.0
 71
     1
 72
     1
  1
DWG.  NO.
  7
SLDTEXTSTYLE0
 73
     1
 44
1.0
  0
MTEXT
  5
BE
330
1F
100
AcDbEntity
  8
0
  6
Continuous
 62
     7
370
     0
100
AcDbMText
 10
18.05586377502093
 20
1.865031776016059
 30
0.0
 40
0.5291666666666666
 41
0.0
 46
0.0
 71
     1
 72
     1
  1
A
  7
SLDTEXTSTYLE1
 73
     1
 44
1.0
  0
MTEXT
  5
BF
330
1F
100
AcDbEntity
  8
0
  6
Continuous
 62
     7
370
     0
100
AcDbMText
 10
18.07656191477536
 20
2.262170893288621
 30
0.0
 40
0.2116666666666667
 41
0.0
 46
0.0
 71
     1
 72
     1
  1
SIZE
  7
SLDTEXTSTYLE0
 73
     1
 44
1.0
  0
MTEXT
  5
C0
330
1F
100
AcDbEntity
  8
0
  6
Continuous
 62
     7
370
     0
100
AcDbMText
 10
16.75779905080668
 20
4.135153260845695
 30
0.0
 40
0.2116666666666667
 41
0.0
 46
0.0
 71
     1
 72
     1
  1
TITLE:
  7
SLDTEXTSTYLE0
 73
     1
 44
1.0
  0
MTEXT
  5
C1
330
1F
100
AcDbEntity
  8
0
  6
Continuous
 62
     7
370
     0
100
AcDbMText
 10
16.83583673913975
 20
1.166815789791587
 30
0.0
 40
0.2116666666666667
 41
0.0
 46
0.0
 71
     1
 72
     1
  1
DO NOT SCALE DRAWING
  7
SLDTEXTSTYLE0
 73
     1
 44
1.0
  0
MTEXT
  5
C2
330
1F
100
AcDbEntity
  8
0
  6
Continuous
 62
     7
370
     0
100
AcDbMText
 10
16.84736368676523
 20
2.262170893288621
 30
0.0
 40
0.2116666666666667
 41
0.0
 46
0.0
 71
     1
 72
     1
  1
SCALE
  7
SLDTEXTSTYLE0
 73
     1
 44
1.0
  0
INSERT
  5
C8
330
1F
100
AcDbEntity
  8
0
  6
Continuous
 62
     7
370
     0
100
AcDbBlockReference
  2
SW_NOTE_21
 10
19.33864996976035
 20
1.553534150243364
 30
0.0
  0
MTEXT
  5
C9
330
1F
100
AcDbEntity
  8
0
  6
Continuous
 62
     7
370
     0
100
AcDbMText
 10
21.55853437739787
 20
2.262170893288621
 30
0.0
 40
0.2116666666666667
 41
0.0
 46
0.0
 71
     1
 72
     1
  1
REV
  7
SLDTEXTSTYLE0
 73
     1
 44
1.0
  0
MTEXT
  5
CA
330
1F
100
AcDbEntity
  8
0
  6
Continuous
 62
     7
370
     0
100
AcDbMText
 10
21.57549193004648
 20
1.933179296748142
 30
0.0
 40
0.5291666666666666
 41
0.0
 46
0.0
 71
     1
 72
     1
  1
A
  7
SLDTEXTSTYLE0
 73
     1
 44
1.0
  0
MTEXT
  5
CC
330
1F
100
AcDbEntity
  8
0
  6
Continuous
 62
     7
370
     0
100
AcDbMText
 10
19.11116945532
 20
4.718422657588659
 30
0.0
 40
0.2204861111111111
 41
0.0
 46
0.0
 71
     1
 72
     1
  1
www.MirrorSemi.com
  7
SLDTEXTSTYLE2
 73
     1
 44
1.0
  0
ARC
  5
CD
330
1F
100
AcDbEntity
  8
0
  6
Continuous
 62
     7
100
AcDbCircle
 10
5.076906631345821
 20
15.40828454350008
 30
0.0
 40
0.2250000000000005
100
AcDbArc
 50
180.0
 51
0.0
  0
ARC
  5
CE
330
1F
100
AcDbEntity
  8
0
  6
Continuous
 62
     7
100
AcDbCircle
 10
5.726906631345821
 20
15.40828454350008
 30
0.0
 40
0.2250000000000005
100
AcDbArc
 50
180.0
 51
0.0
  0
ARC
  5
CF
330
1F
100
AcDbEntity
  8
0
  6
Continuous
 62
     7
100
AcDbCircle
 10
10.6019066313458
 20
13.78328454350011
 30
0.0
 40
0.2250000000000014
100
AcDbArc
 50
90.0000000000009
 51
270.0000000000013
  0
ARC
  5
D0
330
1F
100
AcDbEntity
  8
0
  6
Continuous
 62
     7
100
AcDbCircle
 10
6.37690663134582
 20
15.40828454350008
 30
0.0
 40
0.2249999999999996
100
AcDbArc
 50
180.0
 51
0.0
  0
ARC
  5
D1
330
1F
100
AcDbEntity
  8
0
  6
Continuous
 62
     7
100
AcDbCircle
 10
7.02690663134582
 20
15.40828454350008
 30
0.0
 40
0.2249999999999996
100
AcDbArc
 50
180.0
 51
0.0
  0
ARC
  5
D2
330
1F
100
AcDbEntity
  8
0
  6
Continuous
 62
     7
100
AcDbCircle
 10
7.67690663134582
 20
15.40828454350008
 30
0.0
 40
0.2249999999999996
100
AcDbArc
 50
180.0
 51
0.0
  0
ARC
  5
D3
330
1F
100
AcDbEntity
  8
0
  6
Continuous
 62
     7
100
AcDbCircle
 10
10.60190663134581
 20
13.13328454350012
 30
0.0
 40
0.2250000000000014
100
AcDbArc
 50
90.0000000000009
 51
270.0000000000013
  0
ARC
  5
D4
330
1F
100
AcDbEntity
  8
0
  6
Continuous
 62
     7
100
AcDbCircle
 10
8.326906631345821
 20
15.40828454350008
 30
0.0
 40
0.2249999999999996
100
AcDbArc
 50
180.0
 51
0.0
  0
ARC
  5
D5
330
1F
100
AcDbEntity
  8
0
  6
Continuous
 62
     7
100
AcDbCircle
 10
8.976906631345821
 20
15.40828454350008
 30
0.0
 40
0.2249999999999996
100
AcDbArc
 50
180.0
 51
0.0
  0
ARC
  5
D6
330
1F
100
AcDbEntity
  8
0
  6
Continuous
 62
     7
100
AcDbCircle
 10
9.626906631345821
 20
15.40828454350008
 30
0.0
 40
0.2249999999999996
100
AcDbArc
 50
180.0
 51
0.0
  0
ARC
  5
D7
330
1F
100
AcDbEntity
  8
0
  6
Continuous
 62
     7
100
AcDbCircle
 10
10.60190663134582
 20
12.48328454350012
 30
0.0
 40
0.2250000000000014
100
AcDbArc
 50
90.0000000000009
 51
270.0000000000013
  0
ARC
  5
D8
330
1F
100
AcDbEntity
  8
0
  6
Continuous
 62
     7
100
AcDbCircle
 10
10.6019066313458
 20
14.43328454350012
 30
0.0
 40
0.2250000000000014
100
AcDbArc
 50
90.00000000000046
 51
270.0000000000013
  0
ARC
  5
D9
330
1F
100
AcDbEntity
  8
0
  6
Continuous
 62
     7
100
AcDbCircle
 10
10.60190663134582
 20
11.83328454350012
 30
0.0
 40
0.2250000000000014
100
AcDbArc
 50
90.00000000000046
 51
270.0000000000017
  0
ARC
  5
DA
330
1F
100
AcDbEntity
  8
0
  6
Continuous
 62
     7
100
AcDbCircle
 10
10.60190663134583
 20
11.18328454350012
 30
0.0
 40
0.2250000000000014
100
AcDbArc
 50
90.00000000000136
 51
270.0000000000008
  0
ARC
  5
DB
330
1F
100
AcDbEntity
  8
0
  6
Continuous
 62
     7
100
AcDbCircle
 10
10.60190663134584
 20
10.53328454350012
 30
0.0
 40
0.2249999999999996
100
AcDbArc
 50
90.0
 51
270.0000000000021
  0
ARC
  5
DC
330
1F
100
AcDbEntity
  8
0
  6
Continuous
 62
     7
100
AcDbCircle
 10
10.60190663134584
 20
9.883284543500117
 30
0.0
 40
0.2249999999999996
100
AcDbArc
 50
90.0000000000009
 51
270.0000000000008
  0
ARC
  5
DD
330
1F
100
AcDbEntity
  8
0
  6
Continuous
 62
     7
100
AcDbCircle
 10
9.626906631345821
 20
8.908284543500082
 30
0.0
 40
0.2250000000000014
100
AcDbArc
 50
0.0
 51
180.0
  0
ARC
  5
DE
330
1F
100
AcDbEntity
  8
0
  6
Continuous
 62
     7
100
AcDbCircle
 10
8.976906631345821
 20
8.908284543500082
 30
0.0
 40
0.2250000000000014
100
AcDbArc
 50
0.0
 51
180.0
  0
ARC
  5
DF
330
1F
100
AcDbEntity
  8
0
  6
Continuous
 62
     7
100
AcDbCircle
 10
8.326906631345822
 20
8.908284543500082
 30
0.0
 40
0.2249999999999996
100
AcDbArc
 50
0.0
 51
180.0
  0
ARC
  5
E0
330
1F
100
AcDbEntity
  8
0
  6
Continuous
 62
     7
100
AcDbCircle
 10
7.676906631345823
 20
8.908284543500082
 30
0.0
 40
0.2249999999999996
100
AcDbArc
 50
0.0
 51
180.0
  0
ARC
  5
E1
330
1F
100
AcDbEntity
  8
0
  6
Continuous
 62
     7
100
AcDbCircle
 10
7.026906631345823
 20
8.908284543500082
 30
0.0
 40
0.2249999999999996
100
AcDbArc
 50
0.0
 51
180.0
  0
ARC
  5
E2
330
1F
100
AcDbEntity
  8
0
  6
Continuous
 62
     7
100
AcDbCircle
 10
6.376906631345822
 20
8.90828454350008
 30
0.0
 40
0.2249999999999996
100
AcDbArc
 50
0.0
 51
180.0
  0
ARC
  5
E3
330
1F
100
AcDbEntity
  8
0
  6
Continuous
 62
     7
100
AcDbCircle
 10
5.726906631345823
 20
8.90828454350008
 30
0.0
 40
0.2249999999999996
100
AcDbArc
 50
0.0
 51
180.0
  0
ARC
  5
E4
330
1F
100
AcDbEntity
  8
0
  6
Continuous
 62
     7
100
AcDbCircle
 10
5.076906631345822
 20
8.90828454350008
 30
0.0
 40
0.2249999999999996
100
AcDbArc
 50
0.0
 51
180.0
  0
ARC
  5
E5
330
1F
100
AcDbEntity
  8
0
  6
Continuous
 62
     7
100
AcDbCircle
 10
4.101906631345829
 20
9.883284543500071
 30
0.0
 40
0.2249999999999996
100
AcDbArc
 50
270.000000000001
 51
90.00000000000023
  0
ARC
  5
E6
330
1F
100
AcDbEntity
  8
0
  6
Continuous
 62
     7
100
AcDbCircle
 10
4.101906631345827
 20
10.53328454350007
 30
0.0
 40
0.2250000000000014
100
AcDbArc
 50
270.0000000000008
 51
90.00000000000046
  0
ARC
  5
E7
330
1F
100
AcDbEntity
  8
0
  6
Continuous
 62
     7
100
AcDbCircle
 10
4.101906631345825
 20
11.18328454350007
 30
0.0
 40
0.2249999999999996
100
AcDbArc
 50
270.000000000001
 51
90.00000000000023
  0
ARC
  5
E8
330
1F
100
AcDbEntity
  8
0
  6
Continuous
 62
     7
100
AcDbCircle
 10
4.101906631345822
 20
11.83328454350007
 30
0.0
 40
0.2250000000000014
100
AcDbArc
 50
270.000000000001
 51
90.00000000000046
  0
ARC
  5
E9
330
1F
100
AcDbEntity
  8
0
  6
Continuous
 62
     7
100
AcDbCircle
 10
4.101906631345819
 20
12.48328454350007
 30
0.0
 40
0.2250000000000014
100
AcDbArc
 50
270.000000000001
 51
90.00000000000023
  0
ARC
  5
EA
330
1F
100
AcDbEntity
  8
0
  6
Continuous
 62
     7
100
AcDbCircle
 10
4.101906631345817
 20
13.13328454350007
 30
0.0
 40
0.2250000000000014
100
AcDbArc
 50
270.000000000001
 51
90.00000000000023
  0
ARC
  5
EB
330
1F
100
AcDbEntity
  8
0
  6
Continuous
 62
     7
100
AcDbCircle
 10
4.101906631345814
 20
13.78328454350007
 30
0.0
 40
0.2250000000000014
100
AcDbArc
 50
270.000000000001
 51
90.00000000000023
  0
ARC
  5
EC
330
1F
100
AcDbEntity
  8
0
  6
Continuous
 62
     7
100
AcDbCircle
 10
4.101906631345812
 20
14.43328454350007
 30
0.0
 40
0.2250000000000014
100
AcDbArc
 50
270.000000000001
 51
90.00000000000046
  0
LINE
  5
ED
330
1F
100
AcDbEntity
  8
0
  6
Continuous
 62
     7
100
AcDbLine
 10
9.994906631345822
 20
9.515284543500081
 30
0.0
 11
9.994906631345822
 21
14.80128454350008
 31
0.0
  0
LINE
  5
EE
330
1F
100
AcDbEntity
  8
0
  6
Continuous
 62
     7
100
AcDbLine
 10
9.994906631345822
 20
14.80128454350008
 30
0.0
 11
4.708906631345819
 21
14.80128454350008
 31
0.0
  0
LINE
  5
EF
330
1F
100
AcDbEntity
  8
0
  6
Continuous
 62
     7
100
AcDbLine
 10
4.708906631345819
 20
14.80128454350008
 30
0.0
 11
4.708906631345819
 21
9.515284543500081
 31
0.0
  0
LINE
  5
F0
330
1F
100
AcDbEntity
  8
0
  6
Continuous
 62
     7
100
AcDbLine
 10
3.85190663134582
 20
8.658284543500082
 30
0.0
 11
10.85190663134582
 21
8.658284543500082
 31
0.0
  0
LINE
  5
F1
330
1F
100
AcDbEntity
  8
0
  6
Continuous
 62
     7
100
AcDbLine
 10
3.85190663134582
 20
8.658284543500082
 30
0.0
 11
3.85190663134582
 21
15.65828454350008
 31
0.0
  0
LINE
  5
F2
330
1F
100
AcDbEntity
  8
0
  6
Continuous
 62
     7
100
AcDbLine
 10
4.708906631345819
 20
9.515284543500081
 30
0.0
 11
9.994906631345822
 21
9.515284543500081
 31
0.0
  0
LINE
  5
F3
330
1F
100
AcDbEntity
  8
0
  6
Continuous
 62
     7
100
AcDbLine
 10
10.06990663134582
 20
12.99828454350008
 30
0.0
 11
10.06990663134582
 21
13.56828454350008
 31
0.0
  0
LINE
  5
F4
330
1F
100
AcDbEntity
  8
0
  6
Continuous
 62
     7
100
AcDbLine
 10
10.06990663134582
 20
12.24828454350008
 30
0.0
 11
10.06990663134582
 21
12.81828454350008
 31
0.0
  0
LINE
  5
F5
330
1F
100
AcDbEntity
  8
0
  6
Continuous
 62
     7
100
AcDbLine
 10
3.85190663134582
 20
15.65828454350008
 30
0.0
 11
10.85190663134582
 21
15.65828454350008
 31
0.0
  0
LINE
  5
F6
330
1F
100
AcDbEntity
  8
0
  6
Continuous
 62
     7
100
AcDbLine
 10
10.85190663134582
 20
8.658284543500082
 30
0.0
 11
10.85190663134582
 21
15.65828454350008
 31
0.0
  0
LINE
  5
F7
330
1F
100
AcDbEntity
  8
0
  6
Continuous
 62
     7
100
AcDbLine
 10
4.85190663134582
 20
15.93328454350008
 30
0.0
 11
4.85190663134582
 21
15.40828454350008
 31
0.0
  0
LINE
  5
F8
330
1F
100
AcDbEntity
  8
0
  6
Continuous
 62
     7
100
AcDbLine
 10
5.301906631345819
 20
15.40828454350008
 30
0.0
 11
5.30190663134582
 21
15.93328454350008
 31
0.0
  0
LINE
  5
F9
330
1F
100
AcDbEntity
  8
0
  6
Continuous
 62
     7
100
AcDbLine
 10
5.30190663134582
 20
15.93328454350008
 30
0.0
 11
4.85190663134582
 21
15.93328454350008
 31
0.0
  0
LINE
  5
FA
330
1F
100
AcDbEntity
  8
0
  6
Continuous
 62
     7
100
AcDbLine
 10
11.1269066313458
 20
14.00828454350012
 30
0.0
 11
10.6019066313458
 21
14.00828454350012
 31
0.0
  0
LINE
  5
FB
330
1F
100
AcDbEntity
  8
0
  6
Continuous
 62
     7
100
AcDbLine
 10
10.6019066313458
 20
13.55828454350012
 30
0.0
 11
11.1269066313458
 21
13.55828454350012
 31
0.0
  0
LINE
  5
FC
330
1F
100
AcDbEntity
  8
0
  6
Continuous
 62
     7
100
AcDbLine
 10
11.1269066313458
 20
13.55828454350012
 30
0.0
 11
11.1269066313458
 21
14.00828454350012
 31
0.0
  0
LINE
  5
FD
330
1F
100
AcDbEntity
  8
0
  6
Continuous
 62
     7
100
AcDbLine
 10
11.1269066313458
 20
13.35828454350012
 30
0.0
 11
10.60190663134581
 21
13.35828454350012
 31
0.0
  0
LINE
  5
FE
330
1F
100
AcDbEntity
  8
0
  6
Continuous
 62
     7
100
AcDbLine
 10
10.60190663134581
 20
12.90828454350012
 30
0.0
 11
11.12690663134581
 21
12.90828454350012
 31
0.0
  0
LINE
  5
FF
330
1F
100
AcDbEntity
  8
0
  6
Continuous
 62
     7
100
AcDbLine
 10
11.12690663134581
 20
12.90828454350012
 30
0.0
 11
11.1269066313458
 21
13.35828454350012
 31
0.0
  0
LINE
  5
100
330
1F
100
AcDbEntity
  8
0
  6
Continuous
 62
     7
100
AcDbLine
 10
5.50190663134582
 20
15.93328454350008
 30
0.0
 11
5.50190663134582
 21
15.40828454350008
 31
0.0
  0
LINE
  5
101
330
1F
100
AcDbEntity
  8
0
  6
Continuous
 62
     7
100
AcDbLine
 10
5.95190663134582
 20
15.40828454350008
 30
0.0
 11
5.951906631345821
 21
15.93328454350008
 31
0.0
  0
LINE
  5
102
330
1F
100
AcDbEntity
  8
0
  6
Continuous
 62
     7
100
AcDbLine
 10
5.951906631345821
 20
15.93328454350008
 30
0.0
 11
5.50190663134582
 21
15.93328454350008
 31
0.0
  0
LINE
  5
103
330
1F
100
AcDbEntity
  8
0
  6
Continuous
 62
     7
100
AcDbLine
 10
6.151906631345821
 20
15.93328454350008
 30
0.0
 11
6.151906631345821
 21
15.40828454350008
 31
0.0
  0
LINE
  5
104
330
1F
100
AcDbEntity
  8
0
  6
Continuous
 62
     7
100
AcDbLine
 10
6.60190663134582
 20
15.40828454350008
 30
0.0
 11
6.601906631345821
 21
15.93328454350008
 31
0.0
  0
LINE
  5
105
330
1F
100
AcDbEntity
  8
0
  6
Continuous
 62
     7
100
AcDbLine
 10
6.601906631345821
 20
15.93328454350008
 30
0.0
 11
6.151906631345821
 21
15.93328454350008
 31
0.0
  0
LINE
  5
106
330
1F
100
AcDbEntity
  8
0
  6
Continuous
 62
     7
100
AcDbLine
 10
6.801906631345819
 20
15.93328454350008
 30
0.0
 11
6.801906631345821
 21
15.40828454350008
 31
0.0
  0
LINE
  5
107
330
1F
100
AcDbEntity
  8
0
  6
Continuous
 62
     7
100
AcDbLine
 10
7.25190663134582
 20
15.40828454350008
 30
0.0
 11
7.251906631345821
 21
15.93328454350008
 31
0.0
  0
LINE
  5
108
330
1F
100
AcDbEntity
  8
0
  6
Continuous
 62
     7
100
AcDbLine
 10
7.251906631345821
 20
15.93328454350008
 30
0.0
 11
6.801906631345819
 21
15.93328454350008
 31
0.0
  0
LINE
  5
109
330
1F
100
AcDbEntity
  8
0
  6
Continuous
 62
     7
100
AcDbLine
 10
11.12690663134581
 20
12.70828454350012
 30
0.0
 11
10.60190663134581
 21
12.70828454350011
 31
0.0
  0
LINE
  5
10A
330
1F
100
AcDbEntity
  8
0
  6
Continuous
 62
     7
100
AcDbLine
 10
10.60190663134582
 20
12.25828454350011
 30
0.0
 11
11.12690663134582
 21
12.25828454350012
 31
0.0
  0
LINE
  5
10B
330
1F
100
AcDbEntity
  8
0
  6
Continuous
 62
     7
100
AcDbLine
 10
11.12690663134582
 20
12.25828454350012
 30
0.0
 11
11.12690663134581
 21
12.70828454350012
 31
0.0
  0
LINE
  5
10C
330
1F
100
AcDbEntity
  8
0
  6
Continuous
 62
     7
100
AcDbLine
 10
7.45190663134582
 20
15.93328454350008
 30
0.0
 11
7.451906631345821
 21
15.40828454350008
 31
0.0
  0
LINE
  5
10D
330
1F
100
AcDbEntity
  8
0
  6
Continuous
 62
     7
100
AcDbLine
 10
7.90190663134582
 20
15.40828454350008
 30
0.0
 11
7.90190663134582
 21
15.93328454350008
 31
0.0
  0
LINE
  5
10E
330
1F
100
AcDbEntity
  8
0
  6
Continuous
 62
     7
100
AcDbLine
 10
7.90190663134582
 20
15.93328454350008
 30
0.0
 11
7.45190663134582
 21
15.93328454350008
 31
0.0
  0
LINE
  5
10F
330
1F
100
AcDbEntity
  8
0
  6
Continuous
 62
     7
100
AcDbLine
 10
8.101906631345819
 20
15.93328454350008
 30
0.0
 11
8.101906631345821
 21
15.40828454350008
 31
0.0
  0
LINE
  5
110
330
1F
100
AcDbEntity
  8
0
  6
Continuous
 62
     7
100
AcDbLine
 10
8.55190663134582
 20
15.40828454350008
 30
0.0
 11
8.55190663134582
 21
15.93328454350008
 31
0.0
  0
LINE
  5
111
330
1F
100
AcDbEntity
  8
0
  6
Continuous
 62
     7
100
AcDbLine
 10
8.55190663134582
 20
15.93328454350008
 30
0.0
 11
8.101906631345819
 21
15.93328454350008
 31
0.0
  0
LINE
  5
112
330
1F
100
AcDbEntity
  8
0
  6
Continuous
 62
     7
100
AcDbLine
 10
8.75190663134582
 20
15.93328454350008
 30
0.0
 11
8.751906631345821
 21
15.40828454350008
 31
0.0
  0
LINE
  5
113
330
1F
100
AcDbEntity
  8
0
  6
Continuous
 62
     7
100
AcDbLine
 10
9.201906631345821
 20
15.40828454350008
 30
0.0
 11
9.201906631345821
 21
15.93328454350008
 31
0.0
  0
LINE
  5
114
330
1F
100
AcDbEntity
  8
0
  6
Continuous
 62
     7
100
AcDbLine
 10
9.201906631345821
 20
15.93328454350008
 30
0.0
 11
8.75190663134582
 21
15.93328454350008
 31
0.0
  0
LINE
  5
115
330
1F
100
AcDbEntity
  8
0
  6
Continuous
 62
     7
100
AcDbLine
 10
11.12690663134582
 20
12.05828454350012
 30
0.0
 11
10.60190663134582
 21
12.05828454350011
 31
0.0
  0
LINE
  5
116
330
1F
100
AcDbEntity
  8
0
  6
Continuous
 62
     7
100
AcDbLine
 10
10.60190663134583
 20
11.60828454350012
 30
0.0
 11
11.12690663134583
 21
11.60828454350012
 31
0.0
  0
LINE
  5
117
330
1F
100
AcDbEntity
  8
0
  6
Continuous
 62
     7
100
AcDbLine
 10
11.12690663134583
 20
11.60828454350012
 30
0.0
 11
11.12690663134582
 21
12.05828454350012
 31
0.0
  0
LINE
  5
118
330
1F
100
AcDbEntity
  8
0
  6
Continuous
 62
     7
100
AcDbLine
 10
9.40190663134582
 20
15.93328454350008
 30
0.0
 11
9.401906631345822
 21
15.40828454350008
 31
0.0
  0
LINE
  5
119
330
1F
100
AcDbEntity
  8
0
  6
Continuous
 62
     7
100
AcDbLine
 10
9.851906631345819
 20
15.40828454350008
 30
0.0
 11
9.851906631345819
 21
15.93328454350008
 31
0.0
  0
LINE
  5
11A
330
1F
100
AcDbEntity
  8
0
  6
Continuous
 62
     7
100
AcDbLine
 10
10.06990663134582
 20
11.49828454350008
 30
0.0
 11
10.06990663134582
 21
12.06828454350008
 31
0.0
  0
LINE
  5
11B
330
1F
100
AcDbEntity
  8
0
  6
Continuous
 62
     7
100
AcDbLine
 10
9.691906631345823
 20
9.440284543500082
 30
0.0
 11
10.06990663134582
 21
9.440284543500082
 31
0.0
  0
LINE
  5
11C
330
1F
100
AcDbEntity
  8
0
  6
Continuous
 62
     7
100
AcDbLine
 10
7.441906631345821
 20
9.620284543500083
 30
0.0
 11
7.441906631345821
 21
9.440284543500082
 31
0.0
  0
LINE
  5
11D
330
1F
100
AcDbEntity
  8
0
  6
Continuous
 62
     7
100
AcDbLine
 10
7.26190663134582
 20
9.620284543500083
 30
0.0
 11
7.441906631345821
 21
9.620284543500083
 31
0.0
  0
LINE
  5
11E
330
1F
100
AcDbEntity
  8
0
  6
Continuous
 62
     7
100
AcDbLine
 10
7.261906631345822
 20
9.440284543500082
 30
0.0
 11
7.26190663134582
 21
9.620284543500083
 31
0.0
  0
LINE
  5
11F
330
1F
100
AcDbEntity
  8
0
  6
Continuous
 62
     7
100
AcDbLine
 10
6.691906631345822
 20
9.440284543500082
 30
0.0
 11
7.261906631345822
 21
9.440284543500082
 31
0.0
  0
LINE
  5
120
330
1F
100
AcDbEntity
  8
0
  6
Continuous
 62
     7
100
AcDbLine
 10
6.691906631345822
 20
9.620284543500083
 30
0.0
 11
6.691906631345822
 21
9.440284543500082
 31
0.0
  0
LINE
  5
121
330
1F
100
AcDbEntity
  8
0
  6
Continuous
 62
     7
100
AcDbLine
 10
6.51190663134582
 20
9.620284543500083
 30
0.0
 11
6.691906631345822
 21
9.620284543500083
 31
0.0
  0
LINE
  5
122
330
1F
100
AcDbEntity
  8
0
  6
Continuous
 62
     7
100
AcDbLine
 10
6.511906631345821
 20
9.440284543500082
 30
0.0
 11
6.51190663134582
 21
9.620284543500083
 31
0.0
  0
LINE
  5
123
330
1F
100
AcDbEntity
  8
0
  6
Continuous
 62
     7
100
AcDbLine
 10
9.851906631345819
 20
15.93328454350008
 30
0.0
 11
9.40190663134582
 21
15.93328454350008
 31
0.0
  0
LINE
  5
124
330
1F
100
AcDbEntity
  8
0
  6
Continuous
 62
     7
100
AcDbLine
 10
5.941906631345821
 20
9.440284543500082
 30
0.0
 11
6.511906631345821
 21
9.440284543500082
 31
0.0
  0
LINE
  5
125
330
1F
100
AcDbEntity
  8
0
  6
Continuous
 62
     7
100
AcDbLine
 10
5.941906631345821
 20
9.620284543500083
 30
0.0
 11
5.941906631345821
 21
9.440284543500082
 31
0.0
  0
LINE
  5
126
330
1F
100
AcDbEntity
  8
0
  6
Continuous
 62
     7
100
AcDbLine
 10
5.76190663134582
 20
9.620284543500083
 30
0.0
 11
5.941906631345821
 21
9.620284543500083
 31
0.0
  0
LINE
  5
127
330
1F
100
AcDbEntity
  8
0
  6
Continuous
 62
     7
100
AcDbLine
 10
5.761906631345821
 20
9.440284543500082
 30
0.0
 11
5.76190663134582
 21
9.620284543500083
 31
0.0
  0
LINE
  5
128
330
1F
100
AcDbEntity
  8
0
  6
Continuous
 62
     7
100
AcDbLine
 10
5.191906631345821
 20
9.440284543500082
 30
0.0
 11
5.761906631345821
 21
9.440284543500082
 31
0.0
  0
LINE
  5
129
330
1F
100
AcDbEntity
  8
0
  6
Continuous
 62
     7
100
AcDbLine
 10
5.191906631345821
 20
9.620284543500082
 30
0.0
 11
5.191906631345821
 21
9.440284543500082
 31
0.0
  0
LINE
  5
12A
330
1F
100
AcDbEntity
  8
0
  6
Continuous
 62
     7
100
AcDbLine
 10
5.01190663134582
 20
9.620284543500082
 30
0.0
 11
5.191906631345821
 21
9.620284543500082
 31
0.0
  0
LINE
  5
12B
330
1F
100
AcDbEntity
  8
0
  6
Continuous
 62
     7
100
AcDbLine
 10
5.011906631345821
 20
9.440284543500082
 30
0.0
 11
5.01190663134582
 21
9.620284543500082
 31
0.0
  0
LINE
  5
12C
330
1F
100
AcDbEntity
  8
0
  6
Continuous
 62
     7
100
AcDbLine
 10
4.63390663134582
 20
9.440284543500082
 30
0.0
 11
5.011906631345821
 21
9.440284543500082
 31
0.0
  0
LINE
  5
12D
330
1F
100
AcDbEntity
  8
0
  6
Continuous
 62
     7
100
AcDbLine
 10
4.633906631345822
 20
9.81828454350008
 30
0.0
 11
4.63390663134582
 21
9.440284543500082
 31
0.0
  0
LINE
  5
12E
330
1F
100
AcDbEntity
  8
0
  6
Continuous
 62
     7
100
AcDbLine
 10
4.813906631345822
 20
9.81828454350008
 30
0.0
 11
4.633906631345822
 21
9.81828454350008
 31
0.0
  0
LINE
  5
12F
330
1F
100
AcDbEntity
  8
0
  6
Continuous
 62
     7
100
AcDbLine
 10
4.813906631345822
 20
9.99828454350008
 30
0.0
 11
4.813906631345822
 21
9.81828454350008
 31
0.0
  0
LINE
  5
130
330
1F
100
AcDbEntity
  8
0
  6
Continuous
 62
     7
100
AcDbLine
 10
4.633906631345821
 20
9.99828454350008
 30
0.0
 11
4.813906631345822
 21
9.99828454350008
 31
0.0
  0
LINE
  5
131
330
1F
100
AcDbEntity
  8
0
  6
Continuous
 62
     7
100
AcDbLine
 10
4.633906631345822
 20
10.56828454350008
 30
0.0
 11
4.633906631345821
 21
9.99828454350008
 31
0.0
  0
LINE
  5
132
330
1F
100
AcDbEntity
  8
0
  6
Continuous
 62
     7
100
AcDbLine
 10
4.813906631345822
 20
10.56828454350008
 30
0.0
 11
4.633906631345822
 21
10.56828454350008
 31
0.0
  0
LINE
  5
133
330
1F
100
AcDbEntity
  8
0
  6
Continuous
 62
     7
100
AcDbLine
 10
4.813906631345822
 20
10.74828454350008
 30
0.0
 11
4.813906631345822
 21
10.56828454350008
 31
0.0
  0
LINE
  5
134
330
1F
100
AcDbEntity
  8
0
  6
Continuous
 62
     7
100
AcDbLine
 10
4.633906631345822
 20
10.74828454350008
 30
0.0
 11
4.813906631345822
 21
10.74828454350008
 31
0.0
  0
LINE
  5
135
330
1F
100
AcDbEntity
  8
0
  6
Continuous
 62
     7
100
AcDbLine
 10
4.633906631345822
 20
11.31828454350008
 30
0.0
 11
4.633906631345822
 21
10.74828454350008
 31
0.0
  0
LINE
  5
136
330
1F
100
AcDbEntity
  8
0
  6
Continuous
 62
     7
100
AcDbLine
 10
4.813906631345822
 20
11.31828454350008
 30
0.0
 11
4.633906631345822
 21
11.31828454350008
 31
0.0
  0
LINE
  5
137
330
1F
100
AcDbEntity
  8
0
  6
Continuous
 62
     7
100
AcDbLine
 10
4.813906631345822
 20
11.49828454350008
 30
0.0
 11
4.813906631345822
 21
11.31828454350008
 31
0.0
  0
LINE
  5
138
330
1F
100
AcDbEntity
  8
0
  6
Continuous
 62
     7
100
AcDbLine
 10
4.633906631345821
 20
11.49828454350008
 30
0.0
 11
4.813906631345822
 21
11.49828454350008
 31
0.0
  0
LINE
  5
139
330
1F
100
AcDbEntity
  8
0
  6
Continuous
 62
     7
100
AcDbLine
 10
4.633906631345822
 20
12.06828454350008
 30
0.0
 11
4.633906631345821
 21
11.49828454350008
 31
0.0
  0
LINE
  5
13A
330
1F
100
AcDbEntity
  8
0
  6
Continuous
 62
     7
100
AcDbLine
 10
5.633906631345821
 20
14.87628454350008
 30
0.0
 11
4.633906631345822
 21
13.87628454350008
 31
0.0
  0
LINE
  5
13B
330
1F
100
AcDbEntity
  8
0
  6
Continuous
 62
     7
100
AcDbLine
 10
5.761906631345821
 20
14.87628454350008
 30
0.0
 11
5.633906631345821
 21
14.87628454350008
 31
0.0
  0
LINE
  5
13C
330
1F
100
AcDbEntity
  8
0
  6
Continuous
 62
     7
100
AcDbLine
 10
8.011906631345823
 20
14.69628454350008
 30
0.0
 11
8.011906631345823
 21
14.87628454350008
 31
0.0
  0
LINE
  5
13D
330
1F
100
AcDbEntity
  8
0
  6
Continuous
 62
     7
100
AcDbLine
 10
8.191906631345823
 20
14.69628454350008
 30
0.0
 11
8.011906631345823
 21
14.69628454350008
 31
0.0
  0
LINE
  5
13E
330
1F
100
AcDbEntity
  8
0
  6
Continuous
 62
     7
100
AcDbLine
 10
8.191906631345823
 20
14.87628454350008
 30
0.0
 11
8.191906631345823
 21
14.69628454350008
 31
0.0
  0
LINE
  5
13F
330
1F
100
AcDbEntity
  8
0
  6
Continuous
 62
     7
100
AcDbLine
 10
8.761906631345821
 20
14.87628454350008
 30
0.0
 11
8.191906631345823
 21
14.87628454350008
 31
0.0
  0
LINE
  5
140
330
1F
100
AcDbEntity
  8
0
  6
Continuous
 62
     7
100
AcDbLine
 10
8.761906631345821
 20
14.69628454350008
 30
0.0
 11
8.761906631345821
 21
14.87628454350008
 31
0.0
  0
LINE
  5
141
330
1F
100
AcDbEntity
  8
0
  6
Continuous
 62
     7
100
AcDbLine
 10
8.941906631345823
 20
14.69628454350008
 30
0.0
 11
8.761906631345821
 21
14.69628454350008
 31
0.0
  0
LINE
  5
142
330
1F
100
AcDbEntity
  8
0
  6
Continuous
 62
     7
100
AcDbLine
 10
8.941906631345823
 20
14.87628454350008
 30
0.0
 11
8.941906631345823
 21
14.69628454350008
 31
0.0
  0
LINE
  5
143
330
1F
100
AcDbEntity
  8
0
  6
Continuous
 62
     7
100
AcDbLine
 10
9.511906631345823
 20
14.87628454350008
 30
0.0
 11
8.941906631345823
 21
14.87628454350008
 31
0.0
  0
LINE
  5
144
330
1F
100
AcDbEntity
  8
0
  6
Continuous
 62
     7
100
AcDbLine
 10
9.511906631345823
 20
14.69628454350008
 30
0.0
 11
9.511906631345823
 21
14.87628454350008
 31
0.0
  0
LINE
  5
145
330
1F
100
AcDbEntity
  8
0
  6
Continuous
 62
     7
100
AcDbLine
 10
9.691906631345823
 20
14.69628454350008
 30
0.0
 11
9.511906631345823
 21
14.69628454350008
 31
0.0
  0
LINE
  5
146
330
1F
100
AcDbEntity
  8
0
  6
Continuous
 62
     7
100
AcDbLine
 10
9.691906631345823
 20
14.87628454350008
 30
0.0
 11
9.691906631345823
 21
14.69628454350008
 31
0.0
  0
LINE
  5
147
330
1F
100
AcDbEntity
  8
0
  6
Continuous
 62
     7
100
AcDbLine
 10
10.06990663134582
 20
12.06828454350008
 30
0.0
 11
9.889906631345821
 21
12.06828454350008
 31
0.0
  0
LINE
  5
148
330
1F
100
AcDbEntity
  8
0
  6
Continuous
 62
     7
100
AcDbLine
 10
10.06990663134582
 20
14.87628454350008
 30
0.0
 11
9.691906631345823
 21
14.87628454350008
 31
0.0
  0
LINE
  5
149
330
1F
100
AcDbEntity
  8
0
  6
Continuous
 62
     7
100
AcDbLine
 10
10.06990663134582
 20
14.49828454350008
 30
0.0
 11
10.06990663134582
 21
14.87628454350008
 31
0.0
  0
LINE
  5
14A
330
1F
100
AcDbEntity
  8
0
  6
Continuous
 62
     7
100
AcDbLine
 10
10.06990663134582
 20
13.74828454350008
 30
0.0
 11
10.06990663134582
 21
14.31828454350008
 31
0.0
  0
LINE
  5
14B
330
1F
100
AcDbEntity
  8
0
  6
Continuous
 62
     7
100
AcDbLine
 10
9.889906631345821
 20
11.49828454350008
 30
0.0
 11
10.06990663134582
 21
11.49828454350008
 31
0.0
  0
LINE
  5
14C
330
1F
100
AcDbEntity
  8
0
  6
Continuous
 62
     7
100
AcDbLine
 10
9.889906631345821
 20
11.31828454350008
 30
0.0
 11
9.889906631345821
 21
11.49828454350008
 31
0.0
  0
LINE
  5
14D
330
1F
100
AcDbEntity
  8
0
  6
Continuous
 62
     7
100
AcDbLine
 10
10.06990663134582
 20
11.31828454350008
 30
0.0
 11
9.889906631345821
 21
11.31828454350008
 31
0.0
  0
LINE
  5
14E
330
1F
100
AcDbEntity
  8
0
  6
Continuous
 62
     7
100
AcDbLine
 10
10.06990663134582
 20
10.74828454350008
 30
0.0
 11
10.06990663134582
 21
11.31828454350008
 31
0.0
  0
LINE
  5
14F
330
1F
100
AcDbEntity
  8
0
  6
Continuous
 62
     7
100
AcDbLine
 10
8.191906631345821
 20
9.620284543500083
 30
0.0
 11
8.191906631345821
 21
9.440284543500082
 31
0.0
  0
LINE
  5
150
330
1F
100
AcDbEntity
  8
0
  6
Continuous
 62
     7
100
AcDbLine
 10
8.011906631345819
 20
9.620284543500083
 30
0.0
 11
8.191906631345821
 21
9.620284543500083
 31
0.0
  0
LINE
  5
151
330
1F
100
AcDbEntity
  8
0
  6
Continuous
 62
     7
100
AcDbLine
 10
8.011906631345821
 20
9.440284543500082
 30
0.0
 11
8.011906631345819
 21
9.620284543500083
 31
0.0
  0
LINE
  5
152
330
1F
100
AcDbEntity
  8
0
  6
Continuous
 62
     7
100
AcDbLine
 10
7.441906631345821
 20
9.440284543500082
 30
0.0
 11
8.011906631345821
 21
9.440284543500082
 31
0.0
  0
LINE
  5
153
330
1F
100
AcDbEntity
  8
0
  6
Continuous
 62
     7
100
AcDbLine
 10
11.12690663134583
 20
11.40828454350012
 30
0.0
 11
10.60190663134583
 21
11.40828454350012
 31
0.0
  0
LINE
  5
154
330
1F
100
AcDbEntity
  8
0
  6
Continuous
 62
     7
100
AcDbLine
 10
10.60190663134583
 20
10.95828454350012
 30
0.0
 11
11.12690663134583
 21
10.95828454350012
 31
0.0
  0
LINE
  5
155
330
1F
100
AcDbEntity
  8
0
  6
Continuous
 62
     7
100
AcDbLine
 10
11.12690663134583
 20
10.95828454350012
 30
0.0
 11
11.12690663134583
 21
11.40828454350012
 31
0.0
  0
LINE
  5
156
330
1F
100
AcDbEntity
  8
0
  6
Continuous
 62
     7
100
AcDbLine
 10
9.889906631345821
 20
14.49828454350008
 30
0.0
 11
10.06990663134582
 21
14.49828454350008
 31
0.0
  0
LINE
  5
157
330
1F
100
AcDbEntity
  8
0
  6
Continuous
 62
     7
100
AcDbLine
 10
9.889906631345821
 20
14.31828454350008
 30
0.0
 11
9.889906631345821
 21
14.49828454350008
 31
0.0
  0
LINE
  5
158
330
1F
100
AcDbEntity
  8
0
  6
Continuous
 62
     7
100
AcDbLine
 10
10.06990663134582
 20
14.31828454350008
 30
0.0
 11
9.889906631345821
 21
14.31828454350008
 31
0.0
  0
LINE
  5
159
330
1F
100
AcDbEntity
  8
0
  6
Continuous
 62
     7
100
AcDbLine
 10
11.12690663134579
 20
14.65828454350012
 30
0.0
 11
10.60190663134579
 21
14.65828454350012
 31
0.0
  0
LINE
  5
15A
330
1F
100
AcDbEntity
  8
0
  6
Continuous
 62
     7
100
AcDbLine
 10
9.889906631345821
 20
13.74828454350008
 30
0.0
 11
10.06990663134582
 21
13.74828454350008
 31
0.0
  0
LINE
  5
15B
330
1F
100
AcDbEntity
  8
0
  6
Continuous
 62
     7
100
AcDbLine
 10
9.889906631345821
 20
13.56828454350008
 30
0.0
 11
9.889906631345821
 21
13.74828454350008
 31
0.0
  0
LINE
  5
15C
330
1F
100
AcDbEntity
  8
0
  6
Continuous
 62
     7
100
AcDbLine
 10
10.06990663134582
 20
13.56828454350008
 30
0.0
 11
9.889906631345821
 21
13.56828454350008
 31
0.0
  0
LINE
  5
15D
330
1F
100
AcDbEntity
  8
0
  6
Continuous
 62
     7
100
AcDbLine
 10
10.6019066313458
 20
14.20828454350012
 30
0.0
 11
11.1269066313458
 21
14.20828454350012
 31
0.0
  0
LINE
  5
15E
330
1F
100
AcDbEntity
  8
0
  6
Continuous
 62
     7
100
AcDbLine
 10
9.889906631345821
 20
12.99828454350008
 30
0.0
 11
10.06990663134582
 21
12.99828454350008
 31
0.0
  0
LINE
  5
15F
330
1F
100
AcDbEntity
  8
0
  6
Continuous
 62
     7
100
AcDbLine
 10
9.889906631345821
 20
12.81828454350008
 30
0.0
 11
9.889906631345821
 21
12.99828454350008
 31
0.0
  0
LINE
  5
160
330
1F
100
AcDbEntity
  8
0
  6
Continuous
 62
     7
100
AcDbLine
 10
10.06990663134582
 20
12.81828454350008
 30
0.0
 11
9.889906631345821
 21
12.81828454350008
 31
0.0
  0
LINE
  5
161
330
1F
100
AcDbEntity
  8
0
  6
Continuous
 62
     7
100
AcDbLine
 10
11.1269066313458
 20
14.20828454350012
 30
0.0
 11
11.12690663134579
 21
14.65828454350012
 31
0.0
  0
LINE
  5
162
330
1F
100
AcDbEntity
  8
0
  6
Continuous
 62
     7
100
AcDbLine
 10
9.889906631345821
 20
12.24828454350008
 30
0.0
 11
10.06990663134582
 21
12.24828454350008
 31
0.0
  0
LINE
  5
163
330
1F
100
AcDbEntity
  8
0
  6
Continuous
 62
     7
100
AcDbLine
 10
9.889906631345821
 20
12.06828454350008
 30
0.0
 11
9.889906631345821
 21
12.24828454350008
 31
0.0
  0
LINE
  5
164
330
1F
100
AcDbEntity
  8
0
  6
Continuous
 62
     7
100
AcDbLine
 10
11.12690663134584
 20
10.75828454350012
 30
0.0
 11
10.60190663134584
 21
10.75828454350012
 31
0.0
  0
LINE
  5
165
330
1F
100
AcDbEntity
  8
0
  6
Continuous
 62
     7
100
AcDbLine
 10
10.60190663134584
 20
10.30828454350012
 30
0.0
 11
11.12690663134584
 21
10.30828454350012
 31
0.0
  0
LINE
  5
166
330
1F
100
AcDbEntity
  8
0
  6
Continuous
 62
     7
100
AcDbLine
 10
11.12690663134584
 20
10.30828454350012
 30
0.0
 11
11.12690663134584
 21
10.75828454350012
 31
0.0
  0
LINE
  5
167
330
1F
100
AcDbEntity
  8
0
  6
Continuous
 62
     7
100
AcDbLine
 10
11.12690663134584
 20
10.10828454350012
 30
0.0
 11
10.60190663134584
 21
10.10828454350011
 31
0.0
  0
LINE
  5
168
330
1F
100
AcDbEntity
  8
0
  6
Continuous
 62
     7
100
AcDbLine
 10
10.60190663134584
 20
9.658284543500117
 30
0.0
 11
11.12690663134585
 21
9.658284543500123
 31
0.0
  0
LINE
  5
169
330
1F
100
AcDbEntity
  8
0
  6
Continuous
 62
     7
100
AcDbLine
 10
11.12690663134585
 20
9.658284543500123
 30
0.0
 11
11.12690663134584
 21
10.10828454350012
 31
0.0
  0
LINE
  5
16A
330
1F
100
AcDbEntity
  8
0
  6
Continuous
 62
     7
100
AcDbLine
 10
9.851906631345823
 20
8.383284543500085
 30
0.0
 11
9.851906631345823
 21
8.908284543500082
 31
0.0
  0
LINE
  5
16B
330
1F
100
AcDbEntity
  8
0
  6
Continuous
 62
     7
100
AcDbLine
 10
9.401906631345823
 20
8.908284543500082
 30
0.0
 11
9.401906631345822
 21
8.383284543500085
 31
0.0
  0
LINE
  5
16C
330
1F
100
AcDbEntity
  8
0
  6
Continuous
 62
     7
100
AcDbLine
 10
9.401906631345822
 20
8.383284543500085
 30
0.0
 11
9.851906631345823
 21
8.383284543500085
 31
0.0
  0
LINE
  5
16D
330
1F
100
AcDbEntity
  8
0
  6
Continuous
 62
     7
100
AcDbLine
 10
9.201906631345822
 20
8.383284543500085
 30
0.0
 11
9.201906631345822
 21
8.908284543500082
 31
0.0
  0
LINE
  5
16E
330
1F
100
AcDbEntity
  8
0
  6
Continuous
 62
     7
100
AcDbLine
 10
8.751906631345823
 20
8.908284543500082
 30
0.0
 11
8.751906631345821
 21
8.383284543500085
 31
0.0
  0
LINE
  5
16F
330
1F
100
AcDbEntity
  8
0
  6
Continuous
 62
     7
100
AcDbLine
 10
8.751906631345821
 20
8.383284543500085
 30
0.0
 11
9.201906631345822
 21
8.383284543500085
 31
0.0
  0
LINE
  5
170
330
1F
100
AcDbEntity
  8
0
  6
Continuous
 62
     7
100
AcDbLine
 10
8.551906631345822
 20
8.383284543500085
 30
0.0
 11
8.551906631345822
 21
8.908284543500082
 31
0.0
  0
LINE
  5
171
330
1F
100
AcDbEntity
  8
0
  6
Continuous
 62
     7
100
AcDbLine
 10
8.101906631345823
 20
8.908284543500082
 30
0.0
 11
8.101906631345823
 21
8.383284543500085
 31
0.0
  0
LINE
  5
172
330
1F
100
AcDbEntity
  8
0
  6
Continuous
 62
     7
100
AcDbLine
 10
8.101906631345823
 20
8.383284543500085
 30
0.0
 11
8.551906631345822
 21
8.383284543500085
 31
0.0
  0
LINE
  5
173
330
1F
100
AcDbEntity
  8
0
  6
Continuous
 62
     7
100
AcDbLine
 10
7.901906631345823
 20
8.383284543500083
 30
0.0
 11
7.901906631345822
 21
8.908284543500082
 31
0.0
  0
LINE
  5
174
330
1F
100
AcDbEntity
  8
0
  6
Continuous
 62
     7
100
AcDbLine
 10
7.451906631345823
 20
8.908284543500082
 30
0.0
 11
7.451906631345822
 21
8.383284543500083
 31
0.0
  0
LINE
  5
175
330
1F
100
AcDbEntity
  8
0
  6
Continuous
 62
     7
100
AcDbLine
 10
7.451906631345822
 20
8.383284543500083
 30
0.0
 11
7.901906631345823
 21
8.383284543500083
 31
0.0
  0
LINE
  5
176
330
1F
100
AcDbEntity
  8
0
  6
Continuous
 62
     7
100
AcDbLine
 10
7.251906631345823
 20
8.383284543500083
 30
0.0
 11
7.251906631345822
 21
8.908284543500082
 31
0.0
  0
LINE
  5
177
330
1F
100
AcDbEntity
  8
0
  6
Continuous
 62
     7
100
AcDbLine
 10
6.801906631345823
 20
8.908284543500082
 30
0.0
 11
6.801906631345823
 21
8.383284543500083
 31
0.0
  0
LINE
  5
178
330
1F
100
AcDbEntity
  8
0
  6
Continuous
 62
     7
100
AcDbLine
 10
6.801906631345823
 20
8.383284543500083
 30
0.0
 11
7.251906631345823
 21
8.383284543500083
 31
0.0
  0
LINE
  5
179
330
1F
100
AcDbEntity
  8
0
  6
Continuous
 62
     7
100
AcDbLine
 10
6.601906631345823
 20
8.383284543500083
 30
0.0
 11
6.601906631345822
 21
8.90828454350008
 31
0.0
  0
LINE
  5
17A
330
1F
100
AcDbEntity
  8
0
  6
Continuous
 62
     7
100
AcDbLine
 10
6.151906631345823
 20
8.90828454350008
 30
0.0
 11
6.151906631345823
 21
8.383284543500083
 31
0.0
  0
LINE
  5
17B
330
1F
100
AcDbEntity
  8
0
  6
Continuous
 62
     7
100
AcDbLine
 10
6.151906631345823
 20
8.383284543500083
 30
0.0
 11
6.601906631345823
 21
8.383284543500083
 31
0.0
  0
LINE
  5
17C
330
1F
100
AcDbEntity
  8
0
  6
Continuous
 62
     7
100
AcDbLine
 10
5.951906631345823
 20
8.383284543500082
 30
0.0
 11
5.951906631345821
 21
8.90828454350008
 31
0.0
  0
LINE
  5
17D
330
1F
100
AcDbEntity
  8
0
  6
Continuous
 62
     7
100
AcDbLine
 10
5.501906631345823
 20
8.90828454350008
 30
0.0
 11
5.501906631345823
 21
8.383284543500082
 31
0.0
  0
LINE
  5
17E
330
1F
100
AcDbEntity
  8
0
  6
Continuous
 62
     7
100
AcDbLine
 10
5.501906631345823
 20
8.383284543500082
 30
0.0
 11
5.951906631345823
 21
8.383284543500082
 31
0.0
  0
LINE
  5
17F
330
1F
100
AcDbEntity
  8
0
  6
Continuous
 62
     7
100
AcDbLine
 10
5.301906631345823
 20
8.383284543500082
 30
0.0
 11
5.301906631345822
 21
8.90828454350008
 31
0.0
  0
LINE
  5
180
330
1F
100
AcDbEntity
  8
0
  6
Continuous
 62
     7
100
AcDbLine
 10
4.851906631345823
 20
8.90828454350008
 30
0.0
 11
4.851906631345822
 21
8.383284543500082
 31
0.0
  0
LINE
  5
181
330
1F
100
AcDbEntity
  8
0
  6
Continuous
 62
     7
100
AcDbLine
 10
4.851906631345822
 20
8.383284543500082
 30
0.0
 11
5.301906631345823
 21
8.383284543500082
 31
0.0
  0
LINE
  5
182
330
1F
100
AcDbEntity
  8
0
  6
Continuous
 62
     7
100
AcDbLine
 10
3.576906631345833
 20
9.658284543500068
 30
0.0
 11
4.10190663134583
 21
9.658284543500071
 31
0.0
  0
LINE
  5
183
330
1F
100
AcDbEntity
  8
0
  6
Continuous
 62
     7
100
AcDbLine
 10
4.101906631345828
 20
10.10828454350007
 30
0.0
 11
3.57690663134583
 21
10.10828454350007
 31
0.0
  0
LINE
  5
184
330
1F
100
AcDbEntity
  8
0
  6
Continuous
 62
     7
100
AcDbLine
 10
3.57690663134583
 20
10.10828454350007
 30
0.0
 11
3.576906631345833
 21
9.658284543500068
 31
0.0
  0
LINE
  5
185
330
1F
100
AcDbEntity
  8
0
  6
Continuous
 62
     7
100
AcDbLine
 10
3.576906631345829
 20
10.30828454350007
 30
0.0
 11
4.101906631345827
 21
10.30828454350007
 31
0.0
  0
LINE
  5
186
330
1F
100
AcDbEntity
  8
0
  6
Continuous
 62
     7
100
AcDbLine
 10
4.101906631345825
 20
10.75828454350007
 30
0.0
 11
3.576906631345828
 21
10.75828454350006
 31
0.0
  0
LINE
  5
187
330
1F
100
AcDbEntity
  8
0
  6
Continuous
 62
     7
100
AcDbLine
 10
3.576906631345828
 20
10.75828454350006
 30
0.0
 11
3.576906631345829
 21
10.30828454350007
 31
0.0
  0
LINE
  5
188
330
1F
100
AcDbEntity
  8
0
  6
Continuous
 62
     7
100
AcDbLine
 10
3.576906631345827
 20
10.95828454350006
 30
0.0
 11
4.101906631345825
 21
10.95828454350007
 31
0.0
  0
LINE
  5
189
330
1F
100
AcDbEntity
  8
0
  6
Continuous
 62
     7
100
AcDbLine
 10
4.101906631345824
 20
11.40828454350007
 30
0.0
 11
3.576906631345825
 21
11.40828454350007
 31
0.0
  0
LINE
  5
18A
330
1F
100
AcDbEntity
  8
0
  6
Continuous
 62
     7
100
AcDbLine
 10
3.576906631345825
 20
11.40828454350007
 30
0.0
 11
3.576906631345827
 21
10.95828454350006
 31
0.0
  0
LINE
  5
18B
330
1F
100
AcDbEntity
  8
0
  6
Continuous
 62
     7
100
AcDbLine
 10
3.576906631345825
 20
11.60828454350006
 30
0.0
 11
4.101906631345823
 21
11.60828454350007
 31
0.0
  0
LINE
  5
18C
330
1F
100
AcDbEntity
  8
0
  6
Continuous
 62
     7
100
AcDbLine
 10
4.10190663134582
 20
12.05828454350007
 30
0.0
 11
3.576906631345822
 21
12.05828454350007
 31
0.0
  0
LINE
  5
18D
330
1F
100
AcDbEntity
  8
0
  6
Continuous
 62
     7
100
AcDbLine
 10
3.576906631345822
 20
12.05828454350007
 30
0.0
 11
3.576906631345825
 21
11.60828454350006
 31
0.0
  0
LINE
  5
18E
330
1F
100
AcDbEntity
  8
0
  6
Continuous
 62
     7
100
AcDbLine
 10
4.813906631345822
 20
13.56828454350008
 30
0.0
 11
4.633906631345821
 21
13.56828454350008
 31
0.0
  0
LINE
  5
18F
330
1F
100
AcDbEntity
  8
0
  6
Continuous
 62
     7
100
AcDbLine
 10
3.576906631345822
 20
12.25828454350007
 30
0.0
 11
4.10190663134582
 21
12.25828454350007
 31
0.0
  0
LINE
  5
190
330
1F
100
AcDbEntity
  8
0
  6
Continuous
 62
     7
100
AcDbLine
 10
4.101906631345818
 20
12.70828454350007
 30
0.0
 11
3.57690663134582
 21
12.70828454350007
 31
0.0
  0
LINE
  5
191
330
1F
100
AcDbEntity
  8
0
  6
Continuous
 62
     7
100
AcDbLine
 10
3.57690663134582
 20
12.70828454350007
 30
0.0
 11
3.576906631345822
 21
12.25828454350007
 31
0.0
  0
LINE
  5
192
330
1F
100
AcDbEntity
  8
0
  6
Continuous
 62
     7
100
AcDbLine
 10
4.813906631345822
 20
12.06828454350008
 30
0.0
 11
4.633906631345822
 21
12.06828454350008
 31
0.0
  0
LINE
  5
193
330
1F
100
AcDbEntity
  8
0
  6
Continuous
 62
     7
100
AcDbLine
 10
3.576906631345819
 20
12.90828454350007
 30
0.0
 11
4.101906631345817
 21
12.90828454350007
 31
0.0
  0
LINE
  5
194
330
1F
100
AcDbEntity
  8
0
  6
Continuous
 62
     7
100
AcDbLine
 10
4.101906631345816
 20
13.35828454350007
 30
0.0
 11
3.576906631345818
 21
13.35828454350007
 31
0.0
  0
LINE
  5
195
330
1F
100
AcDbEntity
  8
0
  6
Continuous
 62
     7
100
AcDbLine
 10
3.576906631345818
 20
13.35828454350007
 30
0.0
 11
3.576906631345819
 21
12.90828454350007
 31
0.0
  0
LINE
  5
196
330
1F
100
AcDbEntity
  8
0
  6
Continuous
 62
     7
100
AcDbLine
 10
4.813906631345822
 20
12.24828454350008
 30
0.0
 11
4.813906631345822
 21
12.06828454350008
 31
0.0
  0
LINE
  5
197
330
1F
100
AcDbEntity
  8
0
  6
Continuous
 62
     7
100
AcDbLine
 10
4.633906631345821
 20
12.24828454350008
 30
0.0
 11
4.813906631345822
 21
12.24828454350008
 31
0.0
  0
LINE
  5
198
330
1F
100
AcDbEntity
  8
0
  6
Continuous
 62
     7
100
AcDbLine
 10
3.576906631345817
 20
13.55828454350006
 30
0.0
 11
4.101906631345815
 21
13.55828454350007
 31
0.0
  0
LINE
  5
199
330
1F
100
AcDbEntity
  8
0
  6
Continuous
 62
     7
100
AcDbLine
 10
4.101906631345813
 20
14.00828454350007
 30
0.0
 11
3.576906631345815
 21
14.00828454350007
 31
0.0
  0
LINE
  5
19A
330
1F
100
AcDbEntity
  8
0
  6
Continuous
 62
     7
100
AcDbLine
 10
3.576906631345815
 20
14.00828454350007
 30
0.0
 11
3.576906631345817
 21
13.55828454350006
 31
0.0
  0
LINE
  5
19B
330
1F
100
AcDbEntity
  8
0
  6
Continuous
 62
     7
100
AcDbLine
 10
9.889906631345821
 20
10.74828454350008
 30
0.0
 11
10.06990663134582
 21
10.74828454350008
 31
0.0
  0
LINE
  5
19C
330
1F
100
AcDbEntity
  8
0
  6
Continuous
 62
     7
100
AcDbLine
 10
3.576906631345815
 20
14.20828454350006
 30
0.0
 11
4.101906631345813
 21
14.20828454350007
 31
0.0
  0
LINE
  5
19D
330
1F
100
AcDbEntity
  8
0
  6
Continuous
 62
     7
100
AcDbLine
 10
4.10190663134581
 20
14.65828454350007
 30
0.0
 11
3.576906631345812
 21
14.65828454350007
 31
0.0
  0
LINE
  5
19E
330
1F
100
AcDbEntity
  8
0
  6
Continuous
 62
     7
100
AcDbLine
 10
3.576906631345812
 20
14.65828454350007
 30
0.0
 11
3.576906631345815
 21
14.20828454350006
 31
0.0
  0
LINE
  5
19F
330
1F
100
AcDbEntity
  8
0
  6
Continuous
 62
     7
100
AcDbLine
 10
4.633906631345822
 20
12.81828454350008
 30
0.0
 11
4.633906631345821
 21
12.24828454350008
 31
0.0
  0
LINE
  5
1A0
330
1F
100
AcDbEntity
  8
0
  6
Continuous
 62
     7
100
AcDbLine
 10
10.06990663134582
 20
9.440284543500082
 30
0.0
 11
10.06990663134582
 21
9.818284543500084
 31
0.0
  0
LINE
  5
1A1
330
1F
100
AcDbEntity
  8
0
  6
Continuous
 62
     7
100
AcDbLine
 10
4.813906631345822
 20
13.74828454350008
 30
0.0
 11
4.813906631345822
 21
13.56828454350008
 31
0.0
  0
LINE
  5
1A2
330
1F
100
AcDbEntity
  8
0
  6
Continuous
 62
     7
100
AcDbLine
 10
4.633906631345821
 20
13.74828454350008
 30
0.0
 11
4.813906631345822
 21
13.74828454350008
 31
0.0
  0
LINE
  5
1A3
330
1F
100
AcDbEntity
  8
0
  6
Continuous
 62
     7
100
AcDbLine
 10
4.633906631345822
 20
13.87628454350008
 30
0.0
 11
4.633906631345821
 21
13.74828454350008
 31
0.0
  0
LINE
  5
1A4
330
1F
100
AcDbEntity
  8
0
  6
Continuous
 62
     7
100
AcDbLine
 10
5.761906631345821
 20
14.69628454350008
 30
0.0
 11
5.761906631345821
 21
14.87628454350008
 31
0.0
  0
LINE
  5
1A5
330
1F
100
AcDbEntity
  8
0
  6
Continuous
 62
     7
100
AcDbLine
 10
5.941906631345823
 20
14.69628454350008
 30
0.0
 11
5.761906631345821
 21
14.69628454350008
 31
0.0
  0
LINE
  5
1A6
330
1F
100
AcDbEntity
  8
0
  6
Continuous
 62
     7
100
AcDbLine
 10
5.941906631345823
 20
14.87628454350008
 30
0.0
 11
5.941906631345823
 21
14.69628454350008
 31
0.0
  0
LINE
  5
1A7
330
1F
100
AcDbEntity
  8
0
  6
Continuous
 62
     7
100
AcDbLine
 10
6.511906631345822
 20
14.87628454350008
 30
0.0
 11
5.941906631345823
 21
14.87628454350008
 31
0.0
  0
LINE
  5
1A8
330
1F
100
AcDbEntity
  8
0
  6
Continuous
 62
     7
100
AcDbLine
 10
9.889906631345821
 20
10.56828454350008
 30
0.0
 11
9.889906631345821
 21
10.74828454350008
 31
0.0
  0
LINE
  5
1A9
330
1F
100
AcDbEntity
  8
0
  6
Continuous
 62
     7
100
AcDbLine
 10
10.06990663134582
 20
10.56828454350008
 30
0.0
 11
9.889906631345821
 21
10.56828454350008
 31
0.0
  0
LINE
  5
1AA
330
1F
100
AcDbEntity
  8
0
  6
Continuous
 62
     7
100
AcDbLine
 10
10.06990663134582
 20
9.998284543500083
 30
0.0
 11
10.06990663134582
 21
10.56828454350008
 31
0.0
  0
LINE
  5
1AB
330
1F
100
AcDbEntity
  8
0
  6
Continuous
 62
     7
100
AcDbLine
 10
9.889906631345821
 20
9.998284543500083
 30
0.0
 11
10.06990663134582
 21
9.998284543500083
 31
0.0
  0
LINE
  5
1AC
330
1F
100
AcDbEntity
  8
0
  6
Continuous
 62
     7
100
AcDbLine
 10
9.889906631345821
 20
9.818284543500084
 30
0.0
 11
9.889906631345821
 21
9.998284543500083
 31
0.0
  0
LINE
  5
1AD
330
1F
100
AcDbEntity
  8
0
  6
Continuous
 62
     7
100
AcDbLine
 10
10.06990663134582
 20
9.818284543500084
 30
0.0
 11
9.889906631345821
 21
9.818284543500084
 31
0.0
  0
LINE
  5
1AE
330
1F
100
AcDbEntity
  8
0
  6
Continuous
 62
     7
100
AcDbLine
 10
9.691906631345823
 20
9.620284543500083
 30
0.0
 11
9.691906631345823
 21
9.440284543500082
 31
0.0
  0
LINE
  5
1AF
330
1F
100
AcDbEntity
  8
0
  6
Continuous
 62
     7
100
AcDbLine
 10
9.511906631345819
 20
9.620284543500083
 30
0.0
 11
9.691906631345823
 21
9.620284543500083
 31
0.0
  0
LINE
  5
1B0
330
1F
100
AcDbEntity
  8
0
  6
Continuous
 62
     7
100
AcDbLine
 10
9.511906631345821
 20
9.440284543500084
 30
0.0
 11
9.511906631345819
 21
9.620284543500083
 31
0.0
  0
LINE
  5
1B1
330
1F
100
AcDbEntity
  8
0
  6
Continuous
 62
     7
100
AcDbLine
 10
8.941906631345821
 20
9.440284543500082
 30
0.0
 11
9.511906631345821
 21
9.440284543500084
 31
0.0
  0
LINE
  5
1B2
330
1F
100
AcDbEntity
  8
0
  6
Continuous
 62
     7
100
AcDbLine
 10
8.941906631345821
 20
9.620284543500083
 30
0.0
 11
8.941906631345821
 21
9.440284543500082
 31
0.0
  0
LINE
  5
1B3
330
1F
100
AcDbEntity
  8
0
  6
Continuous
 62
     7
100
AcDbLine
 10
8.761906631345819
 20
9.620284543500083
 30
0.0
 11
8.941906631345821
 21
9.620284543500083
 31
0.0
  0
LINE
  5
1B4
330
1F
100
AcDbEntity
  8
0
  6
Continuous
 62
     7
100
AcDbLine
 10
8.761906631345821
 20
9.440284543500084
 30
0.0
 11
8.761906631345819
 21
9.620284543500083
 31
0.0
  0
LINE
  5
1B5
330
1F
100
AcDbEntity
  8
0
  6
Continuous
 62
     7
100
AcDbLine
 10
8.191906631345821
 20
9.440284543500082
 30
0.0
 11
8.761906631345821
 21
9.440284543500084
 31
0.0
  0
LINE
  5
1B6
330
1F
100
AcDbEntity
  8
0
  6
Continuous
 62
     7
100
AcDbLine
 10
4.813906631345822
 20
12.81828454350008
 30
0.0
 11
4.633906631345822
 21
12.81828454350008
 31
0.0
  0
LINE
  5
1B7
330
1F
100
AcDbEntity
  8
0
  6
Continuous
 62
     7
100
AcDbLine
 10
4.813906631345822
 20
12.99828454350008
 30
0.0
 11
4.813906631345822
 21
12.81828454350008
 31
0.0
  0
LINE
  5
1B8
330
1F
100
AcDbEntity
  8
0
  6
Continuous
 62
     7
100
AcDbLine
 10
4.633906631345821
 20
12.99828454350008
 30
0.0
 11
4.813906631345822
 21
12.99828454350008
 31
0.0
  0
LINE
  5
1B9
330
1F
100
AcDbEntity
  8
0
  6
Continuous
 62
     7
100
AcDbLine
 10
4.633906631345821
 20
13.56828454350008
 30
0.0
 11
4.633906631345821
 21
12.99828454350008
 31
0.0
  0
LINE
  5
1BA
330
1F
100
AcDbEntity
  8
0
  6
Continuous
 62
     7
100
AcDbLine
 10
6.511906631345822
 20
14.69628454350008
 30
0.0
 11
6.511906631345822
 21
14.87628454350008
 31
0.0
  0
LINE
  5
1BB
330
1F
100
AcDbEntity
  8
0
  6
Continuous
 62
     7
100
AcDbLine
 10
6.691906631345822
 20
14.69628454350008
 30
0.0
 11
6.511906631345822
 21
14.69628454350008
 31
0.0
  0
LINE
  5
1BC
330
1F
100
AcDbEntity
  8
0
  6
Continuous
 62
     7
100
AcDbLine
 10
6.691906631345822
 20
14.87628454350008
 30
0.0
 11
6.691906631345822
 21
14.69628454350008
 31
0.0
  0
LINE
  5
1BD
330
1F
100
AcDbEntity
  8
0
  6
Continuous
 62
     7
100
AcDbLine
 10
7.261906631345822
 20
14.87628454350008
 30
0.0
 11
6.691906631345822
 21
14.87628454350008
 31
0.0
  0
LINE
  5
1BE
330
1F
100
AcDbEntity
  8
0
  6
Continuous
 62
     7
100
AcDbLine
 10
7.261906631345822
 20
14.69628454350008
 30
0.0
 11
7.261906631345822
 21
14.87628454350008
 31
0.0
  0
LINE
  5
1BF
330
1F
100
AcDbEntity
  8
0
  6
Continuous
 62
     7
100
AcDbLine
 10
7.441906631345823
 20
14.69628454350008
 30
0.0
 11
7.261906631345822
 21
14.69628454350008
 31
0.0
  0
LINE
  5
1C0
330
1F
100
AcDbEntity
  8
0
  6
Continuous
 62
     7
100
AcDbLine
 10
7.441906631345823
 20
14.87628454350008
 30
0.0
 11
7.441906631345823
 21
14.69628454350008
 31
0.0
  0
LINE
  5
1C1
330
1F
100
AcDbEntity
  8
0
  6
Continuous
 62
     7
100
AcDbLine
 10
8.011906631345823
 20
14.87628454350008
 30
0.0
 11
7.441906631345823
 21
14.87628454350008
 31
0.0
  0
LINE
  5
1C2
330
1F
100
AcDbEntity
  8
0
  6
Continuous
 62
     7
370
    15
100
AcDbLine
 10
11.05190663246341
 20
12.33328453726022
 30
0.0
 11
11.05190663246341
 21
12.63328455150946
 31
0.0
  0
LINE
  5
1C3
330
1F
100
AcDbEntity
  8
0
  6
Continuous
 62
     7
370
    15
100
AcDbLine
 10
11.05190663246341
 20
12.63328455150946
 30
0.0
 11
10.60190669840105
 21
12.63328455150946
 31
0.0
  0
LINE
  5
1C4
330
1F
100
AcDbEntity
  8
0
  6
Continuous
 62
     7
370
    15
100
AcDbLine
 10
10.60190669840105
 20
12.33328453726022
 30
0.0
 11
11.05190663246341
 21
12.33328453726022
 31
0.0
  0
ARC
  5
1C5
330
1F
100
AcDbEntity
  8
0
  6
Continuous
 62
     7
370
    15
100
AcDbCircle
 10
10.60190663134582
 20
12.48328454350012
 30
0.0
 40
0.1500000000000003
100
AcDbArc
 50
90.0
 51
270.0000000000015
  0
LINE
  5
1C6
330
1F
100
AcDbEntity
  8
0
  6
Continuous
 62
     7
370
    15
100
AcDbLine
 10
7.526906625105961
 20
8.458284542382495
 30
0.0
 11
7.826906639355195
 21
8.458284542382495
 31
0.0
  0
LINE
  5
1C7
330
1F
100
AcDbEntity
  8
0
  6
Continuous
 62
     7
370
    15
100
AcDbLine
 10
7.826906639355195
 20
8.458284542382495
 30
0.0
 11
7.826906639355195
 21
8.908284476444856
 31
0.0
  0
ARC
  5
1C8
330
1F
100
AcDbEntity
  8
0
  6
Continuous
 62
     7
370
    15
100
AcDbCircle
 10
7.676906631345823
 20
8.90828454350008
 30
0.0
 40
0.1500000000000003
100
AcDbArc
 50
0.0
 51
180.0
  0
LINE
  5
1C9
330
1F
100
AcDbEntity
  8
0
  6
Continuous
 62
     7
370
    15
100
AcDbLine
 10
7.526906625105961
 20
8.908284476444856
 30
0.0
 11
7.526906625105961
 21
8.458284542382495
 31
0.0
  0
LINE
  5
1CA
330
1F
100
AcDbEntity
  8
0
  6
Continuous
 62
     7
370
    15
100
AcDbLine
 10
3.651906630228235
 20
11.98328454973994
 30
0.0
 11
3.651906630228235
 21
11.6832845354907
 31
0.0
  0
LINE
  5
1CB
330
1F
100
AcDbEntity
  8
0
  6
Continuous
 62
     7
370
    15
100
AcDbLine
 10
3.651906630228235
 20
11.6832845354907
 30
0.0
 11
4.101906564290596
 21
11.6832845354907
 31
0.0
  0
ARC
  5
1CC
330
1F
100
AcDbEntity
  8
0
  6
Continuous
 62
     7
370
    15
100
AcDbCircle
 10
4.101906631345822
 20
11.83328454350007
 30
0.0
 40
0.1500000000000003
100
AcDbArc
 50
270.0000000000008
 51
90.00000000000033
  0
LINE
  5
1CD
330
1F
100
AcDbEntity
  8
0
  6
Continuous
 62
     7
370
    15
100
AcDbLine
 10
4.101906564290596
 20
11.98328454973994
 30
0.0
 11
3.651906630228235
 21
11.98328454973994
 31
0.0
  0
LINE
  5
1CE
330
1F
100
AcDbEntity
  8
0
  6
Continuous
 62
     7
370
    15
100
AcDbLine
 10
11.05190663246341
 20
14.28328465898408
 30
0.0
 11
11.05190663246341
 21
14.58328461502565
 31
0.0
  0
LINE
  5
1CF
330
1F
100
AcDbEntity
  8
0
  6
Continuous
 62
     7
370
    15
100
AcDbLine
 10
11.05190663246341
 20
14.58328461502565
 30
0.0
 11
10.60190669840105
 21
14.58328461502565
 31
0.0
  0
ARC
  5
1D0
330
1F
100
AcDbEntity
  8
0
  6
Continuous
 62
     7
370
    15
100
AcDbCircle
 10
10.6019066313458
 20
14.43328454350012
 30
0.0
 40
0.1500000000000003
100
AcDbArc
 50
90.00000000000069
 51
270.0000000000015
  0
LINE
  5
1D1
330
1F
100
AcDbEntity
  8
0
  6
Continuous
 62
     7
370
    15
100
AcDbLine
 10
10.60190669840105
 20
14.28328465898408
 30
0.0
 11
11.05190663246341
 21
14.28328465898408
 31
0.0
  0
LINE
  5
1D2
330
1F
100
AcDbEntity
  8
0
  6
Continuous
 62
     7
370
    15
100
AcDbLine
 10
9.47690674682982
 20
8.458284542382495
 30
0.0
 11
9.776906702871395
 21
8.458284542382495
 31
0.0
  0
LINE
  5
1D3
330
1F
100
AcDbEntity
  8
0
  6
Continuous
 62
     7
370
    15
100
AcDbLine
 10
9.776906702871395
 20
8.458284542382495
 30
0.0
 11
9.776906702871395
 21
8.908284476444856
 31
0.0
  0
ARC
  5
1D4
330
1F
100
AcDbEntity
  8
0
  6
Continuous
 62
     7
370
    15
100
AcDbCircle
 10
9.626906631345821
 20
8.908284543500082
 30
0.0
 40
0.1500000000000003
100
AcDbArc
 50
0.0
 51
180.0
  0
LINE
  5
1D5
330
1F
100
AcDbEntity
  8
0
  6
Continuous
 62
     7
370
    15
100
AcDbLine
 10
9.47690674682982
 20
8.908284476444856
 30
0.0
 11
9.47690674682982
 21
8.458284542382495
 31
0.0
  0
LINE
  5
1D6
330
1F
100
AcDbEntity
  8
0
  6
Continuous
 62
     7
370
    15
100
AcDbLine
 10
3.651906630228235
 20
10.03328442801608
 30
0.0
 11
3.651906630228235
 21
9.733284471974508
 31
0.0
  0
LINE
  5
1D7
330
1F
100
AcDbEntity
  8
0
  6
Continuous
 62
     7
370
    15
100
AcDbLine
 10
3.651906630228235
 20
9.733284471974508
 30
0.0
 11
4.101906564290596
 21
9.733284471974508
 31
0.0
  0
ARC
  5
1D8
330
1F
100
AcDbEntity
  8
0
  6
Continuous
 62
     7
370
    15
100
AcDbCircle
 10
4.101906631345829
 20
9.883284543500069
 30
0.0
 40
0.1500000000000003
100
AcDbArc
 50
270.0000000000011
 51
90.0
  0
LINE
  5
1D9
330
1F
100
AcDbEntity
  8
0
  6
Continuous
 62
     7
370
    15
100
AcDbLine
 10
4.101906564290596
 20
10.03328442801608
 30
0.0
 11
3.651906630228235
 21
10.03328442801608
 31
0.0
  0
LINE
  5
1DA
330
1F
100
AcDbEntity
  8
0
  6
Continuous
 62
     7
370
    15
100
AcDbLine
 10
11.05190663246341
 20
13.63328459900691
 30
0.0
 11
11.05190663246341
 21
13.93328455504848
 31
0.0
  0
LINE
  5
1DB
330
1F
100
AcDbEntity
  8
0
  6
Continuous
 62
     7
370
    15
100
AcDbLine
 10
11.05190663246341
 20
13.93328455504848
 30
0.0
 11
10.60190669840105
 21
13.93328455504848
 31
0.0
  0
ARC
  5
1DC
330
1F
100
AcDbEntity
  8
0
  6
Continuous
 62
     7
370
    15
100
AcDbCircle
 10
10.6019066313458
 20
13.78328454350011
 30
0.0
 40
0.1500000000000021
100
AcDbArc
 50
90.00000000000136
 51
270.0000000000015
  0
LINE
  5
1DD
330
1F
100
AcDbEntity
  8
0
  6
Continuous
 62
     7
370
    15
100
AcDbLine
 10
10.60190669840105
 20
13.63328459900691
 30
0.0
 11
11.05190663246341
 21
13.63328459900691
 31
0.0
  0
LINE
  5
1DE
330
1F
100
AcDbEntity
  8
0
  6
Continuous
 62
     7
370
    15
100
AcDbLine
 10
8.826906686852646
 20
8.458284542382495
 30
0.0
 11
9.126906642894221
 21
8.458284542382495
 31
0.0
  0
LINE
  5
1DF
330
1F
100
AcDbEntity
  8
0
  6
Continuous
 62
     7
370
    15
100
AcDbLine
 10
9.126906642894221
 20
8.458284542382495
 30
0.0
 11
9.126906642894221
 21
8.908284476444856
 31
0.0
  0
ARC
  5
1E0
330
1F
100
AcDbEntity
  8
0
  6
Continuous
 62
     7
370
    15
100
AcDbCircle
 10
8.976906631345821
 20
8.908284543500082
 30
0.0
 40
0.1500000000000021
100
AcDbArc
 50
0.0
 51
180.0
  0
LINE
  5
1E1
330
1F
100
AcDbEntity
  8
0
  6
Continuous
 62
     7
370
    15
100
AcDbLine
 10
8.826906686852646
 20
8.908284476444856
 30
0.0
 11
8.826906686852646
 21
8.458284542382495
 31
0.0
  0
LINE
  5
1E2
330
1F
100
AcDbEntity
  8
0
  6
Continuous
 62
     7
370
    15
100
AcDbLine
 10
3.651906630228235
 20
10.68328448799325
 30
0.0
 11
3.651906630228235
 21
10.38328453195168
 31
0.0
  0
LINE
  5
1E3
330
1F
100
AcDbEntity
  8
0
  6
Continuous
 62
     7
370
    15
100
AcDbLine
 10
3.651906630228235
 20
10.38328453195168
 30
0.0
 11
4.101906564290596
 21
10.38328453195168
 31
0.0
  0
ARC
  5
1E4
330
1F
100
AcDbEntity
  8
0
  6
Continuous
 62
     7
370
    15
100
AcDbCircle
 10
4.101906631345827
 20
10.53328454350007
 30
0.0
 40
0.1500000000000003
100
AcDbArc
 50
270.0000000000008
 51
90.00000000000033
  0
LINE
  5
1E5
330
1F
100
AcDbEntity
  8
0
  6
Continuous
 62
     7
370
    15
100
AcDbLine
 10
4.101906564290596
 20
10.68328448799325
 30
0.0
 11
3.651906630228235
 21
10.68328448799325
 31
0.0
  0
LINE
  5
1E6
330
1F
100
AcDbEntity
  8
0
  6
Continuous
 62
     7
370
    15
100
AcDbLine
 10
11.05190663246341
 20
12.98328453902973
 30
0.0
 11
11.05190663246341
 21
13.28328449507131
 31
0.0
  0
LINE
  5
1E7
330
1F
100
AcDbEntity
  8
0
  6
Continuous
 62
     7
370
    15
100
AcDbLine
 10
11.05190663246341
 20
13.28328449507131
 30
0.0
 11
10.60190669840105
 21
13.28328449507131
 31
0.0
  0
ARC
  5
1E8
330
1F
100
AcDbEntity
  8
0
  6
Continuous
 62
     7
370
    15
100
AcDbCircle
 10
10.60190663134581
 20
13.13328454350012
 30
0.0
 40
0.1500000000000003
100
AcDbArc
 50
90.0
 51
270.0000000000015
  0
LINE
  5
1E9
330
1F
100
AcDbEntity
  8
0
  6
Continuous
 62
     7
370
    15
100
AcDbLine
 10
10.60190669840105
 20
12.98328453902973
 30
0.0
 11
11.05190663246341
 21
12.98328453902973
 31
0.0
  0
LINE
  5
1EA
330
1F
100
AcDbEntity
  8
0
  6
Continuous
 62
     7
370
    15
100
AcDbLine
 10
8.176906626875473
 20
8.458284542382495
 30
0.0
 11
8.476906582917047
 21
8.458284542382495
 31
0.0
  0
LINE
  5
1EB
330
1F
100
AcDbEntity
  8
0
  6
Continuous
 62
     7
370
    15
100
AcDbLine
 10
8.476906582917047
 20
8.458284542382495
 30
0.0
 11
8.476906582917047
 21
8.908284476444856
 31
0.0
  0
ARC
  5
1EC
330
1F
100
AcDbEntity
  8
0
  6
Continuous
 62
     7
370
    15
100
AcDbCircle
 10
8.326906631345822
 20
8.908284543500082
 30
0.0
 40
0.1500000000000003
100
AcDbArc
 50
0.0
 51
180.0
  0
LINE
  5
1ED
330
1F
100
AcDbEntity
  8
0
  6
Continuous
 62
     7
370
    15
100
AcDbLine
 10
8.176906626875473
 20
8.908284476444856
 30
0.0
 11
8.176906626875473
 21
8.458284542382495
 31
0.0
  0
LINE
  5
1EE
330
1F
100
AcDbEntity
  8
0
  6
Continuous
 62
     7
370
    15
100
AcDbLine
 10
3.651906630228235
 20
11.33328454797043
 30
0.0
 11
3.651906630228235
 21
11.03328459192885
 31
0.0
  0
LINE
  5
1EF
330
1F
100
AcDbEntity
  8
0
  6
Continuous
 62
     7
370
    15
100
AcDbLine
 10
3.651906630228235
 20
11.03328459192885
 30
0.0
 11
4.101906564290596
 21
11.03328459192885
 31
0.0
  0
ARC
  5
1F0
330
1F
100
AcDbEntity
  8
0
  6
Continuous
 62
     7
370
    15
100
AcDbCircle
 10
4.101906631345825
 20
11.18328454350007
 30
0.0
 40
0.1500000000000003
100
AcDbArc
 50
270.0000000000008
 51
90.00000000000033
  0
LINE
  5
1F1
330
1F
100
AcDbEntity
  8
0
  6
Continuous
 62
     7
370
    15
100
AcDbLine
 10
4.101906564290596
 20
11.33328454797043
 30
0.0
 11
3.651906630228235
 21
11.33328454797043
 31
0.0
  0
LINE
  5
1F2
330
1F
100
AcDbEntity
  8
0
  6
Continuous
 62
     7
370
    15
100
AcDbLine
 10
11.05190663246341
 20
11.6832845354907
 30
0.0
 11
11.05190663246341
 21
11.98328454973994
 31
0.0
  0
LINE
  5
1F3
330
1F
100
AcDbEntity
  8
0
  6
Continuous
 62
     7
370
    15
100
AcDbLine
 10
11.05190663246341
 20
11.98328454973994
 30
0.0
 11
10.60190669840105
 21
11.98328454973994
 31
0.0
  0
ARC
  5
1F4
330
1F
100
AcDbEntity
  8
0
  6
Continuous
 62
     7
370
    15
100
AcDbCircle
 10
10.60190663134582
 20
11.83328454350012
 30
0.0
 40
0.1500000000000003
100
AcDbArc
 50
90.0
 51
270.0000000000021
  0
LINE
  5
1F5
330
1F
100
AcDbEntity
  8
0
  6
Continuous
 62
     7
370
    15
100
AcDbLine
 10
10.60190669840105
 20
11.6832845354907
 30
0.0
 11
11.05190663246341
 21
11.6832845354907
 31
0.0
  0
LINE
  5
1F6
330
1F
100
AcDbEntity
  8
0
  6
Continuous
 62
     7
370
    15
100
AcDbLine
 10
6.876906623336448
 20
8.458284542382495
 30
0.0
 11
7.176906637585683
 21
8.458284542382495
 31
0.0
  0
LINE
  5
1F7
330
1F
100
AcDbEntity
  8
0
  6
Continuous
 62
     7
370
    15
100
AcDbLine
 10
7.176906637585683
 20
8.458284542382495
 30
0.0
 11
7.176906637585683
 21
8.908284476444856
 31
0.0
  0
ARC
  5
1F8
330
1F
100
AcDbEntity
  8
0
  6
Continuous
 62
     7
370
    15
100
AcDbCircle
 10
7.026906631345823
 20
8.90828454350008
 30
0.0
 40
0.1499999999999995
100
AcDbArc
 50
0.0
 51
180.0
  0
LINE
  5
1F9
330
1F
100
AcDbEntity
  8
0
  6
Continuous
 62
     7
370
    15
100
AcDbLine
 10
6.876906623336448
 20
8.908284476444856
 30
0.0
 11
6.876906623336448
 21
8.458284542382495
 31
0.0
  0
LINE
  5
1FA
330
1F
100
AcDbEntity
  8
0
  6
Continuous
 62
     7
370
    15
100
AcDbLine
 10
3.651906630228235
 20
12.63328455150946
 30
0.0
 11
3.651906630228235
 21
12.33328453726022
 31
0.0
  0
LINE
  5
1FB
330
1F
100
AcDbEntity
  8
0
  6
Continuous
 62
     7
370
    15
100
AcDbLine
 10
3.651906630228235
 20
12.33328453726022
 30
0.0
 11
4.101906564290596
 21
12.33328453726022
 31
0.0
  0
ARC
  5
1FC
330
1F
100
AcDbEntity
  8
0
  6
Continuous
 62
     7
370
    15
100
AcDbCircle
 10
4.101906631345819
 20
12.48328454350007
 30
0.0
 40
0.1500000000000003
100
AcDbArc
 50
270.0000000000011
 51
90.00000000000033
  0
LINE
  5
1FD
330
1F
100
AcDbEntity
  8
0
  6
Continuous
 62
     7
370
    15
100
AcDbLine
 10
4.101906564290596
 20
12.63328455150946
 30
0.0
 11
3.651906630228235
 21
12.63328455150946
 31
0.0
  0
LINE
  5
1FE
330
1F
100
AcDbEntity
  8
0
  6
Continuous
 62
     7
370
    15
100
AcDbLine
 10
11.05190663246341
 20
11.03328459192885
 30
0.0
 11
11.05190663246341
 21
11.33328454797043
 31
0.0
  0
LINE
  5
1FF
330
1F
100
AcDbEntity
  8
0
  6
Continuous
 62
     7
370
    15
100
AcDbLine
 10
11.05190663246341
 20
11.33328454797043
 30
0.0
 11
10.60190669840105
 21
11.33328454797043
 31
0.0
  0
ARC
  5
200
330
1F
100
AcDbEntity
  8
0
  6
Continuous
 62
     7
370
    15
100
AcDbCircle
 10
10.60190663134583
 20
11.18328454350012
 30
0.0
 40
0.1500000000000003
100
AcDbArc
 50
90.00000000000136
 51
270.0000000000008
  0
LINE
  5
201
330
1F
100
AcDbEntity
  8
0
  6
Continuous
 62
     7
370
    15
100
AcDbLine
 10
10.60190669840105
 20
11.03328459192885
 30
0.0
 11
11.05190663246341
 21
11.03328459192885
 31
0.0
  0
LINE
  5
202
330
1F
100
AcDbEntity
  8
0
  6
Continuous
 62
     7
370
    15
100
AcDbLine
 10
6.226906679774596
 20
8.458284542382495
 30
0.0
 11
6.52690663581617
 21
8.458284542382495
 31
0.0
  0
LINE
  5
203
330
1F
100
AcDbEntity
  8
0
  6
Continuous
 62
     7
370
    15
100
AcDbLine
 10
6.52690663581617
 20
8.458284542382495
 30
0.0
 11
6.52690663581617
 21
8.908284476444856
 31
0.0
  0
ARC
  5
204
330
1F
100
AcDbEntity
  8
0
  6
Continuous
 62
     7
370
    15
100
AcDbCircle
 10
6.376906631345822
 20
8.90828454350008
 30
0.0
 40
0.1500000000000003
100
AcDbArc
 50
0.0
 51
180.0
  0
LINE
  5
205
330
1F
100
AcDbEntity
  8
0
  6
Continuous
 62
     7
370
    15
100
AcDbLine
 10
6.226906679774596
 20
8.908284476444856
 30
0.0
 11
6.226906679774596
 21
8.458284542382495
 31
0.0
  0
LINE
  5
206
330
1F
100
AcDbEntity
  8
0
  6
Continuous
 62
     7
370
    15
100
AcDbLine
 10
3.651906630228235
 20
13.28328449507131
 30
0.0
 11
3.651906630228235
 21
12.98328453902973
 31
0.0
  0
LINE
  5
207
330
1F
100
AcDbEntity
  8
0
  6
Continuous
 62
     7
370
    15
100
AcDbLine
 10
3.651906630228235
 20
12.98328453902973
 30
0.0
 11
4.101906564290596
 21
12.98328453902973
 31
0.0
  0
ARC
  5
208
330
1F
100
AcDbEntity
  8
0
  6
Continuous
 62
     7
370
    15
100
AcDbCircle
 10
4.101906631345817
 20
13.13328454350007
 30
0.0
 40
0.1500000000000003
100
AcDbArc
 50
270.0000000000011
 51
90.0
  0
LINE
  5
209
330
1F
100
AcDbEntity
  8
0
  6
Continuous
 62
     7
370
    15
100
AcDbLine
 10
4.101906564290596
 20
13.28328449507131
 30
0.0
 11
3.651906630228235
 21
13.28328449507131
 31
0.0
  0
LINE
  5
20A
330
1F
100
AcDbEntity
  8
0
  6
Continuous
 62
     7
370
    15
100
AcDbLine
 10
11.05190663246341
 20
10.38328453195168
 30
0.0
 11
11.05190663246341
 21
10.68328448799325
 31
0.0
  0
LINE
  5
20B
330
1F
100
AcDbEntity
  8
0
  6
Continuous
 62
     7
370
    15
100
AcDbLine
 10
11.05190663246341
 20
10.68328448799325
 30
0.0
 11
10.60190669840105
 21
10.68328448799325
 31
0.0
  0
ARC
  5
20C
330
1F
100
AcDbEntity
  8
0
  6
Continuous
 62
     7
370
    15
100
AcDbCircle
 10
10.60190663134584
 20
10.53328454350012
 30
0.0
 40
0.1500000000000003
100
AcDbArc
 50
90.0
 51
270.0000000000021
  0
LINE
  5
20D
330
1F
100
AcDbEntity
  8
0
  6
Continuous
 62
     7
370
    15
100
AcDbLine
 10
10.60190669840105
 20
10.38328453195168
 30
0.0
 11
11.05190663246341
 21
10.38328453195168
 31
0.0
  0
LINE
  5
20E
330
1F
100
AcDbEntity
  8
0
  6
Continuous
 62
     7
370
    15
100
AcDbLine
 10
5.576906619797422
 20
8.458284542382495
 30
0.0
 11
5.876906575838996
 21
8.458284542382495
 31
0.0
  0
LINE
  5
20F
330
1F
100
AcDbEntity
  8
0
  6
Continuous
 62
     7
370
    15
100
AcDbLine
 10
5.876906575838996
 20
8.458284542382495
 30
0.0
 11
5.876906575838996
 21
8.908284476444856
 31
0.0
  0
ARC
  5
210
330
1F
100
AcDbEntity
  8
0
  6
Continuous
 62
     7
370
    15
100
AcDbCircle
 10
5.726906631345823
 20
8.90828454350008
 30
0.0
 40
0.1500000000000003
100
AcDbArc
 50
0.0
 51
180.0
  0
LINE
  5
211
330
1F
100
AcDbEntity
  8
0
  6
Continuous
 62
     7
370
    15
100
AcDbLine
 10
5.576906619797422
 20
8.908284476444856
 30
0.0
 11
5.576906619797422
 21
8.458284542382495
 31
0.0
  0
LINE
  5
212
330
1F
100
AcDbEntity
  8
0
  6
Continuous
 62
     7
370
    15
100
AcDbLine
 10
3.651906630228235
 20
13.93328455504848
 30
0.0
 11
3.651906630228235
 21
13.63328459900691
 31
0.0
  0
LINE
  5
213
330
1F
100
AcDbEntity
  8
0
  6
Continuous
 62
     7
370
    15
100
AcDbLine
 10
3.651906630228235
 20
13.63328459900691
 30
0.0
 11
4.101906564290596
 21
13.63328459900691
 31
0.0
  0
ARC
  5
214
330
1F
100
AcDbEntity
  8
0
  6
Continuous
 62
     7
370
    15
100
AcDbCircle
 10
4.101906631345814
 20
13.78328454350007
 30
0.0
 40
0.1500000000000003
100
AcDbArc
 50
270.0000000000008
 51
90.0
  0
LINE
  5
215
330
1F
100
AcDbEntity
  8
0
  6
Continuous
 62
     7
370
    15
100
AcDbLine
 10
4.101906564290596
 20
13.93328455504848
 30
0.0
 11
3.651906630228235
 21
13.93328455504848
 31
0.0
  0
LINE
  5
216
330
1F
100
AcDbEntity
  8
0
  6
Continuous
 62
     7
370
    15
100
AcDbLine
 10
11.05190663246341
 20
9.733284471974508
 30
0.0
 11
11.05190663246341
 21
10.03328442801608
 31
0.0
  0
LINE
  5
217
330
1F
100
AcDbEntity
  8
0
  6
Continuous
 62
     7
370
    15
100
AcDbLine
 10
11.05190663246341
 20
10.03328442801608
 30
0.0
 11
10.60190669840105
 21
10.03328442801608
 31
0.0
  0
ARC
  5
218
330
1F
100
AcDbEntity
  8
0
  6
Continuous
 62
     7
370
    15
100
AcDbCircle
 10
10.60190663134584
 20
9.883284543500117
 30
0.0
 40
0.1499999999999986
100
AcDbArc
 50
90.00000000000069
 51
270.0000000000008
  0
LINE
  5
219
330
1F
100
AcDbEntity
  8
0
  6
Continuous
 62
     7
370
    15
100
AcDbLine
 10
10.60190669840105
 20
9.733284471974508
 30
0.0
 11
11.05190663246341
 21
9.733284471974508
 31
0.0
  0
LINE
  5
21A
330
1F
100
AcDbEntity
  8
0
  6
Continuous
 62
     7
370
    15
100
AcDbLine
 10
4.926906559820248
 20
8.458284542382495
 30
0.0
 11
5.226906515861823
 21
8.458284542382495
 31
0.0
  0
LINE
  5
21B
330
1F
100
AcDbEntity
  8
0
  6
Continuous
 62
     7
370
    15
100
AcDbLine
 10
5.226906515861823
 20
8.458284542382495
 30
0.0
 11
5.226906515861823
 21
8.908284476444856
 31
0.0
  0
ARC
  5
21C
330
1F
100
AcDbEntity
  8
0
  6
Continuous
 62
     7
370
    15
100
AcDbCircle
 10
5.076906631345822
 20
8.90828454350008
 30
0.0
 40
0.1499999999999995
100
AcDbArc
 50
0.0
 51
180.0
  0
LINE
  5
21D
330
1F
100
AcDbEntity
  8
0
  6
Continuous
 62
     7
370
    15
100
AcDbLine
 10
4.926906559820248
 20
8.908284476444856
 30
0.0
 11
4.926906559820248
 21
8.458284542382495
 31
0.0
  0
LINE
  5
21E
330
1F
100
AcDbEntity
  8
0
  6
Continuous
 62
     7
370
    15
100
AcDbLine
 10
3.651906630228235
 20
14.58328461502565
 30
0.0
 11
3.651906630228235
 21
14.28328465898408
 31
0.0
  0
LINE
  5
21F
330
1F
100
AcDbEntity
  8
0
  6
Continuous
 62
     7
370
    15
100
AcDbLine
 10
3.651906630228235
 20
14.28328465898408
 30
0.0
 11
4.101906564290596
 21
14.28328465898408
 31
0.0
  0
ARC
  5
220
330
1F
100
AcDbEntity
  8
0
  6
Continuous
 62
     7
370
    15
100
AcDbCircle
 10
4.101906631345812
 20
14.43328454350007
 30
0.0
 40
0.1500000000000003
100
AcDbArc
 50
270.0000000000008
 51
90.00000000000069
  0
LINE
  5
221
330
1F
100
AcDbEntity
  8
0
  6
Continuous
 62
     7
370
    15
100
AcDbLine
 10
4.101906564290596
 20
14.58328461502565
 30
0.0
 11
3.651906630228235
 21
14.58328461502565
 31
0.0
  0
LINE
  5
222
330
1F
100
AcDbEntity
  8
0
  6
Continuous
 62
     7
370
    15
100
AcDbLine
 10
9.776906702871395
 20
15.85828454461767
 30
0.0
 11
9.47690674682982
 21
15.85828454461767
 31
0.0
  0
LINE
  5
223
330
1F
100
AcDbEntity
  8
0
  6
Continuous
 62
     7
370
    15
100
AcDbLine
 10
9.47690674682982
 20
15.85828454461767
 30
0.0
 11
9.47690674682982
 21
15.40828461055531
 31
0.0
  0
ARC
  5
224
330
1F
100
AcDbEntity
  8
0
  6
Continuous
 62
     7
370
    15
100
AcDbCircle
 10
9.626906631345821
 20
15.40828454350008
 30
0.0
 40
0.1500000000000003
100
AcDbArc
 50
180.0
 51
0.0
  0
LINE
  5
225
330
1F
100
AcDbEntity
  8
0
  6
Continuous
 62
     7
370
    15
100
AcDbLine
 10
9.776906702871395
 20
15.40828461055531
 30
0.0
 11
9.776906702871395
 21
15.85828454461767
 31
0.0
  0
LINE
  5
226
330
1F
100
AcDbEntity
  8
0
  6
Continuous
 62
     7
370
    15
100
AcDbLine
 10
9.126906642894221
 20
15.85828454461767
 30
0.0
 11
8.826906686852646
 21
15.85828454461767
 31
0.0
  0
LINE
  5
227
330
1F
100
AcDbEntity
  8
0
  6
Continuous
 62
     7
370
    15
100
AcDbLine
 10
8.826906686852646
 20
15.85828454461767
 30
0.0
 11
8.826906686852646
 21
15.40828461055531
 31
0.0
  0
ARC
  5
228
330
1F
100
AcDbEntity
  8
0
  6
Continuous
 62
     7
370
    15
100
AcDbCircle
 10
8.976906631345821
 20
15.40828454350008
 30
0.0
 40
0.1500000000000021
100
AcDbArc
 50
180.0
 51
0.0
  0
LINE
  5
229
330
1F
100
AcDbEntity
  8
0
  6
Continuous
 62
     7
370
    15
100
AcDbLine
 10
9.126906642894221
 20
15.40828461055531
 30
0.0
 11
9.126906642894221
 21
15.85828454461767
 31
0.0
  0
LINE
  5
22A
330
1F
100
AcDbEntity
  8
0
  6
Continuous
 62
     7
370
    15
100
AcDbLine
 10
8.476906582917047
 20
15.85828454461767
 30
0.0
 11
8.176906626875473
 21
15.85828454461767
 31
0.0
  0
LINE
  5
22B
330
1F
100
AcDbEntity
  8
0
  6
Continuous
 62
     7
370
    15
100
AcDbLine
 10
8.176906626875473
 20
15.85828454461767
 30
0.0
 11
8.176906626875473
 21
15.40828461055531
 31
0.0
  0
ARC
  5
22C
330
1F
100
AcDbEntity
  8
0
  6
Continuous
 62
     7
370
    15
100
AcDbCircle
 10
8.326906631345821
 20
15.40828454350008
 30
0.0
 40
0.1500000000000003
100
AcDbArc
 50
180.0
 51
0.0
  0
LINE
  5
22D
330
1F
100
AcDbEntity
  8
0
  6
Continuous
 62
     7
370
    15
100
AcDbLine
 10
8.476906582917047
 20
15.40828461055531
 30
0.0
 11
8.476906582917047
 21
15.85828454461767
 31
0.0
  0
LINE
  5
22E
330
1F
100
AcDbEntity
  8
0
  6
Continuous
 62
     7
370
    15
100
AcDbLine
 10
7.826906639355195
 20
15.85828454461767
 30
0.0
 11
7.526906625105961
 21
15.85828454461767
 31
0.0
  0
LINE
  5
22F
330
1F
100
AcDbEntity
  8
0
  6
Continuous
 62
     7
370
    15
100
AcDbLine
 10
7.526906625105961
 20
15.85828454461767
 30
0.0
 11
7.526906625105961
 21
15.40828461055531
 31
0.0
  0
ARC
  5
230
330
1F
100
AcDbEntity
  8
0
  6
Continuous
 62
     7
370
    15
100
AcDbCircle
 10
7.67690663134582
 20
15.40828454350008
 30
0.0
 40
0.1499999999999995
100
AcDbArc
 50
180.0
 51
0.0
  0
LINE
  5
231
330
1F
100
AcDbEntity
  8
0
  6
Continuous
 62
     7
370
    15
100
AcDbLine
 10
7.826906639355195
 20
15.40828461055531
 30
0.0
 11
7.826906639355195
 21
15.85828454461767
 31
0.0
  0
LINE
  5
232
330
1F
100
AcDbEntity
  8
0
  6
Continuous
 62
     7
370
    15
100
AcDbLine
 10
7.176906637585683
 20
15.85828454461767
 30
0.0
 11
6.876906623336448
 21
15.85828454461767
 31
0.0
  0
LINE
  5
233
330
1F
100
AcDbEntity
  8
0
  6
Continuous
 62
     7
370
    15
100
AcDbLine
 10
6.876906623336448
 20
15.85828454461767
 30
0.0
 11
6.876906623336448
 21
15.40828461055531
 31
0.0
  0
ARC
  5
234
330
1F
100
AcDbEntity
  8
0
  6
Continuous
 62
     7
370
    15
100
AcDbCircle
 10
7.02690663134582
 20
15.40828454350008
 30
0.0
 40
0.1500000000000003
100
AcDbArc
 50
180.0
 51
0.0
  0
LINE
  5
235
330
1F
100
AcDbEntity
  8
0
  6
Continuous
 62
     7
370
    15
100
AcDbLine
 10
7.176906637585683
 20
15.40828461055531
 30
0.0
 11
7.176906637585683
 21
15.85828454461767
 31
0.0
  0
LINE
  5
236
330
1F
100
AcDbEntity
  8
0
  6
Continuous
 62
     7
370
    15
100
AcDbLine
 10
6.52690663581617
 20
15.85828454461767
 30
0.0
 11
6.226906679774596
 21
15.85828454461767
 31
0.0
  0
LINE
  5
237
330
1F
100
AcDbEntity
  8
0
  6
Continuous
 62
     7
370
    15
100
AcDbLine
 10
6.226906679774596
 20
15.85828454461767
 30
0.0
 11
6.226906679774596
 21
15.40828461055531
 31
0.0
  0
ARC
  5
238
330
1F
100
AcDbEntity
  8
0
  6
Continuous
 62
     7
370
    15
100
AcDbCircle
 10
6.37690663134582
 20
15.40828454350008
 30
0.0
 40
0.1500000000000003
100
AcDbArc
 50
180.0
 51
0.0
  0
LINE
  5
239
330
1F
100
AcDbEntity
  8
0
  6
Continuous
 62
     7
370
    15
100
AcDbLine
 10
6.52690663581617
 20
15.40828461055531
 30
0.0
 11
6.52690663581617
 21
15.85828454461767
 31
0.0
  0
LINE
  5
23A
330
1F
100
AcDbEntity
  8
0
  6
Continuous
 62
     7
370
    15
100
AcDbLine
 10
5.876906575838996
 20
15.85828454461767
 30
0.0
 11
5.576906619797422
 21
15.85828454461767
 31
0.0
  0
LINE
  5
23B
330
1F
100
AcDbEntity
  8
0
  6
Continuous
 62
     7
370
    15
100
AcDbLine
 10
5.576906619797422
 20
15.85828454461767
 30
0.0
 11
5.576906619797422
 21
15.40828461055531
 31
0.0
  0
ARC
  5
23C
330
1F
100
AcDbEntity
  8
0
  6
Continuous
 62
     7
370
    15
100
AcDbCircle
 10
5.726906631345821
 20
15.40828454350008
 30
0.0
 40
0.1500000000000003
100
AcDbArc
 50
180.0
 51
0.0
  0
LINE
  5
23D
330
1F
100
AcDbEntity
  8
0
  6
Continuous
 62
     7
370
    15
100
AcDbLine
 10
5.876906575838996
 20
15.40828461055531
 30
0.0
 11
5.876906575838996
 21
15.85828454461767
 31
0.0
  0
LINE
  5
23E
330
1F
100
AcDbEntity
  8
0
  6
Continuous
 62
     7
370
    15
100
AcDbLine
 10
5.226906515861823
 20
15.85828454461767
 30
0.0
 11
4.926906559820248
 21
15.85828454461767
 31
0.0
  0
LINE
  5
23F
330
1F
100
AcDbEntity
  8
0
  6
Continuous
 62
     7
370
    15
100
AcDbLine
 10
4.926906559820248
 20
15.85828454461767
 30
0.0
 11
4.926906559820248
 21
15.40828461055531
 31
0.0
  0
ARC
  5
240
330
1F
100
AcDbEntity
  8
0
  6
Continuous
 62
     7
370
    15
100
AcDbCircle
 10
5.076906631345821
 20
15.40828454350008
 30
0.0
 40
0.1500000000000003
100
AcDbArc
 50
180.0
 51
0.0
  0
LINE
  5
241
330
1F
100
AcDbEntity
  8
0
  6
Continuous
 62
     7
370
    15
100
AcDbLine
 10
5.226906515861823
 20
15.40828461055531
 30
0.0
 11
5.226906515861823
 21
15.85828454461767
 31
0.0
  0
DIMENSION
  5
242
330
1F
100
AcDbEntity
  8
0
  6
Continuous
 62
     7
370
     0
100
AcDbDimension
280
     0
  2
*D6
 10
14.72787826987122
 20
9.515284543500081
 30
0.0
 11
14.72787826987122
 21
12.15828454350008
 31
0.0
 70
   160
 71
     2
 42
-1.0
 73
     0
 74
     0
 75
     0
  3
SLDDIMSTYLE0
100
AcDbAlignedDimension
 13
9.994906631345822
 23
14.80128454350008
 33
0.0
 14
9.994906631345822
 24
9.515284543500081
 34
0.0
 50
90.00000000000019
100
AcDbRotatedDimension
  0
DIMENSION
  5
24E
330
1F
100
AcDbEntity
  8
0
  6
Continuous
 62
     7
370
     0
100
AcDbDimension
280
     0
  2
*D7
 10
15.53884415217033
 20
14.87628454350008
 30
0.0
 11
15.53884415217033
 21
12.15828454350008
 31
0.0
 70
   160
 71
     2
 42
-1.0
 73
     0
 74
     0
 75
     0
  3
SLDDIMSTYLE0
100
AcDbAlignedDimension
 13
10.06990663134582
 23
9.440284543500082
 33
0.0
 14
10.06990663134582
 24
14.87628454350008
 34
0.0
 50
90.00000000000019
100
AcDbRotatedDimension
  0
DIMENSION
  5
259
330
1F
100
AcDbEntity
  8
0
  6
Continuous
 62
     7
370
     0
100
AcDbDimension
280
     0
  2
*D8
 10
1.817748002353574
 20
8.658284543500082
 30
0.0
 11
1.817748002353574
 21
12.15828454350008
 31
0.0
 70
   160
 71
     2
 42
-1.0
 73
     0
 74
     0
 75
     0
  3
SLDDIMSTYLE1
100
AcDbAlignedDimension
 13
3.85190663134582
 23
15.65828454350008
 33
0.0
 14
3.85190663134582
 24
8.658284543500082
 34
0.0
 50
90.00000000000019
100
AcDbRotatedDimension
  0
DIMENSION
  5
265
330
1F
100
AcDbEntity
  8
0
  6
Continuous
 62
     7
370
     0
100
AcDbDimension
280
     0
  2
*D9
 10
3.06708677503326
 20
9.733284543500063
 30
0.0
 11
3.067086775033262
 21
9.384162957691556
 31
0.0
 70
   160
 71
     2
 42
-1.0
 73
     0
 74
     0
 75
     0
  3
SLDDIMSTYLE2
100
AcDbAlignedDimension
 13
3.651906631345831
 23
10.03328454350007
 33
0.0
 14
3.651906631345832
 24
9.733284543500067
 34
0.0
 50
90.00000000000019
100
AcDbRotatedDimension
  0
DIMENSION
  5
272
330
1F
100
AcDbEntity
  8
0
  6
Continuous
 62
     7
370
     0
100
AcDbDimension
280
     0
  2
*D10
 10
10.85190663134582
 20
16.58031155078601
 30
0.0
 11
7.35190663134582
 21
16.58031155078601
 31
0.0
 70
   160
 71
     2
 42
-1.0
 73
     0
 74
     0
 75
     0
  3
SLDDIMSTYLE1
100
AcDbAlignedDimension
 13
3.85190663134582
 23
15.65828454350008
 33
0.0
 14
10.85190663134582
 24
15.65828454350008
 34
0.0
100
AcDbRotatedDimension
  0
DIMENSION
  5
27D
330
1F
100
AcDbEntity
  8
0
  6
Continuous
 62
     7
370
     0
100
AcDbDimension
280
     0
  2
*D11
 10
2.362670524413334
 20
9.88328454350006
 30
0.0
 11
2.362670524413323
 21
12.15828454350006
 31
0.0
 70
   160
 71
     2
 42
-1.0
 73
     0
 74
     0
 75
     0
  3
SLDDIMSTYLE3
100
AcDbAlignedDimension
 13
3.485239964679141
 23
14.43328454350006
 33
0.0
 14
3.485239964679159
 24
9.883284543500066
 34
0.0
 50
90.00000000000019
100
AcDbRotatedDimension
  0
DIMENSION
  5
289
330
1F
100
AcDbEntity
  8
0
  6
Continuous
 62
     7
370
     0
100
AcDbDimension
280
     0
  2
*D12
 10
1.243573298012479
 20
8.458284543500083
 30
0.0
 11
1.243573298012479
 21
12.15828454350008
 31
0.0
 70
   160
 71
     2
 42
-1.0
 73
     0
 74
     0
 75
     0
  3
SLDDIMSTYLE3
100
AcDbAlignedDimension
 13
4.92690663134582
 23
15.85828454350008
 33
0.0
 14
4.926906631345823
 24
8.458284543500083
 34
0.0
 50
90.00000000000019
100
AcDbRotatedDimension
  0
DIMENSION
  5
294
330
1F
100
AcDbEntity
  8
0
  6
Continuous
 62
     7
370
     0
100
AcDbDimension
280
     0
  2
*D13
 10
9.626906631345814
 20
16.21163484351342
 30
0.0
 11
7.351906631345815
 21
16.21163484351342
 31
0.0
 70
   160
 71
     2
 42
-1.0
 73
     0
 74
     0
 75
     0
  3
SLDDIMSTYLE3
100
AcDbAlignedDimension
 13
5.076906631345814
 23
16.02495121016674
 33
0.0
 14
9.626906631345814
 24
16.02495121016675
 34
0.0
100
AcDbRotatedDimension
  0
DIMENSION
  5
29F
330
1F
100
AcDbEntity
  8
0
  6
Continuous
 62
     7
370
     0
100
AcDbDimension
280
     0
  2
*D14
 10
11.05190663134576
 20
17.02439940272805
 30
0.0
 11
7.351906631345775
 21
17.02439940272801
 31
0.0
 70
   160
 71
     2
 42
-1.0
 73
     0
 74
     0
 75
     0
  3
SLDDIMSTYLE3
100
AcDbAlignedDimension
 13
3.651906631345813
 23
14.58328454350007
 33
0.0
 14
11.05190663134579
 24
14.58328454350012
 34
0.0
 50
0.0000000000006602
100
AcDbRotatedDimension
  0
DIMENSION
  5
2AA
330
1F
100
AcDbEntity
  8
0
  6
Continuous
 62
     7
370
     0
100
AcDbDimension
280
     0
  2
*D15
 10
3.005116358898882
 20
13.78328454350006
 30
0.0
 11
3.005116358898881
 21
14.10828454350006
 31
0.0
 70
   160
 71
     2
 42
-1.0
 73
     0
 74
     0
 75
     0
  3
SLDDIMSTYLE2
100
AcDbAlignedDimension
 13
3.485239964679141
 23
14.43328454350006
 33
0.0
 14
3.485239964679143
 24
13.78328454350006
 34
0.0
 50
90.00000000000019
100
AcDbRotatedDimension
  0
INSERT
  5
2BA
102
{ACAD_REACTORS
330
2BC
102
}
330
1F
100
AcDbEntity
  8
0
  6
Continuous
 62
     7
370
     0
100
AcDbBlockReference
  2
SW_NOTE_22
 10
11.58138793103448
 20
12.0854367816092
 30
0.0
  0
LEADER
  5
2BC
330
1F
100
AcDbEntity
  8
0
  6
Continuous
 62
     7
370
     0
100
AcDbLeader
  3
SLDDIMSTYLE4
 73
     2
 76
     3
 10
9.994906631345822
 20
11.40681813801954
 30
0.0
 10
11.33138793103449
 20
12.0854367816092
 30
0.0
 10
11.58138793103448
 20
12.0854367816092
 30
0.0
340
2BA
  0
INSERT
  5
2C3
102
{ACAD_REACTORS
330
2C4
102
}
330
1F
100
AcDbEntity
  8
0
  6
Continuous
 62
     7
370
     0
100
AcDbBlockReference
  2
SW_NOTE_23
 10
11.6
 20
13.57440229885057
 30
0.0
  0
LEADER
  5
2C4
330
1F
100
AcDbEntity
  8
0
  6
Continuous
 62
     7
370
     0
100
AcDbLeader
  3
SLDDIMSTYLE4
 73
     2
 76
     3
 10
10.06990663134582
 20
13.12288992272443
 30
0.0
 10
11.35
 20
13.57440229885057
 30
0.0
 10
11.6
 20
13.57440229885057
 30
0.0
340
2C3
  0
INSERT
  5
2CA
102
{ACAD_REACTORS
330
2CB
102
}
330
1F
100
AcDbEntity
  8
0
  6
Continuous
 62
     7
370
     0
100
AcDbBlockReference
  2
SW_NOTE_24
 10
11.6
 20
14.44916954022988
 30
0.0
  0
LEADER
  5
2CB
330
1F
100
AcDbEntity
  8
0
  6
Continuous
 62
     7
370
     0
100
AcDbLeader
  3
SLDDIMSTYLE4
 73
     2
 76
     3
 10
8.923114997373254
 20
12.75700664390716
 30
0.0
 10
11.35
 20
14.44916954022988
 30
0.0
 10
11.6
 20
14.44916954022988
 30
0.0
340
2CA
  0
MTEXT
  5
2CC
330
1F
100
AcDbEntity
  8
0
  6
Continuous
 62
     7
370
     0
100
AcDbMText
 10
11.64504868940205
 20
15.26375056184377
 30
0.0
 40
0.2425347222222221
 41
0.0
 46
0.0
 71
     1
 72
     1
  1
PCB PAD
  7
SLDTEXTSTYLE0
 73
     1
 44
1.0
  0
LEADER
  5
2D6
330
1F
100
AcDbEntity
  8
0
  6
Continuous
 62
     7
370
     0
100
AcDbLeader
  3
SLDDIMSTYLE5
 76
     3
 10
10.99460128466245
 20
14.45380596351519
 30
0.0
 10
11.35
 20
15.17504022988506
 30
0.0
 10
11.6
 20
15.17504022988506
 30
0.0
  0
MTEXT
  5
2D7
330
1F
100
AcDbEntity
  8
0
  6
Continuous
 62
     7
370
     0
100
AcDbMText
 10
11.64504868940205
 20
15.70192964125009
 30
0.0
 40
0.2425347222222221
 41
0.0
 46
0.0
 71
     1
 72
     1
  1
COMPONENT PAD
  7
SLDTEXTSTYLE0
 73
     1
 44
1.0
  0
LEADER
  5
2D8
330
1F
100
AcDbEntity
  8
0
  6
Continuous
 62
     7
370
     0
100
AcDbLeader
  3
SLDDIMSTYLE5
 76
     3
 10
10.62607880215461
 20
14.4445929014525
 30
0.0
 10
11.35
 20
15.60311781609195
 30
0.0
 10
11.6
 20
15.60311781609195
 30
0.0
  0
MTEXT
  5
2D9
330
1F
100
AcDbEntity
  8
0
  6
Continuous
 62
     7
370
     0
100
AcDbMText
 10
11.64504868940203
 20
16.04779283970525
 30
0.0
 40
0.2425347222222221
 41
0.0
 46
0.0
 71
     1
 72
     1
  1
SOLDER MASK OPENING
  7
SLDTEXTSTYLE0
 73
     1
 44
1.0
  0
LEADER
  5
2DA
330
1F
100
AcDbEntity
  8
0
  6
Continuous
 62
     7
370
     0
100
AcDbLeader
  3
SLDDIMSTYLE4
 76
     3
 10
10.60190663134579
 20
14.65828454350012
 30
0.0
 10
11.35
 20
15.95674712643678
 30
0.0
 10
11.6
 20
15.95674712643678
 30
0.0
  0
ARC
  5
2DB
330
1F
100
AcDbEntity
  8
0
  6
Continuous
 62
     7
370
     0
100
AcDbCircle
 10
9.316342790903698
 20
8.789859648918566
 30
0.0
 40
0.7303914282209484
100
AcDbArc
 50
298.8515582955334
 51
277.2263528464078
  0
SOLID
  5
2DC
330
1F
100
AcDbEntity
  8
0
  6
Continuous
 62
     7
370
     0
100
AcDbTrace
 10
9.668787356321841
 20
8.150129653744155
 30
0.0
 11
10.14933516795405
 21
8.38732072923193
 31
0.0
 12
10.0513386857859
 22
8.525416591807335
 32
0.0
 13
10.0513386857859
 23
8.525416591807335
 33
0.0
  0
SOLID
  5
2DD
330
1F
100
AcDbEntity
  8
0
  6
Continuous
 62
     7
370
     0
100
AcDbTrace
 10
9.408218390804599
 20
8.065269756247211
 30
0.0
 11
8.878033134414032
 21
8.143304360504705
 31
0.0
 12
8.880153270690161
 22
7.973984300263905
 32
0.0
 13
8.880153270690161
 23
7.973984300263905
 33
0.0
  0
MTEXT
  5
2DE
330
1F
100
AcDbEntity
  8
0
  6
Continuous
 62
     7
370
     0
100
AcDbMText
 10
9.408218390804599
 20
8.269962643678162
 30
-0.000000000000059
 40
0.2645833333333333
 41
0.0
 46
0.0
 71
     1
 72
     1
  1
A
  7
SLDTEXTSTYLE0
 73
     1
 44
1.0
  0
LINE
  5
2DF
330
1F
100
AcDbEntity
  8
0
  6
CENTERX2
 62
     7
370
     0
100
AcDbLine
 10
5.076906631345814
 20
16.02495121016674
 30
0.0
 11
5.076906631345814
 21
15.24161787683341
 31
0.0
  0
LINE
  5
2E0
330
1F
100
AcDbEntity
  8
0
  6
CENTERX2
 62
     7
370
     0
100
AcDbLine
 10
3.485239964679159
 20
9.883284543500066
 30
0.0
 11
4.268573298012491
 21
9.883284543500069
 31
0.0
  0
LINE
  5
2E1
330
1F
100
AcDbEntity
  8
0
  6
CENTERX2
 62
     7
370
     0
100
AcDbLine
 10
3.485239964679141
 20
14.43328454350006
 30
0.0
 11
4.268573298012473
 21
14.43328454350007
 31
0.0
  0
LINE
  5
2E2
330
1F
100
AcDbEntity
  8
0
  6
CENTERX2
 62
     7
370
     0
100
AcDbLine
 10
9.626906631345814
 20
15.24161787683341
 30
0.0
 11
9.626906631345814
 21
16.02495121016675
 31
0.0
  0
LINE
  5
2E3
330
1F
100
AcDbEntity
  8
0
  6
CENTERX2
 62
     7
370
     0
100
AcDbLine
 10
3.485239964679144
 20
13.78328454350006
 30
0.0
 11
4.268573298012475
 21
13.78328454350007
 31
0.0
  0
LINE
  5
2E4
330
1F
100
AcDbEntity
  8
0
  6
CENTERX2
 62
     7
100
AcDbLine
 10
16.34709854044646
 20
9.263806462089046
 30
0.0
 11
21.13671514260899
 21
9.263806462089046
 31
0.0
  0
LINE
  5
2E5
330
1F
100
AcDbEntity
  8
0
  6
CENTERX2
 62
     7
100
AcDbLine
 10
18.45846541281174
 20
12.12047314996503
 30
0.0
 11
19.02534788219264
 21
12.12047314996503
 31
0.0
  0
LINE
  5
2E6
330
1F
100
AcDbEntity
  8
0
  6
CENTERX2
 62
     7
100
AcDbLine
 10
20.52711950359872
 20
8.347139800389433
 30
0.0
 11
20.52711950359872
 21
10.09713993201636
 31
0.0
  0
LINE
  5
2E7
330
1F
100
AcDbEntity
  8
0
  6
CENTERX2
 62
     7
100
AcDbLine
 10
19.02711972339084
 20
10.09713993201636
 30
0.0
 11
19.02711972339084
 21
8.347139800389433
 31
0.0
  0
LINE
  5
2E8
330
1F
100
AcDbEntity
  8
0
  6
CENTERX2
 62
     7
100
AcDbLine
 10
19.02711972339084
 20
8.347139800389433
 30
0.0
 11
20.52711950359872
 21
8.347139800389433
 31
0.0
  0
LINE
  5
2E9
330
1F
100
AcDbEntity
  8
0
  6
CENTERX2
 62
     7
100
AcDbLine
 10
18.36045302505921
 20
8.347139800389433
 30
0.0
 11
18.36045302505921
 21
10.09713993201636
 31
0.0
  0
LINE
  5
2EA
330
1F
100
AcDbEntity
  8
0
  6
CENTERX2
 62
     7
100
AcDbLine
 10
16.86045285680026
 20
10.09713993201636
 30
0.0
 11
16.86045285680026
 21
8.347139800389433
 31
0.0
  0
LINE
  5
2EB
330
1F
100
AcDbEntity
  8
0
  6
CENTERX2
 62
     7
100
AcDbLine
 10
16.86045285680026
 20
8.347139800389433
 30
0.0
 11
18.36045302505921
 21
8.347139800389433
 31
0.0
  0
LINE
  5
2EC
330
1F
100
AcDbEntity
  8
0
  6
CENTERX2
 62
     7
100
AcDbLine
 10
19.39378607762983
 20
11.87047357464813
 30
0.0
 11
19.39378607762983
 21
12.04813499728821
 31
0.0
  0
LINE
  5
2ED
330
1F
100
AcDbEntity
  8
0
  6
CENTERX2
 62
     7
100
AcDbLine
 10
17.63426162047317
 20
11.87047357464813
 30
0.0
 11
19.39378607762983
 21
11.87047357464813
 31
0.0
  0
LINE
  5
2EE
330
1F
100
AcDbEntity
  8
0
  6
CENTERX2
 62
     7
100
AcDbLine
 10
20.52711950359872
 20
10.09713993201636
 30
0.0
 11
20.52301081884037
 21
10.17553633804105
 31
0.0
  0
LINE
  5
2EF
330
1F
100
AcDbEntity
  8
0
  6
CENTERX2
 62
     7
100
AcDbLine
 10
20.52301081884037
 20
10.17553633804105
 30
0.0
 11
20.51073055459192
 21
10.25307359899066
 31
0.0
  0
LINE
  5
2F0
330
1F
100
AcDbEntity
  8
0
  6
CENTERX2
 62
     7
100
AcDbLine
 10
20.51073055459192
 20
10.25307359899066
 30
0.0
 11
20.49041220042239
 21
10.328902659118
 31
0.0
  0
LINE
  5
2F1
330
1F
100
AcDbEntity
  8
0
  6
CENTERX2
 62
     7
100
AcDbLine
 10
20.49041220042239
 20
10.328902659118
 30
0.0
 11
20.46227849764755
 21
10.40219231302522
 31
0.0
  0
LINE
  5
2F2
330
1F
100
AcDbEntity
  8
0
  6
CENTERX2
 62
     7
100
AcDbLine
 10
20.46227849764755
 20
10.40219231302522
 30
0.0
 11
20.42663911102345
 21
10.47214007109386
 31
0.0
  0
LINE
  5
2F3
330
1F
100
AcDbEntity
  8
0
  6
CENTERX2
 62
     7
100
AcDbLine
 10
20.42663911102345
 20
10.47214007109386
 30
0.0
 11
20.38388209162286
 21
10.53797914440416
 31
0.0
  0
LINE
  5
2F4
330
1F
100
AcDbEntity
  8
0
  6
CENTERX2
 62
     7
100
AcDbLine
 10
20.38388209162286
 20
10.53797914440416
 30
0.0
 11
20.33447853344808
 21
10.59898775796078
 31
0.0
  0
LINE
  5
2F5
330
1F
100
AcDbEntity
  8
0
  6
CENTERX2
 62
     7
100
AcDbLine
 10
20.33447853344808
 20
10.59898775796078
 30
0.0
 11
20.27896782749028
 21
10.65449846391859
 31
0.0
  0
LINE
  5
2F6
330
1F
100
AcDbEntity
  8
0
  6
CENTERX2
 62
     7
100
AcDbLine
 10
20.27896782749028
 20
10.65449846391859
 30
0.0
 11
20.2179584378315
 21
10.7039027981955
 31
0.0
  0
LINE
  5
2F7
330
1F
100
AcDbEntity
  8
0
  6
CENTERX2
 62
     7
100
AcDbLine
 10
20.2179584378315
 20
10.7039027981955
 30
0.0
 11
20.15211936452121
 21
10.74665904149395
 31
0.0
  0
LINE
  5
2F8
330
1F
100
AcDbEntity
  8
0
  6
CENTERX2
 62
     7
100
AcDbLine
 10
20.15211936452121
 20
10.74665904149395
 30
0.0
 11
20.08217238255472
 21
10.7822992042202
 31
0.0
  0
LINE
  5
2F9
330
1F
100
AcDbEntity
  8
0
  6
CENTERX2
 62
     7
100
AcDbLine
 10
20.08217238255472
 20
10.7822992042202
 30
0.0
 11
20.0088827286475
 21
10.81043290699504
 31
0.0
  0
LINE
  5
2FA
330
1F
100
AcDbEntity
  8
0
  6
CENTERX2
 62
     7
100
AcDbLine
 10
20.0088827286475
 20
10.81043290699504
 30
0.0
 11
19.93305366852016
 21
10.83075048506242
 31
0.0
  0
LINE
  5
2FB
330
1F
100
AcDbEntity
  8
0
  6
CENTERX2
 62
     7
100
AcDbLine
 10
19.93305366852016
 20
10.83075048506242
 30
0.0
 11
19.85551640757055
 21
10.84303152541302
 31
0.0
  0
LINE
  5
2FC
330
1F
100
AcDbEntity
  8
0
  6
CENTERX2
 62
     7
100
AcDbLine
 10
19.85551640757055
 20
10.84303152541302
 30
0.0
 11
19.77712000154585
 21
10.84714021017136
 31
0.0
  0
LINE
  5
2FD
330
1F
100
AcDbEntity
  8
0
  6
CENTERX2
 62
     7
100
AcDbLine
 10
19.77712000154585
 20
10.84714021017136
 30
0.0
 11
19.69872359552116
 21
10.84303152541302
 31
0.0
  0
LINE
  5
2FE
330
1F
100
AcDbEntity
  8
0
  6
CENTERX2
 62
     7
100
AcDbLine
 10
19.69872359552116
 20
10.84303152541302
 30
0.0
 11
19.6211855584694
 21
10.83075048506242
 31
0.0
  0
LINE
  5
2FF
330
1F
100
AcDbEntity
  8
0
  6
CENTERX2
 62
     7
100
AcDbLine
 10
19.6211855584694
 20
10.83075048506242
 30
0.0
 11
19.54535727444421
 21
10.81043290699504
 31
0.0
  0
LINE
  5
300
330
1F
100
AcDbEntity
  8
0
  6
CENTERX2
 62
     7
100
AcDbLine
 10
19.54535727444421
 20
10.81043290699504
 30
0.0
 11
19.47206684443484
 21
10.7822992042202
 31
0.0
  0
LINE
  5
301
330
1F
100
AcDbEntity
  8
0
  6
CENTERX2
 62
     7
100
AcDbLine
 10
19.47206684443484
 20
10.7822992042202
 30
0.0
 11
19.40211986246834
 21
10.74665904149395
 31
0.0
  0
LINE
  5
302
330
1F
100
AcDbEntity
  8
0
  6
CENTERX2
 62
     7
100
AcDbLine
 10
19.40211986246834
 20
10.74665904149395
 30
0.0
 11
19.33628078915805
 21
10.7039027981955
 31
0.0
  0
LINE
  5
303
330
1F
100
AcDbEntity
  8
0
  6
CENTERX2
 62
     7
100
AcDbLine
 10
19.33628078915805
 20
10.7039027981955
 30
0.0
 11
19.27527139949928
 21
10.65449846391859
 31
0.0
  0
LINE
  5
304
330
1F
100
AcDbEntity
  8
0
  6
CENTERX2
 62
     7
100
AcDbLine
 10
19.27527139949928
 20
10.65449846391859
 30
0.0
 11
19.21976069354147
 21
10.59898775796078
 31
0.0
  0
LINE
  5
305
330
1F
100
AcDbEntity
  8
0
  6
CENTERX2
 62
     7
100
AcDbLine
 10
19.21976069354147
 20
10.59898775796078
 30
0.0
 11
19.1703571353667
 21
10.53797914440416
 31
0.0
  0
LINE
  5
306
330
1F
100
AcDbEntity
  8
0
  6
CENTERX2
 62
     7
100
AcDbLine
 10
19.1703571353667
 20
10.53797914440416
 30
0.0
 11
19.12760089206825
 21
10.47214007109386
 31
0.0
  0
LINE
  5
307
330
1F
100
AcDbEntity
  8
0
  6
CENTERX2
 62
     7
100
AcDbLine
 10
19.12760089206825
 20
10.47214007109386
 30
0.0
 11
19.09196072934201
 21
10.40219231302522
 31
0.0
  0
LINE
  5
308
330
1F
100
AcDbEntity
  8
0
  6
CENTERX2
 62
     7
100
AcDbLine
 10
19.09196072934201
 20
10.40219231302522
 30
0.0
 11
19.06382702656717
 21
10.328902659118
 31
0.0
  0
LINE
  5
309
330
1F
100
AcDbEntity
  8
0
  6
CENTERX2
 62
     7
100
AcDbLine
 10
19.06382702656717
 20
10.328902659118
 30
0.0
 11
19.04350867239764
 21
10.25307359899066
 31
0.0
  0
LINE
  5
30A
330
1F
100
AcDbEntity
  8
0
  6
CENTERX2
 62
     7
100
AcDbLine
 10
19.04350867239764
 20
10.25307359899066
 30
0.0
 11
19.03122840814919
 21
10.17553633804105
 31
0.0
  0
LINE
  5
30B
330
1F
100
AcDbEntity
  8
0
  6
CENTERX2
 62
     7
100
AcDbLine
 10
19.03122840814919
 20
10.17553633804105
 30
0.0
 11
19.02711972339084
 21
10.09713993201636
 31
0.0
  0
LINE
  5
30C
330
1F
100
AcDbEntity
  8
0
  6
CENTERX2
 62
     7
100
AcDbLine
 10
18.36045302505921
 20
10.09713993201636
 30
0.0
 11
18.35634434030086
 21
10.17553633804105
 31
0.0
  0
LINE
  5
30D
330
1F
100
AcDbEntity
  8
0
  6
CENTERX2
 62
     7
100
AcDbLine
 10
18.35634434030086
 20
10.17553633804105
 30
0.0
 11
18.34406368800134
 21
10.25307359899066
 31
0.0
  0
LINE
  5
30E
330
1F
100
AcDbEntity
  8
0
  6
CENTERX2
 62
     7
100
AcDbLine
 10
18.34406368800134
 20
10.25307359899066
 30
0.0
 11
18.32374533383181
 21
10.328902659118
 31
0.0
  0
LINE
  5
30F
330
1F
100
AcDbEntity
  8
0
  6
CENTERX2
 62
     7
100
AcDbLine
 10
18.32374533383181
 20
10.328902659118
 30
0.0
 11
18.29561201910804
 21
10.40219231302522
 31
0.0
  0
LINE
  5
310
330
1F
100
AcDbEntity
  8
0
  6
CENTERX2
 62
     7
100
AcDbLine
 10
18.29561201910804
 20
10.40219231302522
 30
0.0
 11
18.25997224443287
 21
10.47214007109386
 31
0.0
  0
LINE
  5
311
330
1F
100
AcDbEntity
  8
0
  6
CENTERX2
 62
     7
100
AcDbLine
 10
18.25997224443287
 20
10.47214007109386
 30
0.0
 11
18.21721561308335
 21
10.53797914440416
 31
0.0
  0
LINE
  5
312
330
1F
100
AcDbEntity
  8
0
  6
CENTERX2
 62
     7
100
AcDbLine
 10
18.21721561308335
 20
10.53797914440416
 30
0.0
 11
18.16781166685751
 21
10.59898775796078
 31
0.0
  0
LINE
  5
313
330
1F
100
AcDbEntity
  8
0
  6
CENTERX2
 62
     7
100
AcDbLine
 10
18.16781166685751
 20
10.59898775796078
 30
0.0
 11
18.11230096089969
 21
10.65449846391859
 31
0.0
  0
LINE
  5
314
330
1F
100
AcDbEntity
  8
0
  6
CENTERX2
 62
     7
100
AcDbLine
 10
18.11230096089969
 20
10.65449846391859
 30
0.0
 11
18.051291959292
 21
10.7039027981955
 31
0.0
  0
LINE
  5
315
330
1F
100
AcDbEntity
  8
0
  6
CENTERX2
 62
     7
100
AcDbLine
 10
18.051291959292
 20
10.7039027981955
 30
0.0
 11
17.9854528859817
 21
10.74665904149395
 31
0.0
  0
LINE
  5
316
330
1F
100
AcDbEntity
  8
0
  6
CENTERX2
 62
     7
100
AcDbLine
 10
17.9854528859817
 20
10.74665904149395
 30
0.0
 11
17.91550551596413
 21
10.7822992042202
 31
0.0
  0
LINE
  5
317
330
1F
100
AcDbEntity
  8
0
  6
CENTERX2
 62
     7
100
AcDbLine
 10
17.91550551596413
 20
10.7822992042202
 30
0.0
 11
17.84221586205692
 21
10.81043290699504
 31
0.0
  0
LINE
  5
318
330
1F
100
AcDbEntity
  8
0
  6
CENTERX2
 62
     7
100
AcDbLine
 10
17.84221586205692
 20
10.81043290699504
 30
0.0
 11
17.76638680192958
 21
10.83075048506242
 31
0.0
  0
LINE
  5
319
330
1F
100
AcDbEntity
  8
0
  6
CENTERX2
 62
     7
100
AcDbLine
 10
17.76638680192958
 20
10.83075048506242
 30
0.0
 11
17.68884954097996
 21
10.84303152541302
 31
0.0
  0
LINE
  5
31A
330
1F
100
AcDbEntity
  8
0
  6
CENTERX2
 62
     7
100
AcDbLine
 10
17.68884954097996
 20
10.84303152541302
 30
0.0
 11
17.61045313495527
 21
10.84714021017136
 31
0.0
  0
LINE
  5
31B
330
1F
100
AcDbEntity
  8
0
  6
CENTERX2
 62
     7
100
AcDbLine
 10
17.61045313495527
 20
10.84714021017136
 30
0.0
 11
17.53205672893058
 21
10.84303152541302
 31
0.0
  0
LINE
  5
31C
330
1F
100
AcDbEntity
  8
0
  6
CENTERX2
 62
     7
100
AcDbLine
 10
17.53205672893058
 20
10.84303152541302
 30
0.0
 11
17.45451907992989
 21
10.83075048506242
 31
0.0
  0
LINE
  5
31D
330
1F
100
AcDbEntity
  8
0
  6
CENTERX2
 62
     7
100
AcDbLine
 10
17.45451907992989
 20
10.83075048506242
 30
0.0
 11
17.37869040785363
 21
10.81043290699504
 31
0.0
  0
LINE
  5
31E
330
1F
100
AcDbEntity
  8
0
  6
CENTERX2
 62
     7
100
AcDbLine
 10
17.37869040785363
 20
10.81043290699504
 30
0.0
 11
17.30540036589534
 21
10.7822992042202
 31
0.0
  0
LINE
  5
31F
330
1F
100
AcDbEntity
  8
0
  6
CENTERX2
 62
     7
100
AcDbLine
 10
17.30540036589534
 20
10.7822992042202
 30
0.0
 11
17.23545299587777
 21
10.74665904149395
 31
0.0
  0
LINE
  5
320
330
1F
100
AcDbEntity
  8
0
  6
CENTERX2
 62
     7
100
AcDbLine
 10
17.23545299587777
 20
10.74665904149395
 30
0.0
 11
17.16961392256747
 21
10.7039027981955
 31
0.0
  0
LINE
  5
321
330
1F
100
AcDbEntity
  8
0
  6
CENTERX2
 62
     7
100
AcDbLine
 10
17.16961392256747
 20
10.7039027981955
 30
0.0
 11
17.10860492095978
 21
10.65449846391859
 31
0.0
  0
LINE
  5
322
330
1F
100
AcDbEntity
  8
0
  6
CENTERX2
 62
     7
100
AcDbLine
 10
17.10860492095978
 20
10.65449846391859
 30
0.0
 11
17.05309421500196
 21
10.59898775796078
 31
0.0
  0
LINE
  5
323
330
1F
100
AcDbEntity
  8
0
  6
CENTERX2
 62
     7
100
AcDbLine
 10
17.05309421500196
 20
10.59898775796078
 30
0.0
 11
17.00369026877612
 21
10.53797914440416
 31
0.0
  0
LINE
  5
324
330
1F
100
AcDbEntity
  8
0
  6
CENTERX2
 62
     7
100
AcDbLine
 10
17.00369026877612
 20
10.53797914440416
 30
0.0
 11
16.96093402547767
 21
10.47214007109386
 31
0.0
  0
LINE
  5
325
330
1F
100
AcDbEntity
  8
0
  6
CENTERX2
 62
     7
100
AcDbLine
 10
16.96093402547767
 20
10.47214007109386
 30
0.0
 11
16.92529386275143
 21
10.40219231302522
 31
0.0
  0
LINE
  5
326
330
1F
100
AcDbEntity
  8
0
  6
CENTERX2
 62
     7
100
AcDbLine
 10
16.92529386275143
 20
10.40219231302522
 30
0.0
 11
16.89716054802766
 21
10.328902659118
 31
0.0
  0
LINE
  5
327
330
1F
100
AcDbEntity
  8
0
  6
CENTERX2
 62
     7
100
AcDbLine
 10
16.89716054802766
 20
10.328902659118
 30
0.0
 11
16.87684219385813
 21
10.25307359899066
 31
0.0
  0
LINE
  5
328
330
1F
100
AcDbEntity
  8
0
  6
CENTERX2
 62
     7
100
AcDbLine
 10
16.87684219385813
 20
10.25307359899066
 30
0.0
 11
16.86456154155861
 21
10.17553633804105
 31
0.0
  0
LINE
  5
329
330
1F
100
AcDbEntity
  8
0
  6
CENTERX2
 62
     7
100
AcDbLine
 10
16.86456154155861
 20
10.17553633804105
 30
0.0
 11
16.86045285680026
 21
10.09713993201636
 31
0.0
  0
CIRCLE
  5
32A
330
1F
100
AcDbEntity
  8
0
  6
Continuous
 62
     7
370
     0
100
AcDbCircle
 10
18.74190750700418
 20
9.702405079495722
 30
0.0
 40
2.434637941414703
  0
LINE
  5
32B
330
1F
100
AcDbEntity
  8
0
  6
Continuous
 62
     7
370
    15
100
AcDbLine
 10
19.27712007480989
 20
8.597140151808485
 30
0.0
 11
20.27711992828181
 21
8.597140151808485
 31
0.0
  0
LINE
  5
32C
330
1F
100
AcDbEntity
  8
0
  6
Continuous
 62
     7
370
    15
100
AcDbLine
 10
20.27711992828181
 20
8.597140151808485
 30
0.0
 11
20.27711992828181
 21
10.09713993201636
 31
0.0
  0
ARC
  5
32D
330
1F
100
AcDbEntity
  8
0
  6
Continuous
 62
     7
370
    15
100
AcDbCircle
 10
19.77712000154585
 20
10.09713993201636
 30
0.0
 40
0.4999999267359599
100
AcDbArc
 50
0.0
 51
180.0
  0
LINE
  5
32E
330
1F
100
AcDbEntity
  8
0
  6
Continuous
 62
     7
370
    15
100
AcDbLine
 10
19.27712007480989
 20
10.09713993201636
 30
0.0
 11
19.27712007480989
 21
8.597140151808485
 31
0.0
  0
LINE
  5
32F
330
1F
100
AcDbEntity
  8
0
  6
Continuous
 62
     7
370
    15
100
AcDbLine
 10
17.11045320821931
 20
8.597140151808485
 30
0.0
 11
18.11045306169123
 21
8.597140151808485
 31
0.0
  0
LINE
  5
330
330
1F
100
AcDbEntity
  8
0
  6
Continuous
 62
     7
370
    15
100
AcDbLine
 10
18.11045306169123
 20
8.597140151808485
 30
0.0
 11
18.11045306169123
 21
10.09713993201636
 31
0.0
  0
ARC
  5
331
330
1F
100
AcDbEntity
  8
0
  6
Continuous
 62
     7
370
    15
100
AcDbCircle
 10
17.61045313495527
 20
10.09713993201636
 30
0.0
 40
0.4999999267359599
100
AcDbArc
 50
0.0
 51
180.0
  0
LINE
  5
332
330
1F
100
AcDbEntity
  8
0
  6
Continuous
 62
     7
370
    15
100
AcDbLine
 10
17.11045320821931
 20
10.09713993201636
 30
0.0
 11
17.11045320821931
 21
8.597140151808485
 31
0.0
  0
DIMENSION
  5
333
330
1F
100
AcDbEntity
  8
0
  6
Continuous
 62
     7
370
     0
100
AcDbDimension
280
     0
  2
*D20
 10
21.91436614524995
 20
10.59714015553378
 30
0.0
 11
21.91436614524995
 21
9.597140155533789
 31
0.0
 70
   160
 71
     2
 42
-1.0
 73
     0
 74
     0
 75
     0
  3
SLDDIMSTYLE6
100
AcDbAlignedDimension
 13
20.27711968986324
 23
8.597140155533795
 33
0.0
 14
19.77711968986323
 24
10.59714015553378
 34
0.0
 50
90.00000000000019
100
AcDbRotatedDimension
  0
DIMENSION
  5
33F
330
1F
100
AcDbEntity
  8
0
  6
Continuous
 62
     7
370
     0
100
AcDbDimension
280
     0
  2
*D21
 10
21.46129261954974
 20
9.263806822200454
 30
0.0
 11
21.46129261954974
 21
8.930473488867123
 31
0.0
 70
   160
 71
     2
 42
-1.0
 73
     0
 74
     0
 75
     0
  3
SLDDIMSTYLE7
100
AcDbAlignedDimension
 13
20.27711968986324
 23
8.597140155533795
 33
0.0
 14
21.13671514260899
 24
9.263806822200454
 34
0.0
 50
90.00000000000019
100
AcDbRotatedDimension
  0
DIMENSION
  5
34B
330
1F
100
AcDbEntity
  8
0
  6
Continuous
 62
     7
370
     0
100
AcDbDimension
280
     0
  2
*D22
 10
19.02711968986323
 20
7.164625432583964
 30
0.0
 11
15.84491312719825
 21
7.164625432583966
 31
0.0
 70
   160
  1
0.085~<> MIN.
 71
     2
 42
-1.0
 73
     0
 74
     0
 75
     0
  3
SLDDIMSTYLE8
100
AcDbAlignedDimension
 13
18.36045302319656
 23
8.347140155533791
 33
0.0
 14
19.02711968986323
 24
8.347140155533793
 34
0.0
 50
-0.0000000000000763
100
AcDbRotatedDimension
  0
DIMENSION
  5
359
330
1F
100
AcDbEntity
  8
0
  6
Continuous
 62
     7
370
     0
100
AcDbDimension
280
     0
  2
*D23
 10
16.34542311536009
 20
8.347140155533791
 30
0.0
 11
16.34542311536009
 21
7.680473488867122
 31
0.0
 70
   160
  1
0.060~<>\PMASK OPENING
 71
     2
 42
-1.0
 73
     0
 74
     0
 75
     0
  3
SLDDIMSTYLE9
100
AcDbAlignedDimension
 13
17.11045302319656
 23
8.597140155533791
 33
0.0
 14
16.86045302319657
 24
8.347140155533791
 34
0.0
 50
90.00000000000019
100
AcDbRotatedDimension
  0
DIMENSION
  5
368
330
1F
100
AcDbEntity
  8
0
  6
Continuous
 62
     7
370
     0
100
AcDbDimension
280
     0
  2
*D24
 10
19.77711968986323
 20
11.42831083883946
 30
0.0
 11
18.6937863565299
 21
11.42831083883946
 31
0.0
 70
   160
 71
     2
 42
-1.0
 73
     0
 74
     0
 75
     0
  3
SLDDIMSTYLE10
100
AcDbAlignedDimension
 13
17.61045302319656
 23
10.26380682220047
 33
0.0
 14
19.77711968986323
 24
10.26380682220048
 34
0.0
 50
0.0000000000000939
100
AcDbRotatedDimension
  0
DIMENSION
  5
374
330
1F
100
AcDbEntity
  8
0
  6
Continuous
 62
     7
370
     0
100
AcDbDimension
280
     0
  2
*D25
 10
17.61045302319656
 20
10.09714015553378
 30
0.0
 11
16.47738433058691
 21
11.42831083883945
 31
0.0
 70
   164
  1
<>
 42
-1.0
 73
     0
 74
     0
 75
     0
  3
SLDDIMSTYLE11
100
AcDbRadialDimension
 15
17.47059142819948
 25
10.57718050200986
 35
0.0
 40
0.0
  0
DIMENSION
  5
37E
330
1F
100
AcDbEntity
  8
0
  6
Continuous
 62
     7
370
     0
100
AcDbDimension
280
     0
  2
*D26
 10
20.27711968986324
 20
8.105138868602066
 30
0.0
 11
19.77711968986323
 21
8.105138868602066
 31
0.0
 70
   160
 71
     2
 42
-1.0
 73
     0
 74
     0
 75
     0
  3
SLDDIMSTYLE12
100
AcDbAlignedDimension
 13
19.27711968986323
 23
8.597140155533795
 33
0.0
 14
20.27711968986324
 24
8.597140155533795
 34
0.0
100
AcDbRotatedDimension
  0
INSERT
  5
38F
330
1F
100
AcDbEntity
  8
0
  6
Continuous
 62
     7
370
     0
100
AcDbBlockReference
  2
SW_NOTE_25
 10
17.96103834229836
 20
6.505211238063463
 30
0.0
  0
LINE
  5
390
330
1F
100
AcDbEntity
  8
0
  6
CENTERX2
 62
     7
370
     0
100
AcDbLine
 10
17.61045313495527
 20
8.430473768263881
 30
0.0
 11
17.61045313495527
 21
10.26380709166311
 31
0.0
  0
LINE
  5
391
330
1F
100
AcDbEntity
  8
0
  6
CENTERX2
 62
     7
370
     0
100
AcDbLine
 10
19.77712000154585
 20
8.430473768263881
 30
0.0
 11
19.77712000154585
 21
10.26380709166311
 31
0.0
  0
ENDSEC
  0
SECTION
  2
OBJECTS
  0
DICTIONARY
  5
C
330
0
100
AcDbDictionary
281
     1
  3
ACAD_COLOR
350
3A2
  3
ACAD_GROUP
350
D
  3
ACAD_IMAGE_DICT
350
54
  3
ACAD_IMAGE_VARS
350
3AB
  3
ACAD_LAYOUT
350
1A
  3
ACAD_MATERIAL
350
3B
  3
ACAD_MLEADERSTYLE
350
395
  3
ACAD_MLINESTYLE
350
17
  3
ACAD_PLOTSETTINGS
350
19
  3
ACAD_PLOTSTYLENAME
350
E
  3
ACAD_SCALELIST
350
69
  3
ACAD_TABLESTYLE
350
394
  3
ACAD_VISUALSTYLE
350
2A
  3
ACDB_RECOMPOSE_DATA
350
3B0
  3
AcDbVariableDictionary
350
392
  0
IMAGEDEF_REACTOR
  5
57
330
56
100
AcDbRasterImageDefReactor
 90
        2
330
56
  0
DICTIONARY
  5
3A2
102
{ACAD_REACTORS
330
C
102
}
330
C
100
AcDbDictionary
281
     1
  0
DICTIONARY
  5
D
102
{ACAD_REACTORS
330
C
102
}
330
C
100
AcDbDictionary
281
     1
  0
DICTIONARY
  5
54
102
{ACAD_REACTORS
330
C
102
}
330
C
100
AcDbDictionary
281
     1
  3
D:\Clients-Customers\Promex Industries\Single Package Rows\235-00156\dxf2CB6.bmp
350
55
  0
RASTERVARIABLES
  5
3AB
102
{ACAD_REACTORS
330
C
102
}
330
C
100
AcDbRasterVariables
 90
        0
 70
     1
 71
     1
 72
     1
  0
DICTIONARY
  5
1A
102
{ACAD_REACTORS
330
C
102
}
330
C
100
AcDbDictionary
281
     1
  3
Layout1
350
1E
  3
Layout2
350
26
  3
Model
350
22
  0
DICTIONARY
  5
3B
102
{ACAD_REACTORS
330
C
102
}
330
C
100
AcDbDictionary
281
     1
  3
ByBlock
350
3D
  3
ByLayer
350
3C
  3
Global
350
3E
  0
DICTIONARY
  5
395
102
{ACAD_REACTORS
330
C
102
}
330
C
100
AcDbDictionary
281
     1
  3
Standard
350
3A4
  0
DICTIONARY
  5
17
102
{ACAD_REACTORS
330
C
102
}
330
C
100
AcDbDictionary
281
     1
  3
Standard
350
18
  0
DICTIONARY
  5
19
102
{ACAD_REACTORS
330
C
102
}
330
C
100
AcDbDictionary
281
     1
  0
ACDBDICTIONARYWDFLT
  5
E
102
{ACAD_REACTORS
330
C
102
}
330
C
100
AcDbDictionary
281
     1
  3
Normal
350
F
100
AcDbDictionaryWithDefault
340
F
  0
DICTIONARY
  5
69
102
{ACAD_REACTORS
330
C
102
}
330
C
100
AcDbDictionary
281
     1
  3
A0
350
6A
  3
A1
350
6B
  3
A2
350
6C
  3
A3
350
6D
  3
A4
350
6E
  3
A5
350
6F
  3
A6
350
70
  3
A7
350
71
  3
A8
350
72
  3
A9
350
73
  3
B0
350
74
  3
B1
350
75
  3
B2
350
76
  3
B3
350
77
  3
B4
350
78
  3
B5
350
79
  3
B6
350
7A
  3
B7
350
7B
  3
B8
350
7C
  3
B9
350
7D
  3
C0
350
7E
  3
C1
350
7F
  3
C2
350
80
  3
C3
350
81
  3
C4
350
82
  3
C5
350
83
  3
C6
350
84
  3
C7
350
85
  3
C8
350
86
  3
C9
350
87
  3
D0
350
88
  3
D1
350
89
  3
D2
350
8A
  0
DICTIONARY
  5
394
102
{ACAD_REACTORS
330
C
102
}
330
C
100
AcDbDictionary
281
     1
  3
Standard
350
3A3
  0
DICTIONARY
  5
2A
102
{ACAD_REACTORS
330
C
102
}
330
C
100
AcDbDictionary
281
     1
  3
2dWireframe
350
2F
  3
3D Hidden
350
31
  3
3dWireframe
350
30
  3
Basic
350
32
  3
Brighten
350
36
  3
ColorChange
350
3A
  3
Conceptual
350
34
  3
Dim
350
35
  3
EdgeColorOff
350
3A1
  3
Facepattern
350
39
  3
Flat
350
2B
  3
FlatWithEdges
350
2C
  3
Gouraud
350
2D
  3
GouraudWithEdges
350
2E
  3
Hidden
350
399
  3
JitterOff
350
39F
  3
Linepattern
350
38
  3
OverhangOff
350
3A0
  3
Realistic
350
33
  3
Shaded
350
39E
  3
Shaded with edges
350
39D
  3
Shades of Gray
350
39A
  3
Sketchy
350
39B
  3
Thicken
350
37
  3
Wireframe
350
398
  3
X-Ray
350
39C
  0
XRECORD
  5
3B0
102
{ACAD_REACTORS
330
C
102
}
330
C
100
AcDbXrecord
280
     1
 90
        1
330
3A3
  0
DICTIONARY
  5
392
102
{ACAD_REACTORS
330
C
102
}
330
C
100
AcDbDictionary
281
     1
  3
CANNOSCALE
350
393
  3
CMLEADERSTYLE
350
3AD
  3
CTABLESTYLE
350
3AC
  0
IMAGEDEF
  5
55
102
{ACAD_REACTORS
330
54
330
57
102
}
330
54
100
AcDbRasterImageDef
 90
        0
  1
D:\Clients-Customers\Promex Industries\Single Package Rows\235-00156\dxf2CB6.bmp
 10
150.0
 20
63.0
 11
0.2645502645502646
 21
0.2645502645502646
280
     1
281
     3
  0
LAYOUT
  5
1E
102
{ACAD_REACTORS
330
1A
102
}
330
1A
100
AcDbPlotSettings
  1

  2
none_device
  4

  6

 40
0.0
 41
0.0
 42
0.0
 43
0.0
 44
0.0
 45
0.0
 46
0.0
 47
0.0
 48
0.0
 49
0.0
140
0.0
141
0.0
142
1.0
143
1.0
 70
   688
 72
     0
 73
     0
 74
     5
  7

 75
    16
147
1.0
 76
     0
 77
     2
 78
   300
148
0.0
149
0.0
100
AcDbLayout
  1
Layout1
 70
     1
 71
     1
 10
0.0
 20
0.0
 11
420.0
 21
297.0
 12
0.0
 22
0.0
 32
0.0
 14
1.000000000000000E+20
 24
1.000000000000000E+20
 34
1.000000000000000E+20
 15
-1.000000000000000E+20
 25
-1.000000000000000E+20
 35
-1.000000000000000E+20
146
0.0
 13
0.0
 23
0.0
 33
0.0
 16
1.0
 26
0.0
 36
0.0
 17
0.0
 27
1.0
 37
0.0
 76
     0
330
1B
  0
LAYOUT
  5
26
102
{ACAD_REACTORS
330
1A
102
}
330
1A
100
AcDbPlotSettings
  1

  2
none_device
  4

  6

 40
0.0
 41
0.0
 42
0.0
 43
0.0
 44
0.0
 45
0.0
 46
0.0
 47
0.0
 48
0.0
 49
0.0
140
0.0
141
0.0
142
1.0
143
1.0
 70
   688
 72
     0
 73
     0
 74
     5
  7

 75
    16
147
1.0
 76
     0
 77
     2
 78
   300
148
0.0
149
0.0
100
AcDbLayout
  1
Layout2
 70
     1
 71
     2
 10
0.0
 20
0.0
 11
0.0
 21
0.0
 12
0.0
 22
0.0
 32
0.0
 14
0.0
 24
0.0
 34
0.0
 15
0.0
 25
0.0
 35
0.0
146
0.0
 13
0.0
 23
0.0
 33
0.0
 16
1.0
 26
0.0
 36
0.0
 17
0.0
 27
1.0
 37
0.0
 76
     0
330
23
  0
LAYOUT
  5
22
102
{ACAD_REACTORS
330
1A
102
}
330
1A
100
AcDbPlotSettings
  1

  2
none_device
  4

  6

 40
0.0
 41
0.0
 42
0.0
 43
0.0
 44
0.0
 45
0.0
 46
0.0
 47
0.0
 48
0.0
 49
0.0
140
0.0
141
0.0
142
1.0
143
1.0
 70
  1712
 72
     0
 73
     0
 74
     0
  7

 75
     0
147
1.0
 76
     0
 77
     2
 78
   300
148
0.0
149
0.0
100
AcDbLayout
  1
Model
 70
     1
 71
     0
 10
0.0
 20
0.0
 11
23.28333333333333
 21
17.99166666666666
 12
0.0
 22
0.0
 32
0.0
 14
0.0
 24
0.0
 34
0.0
 15
23.28333333333333
 25
17.99166666666666
 35
0.0
146
0.0
 13
0.0
 23
0.0
 33
0.0
 16
1.0
 26
0.0
 36
0.0
 17
0.0
 27
1.0
 37
0.0
 76
     0
330
1F
331
29
  0
MATERIAL
  5
3D
102
{ACAD_REACTORS
330
3B
102
}
330
3B
100
AcDbMaterial
  1
ByBlock
 73
     1
 78
     1
172
     1
176
     1
270
     1
274
     1
  0
MATERIAL
  5
3C
102
{ACAD_REACTORS
330
3B
102
}
330
3B
100
AcDbMaterial
  1
ByLayer
 73
     1
 78
     1
172
     1
176
     1
270
     1
274
     1
  0
MATERIAL
  5
3E
102
{ACAD_REACTORS
330
3B
102
}
330
3B
100
AcDbMaterial
  1
Global
 73
     1
 78
     1
172
     1
176
     1
270
     1
274
     1
  0
MLEADERSTYLE
  5
3A4
102
{ACAD_REACTORS
330
395
102
}
330
395
100
AcDbMLeaderStyle
179
     2
170
     2
171
     1
172
     0
 90
        2
 40
0.0
 41
0.0
173
     1
 91
-1056964608
340
14
 92
       -2
290
     1
 42
2.0
291
     1
 43
0.36
  3
Standard
 44
4.0
300

342
11
174
     1
178
     6
175
     1
176
     0
 93
-1056964608
 45
4.0
292
     0
297
     0
 46
4.0
 94
-1056964608
 47
1.0
 49
1.0
140
1.0
293
     1
141
0.0
294
     1
177
     0
142
1.0
295
     1
296
     0
143
0.125
271
     0
272
     9
273
     9
  0
MLINESTYLE
  5
18
102
{ACAD_REACTORS
330
17
102
}
330
17
100
AcDbMlineStyle
  2
STANDARD
 70
     0
  3

 62
   256
 51
90.0
 52
90.0
 71
     2
 49
0.5
 62
   256
  6
BYLAYER
 49
-0.5
 62
   256
  6
BYLAYER
  0
ACDBPLACEHOLDER
  5
F
102
{ACAD_REACTORS
330
E
102
}
330
E
  0
SCALE
  5
6A
102
{ACAD_REACTORS
330
69
102
}
330
69
100
AcDbScale
 70
     0
300
1:1
140
1.0
141
1.0
290
     1
  0
SCALE
  5
6B
102
{ACAD_REACTORS
330
69
102
}
330
69
100
AcDbScale
 70
     0
300
1:2
140
1.0
141
2.0
290
     0
  0
SCALE
  5
6C
102
{ACAD_REACTORS
330
69
102
}
330
69
100
AcDbScale
 70
     0
300
1:4
140
1.0
141
4.0
290
     0
  0
SCALE
  5
6D
102
{ACAD_REACTORS
330
69
102
}
330
69
100
AcDbScale
 70
     0
300
1:5
140
1.0
141
5.0
290
     0
  0
SCALE
  5
6E
102
{ACAD_REACTORS
330
69
102
}
330
69
100
AcDbScale
 70
     0
300
1:8
140
1.0
141
8.0
290
     0
  0
SCALE
  5
6F
102
{ACAD_REACTORS
330
69
102
}
330
69
100
AcDbScale
 70
     0
300
1:10
140
1.0
141
10.0
290
     0
  0
SCALE
  5
70
102
{ACAD_REACTORS
330
69
102
}
330
69
100
AcDbScale
 70
     0
300
1:16
140
1.0
141
16.0
290
     0
  0
SCALE
  5
71
102
{ACAD_REACTORS
330
69
102
}
330
69
100
AcDbScale
 70
     0
300
1:20
140
1.0
141
20.0
290
     0
  0
SCALE
  5
72
102
{ACAD_REACTORS
330
69
102
}
330
69
100
AcDbScale
 70
     0
300
1:30
140
1.0
141
30.0
290
     0
  0
SCALE
  5
73
102
{ACAD_REACTORS
330
69
102
}
330
69
100
AcDbScale
 70
     0
300
1:40
140
1.0
141
40.0
290
     0
  0
SCALE
  5
74
102
{ACAD_REACTORS
330
69
102
}
330
69
100
AcDbScale
 70
     0
300
1:50
140
1.0
141
50.0
290
     0
  0
SCALE
  5
75
102
{ACAD_REACTORS
330
69
102
}
330
69
100
AcDbScale
 70
     0
300
1:100
140
1.0
141
100.0
290
     0
  0
SCALE
  5
76
102
{ACAD_REACTORS
330
69
102
}
330
69
100
AcDbScale
 70
     0
300
2:1
140
2.0
141
1.0
290
     0
  0
SCALE
  5
77
102
{ACAD_REACTORS
330
69
102
}
330
69
100
AcDbScale
 70
     0
300
4:1
140
4.0
141
1.0
290
     0
  0
SCALE
  5
78
102
{ACAD_REACTORS
330
69
102
}
330
69
100
AcDbScale
 70
     0
300
8:1
140
8.0
141
1.0
290
     0
  0
SCALE
  5
79
102
{ACAD_REACTORS
330
69
102
}
330
69
100
AcDbScale
 70
     0
300
10:1
140
10.0
141
1.0
290
     0
  0
SCALE
  5
7A
102
{ACAD_REACTORS
330
69
102
}
330
69
100
AcDbScale
 70
     0
300
100:1
140
100.0
141
1.0
290
     0
  0
SCALE
  5
7B
102
{ACAD_REACTORS
330
69
102
}
330
69
100
AcDbScale
 70
     0
300
1/128" = 1'-0"
140
0.0078125
141
12.0
290
     0
  0
SCALE
  5
7C
102
{ACAD_REACTORS
330
69
102
}
330
69
100
AcDbScale
 70
     0
300
1/64" = 1'-0"
140
0.015625
141
12.0
290
     0
  0
SCALE
  5
7D
102
{ACAD_REACTORS
330
69
102
}
330
69
100
AcDbScale
 70
     0
300
1/32" = 1'-0"
140
0.03125
141
12.0
290
     0
  0
SCALE
  5
7E
102
{ACAD_REACTORS
330
69
102
}
330
69
100
AcDbScale
 70
     0
300
1/16" = 1'-0"
140
0.0625
141
12.0
290
     0
  0
SCALE
  5
7F
102
{ACAD_REACTORS
330
69
102
}
330
69
100
AcDbScale
 70
     0
300
3/32" = 1'-0"
140
0.09375
141
12.0
290
     0
  0
SCALE
  5
80
102
{ACAD_REACTORS
330
69
102
}
330
69
100
AcDbScale
 70
     0
300
1/8" = 1'-0"
140
0.125
141
12.0
290
     0
  0
SCALE
  5
81
102
{ACAD_REACTORS
330
69
102
}
330
69
100
AcDbScale
 70
     0
300
3/16" = 1'-0"
140
0.1875
141
12.0
290
     0
  0
SCALE
  5
82
102
{ACAD_REACTORS
330
69
102
}
330
69
100
AcDbScale
 70
     0
300
1/4" = 1'-0"
140
0.25
141
12.0
290
     0
  0
SCALE
  5
83
102
{ACAD_REACTORS
330
69
102
}
330
69
100
AcDbScale
 70
     0
300
3/8" = 1'-0"
140
0.375
141
12.0
290
     0
  0
SCALE
  5
84
102
{ACAD_REACTORS
330
69
102
}
330
69
100
AcDbScale
 70
     0
300
1/2" = 1'-0"
140
0.5
141
12.0
290
     0
  0
SCALE
  5
85
102
{ACAD_REACTORS
330
69
102
}
330
69
100
AcDbScale
 70
     0
300
3/4" = 1'-0"
140
0.75
141
12.0
290
     0
  0
SCALE
  5
86
102
{ACAD_REACTORS
330
69
102
}
330
69
100
AcDbScale
 70
     0
300
1" = 1'-0"
140
1.0
141
12.0
290
     0
  0
SCALE
  5
87
102
{ACAD_REACTORS
330
69
102
}
330
69
100
AcDbScale
 70
     0
300
1-1/2" = 1'-0"
140
1.5
141
12.0
290
     0
  0
SCALE
  5
88
102
{ACAD_REACTORS
330
69
102
}
330
69
100
AcDbScale
 70
     0
300
3" = 1'-0"
140
3.0
141
12.0
290
     0
  0
SCALE
  5
89
102
{ACAD_REACTORS
330
69
102
}
330
69
100
AcDbScale
 70
     0
300
6" = 1'-0"
140
6.0
141
12.0
290
     0
  0
SCALE
  5
8A
102
{ACAD_REACTORS
330
69
102
}
330
69
100
AcDbScale
 70
     0
300
1'-0" = 1'-0"
140
12.0
141
12.0
290
     0
  0
TABLESTYLE
  5
3A3
102
{ACAD_XDICTIONARY
360
3AE
102
}
102
{ACAD_REACTORS
330
394
102
}
330
394
100
AcDbTableStyle
280
     0
  3
Standard
 70
     0
 71
     0
 40
1.5
 41
1.5
280
     0
281
     0
  7
STANDARD
140
4.5
170
     2
 62
     0
 63
     7
283
     0
 90
      512
 91
        0
  1

274
    -2
284
     1
 64
     0
275
    -2
285
     1
 65
     0
276
    -2
286
     1
 66
     0
277
    -2
287
     1
 67
     0
278
    -2
288
     1
 68
     0
279
    -2
289
     1
 69
     0
  7
STANDARD
140
6.0
170
     5
 62
     0
 63
     7
283
     0
 90
      512
 91
        0
  1

274
    -2
284
     1
 64
     0
275
    -2
285
     1
 65
     0
276
    -2
286
     1
 66
     0
277
    -2
287
     1
 67
     0
278
    -2
288
     1
 68
     0
279
    -2
289
     1
 69
     0
  7
STANDARD
140
4.5
170
     5
 62
     0
 63
     7
283
     0
 90
      512
 91
        0
  1

274
    -2
284
     1
 64
     0
275
    -2
285
     1
 65
     0
276
    -2
286
     1
 66
     0
277
    -2
287
     1
 67
     0
278
    -2
288
     1
 68
     0
279
    -2
289
     1
 69
     0
  0
VISUALSTYLE
  5
2F
102
{ACAD_REACTORS
330
2A
102
}
330
2A
100
AcDbVisualStyle
  2
2dWireframe
 70
     4
177
     2
291
     0
 71
     0
176
     1
 72
     2
176
     1
 73
     0
176
     1
 90
        0
176
     1
 40
0.6
176
     1
 41
30.0
176
     1
 63
     7
421
 16777215
176
     1
 74
     1
176
     1
 91
        4
176
     1
 64
     7
176
     1
 65
   257
176
     1
 75
     1
176
     1
175
     1
176
     1
 42
1.0
176
     1
 92
        0
176
     1
 66
   257
176
     1
 43
1.0
176
     1
 76
     1
176
     1
 77
     6
176
     1
 78
     2
176
     1
 67
     7
176
     1
 79
     5
176
     1
170
     0
176
     1
171
     0
176
     1
290
     0
176
     1
 93
        1
176
     1
 44
0.0
176
     1
173
     0
176
     1
  0
VISUALSTYLE
  5
31
102
{ACAD_REACTORS
330
2A
102
}
330
2A
100
AcDbVisualStyle
  2
3D Hidden
 70
     6
177
     2
291
     0
 71
     1
176
     1
 72
     2
176
     1
 73
     2
176
     1
 90
        0
176
     1
 40
0.6
176
     1
 41
30.0
176
     1
 63
     7
421
 16777215
176
     1
 74
     2
176
     1
 91
        2
176
     1
 64
     7
176
     1
 65
   257
176
     1
 75
     2
176
     1
175
     1
176
     1
 42
40.0
176
     1
 92
        0
176
     1
 66
   257
176
     1
 43
1.0
176
     1
 76
     1
176
     1
 77
     6
176
     1
 78
     2
176
     1
 67
     7
176
     1
 79
     3
176
     1
170
     0
176
     1
171
     0
176
     1
290
     0
176
     1
 93
        1
176
     1
 44
0.0
176
     1
173
     0
176
     1
  0
VISUALSTYLE
  5
30
102
{ACAD_REACTORS
330
2A
102
}
330
2A
100
AcDbVisualStyle
  2
3dWireframe
 70
     5
177
     2
291
     0
 71
     0
176
     1
 72
     2
176
     1
 73
     0
176
     1
 90
        0
176
     1
 40
0.6
176
     1
 41
30.0
176
     1
 63
     7
421
 16777215
176
     1
 74
     1
176
     1
 91
        4
176
     1
 64
     7
176
     1
 65
   257
176
     1
 75
     1
176
     1
175
     1
176
     1
 42
1.0
176
     1
 92
        0
176
     1
 66
   257
176
     1
 43
1.0
176
     1
 76
     1
176
     1
 77
     6
176
     1
 78
     2
176
     1
 67
     7
176
     1
 79
     5
176
     1
170
     0
176
     1
171
     0
176
     1
290
     0
176
     1
 93
        1
176
     1
 44
0.0
176
     1
173
     0
176
     1
  0
VISUALSTYLE
  5
32
102
{ACAD_REACTORS
330
2A
102
}
330
2A
100
AcDbVisualStyle
  2
Basic
 70
     7
177
     2
291
     1
 71
     1
176
     1
 72
     0
176
     1
 73
     1
176
     1
 90
        0
176
     1
 40
0.6
176
     1
 41
30.0
176
     1
 63
     7
421
 16777215
176
     1
 74
     0
176
     1
 91
        4
176
     1
 64
     7
176
     1
 65
   257
176
     1
 75
     1
176
     1
175
     1
176
     1
 42
1.0
176
     1
 92
        8
176
     1
 66
     7
176
     1
 43
1.0
176
     1
 76
     1
176
     1
 77
     6
176
     1
 78
     2
176
     1
 67
     7
176
     1
 79
     5
176
     1
170
     0
176
     1
171
     0
176
     1
290
     0
176
     1
 93
        1
176
     1
 44
0.0
176
     1
173
     0
176
     1
  0
VISUALSTYLE
  5
36
102
{ACAD_REACTORS
330
2A
102
}
330
2A
100
AcDbVisualStyle
  2
Brighten
 70
    12
177
     2
291
     1
 71
     2
176
     1
 72
     2
176
     1
 73
     0
176
     1
 90
        0
176
     1
 40
0.6
176
     1
 41
30.0
176
     1
 63
     7
421
 16777215
176
     1
 74
     1
176
     1
 91
        4
176
     1
 64
     7
176
     1
 65
   257
176
     1
 75
     1
176
     1
175
     1
176
     1
 42
1.0
176
     1
 92
        8
176
     1
 66
     7
176
     1
 43
1.0
176
     1
 76
     1
176
     1
 77
     6
176
     1
 78
     2
176
     1
 67
     7
176
     1
 79
     5
176
     1
170
     0
176
     1
171
     0
176
     1
290
     0
176
     1
 93
        1
176
     1
 44
50.0
176
     1
173
     0
176
     1
  0
VISUALSTYLE
  5
3A
102
{ACAD_REACTORS
330
2A
102
}
330
2A
100
AcDbVisualStyle
  2
ColorChange
 70
    16
177
     2
291
     1
 71
     2
176
     1
 72
     2
176
     1
 73
     3
176
     1
 90
        0
176
     1
 40
0.6
176
     1
 41
30.0
176
     1
 63
     8
421
  8421504
176
     1
 74
     1
176
     1
 91
        4
176
     1
 64
     7
176
     1
 65
   257
176
     1
 75
     1
176
     1
175
     1
176
     1
 42
1.0
176
     1
 92
        8
176
     1
 66
     8
424
  8421504
176
     1
 43
1.0
176
     1
 76
     1
176
     1
 77
     6
176
     1
 78
     2
176
     1
 67
     7
176
     1
 79
     5
176
     1
170
     0
176
     1
171
     0
176
     1
290
     0
176
     1
 93
        1
176
     1
 44
0.0
176
     1
173
     0
176
     1
  0
VISUALSTYLE
  5
34
102
{ACAD_REACTORS
330
2A
102
}
330
2A
100
AcDbVisualStyle
  2
Conceptual
 70
     9
177
     2
291
     0
 71
     3
176
     1
 72
     2
176
     1
 73
     0
176
     1
 90
        0
176
     1
 40
0.6
176
     1
 41
30.0
176
     1
 63
     7
421
 16777215
176
     1
 74
     2
176
     1
 91
        2
176
     1
 64
     7
176
     1
 65
   257
176
     1
 75
     1
176
     1
175
     1
176
     1
 42
40.0
176
     1
 92
        8
176
     1
 66
     7
176
     1
 43
1.0
176
     1
 76
     1
176
     1
 77
     6
176
     1
 78
     2
176
     1
 67
     7
176
     1
 79
     3
176
     1
170
     0
176
     1
171
     0
176
     1
290
     0
176
     1
 93
        1
176
     1
 44
0.0
176
     1
173
     0
176
     1
  0
VISUALSTYLE
  5
35
102
{ACAD_REACTORS
330
2A
102
}
330
2A
100
AcDbVisualStyle
  2
Dim
 70
    11
177
     2
291
     1
 71
     2
176
     1
 72
     2
176
     1
 73
     0
176
     1
 90
        0
176
     1
 40
0.6
176
     1
 41
30.0
176
     1
 63
     7
421
 16777215
176
     1
 74
     1
176
     1
 91
        4
176
     1
 64
     7
176
     1
 65
   257
176
     1
 75
     1
176
     1
175
     1
176
     1
 42
1.0
176
     1
 92
        8
176
     1
 66
     7
176
     1
 43
1.0
176
     1
 76
     1
176
     1
 77
     6
176
     1
 78
     2
176
     1
 67
     7
176
     1
 79
     5
176
     1
170
     0
176
     1
171
     0
176
     1
290
     0
176
     1
 93
        1
176
     1
 44
-50.0
176
     1
173
     0
176
     1
  0
VISUALSTYLE
  5
3A1
102
{ACAD_REACTORS
330
2A
102
}
330
2A
100
AcDbVisualStyle
  2
EdgeColorOff
 70
    22
177
     2
291
     1
 71
     2
176
     0
 72
     2
176
     0
 73
     0
176
     0
 90
        0
176
     0
 40
0.6
176
     0
 41
30.0
176
     0
 63
     7
421
 16777215
176
     0
 74
     1
176
     0
 91
        4
176
     0
 64
     7
176
     0
 65
   257
176
     0
 75
     1
176
     0
175
     1
176
     0
 42
1.0
176
     0
 92
        8
176
     2
 66
     7
176
     0
 43
1.0
176
     0
 76
     1
176
     0
 77
     6
176
     0
 78
     2
176
     0
 67
     7
176
     0
 79
     5
176
     0
170
     0
176
     0
171
     0
176
     0
290
     0
176
     0
 93
        1
176
     0
 44
0.0
176
     0
173
     0
176
     0
  0
VISUALSTYLE
  5
39
102
{ACAD_REACTORS
330
2A
102
}
330
2A
100
AcDbVisualStyle
  2
Facepattern
 70
    15
177
     2
291
     1
 71
     2
176
     1
 72
     2
176
     1
 73
     0
176
     1
 90
        0
176
     1
 40
0.6
176
     1
 41
30.0
176
     1
 63
     7
421
 16777215
176
     1
 74
     1
176
     1
 91
        4
176
     1
 64
     7
176
     1
 65
   257
176
     1
 75
     1
176
     1
175
     1
176
     1
 42
1.0
176
     1
 92
        8
176
     1
 66
     7
176
     1
 43
1.0
176
     1
 76
     1
176
     1
 77
     6
176
     1
 78
     2
176
     1
 67
     7
176
     1
 79
     5
176
     1
170
     0
176
     1
171
     0
176
     1
290
     0
176
     1
 93
        1
176
     1
 44
0.0
176
     1
173
     0
176
     1
  0
VISUALSTYLE
  5
2B
102
{ACAD_REACTORS
330
2A
102
}
330
2A
100
AcDbVisualStyle
  2
Flat
 70
     0
177
     2
291
     1
 71
     2
176
     1
 72
     1
176
     1
 73
     1
176
     1
 90
        2
176
     1
 40
0.6
176
     1
 41
30.0
176
     1
 63
     7
421
 16777215
176
     1
 74
     0
176
     1
 91
        4
176
     1
 64
     7
176
     1
 65
   257
176
     1
 75
     1
176
     1
175
     1
176
     1
 42
1.0
176
     1
 92
        8
176
     1
 66
     7
176
     1
 43
1.0
176
     1
 76
     1
176
     1
 77
     6
176
     1
 78
     2
176
     1
 67
     7
176
     1
 79
     5
176
     1
170
     0
176
     1
171
     0
176
     1
290
     0
176
     1
 93
       13
176
     1
 44
0.0
176
     1
173
     0
176
     1
  0
VISUALSTYLE
  5
2C
102
{ACAD_REACTORS
330
2A
102
}
330
2A
100
AcDbVisualStyle
  2
FlatWithEdges
 70
     1
177
     2
291
     1
 71
     2
176
     1
 72
     1
176
     1
 73
     1
176
     1
 90
        2
176
     1
 40
0.6
176
     1
 41
30.0
176
     1
 63
     7
421
 16777215
176
     1
 74
     1
176
     1
 91
        4
176
     1
 64
     7
176
     1
 65
   257
176
     1
 75
     1
176
     1
175
     1
176
     1
 42
1.0
176
     1
 92
        0
176
     1
 66
   257
176
     1
 43
1.0
176
     1
 76
     1
176
     1
 77
     6
176
     1
 78
     2
176
     1
 67
     7
176
     1
 79
     5
176
     1
170
     0
176
     1
171
     0
176
     1
290
     0
176
     1
 93
       13
176
     1
 44
0.0
176
     1
173
     0
176
     1
  0
VISUALSTYLE
  5
2D
102
{ACAD_REACTORS
330
2A
102
}
330
2A
100
AcDbVisualStyle
  2
Gouraud
 70
     2
177
     2
291
     1
 71
     2
176
     1
 72
     2
176
     1
 73
     1
176
     1
 90
        2
176
     1
 40
0.6
176
     1
 41
30.0
176
     1
 63
     7
421
 16777215
176
     1
 74
     0
176
     1
 91
        4
176
     1
 64
     7
176
     1
 65
   257
176
     1
 75
     1
176
     1
175
     1
176
     1
 42
1.0
176
     1
 92
        0
176
     1
 66
     7
176
     1
 43
1.0
176
     1
 76
     1
176
     1
 77
     6
176
     1
 78
     2
176
     1
 67
     7
176
     1
 79
     5
176
     1
170
     0
176
     1
171
     0
176
     1
290
     0
176
     1
 93
       13
176
     1
 44
0.0
176
     1
173
     0
176
     1
  0
VISUALSTYLE
  5
2E
102
{ACAD_REACTORS
330
2A
102
}
330
2A
100
AcDbVisualStyle
  2
GouraudWithEdges
 70
     3
177
     2
291
     1
 71
     2
176
     1
 72
     2
176
     1
 73
     1
176
     1
 90
        2
176
     1
 40
0.6
176
     1
 41
30.0
176
     1
 63
     7
421
 16777215
176
     1
 74
     1
176
     1
 91
        4
176
     1
 64
     7
176
     1
 65
   257
176
     1
 75
     1
176
     1
175
     1
176
     1
 42
1.0
176
     1
 92
        0
176
     1
 66
   257
176
     1
 43
1.0
176
     1
 76
     1
176
     1
 77
     6
176
     1
 78
     2
176
     1
 67
     7
176
     1
 79
     5
176
     1
170
     0
176
     1
171
     0
176
     1
290
     0
176
     1
 93
       13
176
     1
 44
0.0
176
     1
173
     0
176
     1
  0
VISUALSTYLE
  5
399
102
{ACAD_REACTORS
330
2A
102
}
330
2A
100
AcDbVisualStyle
  2
Hidden
 70
     6
177
     2
291
     0
 71
     1
176
     1
 72
     2
176
     1
 73
     2
176
     1
 90
        0
176
     1
 40
0.6
176
     1
 41
30.0
176
     1
 63
     7
421
 16777215
176
     1
 74
     2
176
     1
 91
        2
176
     1
 64
     7
176
     1
 65
   257
176
     1
 75
     2
176
     1
175
     1
176
     1
 42
40.0
176
     1
 92
        0
176
     1
 66
   257
176
     1
 43
1.0
176
     1
 76
     1
176
     1
 77
     6
176
     1
 78
     2
176
     1
 67
     7
176
     1
 79
     3
176
     1
170
     0
176
     1
171
     0
176
     1
290
     0
176
     1
 93
        1
176
     1
 44
0.0
176
     1
173
     0
176
     1
  0
VISUALSTYLE
  5
39F
102
{ACAD_REACTORS
330
2A
102
}
330
2A
100
AcDbVisualStyle
  2
JitterOff
 70
    20
177
     2
291
     1
 71
     2
176
     0
 72
     2
176
     0
 73
     0
176
     0
 90
        0
176
     0
 40
0.6
176
     0
 41
30.0
176
     0
 63
     7
421
 16777215
176
     0
 74
     1
176
     0
 91
        4
176
     0
 64
     7
176
     0
 65
   257
176
     0
 75
     1
176
     0
175
     1
176
     0
 42
1.0
176
     0
 92
       10
176
     2
 66
     7
176
     0
 43
1.0
176
     0
 76
     1
176
     0
 77
     6
176
     0
 78
     2
176
     0
 67
     7
176
     0
 79
     5
176
     0
170
     0
176
     0
171
     0
176
     0
290
     0
176
     0
 93
        1
176
     0
 44
0.0
176
     0
173
     0
176
     0
  0
VISUALSTYLE
  5
38
102
{ACAD_REACTORS
330
2A
102
}
330
2A
100
AcDbVisualStyle
  2
Linepattern
 70
    14
177
     2
291
     1
 71
     2
176
     1
 72
     2
176
     1
 73
     0
176
     1
 90
        0
176
     1
 40
0.6
176
     1
 41
30.0
176
     1
 63
     7
421
 16777215
176
     1
 74
     1
176
     1
 91
        4
176
     1
 64
     7
176
     1
 65
   257
176
     1
 75
     7
176
     1
175
     7
176
     1
 42
1.0
176
     1
 92
        8
176
     1
 66
     7
176
     1
 43
1.0
176
     1
 76
     1
176
     1
 77
     6
176
     1
 78
     2
176
     1
 67
     7
176
     1
 79
     5
176
     1
170
     0
176
     1
171
     0
176
     1
290
     0
176
     1
 93
        1
176
     1
 44
0.0
176
     1
173
     0
176
     1
  0
VISUALSTYLE
  5
3A0
102
{ACAD_REACTORS
330
2A
102
}
330
2A
100
AcDbVisualStyle
  2
OverhangOff
 70
    21
177
     2
291
     1
 71
     2
176
     0
 72
     2
176
     0
 73
     0
176
     0
 90
        0
176
     0
 40
0.6
176
     0
 41
30.0
176
     0
 63
     7
421
 16777215
176
     0
 74
     1
176
     0
 91
        4
176
     0
 64
     7
176
     0
 65
   257
176
     0
 75
     1
176
     0
175
     1
176
     0
 42
1.0
176
     0
 92
        9
176
     2
 66
     7
176
     0
 43
1.0
176
     0
 76
     1
176
     0
 77
     6
176
     0
 78
     2
176
     0
 67
     7
176
     0
 79
     5
176
     0
170
     0
176
     0
171
     0
176
     0
290
     0
176
     0
 93
        1
176
     0
 44
0.0
176
     0
173
     0
176
     0
  0
VISUALSTYLE
  5
33
102
{ACAD_REACTORS
330
2A
102
}
330
2A
100
AcDbVisualStyle
  2
Realistic
 70
     8
177
     2
291
     0
 71
     2
176
     1
 72
     2
176
     1
 73
     0
176
     1
 90
        0
176
     1
 40
0.6
176
     1
 41
30.0
176
     1
 63
     7
421
 16777215
176
     1
 74
     1
176
     1
 91
        0
176
     1
 64
     7
176
     1
 65
   257
176
     1
 75
     1
176
     1
175
     1
176
     1
 42
1.0
176
     1
 92
        8
176
     1
 66
     8
424
  7895160
176
     1
 43
1.0
176
     1
 76
     1
176
     1
 77
     6
176
     1
 78
     2
176
     1
 67
     7
176
     1
 79
     5
176
     1
170
     0
176
     1
171
     0
176
     1
290
     0
176
     1
 93
       13
176
     1
 44
0.0
176
     1
173
     0
176
     1
  0
VISUALSTYLE
  5
39E
102
{ACAD_REACTORS
330
2A
102
}
330
2A
100
AcDbVisualStyle
  2
Shaded
 70
    27
177
     2
291
     0
 71
     2
176
     1
 72
     2
176
     1
 73
     1
176
     1
 90
        2
176
     1
 40
0.6
176
     1
 41
30.0
176
     1
 63
     7
421
 16777215
176
     1
 74
     0
176
     1
 91
        4
176
     1
 64
     7
176
     1
 65
   257
176
     1
 75
     1
176
     1
175
     1
176
     1
 42
1.0
176
     1
 92
        8
176
     1
 66
   257
176
     1
 43
1.0
176
     1
 76
     1
176
     1
 77
     6
176
     1
 78
     2
176
     1
 67
     8
425
  7895160
176
     1
 79
     3
176
     1
170
     0
176
     1
171
     0
176
     1
290
     0
176
     1
 93
        5
176
     1
 44
0.0
176
     1
173
     0
176
     1
  0
VISUALSTYLE
  5
39D
102
{ACAD_REACTORS
330
2A
102
}
330
2A
100
AcDbVisualStyle
  2
Shaded with edges
 70
    26
177
     2
291
     0
 71
     2
176
     1
 72
     2
176
     1
 73
     1
176
     1
 90
        2
176
     1
 40
0.6
176
     1
 41
30.0
176
     1
 63
     7
421
 16777215
176
     1
 74
     1
176
     1
 91
       10
176
     1
 64
     7
176
     1
 65
   257
176
     1
 75
     2
176
     1
175
     1
176
     1
 42
1.0
176
     1
 92
        8
176
     1
 66
   257
176
     1
 43
1.0
176
     1
 76
     1
176
     1
 77
     6
176
     1
 78
     2
176
     1
 67
     7
176
     1
 79
     3
176
     1
170
     0
176
     1
171
     0
176
     1
290
     0
176
     1
 93
        5
176
     1
 44
0.0
176
     1
173
     0
176
     1
  0
VISUALSTYLE
  5
39A
102
{ACAD_REACTORS
330
2A
102
}
330
2A
100
AcDbVisualStyle
  2
Shades of Gray
 70
    23
177
     2
291
     0
 71
     2
176
     1
 72
     2
176
     1
 73
     3
176
     1
 90
        0
176
     1
 40
0.6
176
     1
 41
30.0
176
     1
 63
     7
421
 16777215
176
     1
 74
     2
176
     1
 91
        2
176
     1
 64
     7
176
     1
 65
     7
176
     1
 75
     1
176
     1
175
     1
176
     1
 42
40.0
176
     1
 92
        8
176
     1
 66
     7
176
     1
 43
1.0
176
     1
 76
     1
176
     1
 77
     6
176
     1
 78
     2
176
     1
 67
     7
176
     1
 79
     3
176
     1
170
     0
176
     1
171
     0
176
     1
290
     0
176
     1
 93
        1
176
     1
 44
0.0
176
     1
173
     0
176
     1
  0
VISUALSTYLE
  5
39B
102
{ACAD_REACTORS
330
2A
102
}
330
2A
100
AcDbVisualStyle
  2
Sketchy
 70
    24
177
     2
291
     0
 71
     1
176
     1
 72
     2
176
     1
 73
     2
176
     1
 90
        0
176
     1
 40
0.6
176
     1
 41
30.0
176
     1
 63
     7
421
 16777215
176
     1
 74
     2
176
     1
 91
        2
176
     1
 64
     7
176
     1
 65
     7
176
     1
 75
     1
176
     1
175
     1
176
     1
 42
40.0
176
     1
 92
       11
176
     1
 66
     7
176
     1
 43
1.0
176
     1
 76
     1
176
     1
 77
     6
176
     1
 78
     2
176
     1
 67
     7
176
     1
 79
     6
176
     1
170
     0
176
     1
171
     0
176
     1
290
     0
176
     1
 93
        1
176
     1
 44
0.0
176
     1
173
     0
176
     1
  0
VISUALSTYLE
  5
37
102
{ACAD_REACTORS
330
2A
102
}
330
2A
100
AcDbVisualStyle
  2
Thicken
 70
    13
177
     2
291
     1
 71
     2
176
     1
 72
     2
176
     1
 73
     0
176
     1
 90
        0
176
     1
 40
0.6
176
     1
 41
30.0
176
     1
 63
     7
421
 16777215
176
     1
 74
     1
176
     1
 91
        4
176
     1
 64
     7
176
     1
 65
   257
176
     1
 75
     1
176
     1
175
     1
176
     1
 42
1.0
176
     1
 92
       12
176
     1
 66
     7
176
     1
 43
1.0
176
     1
 76
     1
176
     1
 77
     6
176
     1
 78
     2
176
     1
 67
     7
176
     1
 79
     5
176
     1
170
     0
176
     1
171
     0
176
     1
290
     0
176
     1
 93
        1
176
     1
 44
0.0
176
     1
173
     0
176
     1
  0
VISUALSTYLE
  5
398
102
{ACAD_REACTORS
330
2A
102
}
330
2A
100
AcDbVisualStyle
  2
Wireframe
 70
     5
177
     2
291
     0
 71
     0
176
     1
 72
     2
176
     1
 73
     0
176
     1
 90
        0
176
     1
 40
0.6
176
     1
 41
30.0
176
     1
 63
     7
421
 16777215
176
     1
 74
     1
176
     1
 91
        4
176
     1
 64
     7
176
     1
 65
   257
176
     1
 75
     1
176
     1
175
     1
176
     1
 42
1.0
176
     1
 92
        0
176
     1
 66
   257
176
     1
 43
1.0
176
     1
 76
     1
176
     1
 77
     6
176
     1
 78
     2
176
     1
 67
     7
176
     1
 79
     3
176
     1
170
     0
176
     1
171
     0
176
     1
290
     0
176
     1
 93
        1
176
     1
 44
0.0
176
     1
173
     0
176
     1
  0
VISUALSTYLE
  5
39C
102
{ACAD_REACTORS
330
2A
102
}
330
2A
100
AcDbVisualStyle
  2
X-Ray
 70
    25
177
     2
291
     0
 71
     2
176
     1
 72
     2
176
     1
 73
     1
176
     1
 90
        1
176
     1
 40
0.5
176
     1
 41
30.0
176
     1
 63
     7
421
 16777215
176
     1
 74
     1
176
     1
 91
        0
176
     1
 64
     7
176
     1
 65
   257
176
     1
 75
     1
176
     1
175
     1
176
     1
 42
1.0
176
     1
 92
        8
176
     1
 66
     7
176
     1
 43
1.0
176
     1
 76
     1
176
     1
 77
     6
176
     1
 78
     2
176
     1
 67
     7
176
     1
 79
     3
176
     1
170
     0
176
     1
171
     0
176
     1
290
     0
176
     1
 93
       13
176
     1
 44
0.0
176
     1
173
     0
176
     1
  0
DICTIONARYVAR
  5
393
102
{ACAD_REACTORS
330
392
102
}
330
392
100
DictionaryVariables
280
     0
  1
1:1
  0
DICTIONARYVAR
  5
3AD
102
{ACAD_REACTORS
330
392
102
}
330
392
100
DictionaryVariables
280
     0
  1
STANDARD
  0
DICTIONARYVAR
  5
3AC
102
{ACAD_REACTORS
330
392
102
}
330
392
100
DictionaryVariables
280
     0
  1
STANDARD
  0
DICTIONARY
  5
3AE
330
3A3
100
AcDbDictionary
280
     1
281
     1
  3
ACAD_ROUNDTRIP_2008_TABLESTYLE_CELLSTYLEMAP
360
3AF
  0
CELLSTYLEMAP
  5
3AF
102
{ACAD_REACTORS
330
3AE
102
}
330
3AE
100
AcDbCellStyleMap
 90
        3
300
CELLSTYLE
  1
TABLEFORMAT_BEGIN
 90
        5
170
     1
 91
        0
 92
    32768
 62
   257
 93
        1
300
CONTENTFORMAT
  1
CONTENTFORMAT_BEGIN
 90
        0
 91
        0
 92
      512
 93
        0
300

 40
0.0
140
1.0
 94
        5
 62
     0
340
11
144
6.0
309
CONTENTFORMAT_END
171
     1
301
MARGIN
  1
CELLMARGIN_BEGIN
 40
1.5
 40
1.5
 40
1.5
 40
1.5
 40
4.5
 40
4.5
309
CELLMARGIN_END
 94
        6
 95
        1
302
GRIDFORMAT
  1
GRIDFORMAT_BEGIN
 90
        0
 91
        1
 62
     0
 92
       -2
340
0
 93
        0
 40
1.125
309
GRIDFORMAT_END
 95
        2
302
GRIDFORMAT
  1
GRIDFORMAT_BEGIN
 90
        0
 91
        1
 62
     0
 92
       -2
340
0
 93
        0
 40
1.125
309
GRIDFORMAT_END
 95
        4
302
GRIDFORMAT
  1
GRIDFORMAT_BEGIN
 90
        0
 91
        1
 62
     0
 92
       -2
340
0
 93
        0
 40
1.125
309
GRIDFORMAT_END
 95
        8
302
GRIDFORMAT
  1
GRIDFORMAT_BEGIN
 90
        0
 91
        1
 62
     0
 92
       -2
340
0
 93
        0
 40
1.125
309
GRIDFORMAT_END
 95
       16
302
GRIDFORMAT
  1
GRIDFORMAT_BEGIN
 90
        0
 91
        1
 62
     0
 92
       -2
340
0
 93
        0
 40
1.125
309
GRIDFORMAT_END
 95
       32
302
GRIDFORMAT
  1
GRIDFORMAT_BEGIN
 90
        0
 91
        1
 62
     0
 92
       -2
340
0
 93
        0
 40
1.125
309
GRIDFORMAT_END
309
TABLEFORMAT_END
  1
CELLSTYLE_BEGIN
 90
        1
 91
        1
300
_TITLE
309
CELLSTYLE_END
300
CELLSTYLE
  1
TABLEFORMAT_BEGIN
 90
        5
170
     1
 91
        0
 92
        0
 62
   257
 93
        1
300
CONTENTFORMAT
  1
CONTENTFORMAT_BEGIN
 90
        0
 91
        0
 92
      512
 93
        0
300

 40
0.0
140
1.0
 94
        5
 62
     0
340
11
144
4.5
309
CONTENTFORMAT_END
171
     1
301
MARGIN
  1
CELLMARGIN_BEGIN
 40
1.5
 40
1.5
 40
1.5
 40
1.5
 40
4.5
 40
4.5
309
CELLMARGIN_END
 94
        6
 95
        1
302
GRIDFORMAT
  1
GRIDFORMAT_BEGIN
 90
        0
 91
        1
 62
     0
 92
       -2
340
0
 93
        0
 40
1.125
309
GRIDFORMAT_END
 95
        2
302
GRIDFORMAT
  1
GRIDFORMAT_BEGIN
 90
        0
 91
        1
 62
     0
 92
       -2
340
0
 93
        0
 40
1.125
309
GRIDFORMAT_END
 95
        4
302
GRIDFORMAT
  1
GRIDFORMAT_BEGIN
 90
        0
 91
        1
 62
     0
 92
       -2
340
0
 93
        0
 40
1.125
309
GRIDFORMAT_END
 95
        8
302
GRIDFORMAT
  1
GRIDFORMAT_BEGIN
 90
        0
 91
        1
 62
     0
 92
       -2
340
0
 93
        0
 40
1.125
309
GRIDFORMAT_END
 95
       16
302
GRIDFORMAT
  1
GRIDFORMAT_BEGIN
 90
        0
 91
        1
 62
     0
 92
       -2
340
0
 93
        0
 40
1.125
309
GRIDFORMAT_END
 95
       32
302
GRIDFORMAT
  1
GRIDFORMAT_BEGIN
 90
        0
 91
        1
 62
     0
 92
       -2
340
0
 93
        0
 40
1.125
309
GRIDFORMAT_END
309
TABLEFORMAT_END
  1
CELLSTYLE_BEGIN
 90
        2
 91
        1
300
_HEADER
309
CELLSTYLE_END
300
CELLSTYLE
  1
TABLEFORMAT_BEGIN
 90
        5
170
     1
 91
        0
 92
        0
 62
   257
 93
        1
300
CONTENTFORMAT
  1
CONTENTFORMAT_BEGIN
 90
        0
 91
        0
 92
      512
 93
        0
300

 40
0.0
140
1.0
 94
        2
 62
     0
340
11
144
4.5
309
CONTENTFORMAT_END
171
     1
301
MARGIN
  1
CELLMARGIN_BEGIN
 40
1.5
 40
1.5
 40
1.5
 40
1.5
 40
4.5
 40
4.5
309
CELLMARGIN_END
 94
        6
 95
        1
302
GRIDFORMAT
  1
GRIDFORMAT_BEGIN
 90
        0
 91
        1
 62
     0
 92
       -2
340
0
 93
        0
 40
1.125
309
GRIDFORMAT_END
 95
        2
302
GRIDFORMAT
  1
GRIDFORMAT_BEGIN
 90
        0
 91
        1
 62
     0
 92
       -2
340
0
 93
        0
 40
1.125
309
GRIDFORMAT_END
 95
        4
302
GRIDFORMAT
  1
GRIDFORMAT_BEGIN
 90
        0
 91
        1
 62
     0
 92
       -2
340
0
 93
        0
 40
1.125
309
GRIDFORMAT_END
 95
        8
302
GRIDFORMAT
  1
GRIDFORMAT_BEGIN
 90
        0
 91
        1
 62
     0
 92
       -2
340
0
 93
        0
 40
1.125
309
GRIDFORMAT_END
 95
       16
302
GRIDFORMAT
  1
GRIDFORMAT_BEGIN
 90
        0
 91
        1
 62
     0
 92
       -2
340
0
 93
        0
 40
1.125
309
GRIDFORMAT_END
 95
       32
302
GRIDFORMAT
  1
GRIDFORMAT_BEGIN
 90
        0
 91
        1
 62
     0
 92
       -2
340
0
 93
        0
 40
1.125
309
GRIDFORMAT_END
309
TABLEFORMAT_END
  1
CELLSTYLE_BEGIN
 90
        3
 91
        2
300
_DATA
309
CELLSTYLE_END
  0
ENDSEC
  0
EOF
